osu file format v14

[General]
AudioFilename: ff5_bb.mp3
AudioLeadIn: 0
PreviewTime: 23404
Countdown: 1
SampleSet: Soft
StackLeniency: 0.7
Mode: 0
LetterboxInBreaks: 1
WidescreenStoryboard: 1

[Editor]
Bookmarks: 45681,48347,79459,82125,91792
DistanceSpacing: 1.1
BeatDivisor: 4
GridSize: 4
TimelineZoom: 1.8

[Metadata]
Title:Big Bridge no Shitou
TitleUnicode:ビッグブリッヂの死闘
Artist:Xi
ArtistUnicode:Xi
Creator:Disco Nunu
Version:++
Source:Final Fantasy V
Tags:squaresoft square enix Melodic Death Metal AQUAELIE
BeatmapID:2202827
BeatmapSetID:1054194

[Difficulty]
HPDrainRate:6
CircleSize:4
OverallDifficulty:9.5
ApproachRate:10
SliderMultiplier:1.8
SliderTickRate:2

[Events]
//Background and Video events
0,0,"BG.jpg",0,0
//Break Periods
//Storyboard Layer 0 (Background)
//Storyboard Layer 1 (Fail)
//Storyboard Layer 2 (Pass)
//Storyboard Layer 3 (Foreground)
//Storyboard Layer 4 (Overlay)
//Storyboard Sound Samples

[TimingPoints]
348,222.222222222222,4,1,2,100,1,0
1681,-100,4,1,1,60,0,0
2125,-100,4,2,1,70,0,0
16347,-100,4,2,2,70,0,0
23459,-100,4,2,1,80,0,1
30570,-100,4,2,1,70,0,0
43014,-100,4,2,2,70,0,0
44014,-133.333333333333,4,2,1,40,0,0
44792,-100,4,2,1,100,0,0
45014,-100,4,2,2,70,0,0
45236,-100,4,2,1,100,0,0
45459,-100,4,2,2,70,0,0
45681,-100,4,2,1,70,0,0
46347,-100,4,2,2,70,0,0
46403,-100,4,2,1,70,0,0
46570,-100,4,2,1,60,0,0
48347,-100,4,2,2,70,0,0
50125,-100,4,2,1,70,0,0
55459,-100,4,2,2,70,0,0
57236,-100,4,2,1,80,0,1
64347,-100,4,2,1,70,0,0
76792,-100,4,2,2,70,0,0
77792,-133.333333333333,4,2,1,40,0,0
78570,-100,4,2,1,100,0,0
78792,-100,4,2,2,70,0,0
79014,-100,4,2,1,100,0,0
79236,-100,4,2,2,70,0,0
79459,-100,4,2,1,70,0,0
80125,-100,4,2,2,70,0,0
80181,-100,4,2,1,100,0,0
80347,-100,4,2,1,60,0,0
82125,-100,4,2,2,70,0,0
83903,-100,4,2,1,80,0,0
85681,-100,4,2,1,70,0,0
89236,-100,4,2,2,70,0,0

[HitObjects]
220,108,347,5,0,0:0:0:0:
196,192,459,1,0,0:0:0:0:
196,192,514,1,0,0:0:0:0:
196,192,570,1,0,0:0:0:0:
292,108,680,1,0,0:0:0:0:
316,192,792,1,0,0:0:0:0:
316,192,847,1,0,0:0:0:0:
316,192,903,1,0,0:0:0:0:
368,72,1014,5,0,0:0:0:0:
256,40,1125,2,0,L|256:-8,2,45,0|0|0,0:0|0:0|0:0,0:0:0:0:
144,72,1347,1,0,0:0:0:0:
256,224,1459,2,0,L|256:276,2,45,0|0|0,0:0|0:0|0:0,0:0:0:0:
136,300,1681,5,0,0:0:0:0:
136,300,1792,1,0,0:0:0:0:
136,300,1903,1,0,0:0:0:0:
136,300,2014,1,0,0:0:0:0:
136,300,2125,2,0,P|228:320|248:336,1,90,4|0,0:1|0:0,0:0:0:0:
316,192,2347,2,0,P|344:281|340:306,1,90,8|0,0:0|0:0,0:0:0:0:
196,220,2570,1,0,0:0:0:0:
212,140,2681,1,0,0:0:0:0:
288,112,2792,1,8,0:0:0:0:
196,220,2903,6,0,P|136:176|156:76,1,180,0|0,0:0|0:0,0:0:0:0:
232,32,3236,2,0,L|324:16,1,90,8|0,0:0|0:0,0:0:0:0:
392,176,3459,1,0,0:0:0:0:
416,24,3570,1,0,0:0:0:0:
449,101,3681,1,8,0:0:0:0:
344,72,3792,1,0,0:0:0:0:
304,160,3903,6,0,P|308:212|320:264,1,90
284,332,4125,2,0,P|336:328|388:316,1,90,8|0,0:0|0:0,0:0:0:0:
232,264,4347,1,0,0:0:0:0:
168,316,4459,1,0,0:0:0:0:
88,296,4570,1,8,0:0:0:0:
48,224,4681,6,0,P|44:156|116:52,1,180
176,104,5014,2,0,L|272:104,1,90,8|0,0:0|0:0,0:0:0:0:
356,152,5236,1,0,0:0:0:0:
266,104,5347,1,0,0:0:0:0:
208,192,5459,2,0,L|118:192,1,90,8|0,0:0|0:0,0:0:0:0:
344,256,5681,5,0,0:0:0:0:
266,104,5792,1,0,0:0:0:0:
208,260,5903,2,0,P|216:320|228:368,1,90,8|0,0:0|0:0,0:0:0:0:
99,158,6125,2,0,P|143:149|188:144,1,90
272,188,6347,1,8,0:0:0:0:
356,152,6459,6,0,B|336:64|336:64|248:4,1,180
356,152,6792,2,0,L|442:210,1,90,8|0,0:0|0:0,0:0:0:0:
256,240,7014,2,0,L|256:336,1,90
156,152,7236,2,0,L|69:210,1,90,8|0,0:0|0:0,0:0:0:0:
212,72,7459,5,0,0:0:0:0:
300,72,7570,1,0,0:0:0:0:
256,150,7681,2,0,L|256:240,1,90,8|0,0:0|0:0,0:0:0:0:
340,300,7903,1,0,0:0:0:0:
172,300,8014,1,0,0:0:0:0:
256,240,8125,1,8,0:0:0:0:
336,192,8236,6,0,B|256:151|256:151|176:192,1,180
336,192,8570,2,0,P|344:144|368:88,1,90,8|0,0:0|0:0,0:0:0:0:
153,105,8792,2,0,P|168:147|176:192,1,90
256,330,9014,2,0,L|256:240,1,90,8|0,0:0|0:0,0:0:0:0:
153,105,9236,5,0,0:0:0:0:
136,240,9347,1,0,0:0:0:0:
241,148,9459,2,0,P|293:136|337:104,1,90,8|0,0:0|0:0,0:0:0:0:
154,105,9681,1,0,0:0:0:0:
71,212,9792,1,0,0:0:0:0:
208,308,9903,1,8,0:0:0:0:
360,228,10014,6,0,P|288:212|180:232,1,180,0|0,0:0|0:0,0:0:0:0:
124,320,10347,1,8,0:0:0:0:
124,320,10459,1,0,0:0:0:0:
154,104,10570,2,0,L|118:224,1,90
232,56,10792,2,0,L|353:27,1,90,8|0,0:0|0:0,0:0:0:0:
380,104,11014,5,0,0:0:0:0:
444,36,11125,1,0,0:0:0:0:
448,164,11236,1,8,0:0:0:0:
316,144,11347,1,0,0:0:0:0:
240,252,11459,2,0,P|296:260|344:256,1,90
154,104,11681,1,8,0:0:0:0:
154,104,11792,2,0,P|120:184|128:288,1,180
200,340,12125,5,8,0:0:0:0:
240,252,12236,1,0,0:0:0:0:
236,152,12347,1,0,0:0:0:0:
196,240,12458,1,0,0:0:0:0:
284,320,12570,2,0,P|336:300|368:260,1,90,8|0,0:0|0:0,0:0:0:0:
352,140,12792,6,0,L|256:124,1,90
132,196,13014,2,0,P|123:251|141:298,1,90,8|0,0:0|0:0,0:0:0:0:
200,340,13236,1,0,0:0:0:0:
284,320,13347,2,0,L|392:316,1,90,0|8,0:0|0:0,0:0:0:0:
308,145,13570,6,0,P|312:235|284:320,1,180
196,240,13903,1,8,0:0:0:0:
120,300,14014,1,0,0:0:0:0:
48,236,14125,2,0,P|32:280|36:336,2,90,0|0|8,0:0|0:0|0:0,0:0:0:0:
132,196,14459,1,0,0:0:0:0:
172,36,14570,6,0,L|192:132,1,90
280,196,14792,2,0,L|376:176,1,90,8|0,0:0|0:0,0:0:0:0:
448,128,15014,1,0,0:0:0:0:
436,217,15125,1,0,0:0:0:0:
352,251,15236,1,8,0:0:0:0:
280,196,15347,6,0,P|264:92|312:4,1,180
140,124,15681,2,0,L|227:103,1,90,8|0,0:0|0:0,0:0:0:0:
84,72,15903,1,0,0:0:0:0:
52,172,16014,1,0,0:0:0:0:
136,228,16125,2,0,L|223:207,1,90,8|0,0:0|0:0,0:0:0:0:
352,251,16347,5,0,0:0:0:0:
352,251,16459,1,4,0:1:0:0:
312,44,16681,1,0,0:0:0:0:
312,44,16792,2,0,L|288:144,1,90
200,340,17125,5,0,0:0:0:0:
200,340,17236,2,0,L|180:248,1,90
188,56,17570,1,0,0:0:0:0:
360,144,17681,2,0,P|316:152|268:156,1,90
152,240,17903,2,0,P|196:232|244:228,1,90
324,332,18125,5,0,0:0:0:0:
324,332,18236,1,4,0:1:0:0:
168,144,18459,1,0,0:0:0:0:
168,144,18570,2,0,P|236:160|264:176,1,90
408,260,18903,5,0,0:0:0:0:
408,260,19014,2,0,P|340:244|312:228,1,90
168,144,19236,2,0,L|172:44,1,90
340,54,19459,2,0,L|344:144,1,90
189,234,19681,2,0,P|148:252|104:260,1,90
12,204,19903,5,0,0:0:0:0:
12,204,20014,1,4,0:1:0:0:
256,56,20236,1,0,0:0:0:0:
256,56,20347,2,0,L|256:148,1,90
500,204,20681,5,0,0:0:0:0:
500,204,20792,2,0,P|408:240|396:256,1,90
128,192,21125,1,0,0:0:0:0:
180,336,21236,2,0,P|232:276|244:240,1,90
272,252,21403,1,0,0:0:0:0:
272,252,21459,2,0,P|220:192|208:156,1,90
292,120,21681,5,0,0:0:0:0:
292,120,21792,1,4,0:1:0:0:
372,328,22014,1,0,0:0:0:0:
272,252,22125,1,0,0:0:0:0:
180,336,22236,1,0,0:0:0:0:
372,328,22347,1,0,0:0:0:0:
128,272,23459,5,8,0:0:0:0:
144,120,23570,1,0,0:0:0:0:
160,312,23681,2,0,L|256:296,1,90,0|0,0:0|0:0,0:0:0:0:
360,188,23903,2,0,L|264:172,1,90,8|0,0:0|0:0,0:0:0:0:
380,272,24125,1,0,0:0:0:0:
448,148,24236,1,0,0:0:0:0:
352,48,24347,6,0,P|300:48|248:40,1,90,8|0,0:0|0:0,0:0:0:0:
144,120,24570,2,0,P|196:120|248:128,1,90,0|0,0:0|0:0,0:0:0:0:
231,291,24792,1,8,0:0:0:0:
231,291,24903,2,0,P|203:219|235:123,1,180
296,236,25236,6,0,L|304:332,1,90,8|0,0:0|0:0,0:0:0:0:
128,176,25459,2,0,L|120:272,1,90,0|0,0:0|0:0,0:0:0:0:
44,120,25681,1,8,0:0:0:0:
44,120,25792,2,0,B|112:136|112:136|164:104|217:114,1,180
382,256,26125,6,0,P|339:269|294:269,1,90,8|0,0:0|0:0,0:0:0:0:
294,114,26347,2,0,P|339:114|382:127,1,90,8|0,0:0|0:0,0:0:0:0:
217,269,26570,2,0,P|172:269|129:256,1,90,8|0,0:0|0:0,0:0:0:0:
294,114,26792,1,8,0:0:0:0:
294,269,26904,1,0,0:0:0:0:
320,65,27014,6,0,P|333:108|333:153,1,90,8|0,0:0|0:0,0:0:0:0:
216,184,27236,1,0,0:0:0:0:
232,64,27347,1,0,0:0:0:0:
304,200,27459,1,8,0:0:0:0:
168,272,27571,1,0,0:0:0:0:
96,136,27681,1,0,0:0:0:0:
243,181,27792,1,0,0:0:0:0:
320,65,27903,6,0,P|364:53|420:57,1,90,8|0,0:0|0:0,0:0:0:0:
408,329,28125,2,0,P|363:330|320:319,1,90,0|0,0:0|0:0,0:0:0:0:
464,132,28347,1,8,0:0:0:0:
464,132,28459,2,0,P|432:176|304:196,1,180
160,144,28792,5,8,0:0:0:0:
232,88,28903,1,0,0:0:0:0:
232,240,29014,2,0,P|188:260|140:260,1,90,0|0,0:0|0:0,0:0:0:0:
296,164,29236,1,8,0:0:0:0:
296,164,29347,2,0,P|336:252|336:348,1,180
196,312,29681,5,8,0:0:0:0:
160,144,29792,1,0,0:0:0:0:
200,32,29903,1,8,0:0:0:0:
236,200,30014,1,0,0:0:0:0:
57,171,30125,1,8,0:0:0:0:
225,135,30236,1,0,0:0:0:0:
337,175,30347,1,8,0:0:0:0:
169,211,30458,1,0,0:0:0:0:
200,32,30570,6,0,P|328:76|408:68,1,180,0|8,0:0|0:0,0:0:0:0:
370,74,30903,1,0,0:0:0:0:
436,132,31014,2,0,L|456:224,1,90
356,262,31236,2,0,L|337:175,1,90,8|0,0:0|0:0,0:0:0:0:
124,178,31459,6,0,L|144:266,1,90
243,223,31681,2,0,L|224:136,1,90,8|0,0:0|0:0,0:0:0:0:
80,72,31903,2,0,P|40:156|56:248,1,180,0|8,0:0|0:0,0:0:0:0:
48,328,32235,5,0,0:0:0:0:
48,328,32347,2,0,B|132:296|132:296|240:344,1,180,4|8,0:1|0:0,0:0:0:0:
409,219,32681,2,0,B|327:256|327:256|243:224,1,180
48,112,33014,2,0,B|132:80|132:80|240:128,1,180,8|4,0:0|0:1,0:0:0:0:
356,92,33347,5,0,0:1:0:0:
356,92,33459,2,0,P|313:61|260:64,1,90,8|0,0:0|0:0,0:0:0:0:
168,264,33681,2,0,P|248:228|288:149,1,180,0|8,0:0|0:0,0:0:0:0:
280,76,34014,1,0,0:0:0:0:
288,149,34125,6,0,L|308:328,1,180,0|8,0:0|0:0,0:0:0:0:
216,96,34459,2,0,L|196:275,1,180
288,43,34792,6,0,L|308:222,1,180,8|0,0:0|0:0,0:0:0:0:
380,192,35125,5,0,0:0:0:0:
460,192,35236,5,8,0:0:0:0:
420,268,35347,2,0,L|440:364,2,90,0|0|0,0:0|0:0|0:0,0:0:0:0:
420,116,35681,2,0,L|440:20,1,90,8|0,0:0|0:0,0:0:0:0:
332,68,35903,6,0,B|240:72|240:72|164:144,1,180,0|8,0:0|0:0,0:0:0:0:
176,251,36236,2,0,B|240:312|240:312|332:316,1,180
380,192,36570,1,8,0:0:0:0:
380,192,36681,1,0,0:0:0:0:
268,128,36792,6,0,L|84:136,1,180,0|8,0:0|0:0,0:0:0:0:
268,256,37125,2,0,L|84:248,1,180
344,308,37459,1,8,0:0:0:0:
436,192,37570,1,0,0:0:0:0:
344,76,37681,5,8,0:0:0:0:
344,76,37792,2,0,B|228:44,1,90
257,331,38014,1,0,0:0:0:0:
257,331,38125,2,0,B|344:308,1,90,8|0,0:0|0:0,0:0:0:0:
172,68,38347,5,0,0:0:0:0:
172,68,38459,2,0,P|200:120|200:156,1,90,0|8,0:0|0:0,0:0:0:0:
172,316,38680,1,0,0:0:0:0:
172,316,38792,2,0,P|200:264|200:228,1,90
344,24,39014,2,0,L|312:124,1,90,8|0,0:0|0:0,0:0:0:0:
344,360,39236,2,0,L|312:260,1,90
256,121,39459,1,8,0:0:0:0:
185,192,39570,1,0,0:0:0:0:
256,262,39681,1,0,0:0:0:0:
256,121,39792,6,0,P|248:56|236:24,2,90,0|8|0,0:0|0:0|0:0,0:0:0:0:
256,262,40125,6,0,P|248:328|236:360,2,90,0|0|8,0:0|0:0|0:0,0:0:0:0:
206,186,40459,1,0,0:0:0:0:
119,162,40570,5,0,0:0:0:0:
95,249,40681,1,0,0:0:0:0:
182,272,40792,1,8,0:0:0:0:
296,192,40903,1,0,0:0:0:0:
192,96,41014,2,0,P|148:80|100:80,1,90
296,192,41236,6,0,B|344:112|344:112|300:24,1,180,8|0,0:0|0:0,0:0:0:0:
305,34,41570,1,8,0:0:0:0:
296,192,41681,2,0,L|284:304,2,90,8|0|0,0:0|0:0|0:0,0:0:0:0:
223,109,42014,6,0,L|202:310,1,180,8|8,0:0|0:0,0:0:0:0:
272,344,42347,1,0,0:0:0:0:
360,348,42459,1,0,0:0:0:0:
200,224,42570,2,0,P|152:224|96:216,1,90,8|0,0:0|0:0,0:0:0:0:
296,192,42792,6,0,P|344:192|400:200,1,90,8|0,0:0|0:0,0:0:0:0:
439,257,43014,5,0,0:0:0:0:
439,257,43125,5,0,0:0:0:0:
107,318,43347,5,0,0:0:0:0:
107,318,43458,1,0,0:0:0:0:
221,0,43681,5,0,0:0:0:0:
221,0,43792,2,0,P|232:52|232:108,1,90
180,152,44014,6,0,P|140:140|92:140,2,67.5000025749208,0|0|0,0:0|0:0|0:0,0:0:0:0:
260,200,44347,2,0,P|300:212|348:212,2,67.5000025749208,0|0|0,0:0|0:0|0:0,0:0:0:0:
256,120,44681,1,0,0:0:0:0:
344,68,44792,6,0,L|440:40,1,90,0|0,0:0|0:0,0:0:0:0:
504,100,45014,1,0,0:0:0:0:
168,68,45236,2,0,L|72:40,1,90,0|0,0:0|0:0,0:0:0:0:
8,100,45458,1,0,0:0:0:0:
92,284,45681,5,0,0:0:0:0:
129,315,45736,1,0,0:0:0:0:
174,336,45792,1,0,0:0:0:0:
223,343,45847,1,0,0:0:0:0:
272,337,45903,1,0,0:0:0:60:soft-hitnormal2.wav
227,319,45959,1,0,0:0:0:0:
188,288,46014,1,0,0:0:0:0:
159,247,46070,1,0,0:0:0:0:
143,201,46125,1,0,0:0:0:0:
191,210,46180,1,0,0:0:0:0:
241,206,46236,1,0,0:0:0:0:
287,188,46291,1,0,0:0:0:0:
326,158,46347,2,0,L|260:56,1,90
440,124,46570,5,2,0:0:0:0:
444,168,46625,1,0,0:0:0:0:
439,213,46681,5,0,0:0:0:0:
426,256,46736,1,0,0:0:0:0:
404,295,46792,1,2,0:0:0:0:
385,254,46847,1,0,0:0:0:0:
359,218,46903,1,0,0:0:0:0:
326,187,46958,1,0,0:0:0:0:
287,164,47014,5,2,0:0:0:0:
292,209,47069,1,0,0:0:0:0:
287,254,47125,5,0,0:0:0:0:
274,297,47180,1,0,0:0:0:0:
252,336,47236,1,2,0:0:0:0:
233,295,47291,1,0,0:0:0:0:
207,259,47347,1,0,0:0:0:0:
174,228,47402,1,0,0:0:0:0:
136,204,47459,5,2,0:0:0:0:
93,191,47514,1,0,0:0:0:0:
54,211,47570,1,0,0:0:0:0:
37,252,47625,1,0,0:0:0:0:
53,293,47681,1,2,0:0:0:0:
92,313,47736,1,0,0:0:0:0:
134,302,47792,1,0,0:0:0:0:
158,265,47847,1,0,0:0:0:0:
162,220,47902,5,2,0:0:0:0:
177,178,47958,1,0,0:0:0:0:
201,140,48013,1,0,0:0:0:0:
235,110,48069,1,0,0:0:0:0:
274,89,48124,1,2,0:0:0:0:
259,132,48180,1,0,0:0:0:0:
256,176,48236,1,0,0:0:0:0:
264,221,48291,1,0,0:0:0:0:
283,262,48347,6,0,L|376:224,1,90,0|0,0:0|0:0,0:0:0:0:
87,35,48681,1,0,0:0:0:0:
87,35,48792,2,0,L|171:69,1,90,0|0,0:0|0:0,0:0:0:0:
432,96,49125,5,0,0:0:0:0:
352,72,49236,1,0,0:0:0:0:
288,124,49347,5,0,0:0:0:0:
220,320,49459,2,0,L|208:196,1,90
284,260,49625,1,0,0:0:0:0:
284,260,49681,2,0,L|296:384,1,90
140,296,49903,1,0,0:0:0:0:
176,156,50014,1,0,0:0:0:0:
64,76,50125,6,0,L|264:84,1,180,4|0,0:0|0:0,0:0:0:0:
443,191,50459,2,0,L|264:184,1,180,4|0,0:0|0:0,0:0:0:0:
48,240,50792,1,4,0:0:0:0:
124,196,50903,1,0,0:0:0:0:
192,252,51014,6,0,P|208:308|204:348,1,90
377,185,51237,2,0,P|318:251|306:339,1,180,4|0,0:0|0:0,0:0:0:0:
108,141,51570,1,0,0:0:0:0:
108,141,51681,6,0,P|196:129|220:116,1,90,4|0,0:0|0:0,0:0:0:0:
296,56,51903,5,0,0:0:0:0:
287,59,52014,1,0,0:0:0:0:
279,56,52125,5,0,0:0:0:0:
275,47,52236,1,0,0:0:0:0:
279,39,52347,1,8,0:0:0:0:
287,35,52459,1,0,0:0:0:0:
296,39,52570,1,0,0:0:0:0:
299,47,52681,1,0,0:0:0:0:
224,136,52792,5,4,0:3:0:0:
215,139,52903,1,0,0:0:0:0:
207,136,53014,1,0,0:0:0:0:
203,127,53125,1,0,0:0:0:0:
207,119,53236,1,8,0:0:0:0:
215,115,53348,1,0,0:0:0:0:
224,119,53459,1,0,0:0:0:0:
227,127,53570,1,0,0:0:0:0:
284,228,53680,5,4,0:3:0:0:
275,231,53791,1,8,0:0:0:0:
267,228,53902,1,0,0:0:0:0:
263,219,54013,1,0,0:0:0:0:
267,211,54124,1,8,0:0:0:0:
275,207,54236,1,0,0:0:0:0:
284,211,54347,1,0,0:0:0:0:
287,219,54458,5,0,0:0:0:0:
212,308,54570,5,4,0:3:0:0:
203,311,54681,1,8,0:0:0:0:
195,308,54792,1,0,0:0:0:0:
191,299,54903,5,0,0:0:0:0:
195,291,55014,1,8,0:0:0:0:
203,287,55126,1,0,0:0:0:0:
212,291,55237,1,0,0:0:0:0:
215,299,55348,1,0,0:0:0:0:
120,120,55459,6,0,P|120:180|112:232,1,90,0|0,0:0|0:0,0:0:0:0:
392,264,55792,1,0,0:0:0:0:
392,264,55903,2,0,P|392:204|400:152,1,90,0|0,0:0|0:0,0:0:0:0:
224,28,56236,1,0,0:0:0:0:
264,120,56347,5,0,0:0:0:0:
340,68,56459,1,0,0:0:0:0:
224,28,56570,1,0,0:0:0:0:
150,125,56681,1,0,0:0:0:0:
220,226,56792,1,0,0:0:0:0:
220,226,56847,1,0,0:0:0:0:
220,226,56903,1,0,0:0:0:0:
337,190,57014,1,0,0:0:0:0:
232,108,57125,1,0,0:0:0:0:
120,236,57236,5,2,0:0:0:0:
264,320,57347,1,0,0:0:0:0:
337,190,57459,2,0,P|384:188|424:204,1,90,0|0,0:0|0:0,0:0:0:0:
432,300,57681,5,2,0:0:0:0:
336,280,57792,1,0,0:0:0:0:
392,140,57903,2,0,L|396:32,1,90,0|0,0:0|0:0,0:0:0:0:
212,172,58125,6,0,L|216:280,1,90,2|0,0:0|0:0,0:0:0:0:
256,104,58347,1,0,0:0:0:0:
336,348,58459,1,0,0:0:0:0:
176,348,58570,1,2,0:0:0:0:
296,261,58681,2,0,L|300:172,2,90,0|0|0,0:0|0:0|0:0,0:0:0:0:
156,104,59014,6,0,P|84:116|44:108,1,90,2|0,0:0|0:0,0:0:0:0:
156,280,59236,2,0,P|84:268|44:276,1,90
300,192,59459,1,2,0:0:0:0:
300,192,59570,2,0,L|88:192,1,180
320,276,59903,5,2,0:0:0:0:
392,96,60014,1,0,0:0:0:0:
392,288,60125,1,8,0:0:0:0:
320,108,60236,1,0,0:0:0:0:
464,84,60347,1,8,0:0:0:0:
464,300,60459,1,0,0:0:0:0:
320,276,60570,5,2,0:0:0:0:
464,192,60681,1,0,0:0:0:0:
320,108,60792,6,0,L|216:68,1,90,2|0,0:0|0:0,0:0:0:0:
320,276,61015,6,0,L|216:316,1,90
184,132,61236,1,2,0:0:0:0:
184,252,61347,1,0,0:0:0:0:
112,312,61459,1,0,0:0:0:0:
112,72,61570,1,0,0:0:0:0:
112,312,61681,6,0,P|96:256|64:216,1,90,2|0,0:0|0:0,0:0:0:0:
112,72,61904,2,0,P|96:128|64:168,1,90
256,112,62125,1,2,0:0:0:0:
256,112,62236,2,0,B|215:192|215:192|256:272,1,180
324,68,62570,6,0,B|352:108|352:108|432:108,1,90,2|0,0:0|0:0,0:0:0:0:
393,276,62792,2,0,B|352:276|352:276|324:316,1,90
208,336,63014,5,2,0:0:0:0:
136,248,63125,1,0,0:0:0:0:
136,136,63236,1,0,0:0:0:0:
208,48,63347,1,0,0:0:0:0:
304,336,63459,5,2,0:0:0:0:
304,48,63570,1,0,0:0:0:0:
240,266,63681,1,2,0:0:0:0:
312,141,63792,1,0,0:0:0:0:
208,48,63903,5,2,0:0:0:0:
199,242,64014,1,0,0:0:0:0:
271,117,64125,1,2,0:0:0:0:
208,336,64236,1,0,0:0:0:0:
196,156,64347,6,0,P|280:160|328:240,1,180,0|8,0:0|0:0,0:0:0:0:
236,240,64681,2,0,P|192:256|140:240,1,90
276,144,64904,2,0,P|320:128|372:144,1,90,0|8,0:0|0:0,0:0:0:0:
208,172,65126,6,0,P|192:128|208:76,1,90
304,212,65347,2,0,P|320:256|304:308,1,90,0|8,0:0|0:0,0:0:0:0:
224,340,65570,5,0,0:0:0:0:
310,296,65681,2,0,P|360:288|408:308,1,90
397,83,65904,6,0,P|354:96|310:87,1,90,8|0,0:0|0:0,0:0:0:0:
216,20,66125,6,0,B|176:84|176:84|120:80|73:101,1,180,4|8,0:1|0:0,0:0:0:0:
216,364,66459,2,0,B|176:300|176:300|120:304|73:282,1,180
256,112,66792,2,0,B|240:164|217:192|217:192|240:220|256:272,1,180,8|4,0:0|0:1,0:0:0:0:
372,324,67125,6,0,L|388:232,1,90,0|8,0:1|0:0,0:0:0:0:
372,60,67347,1,0,0:0:0:0:
372,60,67458,2,0,L|388:152,1,90
210,192,67681,2,0,L|94:192,1,90,8|0,0:0|0:0,0:0:0:0:
24,152,67903,6,0,P|96:84|184:88,1,180,0|8,0:0|0:0,0:0:0:0:
172,300,68236,2,0,P|84:295|24:232,1,180
210,192,68570,6,0,L|302:192,1,90,8|0,0:0|0:0,0:0:0:0:
488,152,68791,6,0,P|416:84|328:88,1,180,0|8,0:0|0:0,0:0:0:0:
339,300,69125,2,0,P|427:295|488:232,1,180
300,192,69459,2,0,L|210:192,1,90,8|0,0:0|0:0,0:0:0:0:
160,80,69681,5,0,0:0:0:0:
100,128,69792,1,0,0:0:0:0:
124,204,69903,1,8,0:0:0:0:
160,80,70014,2,0,L|256:52,2,90,0|0|0,0:0|0:0|0:0,0:0:0:0:
124,204,70347,2,0,L|220:176,1,90,8|0,0:0|0:0,0:0:0:0:
308,120,70570,6,0,P|356:168|368:296,1,180,0|8,0:0|0:0,0:0:0:0:
160,136,70903,2,0,P|177:70|282:-3,1,180
460,100,71236,6,0,B|416:64|416:64|380:64,1,90,8|0,0:0|0:0,0:0:0:0:
228,156,71459,5,0,0:0:0:0:
228,156,71570,1,0,0:0:0:0:
324,252,71681,5,8,0:0:0:0:
308,120,71792,1,0,0:0:0:0:
224,244,71903,2,0,P|176:240|120:212,1,90
84,148,72125,1,8,0:0:0:0:
8,200,72236,1,0,0:0:0:0:
176,16,72347,6,0,L|152:120,1,90
176,368,72570,2,0,L|152:264,1,90,8|0,0:0|0:0,0:0:0:0:
308,120,72792,2,0,P|252:152|216:156,1,90
308,264,73014,2,0,P|252:232|216:228,1,90,8|0,0:0|0:0,0:0:0:0:
408,312,73236,5,0,0:0:0:0:
408,312,73347,2,0,L|380:216,1,90,0|8,0:0|0:0,0:0:0:0:
104,72,73570,2,0,L|132:168,1,90
116,256,73792,5,0,0:0:0:0:
216,184,73903,2,8,L|308:184,1,90,8|0,0:0|0:0,0:0:0:0:
306,184,74125,6,0,P|280:112|320:16,1,180,0|8,0:0|0:0,0:0:0:0:
206,200,74459,2,0,P|232:272|192:368,1,180
132,312,74792,2,0,L|32:312,1,90,8|0,0:0|0:0,0:0:0:0:
42,72,75014,5,0,0:0:0:0:
4,228,75125,1,0,0:0:0:0:
92,124,75236,1,8,0:0:0:0:
206,200,75347,1,0,0:0:0:0:
328,112,75459,2,0,L|344:16,2,90,0|0|8,0:0|0:0|0:0,0:0:0:0:
328,272,75792,2,0,L|344:368,1,90,0|0,0:0|0:0,0:0:0:0:
416,236,76014,5,0,0:0:0:0:
328,112,76125,1,8,0:0:0:0:
206,200,76236,1,0,0:0:0:0:
416,236,76347,2,0,P|440:148|440:116,1,90
300,20,76570,2,0,P|212:44|180:44,1,90,8|0,0:0|0:0,0:0:0:0:
73,127,76792,5,0,0:0:0:0:
73,127,76903,1,0,0:0:0:0:
405,66,77125,5,0,0:0:0:0:
405,66,77236,1,0,0:0:0:0:
291,384,77459,5,0,0:0:0:0:
291,384,77570,2,0,P|280:332|280:276,1,90
332,232,77792,6,0,P|372:244|420:244,2,67.5000025749208,0|0|0,0:0|0:0|0:0,0:0:0:0:
252,184,78125,2,0,P|212:172|164:172,2,67.5000025749208,0|0|0,0:0|0:0|0:0,0:0:0:0:
256,264,78459,1,0,0:0:0:0:
168,316,78570,6,0,L|72:344,1,90,0|0,0:0|0:0,0:0:0:0:
8,284,78792,1,0,0:0:0:0:
344,316,79014,2,0,L|440:344,1,90,0|0,0:0|0:0,0:0:0:0:
504,284,79236,5,0,0:0:0:0:
448,120,79459,5,0,0:0:0:0:
403,98,79514,1,0,0:0:0:0:
356,83,79570,1,0,0:0:0:0:
307,75,79625,5,0,0:0:0:0:
258,75,79681,1,0,0:0:0:60:soft-hitnormal2.wav
300,100,79737,1,0,0:0:0:0:
339,132,79792,1,0,0:0:0:0:
372,168,79848,1,0,0:0:0:0:
400,209,79903,1,0,0:0:0:0:
355,187,79958,1,0,0:0:0:0:
308,172,80014,1,0,0:0:0:0:
259,165,80069,1,0,0:0:0:0:
210,165,80125,2,0,P|184:208|216:264,1,90
24,172,80347,5,2,0:0:0:0:
61,204,80402,1,0,0:0:0:0:
89,244,80458,1,0,0:0:0:0:
108,290,80513,1,0,0:0:0:0:
114,339,80569,1,2,0:0:0:0:
161,324,80625,1,0,0:0:0:0:
197,291,80681,1,0,0:0:0:0:
217,246,80736,1,0,0:0:0:0:
216,196,80792,5,2,0:0:0:0:
236,152,80847,1,0,0:0:0:0:
273,119,80903,1,0,0:0:0:0:
320,105,80958,1,0,0:0:0:0:
368,112,81014,1,2,0:0:0:0:
410,138,81069,1,0,0:0:0:0:
436,180,81125,1,0,0:0:0:0:
443,228,81180,1,0,0:0:0:0:
429,275,81236,5,2,0:0:0:0:
397,312,81292,1,0,0:0:0:0:
352,333,81347,1,0,0:0:0:0:
303,332,81403,1,0,0:0:0:0:
259,312,81458,1,2,0:0:0:0:
227,274,81514,1,0,0:0:0:0:
192,239,81570,1,0,0:0:0:0:
149,215,81626,1,0,0:0:0:0:
101,204,81681,5,2,0:0:0:0:
76,161,81737,1,0,0:0:0:0:
72,112,81793,1,0,0:0:0:0:
90,67,81848,1,0,0:0:0:0:
126,33,81904,1,2,0:0:0:0:
173,19,81959,1,0,0:0:0:0:
222,27,82015,1,0,0:0:0:0:
265,50,82069,1,0,0:0:0:0:
314,53,82125,6,0,L|420:24,1,90
148,276,82459,5,0,0:0:0:0:
148,276,82570,2,0,L|253:246,1,90,0|0,0:0|0:0,0:0:0:0:
460,256,82903,5,0,0:0:0:0:
364,176,83014,5,0,0:0:0:0:
312,288,83125,1,0,0:0:0:0:
312,288,83181,1,0,0:0:0:0:
312,288,83236,1,0,0:0:0:0:
324,156,83347,1,0,0:0:0:0:
396,304,83459,1,0,0:0:0:0:
248,376,83571,1,0,0:0:0:0:
200,144,83681,2,0,L|188:268,1,90
204,56,83903,6,0,P|128:64|32:20,1,180,4|0,0:0|0:0,0:0:0:0:
324,156,84236,2,0,P|400:164|496:120,1,180,4|0,0:0|0:0,0:0:0:0:
204,256,84570,2,0,P|128:264|32:220,1,180,4|0,0:0|0:0,0:0:0:0:
352,12,85014,6,0,P|364:68|352:116,1,90,4|0,0:0|0:0,0:0:0:0:
153,99,85236,2,0,P|148:55|160:12,1,90,4|0,0:0|0:0,0:0:0:0:
256,132,85459,6,0,L|256:236,1,90,4|0,0:0|0:0,0:0:0:0:
336,288,85681,5,0,0:0:0:0:
349,283,85792,1,0,0:0:0:0:
361,288,85903,1,0,0:0:0:0:
367,301,86014,1,0,0:0:0:0:
361,313,86125,1,8,0:0:0:0:
349,319,86237,1,0,0:0:0:0:
336,313,86348,1,0,0:0:0:0:
331,301,86459,1,0,0:0:0:0:
408,172,86570,5,4,0:3:0:0:
421,167,86681,1,0,0:0:0:0:
433,172,86792,1,0,0:0:0:0:
439,185,86903,1,0,0:0:0:0:
433,197,87014,1,8,0:0:0:0:
421,203,87126,1,0,0:0:0:0:
408,197,87237,1,0,0:0:0:0:
403,185,87348,1,0,0:0:0:0:
272,120,87459,5,4,0:3:0:0:
285,115,87570,1,0,0:0:0:0:
297,120,87681,1,0,0:0:0:0:
303,133,87792,5,0,0:0:0:0:
297,145,87903,1,8,0:0:0:0:
285,151,88015,1,0,0:0:0:0:
272,145,88126,1,0,0:0:0:0:
267,133,88237,5,0,0:0:0:0:
344,4,88348,5,4,0:3:0:0:
357,0,88459,1,0,0:0:0:0:
369,4,88570,1,0,0:0:0:0:
375,17,88681,1,4,0:3:0:0:
369,29,88792,1,8,0:0:0:0:
357,35,88904,1,0,0:0:0:0:
344,29,89015,1,0,0:0:0:0:
339,17,89126,1,0,0:0:0:0:
208,48,89236,6,0,L|180:196,1,90
304,336,89570,1,0,0:0:0:0:
304,336,89681,2,0,L|320:247,1,90,0|0,0:0|0:0,0:0:0:0:
272,100,90014,1,0,0:0:0:0:
196,184,90125,5,0,0:0:0:0:
100,128,90236,1,0,0:0:0:0:
100,128,90292,1,0,0:0:0:0:
100,128,90347,1,0,0:0:0:0:
176,44,90459,1,0,0:0:0:0:
196,184,90570,6,0,P|196:244|188:296,1,90
316,184,90792,2,0,P|316:244|324:296,1,90
412,128,91014,5,0,0:0:0:0:
384,328,91125,1,0,0:0:0:0:
196,112,91347,1,0,0:0:0:0:
316,112,91459,1,0,0:0:0:0:
256,16,91570,1,0,0:0:0:0:
256,224,91681,1,4,0:2:0:0:
