osu file format v14

[General]
AudioFilename: audio.mp3
AudioLeadIn: 0
PreviewTime: -1
Countdown: 1
SampleSet: Normal
StackLeniency: 0.2
Mode: 0
LetterboxInBreaks: 0
WidescreenStoryboard: 1

[Editor]
Bookmarks: 16736,29709,41061,42682,47547,49169,54034,55655,60520,62142,65385,67007,68628,81601,88088,94574,107547,120520
DistanceSpacing: 1
BeatDivisor: 4
GridSize: 8
TimelineZoom: 1.6

[Metadata]
Title:Xeus
TitleUnicode:Xeus
Artist:Xeon
ArtistUnicode:Xeon
Creator:DT-sama
Version:dj min
Source:
Tags:
BeatmapID:1906816
BeatmapSetID:912763

[Difficulty]
HPDrainRate:4
CircleSize:4
OverallDifficulty:9
ApproachRate:9.5
SliderMultiplier:2.3
SliderTickRate:1

[Events]
//Background and Video events
0,0,"tumblr_n15xqcghiQ1sov9l9o1_1280.jpg",0,0
//Break Periods
2,68828,79305
//Storyboard Layer 0 (Background)
//Storyboard Layer 1 (Fail)
//Storyboard Layer 2 (Pass)
//Storyboard Layer 3 (Foreground)
//Storyboard Layer 4 (Overlay)
//Storyboard Sound Samples

[TimingPoints]
3764,405.405405405405,4,1,0,80,1,0
29709,-100,4,1,0,80,0,1
41061,-100,4,1,0,80,0,1
42682,-100,4,1,0,80,0,0
47547,-100,4,1,0,80,0,1
49169,-100,4,1,0,80,0,0
54034,-100,4,1,0,80,0,1
55655,-100,4,1,0,80,0,0
60520,-100,4,1,0,80,0,1
62142,-100,4,1,0,80,0,0
65385,-100,4,1,0,80,0,1
68628,-200,4,1,0,80,0,0
81601,-100,4,1,0,80,0,0
94574,-100,4,1,0,80,0,1
120520,-100,4,1,0,80,0,0

[Colours]
Combo1 : 252,3,53
Combo2 : 28,28,255
Combo3 : 211,55,251
Combo4 : 3,85,124

[HitObjects]
40,48,3764,5,0,0:0:0:0:
216,48,3966,1,0,0:0:0:0:
216,224,4169,1,0,0:0:0:0:
40,224,4574,5,0,0:0:0:0:
384,224,4980,1,0,0:0:0:0:
216,224,5182,1,0,0:0:0:0:
296,72,5385,5,0,0:0:0:0:
472,72,5587,1,0,0:0:0:0:
480,248,5790,1,0,0:0:0:0:
296,248,5993,1,0,0:0:0:0:
440,152,6196,5,0,0:0:0:0:
392,320,6399,1,0,0:0:0:0:
336,152,6601,1,0,0:0:0:0:
40,336,7007,5,0,0:0:0:0:
216,336,7209,1,0,0:0:0:0:
216,160,7412,1,0,0:0:0:0:
40,160,7817,5,0,0:0:0:0:
384,160,8223,1,0,0:0:0:0:
216,160,8425,1,0,0:0:0:0:
296,312,8628,5,0,0:0:0:0:
472,312,8830,1,0,0:0:0:0:
480,136,9033,1,0,0:0:0:0:
296,136,9236,1,0,0:0:0:0:
296,136,9338,1,0,0:0:0:0:
296,136,9439,5,0,0:0:0:0:
440,232,9642,5,0,0:0:0:0:
392,64,9845,1,0,0:0:0:0:
336,232,10047,1,0,0:0:0:0:
336,232,10149,1,0,0:0:0:0:
336,232,10250,6,0,L|336:352,1,115
64,72,10655,2,0,L|184:72,1,115
424,56,11061,5,0,0:0:0:0:
368,128,11263,1,0,0:0:0:0:
312,200,11466,1,0,0:0:0:0:
280,240,11568,1,0,0:0:0:0:
224,264,11669,1,0,0:0:0:0:
216,312,11770,1,0,0:0:0:0:
176,352,11872,6,0,L|336:352,1,115
504,160,12277,2,0,L|344:160,1,115
88,208,12682,5,0,0:0:0:0:
192,264,12885,1,0,0:0:0:0:
288,208,13088,1,0,0:0:0:0:
256,168,13190,1,0,0:0:0:0:
200,144,13291,1,0,0:0:0:0:
192,96,13392,1,0,0:0:0:0:
152,56,13494,6,0,L|312:56,1,115
464,248,13899,2,0,L|304:248,1,115
128,200,14304,5,0,0:0:0:0:
168,240,14405,1,0,0:0:0:0:
232,304,14507,1,0,0:0:0:0:
272,264,14608,1,0,0:0:0:0:
344,200,14709,1,0,0:0:0:0:
304,160,14811,1,0,0:0:0:0:
232,104,14912,1,0,0:0:0:0:
192,144,15013,1,0,0:0:0:0:
232,200,15115,5,0,0:0:0:0:
40,80,16736,5,0,0:0:0:0:
64,112,16838,1,0,0:0:0:0:
88,144,16939,1,0,0:0:0:0:
176,208,17041,1,0,0:0:0:0:
184,184,17142,1,0,0:0:0:0:
192,160,17243,1,0,0:0:0:0:
240,56,17345,1,0,0:0:0:0:
248,80,17446,1,0,0:0:0:0:
304,168,17547,5,0,0:0:0:0:
328,136,17649,1,0,0:0:0:0:
352,104,17750,1,0,0:0:0:0:
440,40,17852,1,0,0:0:0:0:
448,64,17953,1,0,0:0:0:0:
456,88,18054,1,0,0:0:0:0:
504,192,18156,1,0,0:0:0:0:
512,168,18257,1,0,0:0:0:0:
416,184,18358,5,0,0:0:0:0:
424,208,18459,1,0,0:0:0:0:
504,296,18561,1,0,0:0:0:0:
496,272,18662,1,0,0:0:0:0:
408,288,18763,1,0,0:0:0:0:
400,312,18865,1,0,0:0:0:0:
480,368,18966,1,0,0:0:0:0:
464,352,19068,1,0,0:0:0:0:
344,256,19169,5,0,0:0:0:0:
296,264,19270,1,0,0:0:0:0:
280,312,19372,1,0,0:0:0:0:
160,304,19473,1,0,0:0:0:0:
184,304,19575,1,0,0:0:0:0:
200,288,19676,1,0,0:0:0:0:
248,200,19777,1,0,0:0:0:0:
232,216,19878,1,0,0:0:0:0:
360,320,19980,5,0,0:0:0:0:
336,360,20081,1,0,0:0:0:0:
288,368,20182,1,0,0:0:0:0:
160,264,20284,1,0,0:0:0:0:
200,288,20385,1,0,0:0:0:0:
208,336,20486,1,0,0:0:0:0:
120,336,20588,1,0,0:0:0:0:
120,336,20689,1,0,0:0:0:0:
80,264,20791,5,0,0:0:0:0:
40,240,20892,1,0,0:0:0:0:
32,192,20993,1,0,0:0:0:0:
136,64,21095,1,0,0:0:0:0:
112,104,21196,1,0,0:0:0:0:
64,112,21297,1,0,0:0:0:0:
64,24,21399,1,0,0:0:0:0:
64,24,21500,1,0,0:0:0:0:
216,32,21601,5,0,0:0:0:0:
248,64,21703,1,0,0:0:0:0:
168,168,21804,1,0,0:0:0:0:
192,128,21905,1,0,0:0:0:0:
264,216,22007,1,0,0:0:0:0:
288,256,22108,1,0,0:0:0:0:
152,304,22209,1,0,0:0:0:0:
184,272,22311,1,0,0:0:0:0:
16,352,22412,5,0,0:0:0:0:
64,368,22513,1,0,0:0:0:0:
112,360,22615,1,0,0:0:0:0:
280,280,22716,1,0,0:0:0:0:
232,264,22817,1,0,0:0:0:0:
184,272,22919,1,0,0:0:0:0:
248,368,23020,5,0,0:0:0:0:
320,368,23122,1,0,0:0:0:0:
360,312,23223,5,0,0:0:0:0:
416,272,23324,1,0,0:0:0:0:
352,248,23426,1,0,0:0:0:0:
368,320,23527,1,0,0:0:0:0:
424,280,23628,1,0,0:0:0:0:
360,256,23730,1,0,0:0:0:0:
376,336,23831,5,0,0:0:0:0:
432,291,23933,1,0,0:0:0:0:
431,222,24034,5,0,0:0:0:0:
451,156,24135,1,0,0:0:0:0:
386,176,24237,1,0,0:0:0:0:
441,224,24338,1,0,0:0:0:0:
462,158,24439,1,0,0:0:0:0:
408,112,24541,1,0,0:0:0:0:
424,48,24642,5,0,0:0:0:0:
424,48,24743,1,0,0:0:0:0:
472,96,24845,5,0,0:0:0:0:
464,160,24946,1,0,0:0:0:0:
392,152,25047,1,0,0:0:0:0:
416,216,25149,1,0,0:0:0:0:
480,248,25250,1,0,0:0:0:0:
440,304,25351,1,0,0:0:0:0:
368,288,25453,5,0,0:0:0:0:
392,352,25554,1,0,0:0:0:0:
480,368,25655,5,0,0:0:0:0:
440,312,25757,1,0,0:0:0:0:
368,312,25858,1,0,0:0:0:0:
312,352,25959,1,0,0:0:0:0:
240,368,26061,1,0,0:0:0:0:
184,328,26162,1,0,0:0:0:0:
160,264,26263,5,0,0:0:0:0:
160,264,26365,1,0,0:0:0:0:
264,272,26466,5,0,0:0:0:0:
296,240,26568,1,0,0:0:0:0:
296,192,26669,1,0,0:0:0:0:
216,72,26770,1,0,0:0:0:0:
248,112,26872,1,0,0:0:0:0:
296,120,26973,1,0,0:0:0:0:
304,40,27074,1,0,0:0:0:0:
304,40,27176,1,0,0:0:0:0:
215,33,27277,5,0,0:0:0:0:
215,78,27379,1,0,0:0:0:0:
248,112,27480,1,0,0:0:0:0:
390,140,27581,1,0,0:0:0:0:
339,134,27683,1,0,0:0:0:0:
299,163,27784,1,0,0:0:0:0:
360,224,27885,1,0,0:0:0:0:
360,224,27987,1,0,0:0:0:0:
464,272,28088,5,0,0:0:0:0:
464,272,28189,1,0,0:0:0:0:
384,320,28291,1,0,0:0:0:0:
384,320,28392,1,0,0:0:0:0:
288,320,28493,1,0,0:0:0:0:
288,320,28595,1,0,0:0:0:0:
208,272,28696,1,0,0:0:0:0:
208,272,28797,1,0,0:0:0:0:
120,304,28899,5,0,0:0:0:0:
112,288,29000,1,0,0:0:0:0:
104,272,29102,1,0,0:0:0:0:
24,200,29203,1,0,0:0:0:0:
32,216,29305,1,0,0:0:0:0:
40,232,29406,1,0,0:0:0:0:
104,200,29507,1,0,0:0:0:0:
104,200,29608,1,0,0:0:0:0:
176,224,29709,5,0,0:0:0:0:
224,232,29811,1,0,0:0:0:0:
272,208,29912,1,0,0:0:0:0:
400,192,30013,1,0,0:0:0:0:
360,224,30115,1,0,0:0:0:0:
352,272,30216,1,0,0:0:0:0:
328,144,30318,1,0,0:0:0:0:
328,144,30419,1,0,0:0:0:0:
368,64,30520,5,0,0:0:0:0:
320,56,30622,1,0,0:0:0:0:
272,80,30723,1,0,0:0:0:0:
144,96,30824,1,0,0:0:0:0:
184,64,30926,1,0,0:0:0:0:
192,16,31027,1,0,0:0:0:0:
216,144,31129,1,0,0:0:0:0:
216,144,31230,1,0,0:0:0:0:
160,216,31331,5,0,0:0:0:0:
176,264,31432,1,0,0:0:0:0:
264,264,31534,1,0,0:0:0:0:
280,216,31635,1,0,0:0:0:0:
376,216,31736,1,0,0:0:0:0:
392,264,31837,1,0,0:0:0:0:
480,264,31939,1,0,0:0:0:0:
496,216,32040,1,0,0:0:0:0:
432,144,32142,5,0,0:0:0:0:
384,144,32243,1,0,0:0:0:0:
344,112,32345,1,0,0:0:0:0:
256,120,32446,1,0,0:0:0:0:
256,72,32547,1,0,0:0:0:0:
216,40,32648,1,0,0:0:0:0:
336,24,32750,1,0,0:0:0:0:
336,24,32851,1,0,0:0:0:0:
456,32,32953,5,0,0:0:0:0:
427,70,33055,1,0,0:0:0:0:
427,124,33156,1,0,0:0:0:0:
383,245,33257,1,0,0:0:0:0:
372,195,33359,1,0,0:0:0:0:
333,166,33460,1,0,0:0:0:0:
459,203,33562,1,0,0:0:0:0:
459,203,33663,1,0,0:0:0:0:
440,304,33763,5,0,0:0:0:0:
392,319,33865,1,0,0:0:0:0:
342,304,33966,1,0,0:0:0:0:
213,312,34067,1,0,0:0:0:0:
257,336,34169,1,0,0:0:0:0:
275,382,34270,1,0,0:0:0:0:
274,251,34372,1,0,0:0:0:0:
274,251,34473,1,0,0:0:0:0:
112,208,34574,5,0,0:0:0:0:
112,280,34676,1,0,0:0:0:0:
112,208,34777,1,0,0:0:0:0:
56,240,34878,1,0,0:0:0:0:
112,208,34980,1,0,0:0:0:0:
56,176,35081,1,0,0:0:0:0:
112,208,35182,1,0,0:0:0:0:
112,136,35284,1,0,0:0:0:0:
176,176,35386,5,0,0:0:0:0:
240,224,35487,1,0,0:0:0:0:
304,176,35589,1,0,0:0:0:0:
368,224,35690,1,0,0:0:0:0:
432,176,35791,1,0,0:0:0:0:
496,224,35892,1,0,0:0:0:0:
472,304,35994,1,0,0:0:0:0:
392,304,36095,1,0,0:0:0:0:
336,224,36196,5,0,0:0:0:0:
280,232,36298,1,0,0:0:0:0:
232,200,36399,1,0,0:0:0:0:
112,192,36500,1,0,0:0:0:0:
152,232,36602,1,0,0:0:0:0:
152,288,36703,1,0,0:0:0:0:
184,144,36805,1,0,0:0:0:0:
184,144,36906,1,0,0:0:0:0:
144,64,37007,5,0,0:0:0:0:
200,64,37109,1,0,0:0:0:0:
248,96,37210,1,0,0:0:0:0:
368,96,37311,1,0,0:0:0:0:
328,64,37413,1,0,0:0:0:0:
320,16,37514,1,0,0:0:0:0:
296,144,37616,1,0,0:0:0:0:
296,144,37717,1,0,0:0:0:0:
352,216,37818,5,0,0:0:0:0:
352,216,37919,1,0,0:0:0:0:
240,216,38021,1,0,0:0:0:0:
240,216,38122,1,0,0:0:0:0:
128,216,38223,1,0,0:0:0:0:
128,216,38324,1,0,0:0:0:0:
16,216,38426,1,0,0:0:0:0:
16,216,38527,1,0,0:0:0:0:
88,336,38628,5,0,0:0:0:0:
136,351,38730,1,0,0:0:0:0:
186,336,38831,1,0,0:0:0:0:
248,248,38932,1,0,0:0:0:0:
199,233,39034,1,0,0:0:0:0:
154,253,39135,1,0,0:0:0:0:
72,232,39237,1,0,0:0:0:0:
72,232,39338,1,0,0:0:0:0:
80,144,39439,5,0,0:0:0:0:
128,144,39540,1,0,0:0:0:0:
168,112,39642,1,0,0:0:0:0:
264,136,39743,1,0,0:0:0:0:
256,112,39844,1,0,0:0:0:0:
248,88,39945,1,0,0:0:0:0:
200,24,40047,1,0,0:0:0:0:
200,24,40148,1,0,0:0:0:0:
40,8,40250,5,0,0:0:0:0:
87,14,40352,1,0,0:0:0:0:
125,52,40453,1,0,0:0:0:0:
16,136,40554,1,0,0:0:0:0:
16,112,40656,1,0,0:0:0:0:
32,88,40757,1,0,0:0:0:0:
53,203,40859,1,0,0:0:0:0:
53,203,40960,1,0,0:0:0:0:
88,128,41061,5,0,0:0:0:0:
136,192,41162,1,0,0:0:0:0:
176,120,41263,1,0,0:0:0:0:
224,184,41365,1,0,0:0:0:0:
184,256,41466,1,0,0:0:0:0:
240,320,41568,1,0,0:0:0:0:
272,248,41669,1,0,0:0:0:0:
328,312,41770,1,0,0:0:0:0:
368,240,41872,1,0,0:0:0:0:
312,184,41973,1,0,0:0:0:0:
264,120,42074,1,0,0:0:0:0:
344,112,42176,1,0,0:0:0:0:
400,168,42277,1,0,0:0:0:0:
424,96,42378,1,0,0:0:0:0:
376,32,42480,1,0,0:0:0:0:
296,40,42581,1,0,0:0:0:0:
344,112,42682,5,0,0:0:0:0:
344,112,43088,5,0,0:0:0:0:
56,80,43899,5,0,0:0:0:0:
424,80,44101,1,0,0:0:0:0:
256,344,44304,5,0,0:0:0:0:
256,248,44507,1,0,0:0:0:0:
256,56,44709,1,0,0:0:0:0:
256,152,44912,1,0,0:0:0:0:
256,152,45013,1,0,0:0:0:0:
256,152,45115,5,0,0:0:0:0:
256,248,45318,1,0,0:0:0:0:
256,344,45521,1,0,0:0:0:0:
256,248,45723,1,0,0:0:0:0:
256,56,45926,5,0,0:0:0:0:
256,56,46331,5,0,0:0:0:0:
256,344,46533,1,0,0:0:0:0:
256,344,46939,5,0,0:0:0:0:
24,200,47142,1,0,0:0:0:0:
56,288,47345,5,0,0:0:0:0:
56,288,47446,1,0,0:0:0:0:
112,232,47547,5,0,0:0:0:0:
136,312,47649,1,0,0:0:0:0:
200,264,47750,1,0,0:0:0:0:
216,344,47851,1,0,0:0:0:0:
296,344,47953,1,0,0:0:0:0:
312,264,48054,1,0,0:0:0:0:
376,312,48155,1,0,0:0:0:0:
400,232,48257,1,0,0:0:0:0:
360,144,48358,1,0,0:0:0:0:
376,56,48459,1,0,0:0:0:0:
304,88,48561,1,0,0:0:0:0:
288,176,48662,1,0,0:0:0:0:
224,176,48763,1,0,0:0:0:0:
208,88,48865,1,0,0:0:0:0:
136,56,48966,1,0,0:0:0:0:
152,144,49067,1,0,0:0:0:0:
256,232,49169,5,0,0:0:0:0:
256,232,49574,5,0,0:0:0:0:
256,48,50385,5,0,0:0:0:0:
256,344,50588,1,0,0:0:0:0:
480,192,50791,5,0,0:0:0:0:
336,192,50993,1,0,0:0:0:0:
16,192,51399,5,0,0:0:0:0:
64,192,51500,1,0,0:0:0:0:
112,192,51602,1,0,0:0:0:0:
208,192,51804,1,0,0:0:0:0:
304,192,52007,1,0,0:0:0:0:
400,192,52209,1,0,0:0:0:0:
496,192,52412,5,0,0:0:0:0:
256,32,52818,5,0,0:0:0:0:
256,344,53020,1,0,0:0:0:0:
32,304,53426,5,0,0:0:0:0:
56,208,53628,1,0,0:0:0:0:
32,120,53831,1,0,0:0:0:0:
112,56,54034,5,0,0:0:0:0:
136,136,54136,1,0,0:0:0:0:
200,88,54237,1,0,0:0:0:0:
216,168,54338,1,0,0:0:0:0:
400,56,54440,5,0,0:0:0:0:
376,136,54542,1,0,0:0:0:0:
312,88,54643,1,0,0:0:0:0:
296,168,54744,1,0,0:0:0:0:
144,224,54845,5,0,0:0:0:0:
368,224,54946,1,0,0:0:0:0:
216,312,55047,1,0,0:0:0:0:
296,312,55149,1,0,0:0:0:0:
216,240,55250,5,0,0:0:0:0:
296,240,55352,1,0,0:0:0:0:
152,296,55453,1,0,0:0:0:0:
360,296,55554,1,0,0:0:0:0:
256,376,55655,5,0,0:0:0:0:
496,192,56061,5,0,0:0:0:0:
256,16,56466,5,0,0:0:0:0:
16,192,56872,5,0,0:0:0:0:
256,192,57074,1,0,0:0:0:0:
496,192,57277,5,0,0:0:0:0:
256,16,57480,1,0,0:0:0:0:
16,192,57682,1,0,0:0:0:0:
256,368,57885,1,0,0:0:0:0:
256,368,57986,1,0,0:0:0:0:
256,368,58088,5,0,0:0:0:0:
256,192,58291,1,0,0:0:0:0:
496,192,58493,1,0,0:0:0:0:
256,192,58696,1,0,0:0:0:0:
256,16,58899,5,0,0:0:0:0:
256,16,59304,5,0,0:0:0:0:
256,192,59507,1,0,0:0:0:0:
48,168,59912,5,0,0:0:0:0:
48,168,60115,1,0,0:0:0:0:
24,88,60318,5,0,0:0:0:0:
24,88,60419,1,0,0:0:0:0:
112,64,60520,5,0,0:0:0:0:
136,144,60622,1,0,0:0:0:0:
200,96,60723,1,0,0:0:0:0:
216,176,60824,1,0,0:0:0:0:
400,64,60926,5,0,0:0:0:0:
376,144,61028,1,0,0:0:0:0:
312,96,61129,1,0,0:0:0:0:
296,176,61230,1,0,0:0:0:0:
136,232,61331,5,0,0:0:0:0:
208,264,61432,1,0,0:0:0:0:
152,320,61534,1,0,0:0:0:0:
224,352,61635,1,0,0:0:0:0:
376,232,61736,5,0,0:0:0:0:
304,264,61837,1,0,0:0:0:0:
360,320,61939,1,0,0:0:0:0:
288,352,62040,1,0,0:0:0:0:
256,128,62142,5,0,0:0:0:0:
480,360,62547,5,0,0:0:0:0:
24,360,62953,5,0,0:0:0:0:
24,24,63358,5,0,0:0:0:0:
256,24,63561,1,0,0:0:0:0:
488,16,63763,5,0,0:0:0:0:
496,360,63966,1,0,0:0:0:0:
24,360,64169,1,0,0:0:0:0:
16,24,64372,1,0,0:0:0:0:
16,24,64472,1,0,0:0:0:0:
16,24,64574,5,0,0:0:0:0:
496,16,64777,1,0,0:0:0:0:
256,24,64980,1,0,0:0:0:0:
256,192,65182,1,0,0:0:0:0:
200,256,65385,5,0,0:0:0:0:
200,256,65486,1,0,0:0:0:0:
320,256,65588,1,0,0:0:0:0:
320,256,65690,1,0,0:0:0:0:
320,136,65791,1,0,0:0:0:0:
320,136,65892,1,0,0:0:0:0:
200,136,65993,1,0,0:0:0:0:
200,136,66095,1,0,0:0:0:0:
128,200,66196,5,0,0:0:0:0:
128,200,66297,1,0,0:0:0:0:
255,327,66399,1,0,0:0:0:0:
255,327,66501,1,0,0:0:0:0:
383,200,66602,1,0,0:0:0:0:
383,200,66703,1,0,0:0:0:0:
256,73,66804,1,0,0:0:0:0:
256,73,66906,1,0,0:0:0:0:
144,192,67007,5,0,0:0:0:0:
184,232,67108,1,0,0:0:0:0:
248,296,67210,1,0,0:0:0:0:
288,256,67311,1,0,0:0:0:0:
360,192,67412,1,0,0:0:0:0:
320,152,67514,1,0,0:0:0:0:
248,96,67615,1,0,0:0:0:0:
208,136,67716,1,0,0:0:0:0:
135,304,67818,5,0,0:0:0:0:
220,304,67919,1,0,0:0:0:0:
356,304,68021,1,0,0:0:0:0:
356,219,68122,1,0,0:0:0:0:
364,75,68223,1,0,0:0:0:0:
279,75,68325,1,0,0:0:0:0:
143,92,68426,1,0,0:0:0:0:
143,177,68527,1,0,0:0:0:0:
256,192,68628,5,0,0:0:0:0:
256,192,79980,5,0,0:0:0:0:
256,192,80385,12,0,81196,0:0:0:0:
56,56,81601,5,0,0:0:0:0:
56,56,81703,1,0,0:0:0:0:
56,56,81804,1,0,0:0:0:0:
56,56,81905,1,0,0:0:0:0:
56,56,82007,2,0,L|216:56,1,115
456,328,82412,6,0,L|456:200,1,115
56,56,82818,2,0,L|56:184,1,115
56,328,83223,5,0,0:0:0:0:
56,328,83325,1,0,0:0:0:0:
56,328,83426,1,0,0:0:0:0:
56,328,83527,1,0,0:0:0:0:
56,328,83629,2,0,L|216:328,1,115
456,56,84034,6,0,L|456:184,1,115
56,328,84440,2,0,L|56:200,1,115
256,32,84845,5,0,0:0:0:0:
256,88,84946,1,0,0:0:0:0:
256,144,85047,1,0,0:0:0:0:
256,200,85149,1,0,0:0:0:0:
256,256,85250,2,0,L|256:384,1,115
56,56,85655,6,0,L|216:56,1,115
456,328,86061,2,0,L|296:328,1,115
48,192,86466,5,0,0:0:0:0:
120,192,86567,1,0,0:0:0:0:
193,192,86668,1,0,0:0:0:0:
266,192,86770,1,0,0:0:0:0:
339,192,86871,2,0,L|505:192,1,115
456,56,87277,6,0,L|296:56,1,115
56,328,87683,2,0,L|216:328,1,115
256,88,88088,5,0,0:0:0:0:
256,88,88189,1,0,0:0:0:0:
344,256,88291,1,0,0:0:0:0:
344,256,88392,1,0,0:0:0:0:
168,256,88493,1,0,0:0:0:0:
168,256,88594,1,0,0:0:0:0:
256,344,88696,5,0,0:0:0:0:
256,344,88797,1,0,0:0:0:0:
344,176,88899,1,0,0:0:0:0:
344,176,89000,1,0,0:0:0:0:
168,176,89101,1,0,0:0:0:0:
168,176,89202,1,0,0:0:0:0:
256,88,89304,5,0,0:0:0:0:
256,88,89405,1,0,0:0:0:0:
184,32,89709,5,0,0:0:0:0:
184,32,89811,1,0,0:0:0:0:
320,32,89912,1,0,0:0:0:0:
320,32,90013,1,0,0:0:0:0:
256,160,90115,1,0,0:0:0:0:
256,160,90216,1,0,0:0:0:0:
256,72,90318,5,0,0:0:0:0:
256,72,90419,1,0,0:0:0:0:
376,128,90520,1,0,0:0:0:0:
376,128,90622,1,0,0:0:0:0:
272,208,90723,1,0,0:0:0:0:
272,208,90824,1,0,0:0:0:0:
184,56,90926,5,0,0:0:0:0:
248,32,91027,1,0,0:0:0:0:
312,56,91128,1,0,0:0:0:0:
368,32,91230,1,0,0:0:0:0:
456,40,91331,5,0,0:0:0:0:
456,40,91432,1,0,0:0:0:0:
376,104,91534,1,0,0:0:0:0:
376,104,91635,1,0,0:0:0:0:
464,176,91736,1,0,0:0:0:0:
464,176,91838,1,0,0:0:0:0:
376,240,91939,1,0,0:0:0:0:
376,240,92041,1,0,0:0:0:0:
280,176,92142,5,0,0:0:0:0:
280,176,92243,1,0,0:0:0:0:
280,272,92345,1,0,0:0:0:0:
280,272,92446,1,0,0:0:0:0:
184,272,92547,1,0,0:0:0:0:
184,272,92649,1,0,0:0:0:0:
184,176,92750,1,0,0:0:0:0:
184,176,92851,1,0,0:0:0:0:
184,160,92953,5,0,0:0:0:0:
80,96,93054,1,0,0:0:0:0:
8,200,93155,1,0,0:0:0:0:
112,264,93257,1,0,0:0:0:0:
167,164,93358,5,0,0:0:0:0:
84,113,93459,1,0,0:0:0:0:
26,196,93560,1,0,0:0:0:0:
109,248,93662,1,0,0:0:0:0:
149,168,93763,5,0,0:0:0:0:
87,130,93864,1,0,0:0:0:0:
44,192,93965,1,0,0:0:0:0:
106,231,94067,1,0,0:0:0:0:
140,170,94169,5,0,0:0:0:0:
88,138,94270,1,0,0:0:0:0:
52,190,94371,1,0,0:0:0:0:
104,222,94473,1,0,0:0:0:0:
176,224,94574,5,0,0:0:0:0:
232,184,94676,1,0,0:0:0:0:
296,200,94777,1,0,0:0:0:0:
176,208,94878,5,0,0:0:0:0:
216,152,94980,1,0,0:0:0:0:
280,136,95081,1,0,0:0:0:0:
424,144,95183,5,0,0:0:0:0:
352,168,95284,1,0,0:0:0:0:
280,120,95385,5,0,0:0:0:0:
224,80,95487,1,0,0:0:0:0:
160,96,95588,1,0,0:0:0:0:
280,104,95689,5,0,0:0:0:0:
240,48,95791,1,0,0:0:0:0:
176,32,95892,1,0,0:0:0:0:
32,40,95994,5,0,0:0:0:0:
104,64,96095,1,0,0:0:0:0:
240,48,96196,5,0,0:0:0:0:
184,112,96297,1,0,0:0:0:0:
48,128,96399,1,0,0:0:0:0:
120,168,96500,5,0,0:0:0:0:
256,208,96601,1,0,0:0:0:0:
176,232,96703,1,0,0:0:0:0:
40,280,96804,5,0,0:0:0:0:
120,304,96906,1,0,0:0:0:0:
192,368,97007,5,0,0:0:0:0:
256,360,97108,1,0,0:0:0:0:
296,312,97210,1,0,0:0:0:0:
480,296,97311,1,0,0:0:0:0:
416,304,97412,1,0,0:0:0:0:
384,360,97514,1,0,0:0:0:0:
440,208,97615,1,0,0:0:0:0:
440,208,97716,1,0,0:0:0:0:
336,224,97818,5,0,0:0:0:0:
280,184,97920,1,0,0:0:0:0:
216,200,98021,1,0,0:0:0:0:
336,208,98122,5,0,0:0:0:0:
296,152,98224,1,0,0:0:0:0:
232,136,98325,1,0,0:0:0:0:
88,144,98427,5,0,0:0:0:0:
160,168,98528,1,0,0:0:0:0:
232,120,98629,5,0,0:0:0:0:
288,80,98731,1,0,0:0:0:0:
352,96,98832,1,0,0:0:0:0:
232,104,98933,5,0,0:0:0:0:
272,48,99035,1,0,0:0:0:0:
336,32,99136,1,0,0:0:0:0:
480,40,99238,5,0,0:0:0:0:
408,64,99339,1,0,0:0:0:0:
272,48,99440,5,0,0:0:0:0:
328,112,99541,1,0,0:0:0:0:
464,128,99643,1,0,0:0:0:0:
392,168,99744,5,0,0:0:0:0:
256,208,99845,1,0,0:0:0:0:
336,232,99947,1,0,0:0:0:0:
472,280,100048,5,0,0:0:0:0:
392,304,100150,1,0,0:0:0:0:
320,368,100251,5,0,0:0:0:0:
256,360,100352,1,0,0:0:0:0:
216,312,100454,1,0,0:0:0:0:
200,176,100555,1,0,0:0:0:0:
264,184,100656,1,0,0:0:0:0:
296,240,100758,1,0,0:0:0:0:
144,248,100859,1,0,0:0:0:0:
144,248,100960,1,0,0:0:0:0:
104,160,101061,5,0,0:0:0:0:
120,104,101162,1,0,0:0:0:0:
176,80,101264,1,0,0:0:0:0:
384,120,101365,1,0,0:0:0:0:
320,128,101466,1,0,0:0:0:0:
272,88,101568,1,0,0:0:0:0:
360,24,101669,1,0,0:0:0:0:
448,40,101770,1,0,0:0:0:0:
464,128,101872,5,0,0:0:0:0:
464,192,101973,1,0,0:0:0:0:
464,256,102074,1,0,0:0:0:0:
360,368,102176,1,0,0:0:0:0:
360,304,102277,1,0,0:0:0:0:
360,240,102378,1,0,0:0:0:0:
464,344,102480,1,0,0:0:0:0:
360,344,102581,1,0,0:0:0:0:
256,344,102683,5,0,0:0:0:0:
160,344,102784,1,0,0:0:0:0:
64,344,102885,1,0,0:0:0:0:
256,256,102987,5,0,0:0:0:0:
352,256,103088,1,0,0:0:0:0:
448,256,103189,1,0,0:0:0:0:
160,256,103291,5,0,0:0:0:0:
64,256,103392,1,0,0:0:0:0:
64,160,103493,5,0,0:0:0:0:
160,160,103595,1,0,0:0:0:0:
256,160,103696,1,0,0:0:0:0:
448,160,103797,5,0,0:0:0:0:
352,160,103899,1,0,0:0:0:0:
256,160,104000,1,0,0:0:0:0:
256,64,104101,5,0,0:0:0:0:
256,160,104203,1,0,0:0:0:0:
256,256,104304,5,0,0:0:0:0:
256,328,104405,1,0,0:0:0:0:
256,256,104507,1,0,0:0:0:0:
320,296,104608,5,0,0:0:0:0:
256,256,104709,1,0,0:0:0:0:
192,296,104811,1,0,0:0:0:0:
136,248,104912,1,0,0:0:0:0:
168,184,105013,1,0,0:0:0:0:
240,184,105115,5,0,0:0:0:0:
296,136,105216,1,0,0:0:0:0:
240,184,105318,1,0,0:0:0:0:
232,112,105419,5,0,0:0:0:0:
240,184,105520,1,0,0:0:0:0:
312,208,105622,1,0,0:0:0:0:
368,152,105723,1,0,0:0:0:0:
400,224,105824,1,0,0:0:0:0:
416,312,105926,5,0,0:0:0:0:
352,344,106027,1,0,0:0:0:0:
280,328,106128,1,0,0:0:0:0:
224,344,106230,1,0,0:0:0:0:
160,320,106331,1,0,0:0:0:0:
128,336,106432,1,0,0:0:0:0:
56,320,106534,1,0,0:0:0:0:
40,336,106635,1,0,0:0:0:0:
96,376,106736,5,0,0:0:0:0:
120,312,106838,1,0,0:0:0:0:
72,264,106939,1,0,0:0:0:0:
64,192,107041,1,0,0:0:0:0:
56,80,107142,5,0,0:0:0:0:
160,96,107243,1,0,0:0:0:0:
256,16,107345,1,0,0:0:0:0:
368,48,107446,1,0,0:0:0:0:
336,160,107547,5,0,0:0:0:0:
280,200,107649,1,0,0:0:0:0:
216,184,107750,1,0,0:0:0:0:
336,176,107851,5,0,0:0:0:0:
296,232,107953,1,0,0:0:0:0:
232,248,108054,1,0,0:0:0:0:
88,240,108156,5,0,0:0:0:0:
160,216,108257,1,0,0:0:0:0:
232,264,108358,5,0,0:0:0:0:
288,304,108460,1,0,0:0:0:0:
352,288,108561,1,0,0:0:0:0:
232,280,108662,5,0,0:0:0:0:
272,336,108764,1,0,0:0:0:0:
336,352,108865,1,0,0:0:0:0:
480,344,108967,5,0,0:0:0:0:
408,320,109068,1,0,0:0:0:0:
272,336,109169,5,0,0:0:0:0:
328,272,109270,1,0,0:0:0:0:
464,256,109372,1,0,0:0:0:0:
392,216,109473,5,0,0:0:0:0:
256,176,109574,1,0,0:0:0:0:
336,152,109676,1,0,0:0:0:0:
472,104,109777,5,0,0:0:0:0:
392,80,109879,1,0,0:0:0:0:
320,16,109980,5,0,0:0:0:0:
256,24,110081,1,0,0:0:0:0:
216,72,110183,1,0,0:0:0:0:
32,88,110284,1,0,0:0:0:0:
96,80,110385,1,0,0:0:0:0:
128,24,110487,1,0,0:0:0:0:
72,176,110588,1,0,0:0:0:0:
72,176,110689,1,0,0:0:0:0:
176,160,110791,5,0,0:0:0:0:
232,200,110893,1,0,0:0:0:0:
296,184,110994,1,0,0:0:0:0:
176,176,111095,5,0,0:0:0:0:
216,232,111197,1,0,0:0:0:0:
280,248,111298,1,0,0:0:0:0:
424,240,111400,5,0,0:0:0:0:
352,216,111501,1,0,0:0:0:0:
280,264,111602,5,0,0:0:0:0:
224,304,111704,1,0,0:0:0:0:
160,288,111805,1,0,0:0:0:0:
280,280,111906,5,0,0:0:0:0:
240,336,112008,1,0,0:0:0:0:
176,352,112109,1,0,0:0:0:0:
32,344,112211,5,0,0:0:0:0:
104,320,112312,1,0,0:0:0:0:
240,336,112413,5,0,0:0:0:0:
184,272,112514,1,0,0:0:0:0:
48,256,112616,1,0,0:0:0:0:
120,216,112717,5,0,0:0:0:0:
256,176,112818,1,0,0:0:0:0:
176,152,112920,1,0,0:0:0:0:
40,104,113021,5,0,0:0:0:0:
120,80,113123,1,0,0:0:0:0:
192,16,113224,5,0,0:0:0:0:
256,24,113325,1,0,0:0:0:0:
296,72,113427,1,0,0:0:0:0:
312,208,113528,1,0,0:0:0:0:
248,200,113629,1,0,0:0:0:0:
216,144,113731,1,0,0:0:0:0:
368,136,113832,1,0,0:0:0:0:
368,136,113933,1,0,0:0:0:0:
408,224,114034,5,0,0:0:0:0:
392,280,114135,1,0,0:0:0:0:
336,304,114237,1,0,0:0:0:0:
128,264,114338,1,0,0:0:0:0:
192,256,114439,1,0,0:0:0:0:
240,296,114541,1,0,0:0:0:0:
152,360,114642,1,0,0:0:0:0:
64,344,114743,1,0,0:0:0:0:
48,256,114845,5,0,0:0:0:0:
48,192,114946,1,0,0:0:0:0:
48,128,115047,1,0,0:0:0:0:
152,16,115149,1,0,0:0:0:0:
152,80,115250,1,0,0:0:0:0:
152,144,115351,1,0,0:0:0:0:
48,40,115453,1,0,0:0:0:0:
152,40,115554,1,0,0:0:0:0:
256,40,115656,5,0,0:0:0:0:
352,40,115757,1,0,0:0:0:0:
448,40,115858,1,0,0:0:0:0:
256,128,115960,5,0,0:0:0:0:
160,128,116061,1,0,0:0:0:0:
64,128,116162,1,0,0:0:0:0:
352,128,116264,5,0,0:0:0:0:
448,128,116365,1,0,0:0:0:0:
448,224,116466,5,0,0:0:0:0:
352,224,116568,1,0,0:0:0:0:
256,224,116669,1,0,0:0:0:0:
64,224,116770,5,0,0:0:0:0:
160,224,116872,1,0,0:0:0:0:
256,224,116973,1,0,0:0:0:0:
256,320,117074,5,0,0:0:0:0:
256,224,117176,1,0,0:0:0:0:
256,128,117277,5,0,0:0:0:0:
256,56,117378,1,0,0:0:0:0:
256,128,117480,1,0,0:0:0:0:
192,88,117581,5,0,0:0:0:0:
256,128,117682,1,0,0:0:0:0:
320,88,117784,1,0,0:0:0:0:
376,136,117885,1,0,0:0:0:0:
344,200,117986,1,0,0:0:0:0:
272,200,118088,5,0,0:0:0:0:
216,248,118189,1,0,0:0:0:0:
272,200,118291,1,0,0:0:0:0:
280,272,118392,5,0,0:0:0:0:
272,200,118493,1,0,0:0:0:0:
200,176,118595,1,0,0:0:0:0:
144,232,118696,1,0,0:0:0:0:
112,160,118797,1,0,0:0:0:0:
96,72,118899,5,0,0:0:0:0:
160,40,119000,1,0,0:0:0:0:
232,56,119101,1,0,0:0:0:0:
288,40,119203,1,0,0:0:0:0:
352,64,119304,1,0,0:0:0:0:
384,48,119405,1,0,0:0:0:0:
456,64,119507,1,0,0:0:0:0:
472,48,119608,1,0,0:0:0:0:
416,8,119709,5,0,0:0:0:0:
392,72,119811,1,0,0:0:0:0:
440,120,119912,1,0,0:0:0:0:
448,192,120014,1,0,0:0:0:0:
456,304,120115,5,0,0:0:0:0:
360,256,120216,1,0,0:0:0:0:
232,336,120318,1,0,0:0:0:0:
136,192,120419,1,0,0:0:0:0:
40,360,120520,5,0,0:0:0:0:
