osu file format v14

[General]
AudioFilename: x.mp3
AudioLeadIn: 982
PreviewTime: 94036
Countdown: 0
SampleSet: Soft
StackLeniency: 0.4
Mode: 3
LetterboxInBreaks: 0
SpecialStyle: 1
WidescreenStoryboard: 0

[Editor]
Bookmarks: 16300,55219
DistanceSpacing: 2.5
BeatDivisor: 4
GridSize: 16
TimelineZoom: 1.3

[Metadata]
Title:Xeus
TitleUnicode:Xeus
Artist:XeoN
ArtistUnicode:XeoN
Creator:My Angel Azusa
Version:Lv.9
Source:DJMAX TECHNIKA3
Tags:Zeus Melodic Trance Tune RAY ukyo hoon streliteela [Emiria] victorica_db ascendance mtbbsben minakami yuki koiyuki sahuang
BeatmapID:1142619
BeatmapSetID:529212

[Difficulty]
HPDrainRate:7.5
CircleSize:8
OverallDifficulty:7
ApproachRate:9
SliderMultiplier:1.6
SliderTickRate:1

[Events]
//Background and Video events
0,0,"xeus.jpg",0,0
Video,-550,"DJ sahuang.avi"
//Break Periods
2,68392,78943
//Storyboard Layer 0 (Background)
//Storyboard Layer 1 (Fail)
//Storyboard Layer 2 (Pass)
//Storyboard Layer 3 (Foreground)
//Storyboard Sound Samples

[TimingPoints]
84,405.405405405405,4,2,5,30,1,0

[HitObjects]
32,192,1705,5,0,0:0:0:0:
224,192,2921,1,0,0:0:0:0:
352,192,3023,1,0,0:0:0:0:
224,192,3124,1,0,0:0:0:0:
352,192,3225,1,0,0:0:0:0:
32,192,3327,1,4,0:0:0:0:
480,192,3327,1,2,0:0:0:0:
96,192,3327,1,0,0:0:0:0:
352,192,3732,1,0,0:0:0:0:
96,192,3732,1,0,0:0:0:0:
288,192,3935,1,0,0:0:0:0:
96,192,4138,1,2,0:0:0:0:
352,192,4340,1,0,0:0:0:0:
480,192,4543,1,2,0:0:0:0:
96,192,4543,1,0,0:0:0:0:
96,192,4948,1,2,0:0:0:0:
416,192,5151,1,0,0:0:0:0:
96,192,5354,1,2,0:0:0:0:
288,192,5556,1,0,0:0:0:0:
96,192,5759,1,2,0:0:0:0:
224,192,5962,1,0,0:0:0:0:
352,192,6165,1,2,0:0:0:0:
96,192,6165,1,0,0:0:0:0:
96,192,6570,1,2,0:0:0:0:
480,192,6570,1,0,0:0:0:0:
352,192,6975,1,2,0:0:0:0:
96,192,6975,1,0,0:0:0:0:
416,192,7178,1,0,0:0:0:0:
96,192,7381,1,2,0:0:0:0:
224,192,7583,1,0,0:0:0:0:
352,192,7786,1,2,0:0:0:0:
96,192,7786,1,0,0:0:0:0:
96,192,8192,1,2,0:0:0:0:
352,192,8394,1,0,0:0:0:0:
96,192,8597,1,2,0:0:0:0:
224,192,8800,1,0,0:0:0:0:
96,192,9002,1,2,0:0:0:0:
480,192,9002,1,0,0:0:0:0:
352,192,9104,1,0,0:0:0:0:
224,192,9205,1,0,0:0:0:0:
352,192,9408,1,2,0:0:0:0:
96,192,9408,1,0,0:0:0:0:
480,192,9408,1,0,0:0:0:0:
224,192,9611,1,0,0:0:0:0:
96,192,9813,1,2,0:0:0:0:
480,192,9813,1,0,0:0:0:0:
288,192,9813,1,0,0:0:0:0:
416,192,10016,1,0,0:0:0:0:
160,192,10016,1,0,0:0:0:0:
32,192,10219,1,4,0:0:0:0:
480,192,10219,1,2,0:0:0:0:
352,192,10219,1,0,0:0:0:0:
96,192,10219,1,0,0:0:0:0:
224,192,10320,1,0,0:0:0:0:
416,192,10421,1,0,0:0:0:0:
96,192,10624,1,2,0:0:0:0:
288,192,10624,1,0,0:0:0:0:
416,192,10725,1,0,0:0:0:0:
224,192,10827,1,0,0:0:0:0:
352,192,10928,1,0,0:0:0:0:
96,192,11029,1,2,0:0:0:0:
480,192,11029,1,0,0:0:0:0:
288,192,11029,1,0,0:0:0:0:
224,192,11131,1,0,0:0:0:0:
416,192,11232,1,0,0:0:0:0:
96,192,11435,1,2,0:0:0:0:
288,192,11435,1,0,0:0:0:0:
160,192,11638,1,0,0:0:0:0:
224,192,11739,1,0,0:0:0:0:
352,192,11840,1,2,0:0:0:0:
480,192,11840,1,0,0:0:0:0:
96,192,11840,1,0,0:0:0:0:
160,192,11942,1,0,0:0:0:0:
416,192,12043,1,0,0:0:0:0:
96,192,12246,1,2,0:0:0:0:
224,192,12246,1,0,0:0:0:0:
352,192,12347,1,0,0:0:0:0:
480,192,12448,1,0,0:0:0:0:
416,192,12651,1,2,0:0:0:0:
96,192,12651,1,0,0:0:0:0:
224,192,12651,1,0,0:0:0:0:
288,192,12854,1,0,0:0:0:0:
96,192,13056,1,2,0:0:0:0:
480,192,13056,1,0,0:0:0:0:
224,192,13259,1,0,0:0:0:0:
352,192,13361,1,0,0:0:0:0:
480,192,13462,1,2,0:0:0:0:
96,192,13462,1,0,0:0:0:0:
160,192,13462,1,0,0:0:0:0:
288,192,13563,1,0,0:0:0:0:
416,192,13665,1,0,0:0:0:0:
224,192,13867,1,2,0:0:0:0:
96,192,13867,1,0,0:0:0:0:
416,192,13969,1,0,0:0:0:0:
288,192,14070,1,0,0:0:0:0:
416,192,14171,1,0,0:0:0:0:
96,192,14273,1,2,0:0:0:0:
480,192,14273,1,0,0:0:0:0:
224,192,14273,1,0,0:0:0:0:
352,192,14374,1,0,0:0:0:0:
160,192,14475,1,0,0:0:0:0:
224,192,14678,1,2,0:0:0:0:
96,192,14678,1,0,0:0:0:0:
32,192,16300,1,4,0:0:0:0:
288,192,16300,1,2,0:0:0:0:
96,192,16300,1,0,0:0:0:0:
416,192,16604,1,0,0:0:0:0:
96,192,16705,1,2,0:0:0:0:
480,192,16705,1,0,0:0:0:0:
288,192,16908,1,0,0:0:0:0:
160,192,17111,1,2,0:0:0:0:
96,192,17111,1,0,0:0:0:0:
288,192,17415,1,0,0:0:0:0:
96,192,17516,1,2,0:0:0:0:
480,192,17516,1,0,0:0:0:0:
416,192,17719,1,0,0:0:0:0:
96,192,17921,1,2,0:0:0:0:
352,192,17921,1,0,0:0:0:0:
224,192,18023,1,0,0:0:0:0:
416,192,18327,1,2,0:0:0:0:
96,192,18327,1,0,0:0:0:0:
224,192,18327,1,0,0:0:0:0:
288,192,18529,1,0,0:0:0:0:
160,192,18732,1,2,0:0:0:0:
480,192,18732,1,0,0:0:0:0:
288,192,19036,1,0,0:0:0:0:
96,192,19138,1,2,0:0:0:0:
480,192,19138,1,0,0:0:0:0:
416,192,19340,1,0,0:0:0:0:
96,192,19543,1,2,0:0:0:0:
224,192,19543,1,0,0:0:0:0:
480,192,19847,1,0,0:0:0:0:
96,192,19948,1,2,0:0:0:0:
352,192,19948,1,0,0:0:0:0:
224,192,20151,1,0,0:0:0:0:
480,192,20354,1,2,0:0:0:0:
96,192,20354,1,0,0:0:0:0:
288,192,20658,1,0,0:0:0:0:
96,192,20759,1,2,0:0:0:0:
416,192,20759,1,0,0:0:0:0:
160,192,20962,1,0,0:0:0:0:
96,192,21165,1,2,0:0:0:0:
352,192,21266,1,0,0:0:0:0:
352,192,21570,1,2,0:0:0:0:
96,192,21570,1,0,0:0:0:0:
480,192,21570,1,0,0:0:0:0:
224,192,21773,1,0,0:0:0:0:
96,192,21975,1,2,0:0:0:0:
416,192,21975,1,0,0:0:0:0:
160,192,22279,1,0,0:0:0:0:
96,192,22381,1,2,0:0:0:0:
480,192,22381,1,0,0:0:0:0:
224,192,22583,1,0,0:0:0:0:
416,192,22786,1,2,0:0:0:0:
96,192,22786,1,0,0:0:0:0:
416,192,23090,1,0,0:0:0:0:
96,192,23192,1,2,0:0:0:0:
288,192,23192,1,0,0:0:0:0:
224,192,23394,1,0,0:0:0:0:
416,192,23597,1,2,0:0:0:0:
96,192,23597,1,0,0:0:0:0:
160,192,23901,1,0,0:0:0:0:
352,192,24002,1,2,0:0:0:0:
480,192,24002,1,0,0:0:0:0:
96,192,24205,1,0,0:0:0:0:
288,192,24408,1,2,0:0:0:0:
160,192,24509,1,0,0:0:0:0:
352,192,24813,1,2,0:0:0:0:
96,192,24813,1,0,0:0:0:0:
480,192,24813,1,0,0:0:0:0:
224,192,25016,1,0,0:0:0:0:
96,192,25219,1,2,0:0:0:0:
352,192,25219,1,0,0:0:0:0:
160,192,25523,1,0,0:0:0:0:
480,192,25624,1,2,0:0:0:0:
352,192,25624,1,0,0:0:0:0:
288,192,25827,1,0,0:0:0:0:
96,192,26029,1,2,0:0:0:0:
416,192,26029,1,0,0:0:0:0:
160,192,26333,1,0,0:0:0:0:
96,192,26435,1,2,0:0:0:0:
480,192,26435,1,0,0:0:0:0:
288,192,26638,1,0,0:0:0:0:
480,192,26840,1,2,0:0:0:0:
96,192,26840,1,0,0:0:0:0:
352,192,27144,1,0,0:0:0:0:
96,192,27246,1,2,0:0:0:0:
416,192,27246,1,0,0:0:0:0:
224,192,27448,1,0,0:0:0:0:
96,192,27651,1,2,0:0:0:0:
288,192,27752,1,0,0:0:0:0:
352,192,28056,1,2,0:0:0:0:
96,192,28056,1,0,0:0:0:0:
480,192,28056,1,0,0:0:0:0:
352,192,28259,1,0,0:0:0:0:
160,192,28462,1,2,0:0:0:0:
480,192,28462,1,0,0:0:0:0:
288,192,28766,1,0,0:0:0:0:
96,192,28867,1,2,0:0:0:0:
416,192,28867,1,0,0:0:0:0:
352,192,29070,1,0,0:0:0:0:
32,192,29273,1,4,0:0:0:0:
96,192,29273,1,2,0:0:0:0:
480,192,29273,1,0,0:0:0:0:
224,192,29273,1,0,0:0:0:0:
96,192,29577,1,0,0:0:0:0:
480,192,29577,1,0,0:0:0:0:
288,192,29678,1,2,0:0:0:0:
352,192,29881,1,0,0:0:0:0:
224,192,29881,1,0,0:0:0:0:
96,192,30083,1,2,0:0:0:0:
416,192,30083,1,0,0:0:0:0:
288,192,30083,1,0,0:0:0:0:
96,192,30388,1,0,0:0:0:0:
416,192,30388,1,0,0:0:0:0:
480,192,30489,1,2,0:0:0:0:
160,192,30692,1,0,0:0:0:0:
288,192,30692,1,0,0:0:0:0:
96,192,30894,1,2,0:0:0:0:
224,192,30996,1,0,0:0:0:0:
416,192,30996,1,0,0:0:0:0:
480,192,31300,1,2,0:0:0:0:
96,192,31300,1,0,0:0:0:0:
288,192,31300,1,0,0:0:0:0:
224,192,31502,1,0,0:0:0:0:
352,192,31502,1,0,0:0:0:0:
96,192,31705,1,2,0:0:0:0:
480,192,31705,1,0,0:0:0:0:
288,192,31705,1,0,0:0:0:0:
224,192,32009,1,0,0:0:0:0:
352,192,32009,1,0,0:0:0:0:
96,192,32111,1,2,0:0:0:0:
160,192,32313,1,0,0:0:0:0:
416,192,32313,1,0,0:0:0:0:
96,192,32516,1,2,0:0:0:0:
480,192,32516,1,0,0:0:0:0:
352,192,32516,1,0,0:0:0:0:
416,192,32820,1,0,0:0:0:0:
160,192,32820,1,0,0:0:0:0:
96,192,32921,1,2,0:0:0:0:
96,192,33124,1,0,0:0:0:0:
480,192,33124,1,0,0:0:0:0:
288,192,33327,1,2,0:0:0:0:
416,192,33327,1,0,0:0:0:0:
160,192,33327,1,0,0:0:0:0:
224,192,33631,1,0,0:0:0:0:
96,192,33631,1,0,0:0:0:0:
480,192,33732,1,2,0:0:0:0:
416,192,33935,1,0,0:0:0:0:
288,192,33935,1,0,0:0:0:0:
352,192,34138,1,2,0:0:0:0:
96,192,34239,1,0,0:0:0:0:
224,192,34239,1,0,0:0:0:0:
352,192,34543,1,2,0:0:0:0:
480,192,34543,1,0,0:0:0:0:
160,192,34543,1,0,0:0:0:0:
224,192,34746,1,0,0:0:0:0:
416,192,34746,1,0,0:0:0:0:
352,192,34948,1,2,0:0:0:0:
480,192,34948,1,0,0:0:0:0:
96,192,34948,1,0,0:0:0:0:
160,192,35252,1,0,0:0:0:0:
288,192,35252,1,0,0:0:0:0:
96,192,35354,1,2,0:0:0:0:
352,192,35556,1,0,0:0:0:0:
160,192,35556,1,0,0:0:0:0:
480,192,35759,1,2,0:0:0:0:
224,192,35759,1,0,0:0:0:0:
96,192,35759,1,0,0:0:0:0:
480,192,36063,1,0,0:0:0:0:
288,192,36063,1,0,0:0:0:0:
96,192,36165,1,2,0:0:0:0:
352,192,36367,1,0,0:0:0:0:
160,192,36367,1,0,0:0:0:0:
480,192,36570,1,2,0:0:0:0:
224,192,36570,1,0,0:0:0:0:
96,192,36570,1,0,0:0:0:0:
96,192,36874,1,0,0:0:0:0:
352,192,36874,1,0,0:0:0:0:
480,192,36975,1,2,0:0:0:0:
224,192,37178,1,0,0:0:0:0:
416,192,37178,1,0,0:0:0:0:
96,192,37381,1,2,0:0:0:0:
160,192,37482,1,0,0:0:0:0:
352,192,37482,1,0,0:0:0:0:
352,192,37786,1,2,0:0:0:0:
480,192,37786,1,0,0:0:0:0:
96,192,37786,1,0,0:0:0:0:
224,192,37989,1,0,0:0:0:0:
416,192,37989,1,0,0:0:0:0:
352,192,38192,1,2,0:0:0:0:
480,192,38192,1,0,0:0:0:0:
96,192,38192,1,0,0:0:0:0:
352,192,38496,1,0,0:0:0:0:
480,192,38496,1,0,0:0:0:0:
96,192,38597,1,2,0:0:0:0:
160,192,38800,1,0,0:0:0:0:
288,192,38800,1,0,0:0:0:0:
352,192,39002,1,2,0:0:0:0:
480,192,39002,1,0,0:0:0:0:
96,192,39002,1,0,0:0:0:0:
480,192,39306,1,0,0:0:0:0:
352,192,39306,1,0,0:0:0:0:
96,192,39408,1,2,0:0:0:0:
160,192,39611,1,0,0:0:0:0:
288,192,39611,1,0,0:0:0:0:
352,192,39813,1,2,0:0:0:0:
480,192,39813,1,0,0:0:0:0:
96,192,39813,1,0,0:0:0:0:
416,192,40117,1,0,0:0:0:0:
224,192,40117,1,0,0:0:0:0:
96,192,40219,1,2,0:0:0:0:
288,192,40421,1,0,0:0:0:0:
416,192,40421,1,0,0:0:0:0:
96,192,40624,1,2,0:0:0:0:
224,192,40725,1,0,0:0:0:0:
416,192,40725,1,0,0:0:0:0:
480,192,41029,1,2,0:0:0:0:
288,192,41029,1,0,0:0:0:0:
96,192,41029,1,0,0:0:0:0:
416,192,41232,1,0,0:0:0:0:
224,192,41232,1,0,0:0:0:0:
352,192,41435,1,2,0:0:0:0:
160,192,41435,1,0,0:0:0:0:
480,192,41435,1,0,0:0:0:0:
224,192,41739,1,0,0:0:0:0:
416,192,41739,1,0,0:0:0:0:
96,192,41840,1,2,0:0:0:0:
288,192,42043,1,0,0:0:0:0:
160,192,42043,1,0,0:0:0:0:
32,192,42246,1,2,0:0:0:0:
480,192,42246,1,4,0:0:0:0:
96,192,42246,1,0,0:0:0:0:
224,192,42448,1,0,0:0:0:0:
352,192,42651,1,2,0:0:0:0:
96,192,42651,1,0,0:0:0:0:
480,192,42651,1,0,0:0:0:0:
160,192,42854,1,0,0:0:0:0:
96,192,43056,1,2,0:0:0:0:
480,192,43462,1,2,0:0:0:0:
96,192,43462,1,0,0:0:0:0:
224,192,43462,1,0,0:0:0:0:
288,192,43665,1,0,0:0:0:0:
96,192,43867,1,2,0:0:0:0:
416,192,43867,1,0,0:0:0:0:
224,192,44070,1,0,0:0:0:0:
224,192,44273,1,2,0:0:0:0:
96,192,44273,1,0,0:0:0:0:
480,192,44273,1,0,0:0:0:0:
416,192,44475,1,0,0:0:0:0:
288,192,44577,1,0,0:0:0:0:
96,192,44678,1,2,0:0:0:0:
224,192,44678,1,0,0:0:0:0:
352,192,44881,1,0,0:0:0:0:
224,192,45083,1,2,0:0:0:0:
96,192,45083,1,0,0:0:0:0:
416,192,45083,1,0,0:0:0:0:
480,192,45286,1,0,0:0:0:0:
352,192,45489,1,2,0:0:0:0:
96,192,45489,1,0,0:0:0:0:
480,192,45894,1,2,0:0:0:0:
96,192,45894,1,0,0:0:0:0:
224,192,45894,1,0,0:0:0:0:
288,192,46097,1,0,0:0:0:0:
96,192,46300,1,2,0:0:0:0:
352,192,46502,1,0,0:0:0:0:
96,192,46705,1,2,0:0:0:0:
480,192,46705,1,0,0:0:0:0:
352,192,46908,1,0,0:0:0:0:
224,192,47009,1,0,0:0:0:0:
96,192,47111,1,2,0:0:0:0:
480,192,47111,1,0,0:0:0:0:
288,192,47212,1,0,0:0:0:0:
416,192,47313,1,0,0:0:0:0:
288,192,47415,1,0,0:0:0:0:
416,192,47516,1,2,0:0:0:0:
96,192,47516,1,0,0:0:0:0:
224,192,47617,1,0,0:0:0:0:
352,192,47719,1,0,0:0:0:0:
224,192,47820,1,0,0:0:0:0:
96,192,47921,1,2,0:0:0:0:
352,192,47921,1,0,0:0:0:0:
160,192,48023,1,0,0:0:0:0:
288,192,48124,1,0,0:0:0:0:
160,192,48225,1,0,0:0:0:0:
288,192,48327,1,2,0:0:0:0:
96,192,48327,1,0,0:0:0:0:
224,192,48428,1,0,0:0:0:0:
352,192,48529,1,0,0:0:0:0:
288,192,48631,1,0,0:0:0:0:
480,192,48732,1,2,0:0:0:0:
96,192,48732,1,0,0:0:0:0:
416,192,48732,1,0,0:0:0:0:
352,192,48935,1,0,0:0:0:0:
224,192,49138,1,2,0:0:0:0:
480,192,49138,1,0,0:0:0:0:
96,192,49138,1,0,0:0:0:0:
160,192,49340,1,0,0:0:0:0:
96,192,49543,1,2,0:0:0:0:
288,192,49948,1,2,0:0:0:0:
96,192,49948,1,0,0:0:0:0:
480,192,49948,1,0,0:0:0:0:
416,192,50151,1,0,0:0:0:0:
160,192,50354,1,2,0:0:0:0:
288,192,50556,1,0,0:0:0:0:
352,192,50759,1,2,0:0:0:0:
480,192,50759,1,0,0:0:0:0:
96,192,50962,1,0,0:0:0:0:
224,192,51063,1,0,0:0:0:0:
352,192,51165,1,2,0:0:0:0:
480,192,51165,1,0,0:0:0:0:
288,192,51367,1,0,0:0:0:0:
480,192,51570,1,2,0:0:0:0:
96,192,51570,1,0,0:0:0:0:
224,192,51570,1,0,0:0:0:0:
160,192,51773,1,0,0:0:0:0:
352,192,51975,1,2,0:0:0:0:
96,192,51975,1,0,0:0:0:0:
96,192,52381,1,2,0:0:0:0:
224,192,52381,1,0,0:0:0:0:
480,192,52381,1,0,0:0:0:0:
416,192,52583,1,0,0:0:0:0:
96,192,52786,1,2,0:0:0:0:
288,192,52989,1,0,0:0:0:0:
96,192,53192,1,2,0:0:0:0:
352,192,53192,1,0,0:0:0:0:
160,192,53394,1,0,0:0:0:0:
480,192,53597,1,2,0:0:0:0:
96,192,53597,1,0,0:0:0:0:
416,192,53698,1,0,0:0:0:0:
352,192,53800,1,0,0:0:0:0:
288,192,53901,1,0,0:0:0:0:
224,192,54002,1,2,0:0:0:0:
96,192,54002,1,2,0:0:0:0:
160,192,54104,1,0,0:0:0:0:
224,192,54205,1,0,0:0:0:0:
288,192,54306,1,0,0:0:0:0:
96,192,54408,1,2,0:0:0:0:
352,192,54408,1,0,0:0:0:0:
224,192,54509,1,0,0:0:0:0:
160,192,54611,1,0,0:0:0:0:
288,192,54712,1,0,0:0:0:0:
352,192,54813,1,0,0:0:0:0:
480,192,54813,1,0,0:0:0:0:
288,192,54915,1,0,0:0:0:0:
224,192,55016,1,2,0:0:0:0:
160,192,55117,1,0,0:0:0:0:
96,192,55219,1,4,0:0:0:0:
352,192,55219,1,0,0:0:0:0:
32,192,55219,1,4,0:0:0:0:
224,192,55421,1,0,0:0:0:0:
288,192,55624,1,2,0:0:0:0:
96,192,55624,1,0,0:0:0:0:
480,192,55624,1,0,0:0:0:0:
416,192,55827,1,0,0:0:0:0:
96,192,56029,1,2,0:0:0:0:
480,192,56435,1,2,0:0:0:0:
96,192,56435,1,0,0:0:0:0:
224,192,56435,1,0,0:0:0:0:
352,192,56638,1,0,0:0:0:0:
96,192,56840,1,2,0:0:0:0:
416,192,56840,1,0,0:0:0:0:
288,192,57043,1,0,0:0:0:0:
96,192,57246,1,2,0:0:0:0:
480,192,57246,1,0,0:0:0:0:
160,192,57448,1,0,0:0:0:0:
288,192,57550,1,0,0:0:0:0:
416,192,57651,1,2,0:0:0:0:
96,192,57651,1,0,0:0:0:0:
352,192,57854,1,0,0:0:0:0:
96,192,58056,1,2,0:0:0:0:
224,192,58056,1,0,0:0:0:0:
480,192,58056,1,0,0:0:0:0:
416,192,58259,1,0,0:0:0:0:
288,192,58462,1,0,0:0:0:0:
96,192,58462,1,2,0:0:0:0:
416,192,58867,1,2,0:0:0:0:
96,192,58867,1,0,0:0:0:0:
288,192,58867,1,0,0:0:0:0:
224,192,59070,1,0,0:0:0:0:
96,192,59273,1,2,0:0:0:0:
288,192,59475,1,0,0:0:0:0:
96,192,59678,1,2,0:0:0:0:
416,192,59678,1,0,0:0:0:0:
224,192,59881,1,0,0:0:0:0:
352,192,59982,1,0,0:0:0:0:
480,192,60083,1,2,0:0:0:0:
96,192,60083,1,0,0:0:0:0:
352,192,60185,1,0,0:0:0:0:
480,192,60286,1,0,0:0:0:0:
352,192,60388,1,0,0:0:0:0:
416,192,60489,1,2,0:0:0:0:
96,192,60489,1,0,0:0:0:0:
288,192,60590,1,0,0:0:0:0:
416,192,60692,1,0,0:0:0:0:
288,192,60793,1,0,0:0:0:0:
352,192,60894,1,2,0:0:0:0:
96,192,60894,1,0,0:0:0:0:
224,192,60996,1,0,0:0:0:0:
352,192,61097,1,0,0:0:0:0:
224,192,61198,1,0,0:0:0:0:
288,192,61300,1,2,0:0:0:0:
96,192,61300,1,0,0:0:0:0:
160,192,61401,1,0,0:0:0:0:
288,192,61502,1,0,0:0:0:0:
160,192,61604,1,0,0:0:0:0:
224,192,61705,1,2,0:0:0:0:
96,192,61705,1,0,0:0:0:0:
352,192,61705,1,0,0:0:0:0:
416,192,61908,1,0,0:0:0:0:
160,192,62111,1,2,0:0:0:0:
96,192,62111,1,0,0:0:0:0:
480,192,62111,1,0,0:0:0:0:
224,192,62313,1,0,0:0:0:0:
96,192,62516,1,2,0:0:0:0:
352,192,62921,1,2,0:0:0:0:
96,192,62921,1,0,0:0:0:0:
480,192,62921,1,0,0:0:0:0:
160,192,63124,1,0,0:0:0:0:
96,192,63327,1,2,0:0:0:0:
352,192,63327,1,0,0:0:0:0:
288,192,63529,1,0,0:0:0:0:
96,192,63732,1,2,0:0:0:0:
224,192,63732,1,0,0:0:0:0:
480,192,63935,1,0,0:0:0:0:
352,192,64036,1,0,0:0:0:0:
224,192,64138,1,2,0:0:0:0:
96,192,64138,1,0,0:0:0:0:
224,192,64340,1,0,0:0:0:0:
352,192,64543,1,2,0:0:0:0:
96,192,64543,1,0,0:0:0:0:
480,192,64543,1,0,0:0:0:0:
352,192,64746,1,2,0:0:0:0:
224,192,64746,1,0,0:0:0:0:
480,192,64948,1,2,0:0:0:0:
96,192,64948,1,0,0:0:0:0:
288,192,64948,1,0,0:0:0:0:
224,192,65151,1,2,0:0:0:0:
352,192,65354,1,2,0:0:0:0:
96,192,65354,1,0,0:0:0:0:
480,192,65556,1,2,0:0:0:0:
224,192,65556,1,0,0:0:0:0:
96,192,65759,1,2,0:0:0:0:
352,192,65962,1,2,0:0:0:0:
224,192,65962,1,0,0:0:0:0:
96,192,66165,1,2,0:0:0:0:
224,192,66367,1,2,0:0:0:0:
480,192,66367,1,0,0:0:0:0:
352,192,66469,1,0,0:0:0:0:
96,192,66570,1,2,0:0:0:0:
32,192,66570,1,4,0:0:0:0:
480,192,66570,1,0,0:0:0:0:
224,192,66671,1,2,0:0:0:0:
352,192,66773,1,2,0:0:0:0:
224,192,66874,1,2,0:0:0:0:
352,192,66975,1,2,0:0:0:0:
288,192,67077,1,2,0:0:0:0:
224,192,67178,1,2,0:0:0:0:
160,192,67279,1,2,0:0:0:0:
32,192,67381,1,4,0:0:0:0:
96,192,67381,1,2,0:0:0:0:
352,192,67482,1,0,0:0:0:0:
224,192,67685,1,0,0:0:0:0:
32,192,67786,1,4,0:0:0:0:
480,192,67786,1,2,0:0:0:0:
96,192,67786,1,0,0:0:0:0:
352,192,67989,1,0,0:0:0:0:
224,192,68090,1,0,0:0:0:0:
32,192,68192,1,4,0:0:0:0:
96,192,68192,1,2,0:0:0:0:
480,192,68192,1,0,0:0:0:0:
32,192,79543,5,4,0:0:0:0:
352,192,79543,1,2,0:0:0:0:
416,192,80556,1,0,0:0:0:0:
160,192,80658,1,0,0:0:0:0:
416,192,80759,1,0,0:0:0:0:
288,192,80962,1,0,0:0:0:0:
160,192,81165,1,2,0:0:0:0:
96,192,81165,1,0,0:0:0:0:
416,192,81266,1,0,0:0:0:0:
224,192,81469,1,0,0:0:0:0:
96,192,81570,1,4,0:0:0:0:
480,192,81570,1,2,0:0:0:0:
32,192,81570,1,0,0:0:0:0:
352,192,81773,1,0,0:0:0:0:
96,192,81975,1,2,0:0:0:0:
480,192,82178,1,0,0:0:0:0:
96,192,82381,1,2,0:0:0:0:
416,192,82381,1,0,0:0:0:0:
288,192,82381,1,0,0:0:0:0:
224,192,82583,1,0,0:0:0:0:
96,192,82786,1,2,0:0:0:0:
480,192,82786,1,0,0:0:0:0:
352,192,82888,1,0,0:0:0:0:
224,192,83192,1,2,0:0:0:0:
96,192,83192,1,0,0:0:0:0:
480,192,83192,1,0,0:0:0:0:
416,192,83394,1,0,0:0:0:0:
96,192,83597,1,2,0:0:0:0:
480,192,83800,1,0,0:0:0:0:
224,192,84002,1,2,0:0:0:0:
96,192,84002,1,0,0:0:0:0:
416,192,84002,1,0,0:0:0:0:
352,192,84205,1,0,0:0:0:0:
96,192,84408,1,2,0:0:0:0:
224,192,84408,1,0,0:0:0:0:
96,192,84712,1,0,0:0:0:0:
352,192,84813,1,2,0:0:0:0:
480,192,84813,1,0,0:0:0:0:
96,192,85016,1,0,0:0:0:0:
224,192,85219,1,2,0:0:0:0:
288,192,85421,1,0,0:0:0:0:
288,192,85624,1,2,0:0:0:0:
96,192,85624,1,0,0:0:0:0:
480,192,85624,1,0,0:0:0:0:
288,192,85827,1,0,0:0:0:0:
416,192,86029,1,2,0:0:0:0:
96,192,86029,1,0,0:0:0:0:
416,192,86333,1,0,0:0:0:0:
96,192,86435,1,2,0:0:0:0:
224,192,86435,1,0,0:0:0:0:
416,192,86638,1,0,0:0:0:0:
96,192,86840,1,2,0:0:0:0:
352,192,87043,1,0,0:0:0:0:
224,192,87246,1,2,0:0:0:0:
480,192,87246,1,0,0:0:0:0:
416,192,87246,1,0,0:0:0:0:
96,192,87448,1,0,0:0:0:0:
480,192,87651,1,2,0:0:0:0:
224,192,87651,1,0,0:0:0:0:
352,192,87854,1,0,0:0:0:0:
224,192,88056,1,2,0:0:0:0:
96,192,88056,1,0,0:0:0:0:
480,192,88056,1,0,0:0:0:0:
416,192,88259,1,0,0:0:0:0:
288,192,88462,1,2,0:0:0:0:
96,192,88462,1,0,0:0:0:0:
160,192,88665,1,0,0:0:0:0:
352,192,88867,1,2,0:0:0:0:
96,192,88867,1,0,0:0:0:0:
480,192,88867,1,0,0:0:0:0:
224,192,89070,1,0,0:0:0:0:
480,192,89273,1,2,0:0:0:0:
96,192,89273,1,0,0:0:0:0:
352,192,89475,1,0,0:0:0:0:
224,192,89678,1,2,0:0:0:0:
96,192,89678,1,0,0:0:0:0:
480,192,89678,1,0,0:0:0:0:
416,192,89881,1,0,0:0:0:0:
288,192,90083,1,2,0:0:0:0:
96,192,90083,1,0,0:0:0:0:
160,192,90286,1,0,0:0:0:0:
352,192,90489,1,2,0:0:0:0:
96,192,90489,1,0,0:0:0:0:
480,192,90489,1,0,0:0:0:0:
96,192,90692,1,0,0:0:0:0:
288,192,90692,1,0,0:0:0:0:
96,192,90894,1,2,0:0:0:0:
416,192,90894,1,0,0:0:0:0:
352,192,91097,1,0,0:0:0:0:
160,192,91097,1,0,0:0:0:0:
224,192,91300,1,2,0:0:0:0:
416,192,91300,1,0,0:0:0:0:
96,192,91502,1,0,0:0:0:0:
288,192,91502,1,0,0:0:0:0:
224,192,91705,1,2,0:0:0:0:
480,192,91705,1,0,0:0:0:0:
160,192,91806,1,0,0:0:0:0:
96,192,91908,1,0,0:0:0:0:
352,192,91908,1,0,0:0:0:0:
480,192,92111,1,2,0:0:0:0:
224,192,92111,1,0,0:0:0:0:
416,192,92212,1,0,0:0:0:0:
352,192,92313,1,0,0:0:0:0:
96,192,92313,1,0,0:0:0:0:
224,192,92516,1,2,0:0:0:0:
480,192,92516,1,0,0:0:0:0:
352,192,92617,1,2,0:0:0:0:
96,192,92719,1,2,0:0:0:0:
288,192,92719,1,0,0:0:0:0:
160,192,92820,1,2,0:0:0:0:
352,192,92921,1,2,0:0:0:0:
480,192,92921,1,0,0:0:0:0:
96,192,93023,1,2,0:0:0:0:
224,192,93124,1,2,0:0:0:0:
416,192,93124,1,0,0:0:0:0:
352,192,93225,1,2,0:0:0:0:
96,192,93327,1,2,0:0:0:0:
480,192,93327,1,0,0:0:0:0:
224,192,93428,1,2,0:0:0:0:
416,192,93529,1,2,0:0:0:0:
160,192,93529,1,0,0:0:0:0:
352,192,93631,1,2,0:0:0:0:
96,192,93732,1,2,0:0:0:0:
480,192,93732,1,0,0:0:0:0:
160,192,93833,1,0,0:0:0:0:
224,192,93935,1,0,0:0:0:0:
288,192,94036,1,0,0:0:0:0:
96,192,94138,1,2,0:0:0:0:
32,192,94138,1,4,0:0:0:0:
352,192,94138,1,0,0:0:0:0:
480,192,94138,1,0,0:0:0:0:
416,192,94239,1,0,0:0:0:0:
160,192,94340,1,0,0:0:0:0:
224,192,94442,1,0,0:0:0:0:
352,192,94442,1,0,0:0:0:0:
96,192,94543,1,2,0:0:0:0:
288,192,94644,1,0,0:0:0:0:
416,192,94746,1,0,0:0:0:0:
160,192,94746,1,0,0:0:0:0:
480,192,94847,1,0,0:0:0:0:
288,192,94948,1,2,0:0:0:0:
96,192,94948,1,0,0:0:0:0:
416,192,95050,1,0,0:0:0:0:
160,192,95151,1,0,0:0:0:0:
224,192,95252,1,0,0:0:0:0:
352,192,95252,1,0,0:0:0:0:
96,192,95354,1,2,0:0:0:0:
416,192,95455,1,0,0:0:0:0:
96,192,95556,1,0,0:0:0:0:
224,192,95556,1,0,0:0:0:0:
352,192,95658,1,0,0:0:0:0:
288,192,95759,1,2,0:0:0:0:
160,192,95759,1,0,0:0:0:0:
480,192,95861,1,0,0:0:0:0:
96,192,95962,1,0,0:0:0:0:
416,192,96063,1,0,0:0:0:0:
224,192,96063,1,0,0:0:0:0:
352,192,96165,1,2,0:0:0:0:
96,192,96266,1,0,0:0:0:0:
480,192,96367,1,0,0:0:0:0:
288,192,96367,1,0,0:0:0:0:
160,192,96469,1,0,0:0:0:0:
352,192,96570,1,2,0:0:0:0:
96,192,96570,1,0,0:0:0:0:
416,192,96671,1,0,0:0:0:0:
160,192,96773,1,0,0:0:0:0:
224,192,96874,1,0,0:0:0:0:
352,192,96874,1,0,0:0:0:0:
480,192,96975,1,2,0:0:0:0:
160,192,97077,1,0,0:0:0:0:
96,192,97178,1,0,0:0:0:0:
288,192,97178,1,0,0:0:0:0:
224,192,97279,1,0,0:0:0:0:
416,192,97279,1,0,0:0:0:0:
352,192,97381,1,2,0:0:0:0:
160,192,97381,1,0,0:0:0:0:
480,192,97482,1,0,0:0:0:0:
96,192,97583,1,0,0:0:0:0:
288,192,97685,1,0,0:0:0:0:
416,192,97685,1,0,0:0:0:0:
160,192,97786,1,2,0:0:0:0:
352,192,97888,1,0,0:0:0:0:
416,192,97989,1,0,0:0:0:0:
224,192,97989,1,0,0:0:0:0:
160,192,98090,1,0,0:0:0:0:
480,192,98192,1,2,0:0:0:0:
352,192,98192,1,0,0:0:0:0:
224,192,98293,1,0,0:0:0:0:
96,192,98394,1,0,0:0:0:0:
416,192,98496,1,0,0:0:0:0:
288,192,98496,1,0,0:0:0:0:
160,192,98597,1,2,0:0:0:0:
480,192,98698,1,0,0:0:0:0:
352,192,98800,1,0,0:0:0:0:
96,192,98800,1,0,0:0:0:0:
224,192,98901,1,0,0:0:0:0:
160,192,99002,1,2,0:0:0:0:
480,192,99002,1,0,0:0:0:0:
288,192,99104,1,0,0:0:0:0:
96,192,99205,1,0,0:0:0:0:
352,192,99306,1,0,0:0:0:0:
160,192,99306,1,0,0:0:0:0:
480,192,99408,1,2,0:0:0:0:
352,192,99509,1,0,0:0:0:0:
224,192,99611,1,0,0:0:0:0:
96,192,99611,1,0,0:0:0:0:
416,192,99712,1,0,0:0:0:0:
160,192,99813,1,2,0:0:0:0:
288,192,99813,1,0,0:0:0:0:
480,192,99915,1,0,0:0:0:0:
96,192,100016,1,0,0:0:0:0:
416,192,100117,1,0,0:0:0:0:
288,192,100117,1,0,0:0:0:0:
160,192,100219,1,2,0:0:0:0:
352,192,100320,1,0,0:0:0:0:
224,192,100421,1,0,0:0:0:0:
480,192,100421,1,0,0:0:0:0:
96,192,100523,1,0,0:0:0:0:
288,192,100523,1,0,0:0:0:0:
352,192,100624,1,2,0:0:0:0:
160,192,100624,1,0,0:0:0:0:
224,192,100725,1,0,0:0:0:0:
352,192,100827,1,0,0:0:0:0:
480,192,100928,1,0,0:0:0:0:
160,192,100928,1,0,0:0:0:0:
352,192,101029,1,2,0:0:0:0:
96,192,101029,1,0,0:0:0:0:
160,192,101232,1,0,0:0:0:0:
288,192,101232,1,0,0:0:0:0:
416,192,101333,1,0,0:0:0:0:
96,192,101435,1,2,0:0:0:0:
224,192,101435,1,0,0:0:0:0:
480,192,101536,1,0,0:0:0:0:
160,192,101638,1,0,0:0:0:0:
288,192,101739,1,0,0:0:0:0:
416,192,101739,1,0,0:0:0:0:
96,192,101840,1,2,0:0:0:0:
352,192,101942,1,0,0:0:0:0:
160,192,102043,1,0,0:0:0:0:
288,192,102043,1,0,0:0:0:0:
416,192,102144,1,0,0:0:0:0:
480,192,102246,1,2,0:0:0:0:
96,192,102246,1,0,0:0:0:0:
224,192,102347,1,0,0:0:0:0:
160,192,102448,1,0,0:0:0:0:
352,192,102550,1,0,0:0:0:0:
416,192,102550,1,0,0:0:0:0:
96,192,102651,1,2,0:0:0:0:
288,192,102752,1,0,0:0:0:0:
160,192,102854,1,0,0:0:0:0:
416,192,102854,1,0,0:0:0:0:
288,192,102955,1,0,0:0:0:0:
352,192,103056,1,2,0:0:0:0:
96,192,103056,1,0,0:0:0:0:
224,192,103158,1,0,0:0:0:0:
416,192,103259,1,0,0:0:0:0:
288,192,103361,1,0,0:0:0:0:
160,192,103361,1,0,0:0:0:0:
416,192,103462,1,2,0:0:0:0:
96,192,103563,1,0,0:0:0:0:
160,192,103665,1,0,0:0:0:0:
352,192,103665,1,0,0:0:0:0:
288,192,103766,1,0,0:0:0:0:
480,192,103766,1,0,0:0:0:0:
416,192,103867,1,2,0:0:0:0:
96,192,103867,1,0,0:0:0:0:
224,192,103969,1,0,0:0:0:0:
160,192,104070,1,0,0:0:0:0:
416,192,104171,1,0,0:0:0:0:
288,192,104171,1,0,0:0:0:0:
96,192,104273,1,2,0:0:0:0:
224,192,104374,1,0,0:0:0:0:
416,192,104475,1,0,0:0:0:0:
352,192,104475,1,0,0:0:0:0:
160,192,104577,1,0,0:0:0:0:
288,192,104678,1,2,0:0:0:0:
96,192,104678,1,0,0:0:0:0:
480,192,104779,1,0,0:0:0:0:
160,192,104881,1,0,0:0:0:0:
288,192,104982,1,0,0:0:0:0:
416,192,104982,1,0,0:0:0:0:
96,192,105083,1,2,0:0:0:0:
224,192,105185,1,0,0:0:0:0:
352,192,105286,1,0,0:0:0:0:
480,192,105286,1,0,0:0:0:0:
288,192,105388,1,0,0:0:0:0:
160,192,105489,1,2,0:0:0:0:
416,192,105489,1,0,0:0:0:0:
288,192,105590,1,0,0:0:0:0:
480,192,105692,1,0,0:0:0:0:
160,192,105793,1,0,0:0:0:0:
352,192,105793,1,0,0:0:0:0:
480,192,105894,1,2,0:0:0:0:
288,192,105996,1,0,0:0:0:0:
160,192,106097,1,0,0:0:0:0:
416,192,106097,1,0,0:0:0:0:
352,192,106300,1,2,0:0:0:0:
224,192,106300,1,0,0:0:0:0:
96,192,106401,1,0,0:0:0:0:
288,192,106502,1,0,0:0:0:0:
352,192,106604,1,0,0:0:0:0:
160,192,106604,1,0,0:0:0:0:
224,192,106705,1,2,0:0:0:0:
96,192,106806,1,0,0:0:0:0:
352,192,106908,1,0,0:0:0:0:
288,192,106908,1,0,0:0:0:0:
160,192,107009,1,0,0:0:0:0:
480,192,107111,1,2,0:0:0:0:
96,192,107111,1,0,0:0:0:0:
288,192,107212,1,0,0:0:0:0:
160,192,107313,1,0,0:0:0:0:
352,192,107415,1,0,0:0:0:0:
480,192,107415,1,0,0:0:0:0:
96,192,107516,1,2,0:0:0:0:
416,192,107617,1,0,0:0:0:0:
224,192,107719,1,0,0:0:0:0:
352,192,107719,1,0,0:0:0:0:
480,192,107820,1,0,0:0:0:0:
160,192,107921,1,2,0:0:0:0:
288,192,107921,1,0,0:0:0:0:
416,192,108023,1,0,0:0:0:0:
96,192,108124,1,0,0:0:0:0:
288,192,108225,1,0,0:0:0:0:
480,192,108225,1,0,0:0:0:0:
160,192,108327,1,2,0:0:0:0:
352,192,108428,1,0,0:0:0:0:
416,192,108529,1,0,0:0:0:0:
96,192,108529,1,0,0:0:0:0:
224,192,108631,1,0,0:0:0:0:
96,192,108732,1,2,0:0:0:0:
480,192,108732,1,0,0:0:0:0:
352,192,108833,1,0,0:0:0:0:
288,192,108935,1,0,0:0:0:0:
480,192,109036,1,0,0:0:0:0:
160,192,109036,1,0,0:0:0:0:
352,192,109138,1,2,0:0:0:0:
96,192,109239,1,0,0:0:0:0:
224,192,109340,1,0,0:0:0:0:
480,192,109340,1,0,0:0:0:0:
160,192,109442,1,0,0:0:0:0:
288,192,109543,1,2,0:0:0:0:
416,192,109543,1,0,0:0:0:0:
224,192,109644,1,0,0:0:0:0:
480,192,109746,1,0,0:0:0:0:
160,192,109847,1,0,0:0:0:0:
352,192,109948,1,2,0:0:0:0:
224,192,110050,1,0,0:0:0:0:
96,192,110151,1,0,0:0:0:0:
416,192,110151,1,0,0:0:0:0:
224,192,110252,1,0,0:0:0:0:
352,192,110252,1,0,0:0:0:0:
96,192,110354,1,2,0:0:0:0:
480,192,110354,1,0,0:0:0:0:
224,192,110455,1,0,0:0:0:0:
160,192,110556,1,0,0:0:0:0:
288,192,110658,1,0,0:0:0:0:
416,192,110658,1,0,0:0:0:0:
96,192,110759,1,2,0:0:0:0:
224,192,110861,1,0,0:0:0:0:
416,192,110962,1,0,0:0:0:0:
288,192,110962,1,0,0:0:0:0:
96,192,111063,1,0,0:0:0:0:
160,192,111165,1,2,0:0:0:0:
480,192,111165,1,0,0:0:0:0:
288,192,111266,1,0,0:0:0:0:
96,192,111367,1,0,0:0:0:0:
352,192,111469,1,0,0:0:0:0:
224,192,111469,1,0,0:0:0:0:
160,192,111570,1,2,0:0:0:0:
416,192,111671,1,0,0:0:0:0:
224,192,111773,1,0,0:0:0:0:
352,192,111773,1,0,0:0:0:0:
480,192,111874,1,0,0:0:0:0:
96,192,111975,1,2,0:0:0:0:
224,192,111975,1,0,0:0:0:0:
352,192,112077,1,0,0:0:0:0:
160,192,112178,1,0,0:0:0:0:
416,192,112279,1,0,0:0:0:0:
288,192,112279,1,0,0:0:0:0:
96,192,112381,1,2,0:0:0:0:
352,192,112482,1,0,0:0:0:0:
160,192,112583,1,0,0:0:0:0:
288,192,112583,1,0,0:0:0:0:
416,192,112685,1,0,0:0:0:0:
96,192,112786,1,2,0:0:0:0:
224,192,112888,1,0,0:0:0:0:
160,192,112989,1,0,0:0:0:0:
416,192,113090,1,0,0:0:0:0:
288,192,113090,1,0,0:0:0:0:
96,192,113192,1,2,0:0:0:0:
352,192,113293,1,0,0:0:0:0:
224,192,113394,1,0,0:0:0:0:
480,192,113394,1,0,0:0:0:0:
96,192,113496,1,0,0:0:0:0:
352,192,113496,1,0,0:0:0:0:
224,192,113597,1,2,0:0:0:0:
480,192,113597,1,0,0:0:0:0:
160,192,113698,1,0,0:0:0:0:
416,192,113800,1,0,0:0:0:0:
288,192,113901,1,0,0:0:0:0:
96,192,113901,1,0,0:0:0:0:
160,192,114002,1,2,0:0:0:0:
352,192,114104,1,0,0:0:0:0:
416,192,114205,1,0,0:0:0:0:
224,192,114205,1,0,0:0:0:0:
96,192,114306,1,0,0:0:0:0:
160,192,114408,1,2,0:0:0:0:
480,192,114408,1,0,0:0:0:0:
288,192,114509,1,0,0:0:0:0:
416,192,114611,1,0,0:0:0:0:
96,192,114712,1,0,0:0:0:0:
224,192,114712,1,0,0:0:0:0:
352,192,114813,1,2,0:0:0:0:
160,192,114915,1,0,0:0:0:0:
416,192,115016,1,0,0:0:0:0:
288,192,115016,1,0,0:0:0:0:
224,192,115117,1,0,0:0:0:0:
352,192,115219,1,2,0:0:0:0:
96,192,115219,1,0,0:0:0:0:
288,192,115320,1,0,0:0:0:0:
160,192,115421,1,0,0:0:0:0:
480,192,115523,1,0,0:0:0:0:
352,192,115523,1,0,0:0:0:0:
96,192,115624,1,2,0:0:0:0:
224,192,115725,1,0,0:0:0:0:
288,192,115827,1,0,0:0:0:0:
416,192,115827,1,0,0:0:0:0:
160,192,115928,1,0,0:0:0:0:
352,192,116029,1,2,0:0:0:0:
480,192,116029,1,0,0:0:0:0:
96,192,116131,1,0,0:0:0:0:
224,192,116232,1,0,0:0:0:0:
288,192,116333,1,0,0:0:0:0:
416,192,116333,1,0,0:0:0:0:
160,192,116435,1,2,0:0:0:0:
352,192,116536,1,0,0:0:0:0:
96,192,116638,1,0,0:0:0:0:
224,192,116638,1,0,0:0:0:0:
288,192,116739,1,0,0:0:0:0:
416,192,116739,1,0,0:0:0:0:
96,192,116840,1,2,0:0:0:0:
224,192,116840,1,0,0:0:0:0:
352,192,116942,1,0,0:0:0:0:
160,192,117043,1,0,0:0:0:0:
96,192,117144,1,0,0:0:0:0:
416,192,117144,1,0,0:0:0:0:
288,192,117246,1,2,0:0:0:0:
480,192,117347,1,0,0:0:0:0:
96,192,117448,1,0,0:0:0:0:
224,192,117448,1,0,0:0:0:0:
416,192,117550,1,0,0:0:0:0:
160,192,117651,1,2,0:0:0:0:
288,192,117651,1,0,0:0:0:0:
480,192,117752,1,0,0:0:0:0:
352,192,117854,1,0,0:0:0:0:
416,192,117955,1,0,0:0:0:0:
224,192,117955,1,0,0:0:0:0:
96,192,118056,1,2,0:0:0:0:
352,192,118158,1,0,0:0:0:0:
416,192,118259,1,0,0:0:0:0:
160,192,118259,1,0,0:0:0:0:
288,192,118361,1,0,0:0:0:0:
96,192,118462,1,4,0:0:0:0:
32,192,118462,1,2,0:0:0:0:
480,192,118462,1,0,0:0:0:0:
352,192,118766,1,0,0:0:0:0:
352,192,119070,1,0,0:0:0:0:
480,192,119273,1,0,0:0:0:0:
160,192,119577,1,0,0:0:0:0:
480,192,119678,1,4,0:0:0:0:
416,192,119779,1,0,0:0:0:0:
352,192,119881,1,0,0:0:0:0:
160,192,119881,1,0,0:0:0:0:
288,192,119982,1,0,0:0:0:0:
32,192,120083,1,4,0:0:0:0:
96,192,120083,1,2,0:0:0:0:
480,192,120083,1,0,0:0:0:0:
224,192,120083,1,0,0:0:0:0:
