osu file format v14

[General]
AudioFilename: audio.mp3
AudioLeadIn: 0
PreviewTime: 88219
Countdown: 0
SampleSet: Normal
StackLeniency: 0.7
Mode: 0
LetterboxInBreaks: 0
WidescreenStoryboard: 0

[Editor]
Bookmarks: 34320,78885,306173,360410
DistanceSpacing: 2.7
BeatDivisor: 4
GridSize: 16
TimelineZoom: 2.4

[Metadata]
Title:Rotkappchen
TitleUnicode:Rotkäppchen
Artist:Xenon-P feat Hatsune Miku
ArtistUnicode:Xenon-P feat Hatsune Miku
Creator:Nherantelon
Version:Tales & Legends
Source:
Tags:
BeatmapID:1120116
BeatmapSetID:528047

[Difficulty]
HPDrainRate:5
CircleSize:5
OverallDifficulty:7.5
ApproachRate:9
SliderMultiplier:1.9
SliderTickRate:1

[Events]
//Background and Video events
0,0,"bg.jpg",0,0
//Break Periods
2,24139,28963
2,184000,205064
//Storyboard Layer 0 (Background)
//Storyboard Layer 1 (Fail)
//Storyboard Layer 2 (Pass)
//Storyboard Layer 3 (Foreground)
//Storyboard Sound Samples

[TimingPoints]
1088.46413690483,338.983050847458,4,2,0,50,1,0
2444,-200,4,2,0,50,0,0
13291,-200,4,2,0,50,0,0
13969,-166.666666666667,4,2,0,50,0,0
29902,-166.666666666667,4,2,0,40,0,0
30241,-166.666666666667,4,2,0,30,0,0
30579,-166.666666666667,4,2,0,20,0,0
30918,-166.666666666667,4,2,0,15,0,0
31257,-166.666666666667,4,2,0,10,0,0
31935,-200,4,2,0,5,0,0
34478,-133.333333333333,4,3,0,50,0,0
34986,-133.333333333333,4,3,0,70,0,0
45495,-133.333333333333,4,1,0,50,0,0
45834,-117.647058823529,4,1,0,70,0,0
56681,-133.333333333333,4,1,0,70,0,0
67529,-117.647058823529,4,1,0,70,0,0
78207,-117.647058823529,4,3,0,70,0,0
78376,-100,4,1,0,70,0,0
87952,-100,4,3,0,70,0,0
88885,-100,4,1,0,70,0,0
89224,-100,4,1,0,70,0,1
110241,-100,4,3,0,70,0,1
110749,-100,4,1,0,70,0,1
110918,-100,4,1,0,70,0,0
121766,-133.333333333333,4,1,0,70,0,0
132613,-117.647058823529,4,1,0,70,0,0
143461,-100,4,1,0,70,0,0
154308,-100,4,1,0,70,0,1
184139,-133.333333333333,4,1,0,70,0,0
205834,-133.333333333333,4,1,0,60,0,0
210918,-133.333333333333,4,3,0,70,0,0
211257,-133.333333333333,4,1,0,70,0,0
216681,-100,4,1,0,70,0,0
238376,-133.333333333333,4,1,0,60,0,0
258715,-133.333333333333,4,3,0,50,0,0
260071,-133.333333333333,4,1,0,70,0,0
260410,-133.333333333333,4,2,0,50,0,0
262783,-133.333333333333,4,1,0,50,0,0
263122,-133.333333333333,4,2,0,50,0,0
268207,-133.333333333333,4,1,0,50,0,0
268291,-133.333333333333,4,2,0,50,0,0
270918,-117.647058823529,4,2,0,50,0,0
281427,-117.647058823529,4,1,0,50,0,0
281766,-133.333333333333,4,1,0,70,0,0
327868,-100,4,1,0,70,0,0
337529,-100,4,3,0,70,0,0
337783,-100,4,1,0,70,0,0
338715,-100,4,1,0,70,0,1
371257,-100,4,2,0,70,0,0
371596,-100,4,3,0,70,0,0
371766,-100,4,1,0,70,0,1
398376,-100,4,2,0,50,0,0
401088,-100,4,1,0,70,0,1
421427,-100,4,3,0,70,0,1
421512,-100,4,1,0,70,0,1
422698,-133.333333333333,4,2,0,70,0,0
422783,-133.333333333333,4,2,0,50,0,0
422868,-133.333333333333,4,2,0,30,0,0
422952,-133.333333333333,4,2,0,20,0,0
423037,-133.333333333333,4,2,0,10,0,0
423122,-133.333333333333,4,2,0,5,0,0

[Colours]
Combo1 : 171,108,105
Combo2 : 220,88,1
Combo3 : 238,21,27
Combo4 : 43,189,159
Combo5 : 231,150,29

[HitObjects]
187,104,2105,69,0,0:0:0:0:
187,104,2444,2,0,P|220:179|291:207,2,142.5
291,101,3800,1,0,0:0:0:0:
381,153,4139,2,0,L|361:206,1,47.5
273,261,4647,6,0,L|253:314,1,47.5
359,263,4986,1,0,0:0:0:0:
312,357,5156,2,0,P|233:378|184:322,2,142.5
195,245,6512,1,0,0:0:0:0:
256,305,6766,1,0,0:0:0:0:
287,225,7020,1,0,0:0:0:0:
101,109,7868,54,0,P|147:90|243:112,1,142.5
235,106,8885,1,0,0:0:0:0:
166,158,9224,2,0,P|206:189|264:188,1,95
235,106,9732,1,0,0:0:0:0:
173,261,10071,5,0,0:0:0:0:
235,106,10241,1,0,0:0:0:0:
292,241,10579,54,0,B|315:293|315:293|360:322,1,95
374,221,11088,2,0,B|419:254|419:254|473:257,1,95
458,256,11596,1,0,0:0:0:0:
291,347,11935,1,0,0:0:0:0:
429,116,12613,5,0,0:0:0:0:
253,49,12952,1,0,0:0:0:0:
253,49,13291,54,0,B|238:90|245:121|245:121|279:140|305:178,1,142.5,2|0,0:0|0:0,0:0:0:0:
359,40,14308,1,0,0:0:0:0:
244,229,14647,2,0,P|201:192|145:187,1,113.999996520996
145,187,15156,1,0,0:0:0:0:
183,296,15495,5,0,0:0:0:0:
183,296,15664,2,0,P|213:314|245:317,1,56.9999982604981
317,286,16003,2,0,P|403:298|472:345,2,170.999994781494,2|2|2,0:0|0:0|0:0,0:0:0:0:
245,215,17359,1,2,0:0:0:0:
348,215,17613,1,0,0:0:0:0:
297,126,17868,1,0,0:0:0:0:
436,117,18715,54,0,P|370:86|274:108,1,170.999994781494
277,106,19732,1,0,0:0:0:0:
210,160,20071,2,0,P|256:190|312:184,1,113.999996520996
277,106,20579,1,0,0:0:0:0:
236,260,20918,5,0,0:0:0:0:
277,106,21088,1,0,0:0:0:0:
352,249,21427,54,0,B|324:306|324:306|273:335,1,113.999996520996
164,341,21935,2,0,B|192:284|192:284|243:255,1,113.999996520996
352,249,22443,1,0,0:0:0:0:
235,259,22782,1,4,0:0:0:0:
256,192,29563,12,0,31935,0:0:0:0:
183,126,32274,54,0,P|339:246|161:164,1,570
255,193,34478,37,0,0:0:0:0:
255,193,34563,1,0,0:0:0:0:
255,193,34647,2,0,B|276:201|298:192|298:192|322:183|346:190,1,71.2500027179719
465,144,34986,5,0,0:0:0:0:
406,258,35156,1,0,0:0:0:0:
406,258,35241,1,0,0:0:0:0:
406,258,35325,1,0,0:0:0:0:
339,148,35495,1,0,0:0:0:0:
339,148,35579,1,0,0:0:0:0:
339,148,35664,1,0,0:0:0:0:
282,263,35834,5,0,0:0:0:0:
282,263,35918,1,0,0:0:0:0:
282,263,36003,1,0,0:0:0:0:
205,159,36173,1,0,0:0:0:0:
216,245,36342,1,0,0:0:0:0:
108,212,36512,1,0,0:0:0:0:
108,212,36596,1,0,0:0:0:0:
108,212,36681,1,0,0:0:0:0:
205,159,36851,37,0,0:0:0:0:
216,245,37020,1,0,0:0:0:0:
315,163,37190,1,0,0:0:0:0:
315,163,37274,1,0,0:0:0:0:
315,163,37359,1,0,0:0:0:0:
430,239,37529,1,0,0:0:0:0:
390,186,37698,6,0,B|358:215|367:256|367:256|375:295|343:332,1,142.500005435944
261,238,38207,2,0,P|262:210|271:181,2,35.625001358986
150,289,38546,1,0,0:0:0:0:
140,255,38630,1,0,0:0:0:0:
139,219,38715,1,0,0:0:0:0:
47,178,38885,1,0,0:0:0:0:
47,178,39054,6,0,P|38:225|70:322,1,142.500005435944
139,219,39563,1,0,0:0:0:0:
139,219,39647,1,0,0:0:0:0:
139,219,39732,1,0,0:0:0:0:
88,108,39902,2,0,L|54:92,2,35.625001358986
207,84,40241,1,0,0:0:0:0:
207,84,40325,1,0,0:0:0:0:
207,84,40410,38,0,B|272:113|272:113|341:88,1,142.500005435944,4|0,0:0|0:0,0:0:0:0:
439,157,40918,1,0,0:0:0:0:
412,181,41003,1,0,0:0:0:0:
381,199,41088,1,0,0:0:0:0:
256,205,41257,1,0,0:0:0:0:
316,257,41427,1,0,0:0:0:0:
196,276,41596,5,0,0:0:0:0:
196,276,41681,1,0,0:0:0:0:
196,276,41766,1,0,0:0:0:0:
158,161,41935,1,0,0:0:0:0:
110,224,42105,1,0,0:0:0:0:
102,103,42274,5,0,0:0:0:0:
79,130,42359,1,0,0:0:0:0:
60,160,42444,1,0,0:0:0:0:
110,224,42613,1,0,0:0:0:0:
87,251,42698,1,0,0:0:0:0:
68,281,42783,1,0,0:0:0:0:
119,345,42952,1,0,0:0:0:0:
119,345,43037,1,0,0:0:0:0:
119,345,43122,38,0,B|156:333|193:352|193:352|225:367|272:345,1,142.500005435944
296,236,43630,2,0,P|284:221|252:207,2,35.625001358986
340,349,43969,1,0,0:0:0:0:
340,349,44054,1,0,0:0:0:0:
340,349,44139,1,0,0:0:0:0:
395,241,44308,1,0,0:0:0:0:
395,241,44478,6,0,B|395:202|416:170|416:170|378:152|361:113,1,142.500005435944
287,203,44986,1,0,0:0:0:0:
203,114,45156,2,0,L|167:137,1,35.625001358986
205,184,45325,2,0,L|169:207,1,35.625001358986
214,249,45495,1,8,0:0:0:0:
199,258,45579,1,8,0:0:0:0:
184,268,45664,1,8,0:0:0:0:
169,278,45749,1,8,0:0:0:0:
154,288,45834,6,0,B|123:302|123:302|104:303|104:303|59:321,1,80.750001540184,8|0,0:0|0:0,0:0:0:0:
90,175,46173,1,0,0:0:0:0:
205,184,46342,2,0,P|260:186|314:177,1,80.750001540184
224,306,46681,1,0,0:0:0:0:
325,250,46850,2,0,P|372:221|412:184,1,80.750001540184
436,44,47190,22,0,B|424:60|404:68|404:68|406:71|406:71|383:81|362:100,1,80.750001540184
490,159,47529,1,0,0:0:0:0:
330,153,47698,2,0,P|292:143|249:118,1,80.750001540184
307,250,48037,1,0,0:0:0:0:
176,157,48207,1,0,0:0:0:0:
188,293,48376,37,0,0:0:0:0:
188,293,48461,1,0,0:0:0:0:
188,293,48546,2,0,B|207:305|207:305|254:305|254:305|272:316,1,80.750001540184
397,279,48885,1,0,0:0:0:0:
330,159,49054,2,0,P|292:148|240:167,1,80.750001540184
290,225,49393,1,0,0:0:0:0:
370,86,49563,1,0,0:0:0:0:
437,204,49732,21,0,0:0:0:0:
437,204,49817,1,0,0:0:0:0:
437,204,49902,2,0,B|449:248|449:248|444:293,1,80.750001540184
290,225,50241,1,0,0:0:0:0:
383,125,50410,2,0,P|432:109|472:116,1,80.750001540184
437,204,50749,1,0,0:0:0:0:
371,32,50918,1,0,0:0:0:0:
316,150,51088,37,0,0:0:0:0:
316,150,51173,1,0,0:0:0:0:
316,150,51257,2,0,B|303:173|303:173|297:210|297:210|281:241,1,80.750001540184,4|0,0:0|0:0,0:0:0:0:
161,277,51596,1,0,0:0:0:0:
210,148,51766,2,0,P|180:131|127:133,1,80.750001540184
316,150,52105,1,0,0:0:0:0:
157,200,52274,2,0,P|106:198|76:176,1,80.750001540184
126,43,52613,22,0,B|155:40|168:44|168:44|167:40|167:40|193:48|226:44,1,80.750001540184
338,46,52952,1,0,0:0:0:0:
316,150,53122,2,0,P|287:176|221:208,1,80.750001540184
415,127,53461,1,0,0:0:0:0:
356,213,53630,1,0,0:0:0:0:
460,226,53800,1,0,0:0:0:0:
377,290,53969,37,8,0:0:0:0:
403,320,54054,1,8,0:0:0:0:
439,338,54139,1,8,0:0:0:0:
305,308,54308,1,8,0:0:0:0:
317,333,54393,1,8,0:0:0:0:
333,355,54478,1,8,0:0:0:0:
220,311,54647,1,8,0:0:0:0:
223,330,54732,1,8,0:0:0:0:
230,348,54817,1,8,0:0:0:0:
151,260,54986,5,0,0:0:0:0:
74,335,55156,1,0,0:0:0:0:
251,243,55325,1,4,0:0:0:0:
251,243,55495,1,4,0:0:0:0:
251,243,55664,1,4,0:0:0:0:
156,83,56681,6,0,P|190:105|246:117,1,71.2500027179719
321,89,57020,1,0,0:0:0:0:
348,244,57190,2,0,P|369:208|364:157,1,71.2500027179719
287,185,57529,1,0,0:0:0:0:
385,114,57698,1,0,0:0:0:0:
348,244,57868,1,0,0:0:0:0:
436,162,58037,6,0,P|468:235|456:296,1,142.500005435944
456,294,58546,1,0,0:0:0:0:
218,339,58885,2,0,L|160:347,1,35.625001358986
196,309,59054,2,0,B|186:293|188:272|188:272|192:250|183:225,1,71.2500027179719
308,183,59393,6,0,P|297:216|273:242,1,71.2500027179719
195,114,59732,2,0,P|229:106|263:113,1,71.2500027179719
187,239,60071,2,0,P|162:213|152:179,1,71.2500027179719
308,183,60410,1,0,0:0:0:0:
308,183,60579,6,0,B|347:218|347:218|442:218,1,142.500005435944
365,118,61088,1,0,0:0:0:0:
365,118,61257,2,0,B|388:136|388:136|448:136,1,71.2500027179719
426,52,61596,1,0,0:0:0:0:
426,52,61766,1,0,0:0:0:0:
492,176,61935,5,0,0:0:0:0:
374,205,62105,1,4,0:0:0:0:
441,299,62274,1,0,0:0:0:0:
457,217,62444,1,0,0:0:0:0:
353,308,62613,1,0,0:0:0:0:
353,308,62952,5,0,0:0:0:0:
270,230,63122,2,0,P|246:262|240:307,1,71.2500027179719
371,215,63461,2,0,P|357:178|316:140,2,71.2500027179719
270,230,63969,2,0,B|240:201|238:166|238:166|236:130|203:106,1,142.500005435944
254,17,64478,1,0,0:0:0:0:
303,68,64647,1,0,0:0:0:0:
374,62,64817,6,0,P|363:107|330:134,1,71.2500027179719
301,199,65156,1,0,0:0:0:0:
191,151,65325,2,0,B|192:229|192:229|239:278,1,142.500005435944
356,242,65834,1,0,0:0:0:0:
307,352,66003,2,0,P|230:379|158:336,1,142.500005435944
103,259,66512,5,0,0:0:0:0:
191,151,66851,1,0,0:0:0:0:
261,249,67190,2,0,L|309:315,1,71.2500027179719,2|0,0:0|0:0,0:0:0:0:
320,186,67529,2,0,L|269:115,1,80.750001540184,2|0,0:0|0:0,0:0:0:0:
397,152,67868,1,0,0:0:0:0:
327,53,68037,2,0,B|305:22|305:22|261:6,1,80.750001540184
141,120,68376,5,8,0:0:0:0:
260,72,68546,1,0,0:0:0:0:
135,33,68715,1,8,0:0:0:0:
240,146,68885,2,8,L|300:213,1,80.750001540184,8|0,0:0|0:0,0:0:0:0:
344,305,69224,1,0,0:0:0:0:
427,180,69393,2,0,B|383:179|383:179|343:153,1,80.750001540184
421,304,69732,6,0,B|378:293|378:293|323:312,1,80.750001540184,8|0,0:0|0:0,0:0:0:0:
217,360,70071,1,8,0:0:0:0:
217,360,70241,2,0,B|126:360,2,80.750001540184,8|0|0,0:0|0:0|0:0,0:0:0:0:
247,225,70749,2,0,P|207:225|163:198,1,80.750001540184
231,76,71088,2,0,L|224:163,1,80.750001540184,8|0,0:0|0:0,0:0:0:0:
335,74,71427,5,8,0:0:0:0:
411,187,71596,2,0,L|463:263,1,80.750001540184,8|0,0:0|0:0,0:0:0:0:
319,209,71935,1,0,0:0:0:0:
397,326,72105,1,0,0:0:0:0:
456,253,72274,1,8,0:0:0:0:
297,279,72444,1,0,0:0:0:0:
406,331,72613,1,8,0:0:0:0:
271,362,72783,5,8,0:0:0:0:
271,362,72952,2,0,P|218:361|169:351,1,80.750001540184,8|0,0:0|0:0,0:0:0:0:
97,286,73291,1,0,0:0:0:0:
109,188,73461,2,0,P|157:206|191:245,1,80.750001540184,8|0,0:0|0:0,0:0:0:0:
97,286,73800,1,8,0:0:0:0:
122,93,74139,6,0,P|194:116|265:184,1,161.500003080368,8|0,0:0|0:0,0:0:0:0:
272,284,74647,1,0,0:0:0:0:
272,284,74817,1,0,0:0:0:0:
409,95,75156,5,8,0:0:0:0:
342,140,75325,1,0,0:0:0:0:
414,176,75495,1,8,0:0:0:0:
349,223,75664,2,0,B|304:222|304:222|260:210,1,80.750001540184,8|0,0:0|0:0,0:0:0:0:
420,183,76003,1,0,0:0:0:0:
436,262,76173,2,0,B|412:300|412:300|380:332,1,80.750001540184
251,280,76512,5,8,0:0:0:0:
344,375,76681,1,0,0:0:0:0:
209,347,76851,1,8,0:0:0:0:
209,347,77020,2,0,P|158:344|117:311,1,80.750001540184,8|0,0:0|0:0,0:0:0:0:
159,198,77359,2,0,B|182:239|182:239|186:273,1,80.750001540184
74,222,77698,5,8,0:0:0:0:
74,222,77868,1,8,0:0:0:0:
247,210,78037,1,8,0:0:0:0:
240,190,78122,1,8,0:0:0:0:
231,171,78207,1,8,0:0:0:0:
220,154,78291,1,8,0:0:0:0:
201,138,78376,6,0,P|110:114|28:158,1,190
125,238,78885,2,0,P|216:262|298:218,1,190
374,56,79393,2,0,P|389:96|390:155,1,95
296,219,79732,2,0,P|280:174|278:127,1,95
419,206,80071,2,0,P|434:246|435:305,2,95,0|0|4,0:0|0:0|0:0,0:0:0:0:
337,324,80579,5,0,0:0:0:0:
337,324,80749,1,4,0:0:0:0:
419,206,80918,1,0,0:0:0:0:
324,245,81088,2,0,B|267:257|256:317|256:317|214:300|163:305,1,190,4|0,0:0|0:0,0:0:0:0:
75,241,81596,2,0,B|132:229|143:169|143:169|185:186|236:181,1,190
63,165,82105,2,0,P|81:118|126:91,1,95
264,83,82444,2,0,B|229:115|229:115|196:117|168:105,1,95
317,21,82783,2,0,P|343:62|340:115,2,95,0|0|4,0:0|0:0|0:0,0:0:0:0:
264,83,83291,53,0,0:0:0:0:
407,32,83461,1,4,0:0:0:0:
342,107,83630,1,0,0:0:0:0:
492,84,83800,2,0,L|475:185,1,95,4|0,0:0|0:0,0:0:0:0:
359,327,84139,2,0,L|335:236,1,95
476,177,84478,2,0,L|503:267,1,95
408,366,84817,5,0,0:0:0:0:
264,275,84986,1,0,0:0:0:0:
361,253,85156,2,0,P|360:305|327:352,1,95,4|0,0:0|0:0,0:0:0:0:
205,342,85495,1,0,0:0:0:0:
205,342,85664,2,0,B|158:317|158:317|73:313|73:313|23:291,1,190
25,292,86173,1,0,0:0:0:0:
226,218,86512,6,0,P|182:194|143:163,1,95,4|0,0:0|0:0,0:0:0:0:
294,140,86851,1,0,0:0:0:0:
172,86,87020,1,8,0:0:0:0:
190,101,87105,1,8,0:0:0:0:
210,113,87190,1,8,0:0:0:0:
226,19,87359,1,8,0:0:0:0:
254,44,87444,1,8,0:0:0:0:
288,59,87529,1,8,0:0:0:0:
294,140,87698,5,8,0:0:0:0:
329,126,87783,1,8,0:0:0:0:
359,103,87868,1,8,0:0:0:0:
375,69,87952,1,0,0:0:0:0:
394,36,88037,1,0,0:0:0:0:
426,16,88122,1,0,0:0:0:0:
464,16,88207,6,0,P|492:23|517:43,3,47.5
461,83,88546,2,0,P|475:107|479:142,3,47.5
413,128,88885,1,8,0:0:0:0:
469,204,89054,1,8,0:0:0:0:
469,204,89139,1,8,0:0:0:0:
469,204,89224,6,2,P|423:223|359:236,1,95,10|0,0:0|0:0,0:0:0:0:
237,153,89563,1,0,0:0:0:0:
290,233,89732,1,0,0:0:0:0:
263,260,89817,1,0,0:0:0:0:
230,279,89902,2,0,P|196:298|141:316,1,95
157,183,90241,1,0,0:0:0:0:
290,233,90410,1,0,0:0:0:0:
244,79,90579,6,0,P|292:100|330:137,1,95,2|0,0:0|0:0,0:0:0:0:
290,233,90918,1,0,0:0:0:0:
400,241,91088,2,0,P|431:277|450:321,1,95,0|0,0:3|0:3,0:3:0:0:
339,333,91427,1,0,0:0:0:0:
503,363,91596,1,0,0:0:0:0:
490,231,91766,5,8,0:0:0:0:
490,231,91851,1,8,0:0:0:0:
490,231,91935,2,0,B|481:182|481:182|487:130,1,95,10|0,0:0|0:0,0:0:0:0:
368,164,92274,1,0,0:0:0:0:
398,4,92444,2,0,B|406:57|406:57|395:103,1,95
419,203,92783,1,0,0:0:0:0:
486,137,92952,1,0,0:0:0:0:
417,283,93122,21,0,0:0:0:0:
417,283,93207,1,0,0:0:0:0:
417,283,93291,2,0,P|359:287|308:282,1,95,2|0,0:0|0:0,0:0:0:0:
231,201,93630,1,0,0:0:0:0:
317,83,93800,2,0,P|355:113|409:117,1,95
314,186,94139,1,0,0:0:0:0:
387,34,94308,1,0,0:0:0:0:
460,202,94478,5,8,0:0:0:0:
431,227,94563,1,8,0:0:0:0:
397,244,94647,2,0,P|343:259|290:263,1,95,10|0,0:0|0:0,0:0:0:0:
159,335,94986,1,0,0:0:0:0:
213,203,95156,2,0,P|267:188|320:184,1,95
328,321,95495,1,0,0:0:0:0:
176,271,95664,1,0,0:0:0:0:
305,184,95834,5,0,0:0:0:0:
305,184,95918,1,0,0:0:0:0:
305,184,96003,2,0,P|355:161|393:114,1,95,2|0,0:0|0:0,0:0:0:0:
279,65,96342,1,0,0:0:0:0:
279,65,96512,2,0,L|176:110,1,95
305,184,96851,2,0,L|249:273,2,95,0|0|8,0:0|0:0|0:0,0:0:0:0:
341,171,97274,1,8,0:0:0:0:
376,185,97359,6,0,B|404:228|404:228|404:320|404:320|372:361,1,190,10|0,0:0|0:0,0:0:0:0:
230,338,97868,2,0,P|285:339|320:310,1,95
209,209,98207,2,0,P|181:256|188:301,1,95
257,268,98546,2,2,B|289:226|329:215|329:215|368:203|372:156|372:156|373:124,1,190,0|0,0:0|0:0,0:0:0:0:
301,54,99054,22,0,L|303:157,1,95
475,132,99393,1,8,0:0:0:0:
376,62,99563,1,8,0:0:0:0:
441,208,99732,1,8,0:0:0:0:
441,208,99817,1,8,0:0:0:0:
441,208,99902,1,8,0:0:0:0:
441,208,99986,1,8,0:0:0:0:
441,208,100071,6,0,P|423:257|445:313,1,95,10|0,0:0|0:0,0:0:0:0:
362,350,100410,1,0,0:0:0:0:
497,258,100579,1,0,0:0:0:0:
465,359,100749,1,0,0:0:0:0:
362,230,100918,1,0,0:0:0:0:
362,350,101088,2,0,P|314:336|259:296,1,95
245,289,101342,1,0,0:0:0:0:
208,279,101427,6,0,B|178:270|155:272|155:272|152:245|125:225,1,95,2|0,0:0|0:0,0:0:0:0:
82,286,101766,1,0,0:0:0:0:
207,185,101935,2,0,P|175:156|121:151,1,95
208,279,102274,1,0,0:0:0:0:
283,177,102444,1,0,0:0:0:0:
199,78,102613,5,8,0:0:0:0:
199,78,102698,1,8,0:0:0:0:
199,78,102783,2,0,P|242:88|296:79,1,95,10|0,0:0|0:0,0:0:0:0:
424,27,103122,1,0,0:0:0:0:
388,164,103291,2,0,L|361:256,1,95
482,331,103630,2,0,L|455:239,1,95
294,179,103969,2,0,L|267:271,1,95,2|0,0:0|0:0,0:0:0:0:
388,346,104308,2,0,L|361:254,1,95,2|0,0:0|0:0,0:0:0:0:
201,257,104647,2,2,B|195:323|263:338|263:338|309:348|335:379,1,190,0|0,0:0|0:0,0:0:0:0:
267,270,105156,1,0,0:0:0:0:
191,380,105325,21,8,0:0:0:0:
191,380,105410,1,8,0:0:0:0:
191,380,105495,2,0,P|149:342|132:292,1,95,10|0,0:0|0:0,0:0:0:0:
119,165,105834,1,0,0:0:0:0:
201,257,106003,2,0,B|244:223|242:170|242:170|239:115|285:81,1,190
194,79,106512,1,0,0:0:0:0:
331,161,106681,1,0,0:0:0:0:
399,72,106851,6,0,B|433:113|433:113|475:138,1,95,2|0,0:0|0:0,0:0:0:0:
452,276,107190,1,0,0:0:0:0:
419,198,107359,2,0,P|381:232|369:293,1,95
502,320,107698,1,0,0:0:0:0:
486,197,107868,1,0,0:0:0:0:
368,272,108037,1,0,0:0:0:0:
507,256,108207,6,0,P|462:270|439:333,1,95,2|0,0:0|0:0,0:0:0:0:
322,374,108546,1,0,0:0:0:0:
322,374,108715,2,0,B|282:344|276:293|276:293|270:242|226:213,1,190
137,250,109224,1,0,0:0:0:0:
177,299,109393,1,0,0:0:0:0:
102,200,109563,5,8,0:0:0:0:
102,200,109647,1,8,0:0:0:0:
102,200,109732,1,8,0:0:0:0:
228,215,109902,1,8,0:0:0:0:
228,215,109986,1,8,0:0:0:0:
228,215,110071,1,8,0:0:0:0:
162,109,110241,5,0,0:0:0:0:
194,100,110325,1,0,0:0:0:0:
227,99,110410,1,0,0:0:0:0:
259,106,110495,1,0,0:0:0:0:
290,118,110579,1,8,0:0:0:0:
320,134,110664,1,8,0:0:0:0:
351,144,110749,1,8,0:0:0:0:
384,148,110834,1,8,0:0:0:0:
417,145,110918,1,8,0:0:0:0:
256,192,111003,12,0,113291,0:0:0:0:
303,83,113630,6,0,L|351:190,1,95
219,158,113969,1,0,0:0:0:0:
265,272,114139,2,0,L|300:360,1,95
381,267,114478,1,0,0:0:0:0:
265,272,114647,1,0,0:0:0:0:
342,170,114817,37,0,0:0:0:0:
342,170,114902,1,0,0:0:0:0:
342,170,114986,2,0,P|386:191|454:184,1,95
408,97,115325,1,0,0:0:0:0:
473,24,115495,2,0,P|428:2|361:10,1,95
469,91,115834,1,0,0:0:0:0:
347,108,116003,1,0,0:0:0:0:
218,91,116173,21,0,0:0:0:0:
218,91,116257,1,0,0:0:0:0:
218,91,116342,2,0,L|252:179,1,95,4|0,0:0|0:0,0:0:0:0:
306,306,116681,1,0,0:0:0:0:
188,267,116851,1,0,0:0:0:0:
188,267,117020,1,0,0:0:0:0:
308,239,117190,1,0,0:0:0:0:
230,334,117359,2,0,P|177:346|126:317,1,95
115,302,117613,1,0,0:0:0:0:
99,266,117698,38,0,L|64:177,1,95
130,61,118037,1,0,0:0:0:0:
251,175,118207,2,0,P|206:143|147:148,1,95,0|0,0:3|0:3,0:3:0:0:
183,226,118546,1,0,0:0:0:0:
64,177,118715,1,0,0:0:0:0:
251,175,118885,1,0,0:0:0:0:
101,111,119054,21,8,0:0:0:0:
101,111,119139,1,8,0:0:0:0:
101,111,119224,1,8,0:0:0:0:
223,61,119393,1,8,0:0:0:0:
223,61,119478,1,8,0:0:0:0:
223,61,119563,1,8,0:0:0:0:
333,133,119732,1,8,0:0:0:0:
333,133,119817,1,8,0:0:0:0:
333,133,119902,2,0,L|332:204,1,47.5,8|0,0:0|0:0,0:0:0:0:
330,232,120071,53,0,0:0:0:0:
432,153,120241,1,0,0:0:0:0:
368,310,120410,1,4,0:0:0:0:
368,310,120579,1,4,0:0:0:0:
368,310,120749,1,4,0:0:0:0:
179,195,121766,6,0,P|211:218|257:228,1,71.2500027179719,4|0,0:0|0:0,0:0:0:0:
345,163,122105,1,0,0:0:0:0:
407,209,122274,2,0,P|375:232|329:242,1,71.2500027179719
247,140,122613,1,8,0:0:0:0:
385,114,122783,1,0,0:0:0:0:
317,63,122953,1,8,0:0:0:0:
448,40,123122,6,0,P|484:109|456:186,1,142.500005435944,8|0,0:0|0:0,0:0:0:0:
407,209,123630,2,0,B|365:216|361:255|361:255|356:298|317:311,2,142.500005435944,0|8|8,0:0|0:0|0:0,0:0:0:0:
267,244,124478,6,0,P|243:271|234:310,1,71.2500027179719,8|0,0:0|0:0,0:0:0:0:
332,375,124817,1,0,0:0:0:0:
452,361,124986,2,0,P|475:334|485:300,1,71.2500027179719
374,249,125325,2,0,P|383:214|407:188,1,71.2500027179719,8|0,0:0|0:0,0:0:0:0:
488,105,125664,6,0,P|522:175|504:254,1,142.500005435944,8|8,0:0|0:0,0:0:0:0:
390,122,126173,1,8,0:0:0:0:
390,122,126342,2,0,B|352:122|352:122|304:144,1,71.2500027179719,8|0,0:0|0:0,0:0:0:0:
407,188,126681,1,8,0:0:0:0:
407,188,126851,1,8,0:0:0:0:
512,236,127020,5,8,0:0:0:0:
512,236,127105,1,8,0:0:0:0:
512,236,127190,1,12,0:0:0:0:
439,307,127359,1,0,0:0:0:0:
407,188,127529,1,0,0:0:0:0:
353,308,127698,1,12,0:0:0:0:
353,308,128037,5,0,0:0:0:0:
237,246,128207,2,0,P|213:278|207:323,1,71.2500027179719
333,213,128546,1,8,0:0:0:0:
275,307,128715,2,0,P|284:345|314:379,1,71.2500027179719
333,213,129054,2,0,B|282:157|282:157|211:117,1,142.500005435944,8|0,0:0|0:0,0:0:0:0:
237,246,129563,1,0,0:0:0:0:
414,211,129902,6,0,P|403:256|370:283,1,71.2500027179719,8|0,0:0|0:0,0:0:0:0:
333,213,130241,1,0,0:0:0:0:
398,122,130410,2,0,B|456:154|456:154|507:210,1,142.500005435944,8|0,0:0|0:0,0:0:0:0:
414,280,130919,1,0,0:0:0:0:
333,213,131088,2,0,P|272:184|193:199,1,142.500005435944,8|0,0:0|0:0,0:0:0:0:
203,198,131596,5,0,0:0:0:0:
131,66,131935,1,0,0:0:0:0:
79,115,132105,1,0,0:0:0:0:
128,165,132274,1,0,0:0:0:0:
76,214,132444,1,8,0:0:0:0:
76,214,132529,1,8,0:0:0:0:
76,214,132613,6,0,L|139:279,1,80.750001540184,8|0,0:0|0:0,0:0:0:0:
269,280,132952,1,0,0:0:0:0:
206,157,133122,2,0,L|269:92,2,80.750001540184,8|0|8,0:0|0:0|0:0,0:0:0:0:
128,165,133630,1,0,0:0:0:0:
278,181,133800,1,8,0:0:0:0:
213,55,133969,6,0,B|176:37|176:37|114:30,1,80.750001540184,8|0,0:0|0:0,0:0:0:0:
127,170,134308,1,0,0:0:0:0:
127,170,134478,2,0,B|163:187|163:187|225:194,1,80.750001540184
314,111,134817,2,0,P|341:158|343:199,1,80.750001540184,8|0,0:0|0:0,0:0:0:0:
203,192,135156,1,8,0:0:0:0:
314,111,135325,5,8,0:0:0:0:
437,172,135495,2,0,P|436:226|418:262,1,80.750001540184
289,261,135834,2,0,L|352:330,1,80.750001540184
369,169,136173,2,0,L|311:107,1,80.750001540184,8|0,0:0|0:0,0:0:0:0:
426,249,136512,5,8,0:0:0:0:
289,261,136681,2,0,P|249:267|215:288,1,80.750001540184,8|0,0:0|0:0,0:0:0:0:
343,320,137020,1,0,0:0:0:0:
219,212,137190,1,0,0:0:0:0:
219,212,137529,5,8,0:0:0:0:
227,93,137698,1,0,0:0:0:0:
309,160,137868,1,8,0:0:0:0:
133,140,138037,1,8,0:0:0:0:
247,153,138207,5,8,0:0:0:0:
140,210,138376,1,12,0:0:0:0:
357,102,138715,5,8,0:0:0:0:
309,167,138885,1,0,0:0:0:0:
284,87,139054,1,8,0:0:0:0:
377,189,139224,1,0,0:0:0:0:
241,172,139393,6,0,P|261:221|297:239,1,80.750001540184,8|0,0:0|0:0,0:0:0:0:
357,102,139732,1,0,0:0:0:0:
357,102,139902,2,0,P|406:122|424:158,1,80.750001540184
452,277,140241,1,8,0:0:0:0:
452,277,140410,2,0,P|432:326|396:344,1,80.750001540184,0|8,0:0|0:0,0:0:0:0:
272,339,140749,6,0,P|304:302|266:198,1,161.500003080368,8|0,0:0|0:0,0:0:0:0:
165,222,141257,2,0,P|205:261|246:270,1,80.750001540184
274,203,141596,1,8,0:0:0:0:
228,135,141766,1,0,0:0:0:0:
153,104,141935,1,8,0:0:0:0:
153,104,142105,6,0,P|97:107|63:132,1,80.750001540184,8|0,0:0|0:0,0:0:0:0:
165,222,142444,1,0,0:0:0:0:
228,135,142613,1,0,0:0:0:0:
310,213,142783,1,0,0:0:0:0:
327,191,142867,1,0,0:0:0:0:
339,165,142952,1,8,0:0:0:0:
343,137,143037,1,8,0:0:0:0:
340,109,143121,1,8,0:0:0:0:
228,135,143291,1,0,0:0:0:0:
228,135,143461,54,0,B|180:135|180:135|181:208|260:248,1,190
403,312,143969,2,0,B|451:312|451:312|450:239|371:199,1,190
269,325,144478,2,0,P|224:310|181:282,1,95
131,165,144817,2,0,P|175:179|215:205,1,95
134,345,145156,2,0,P|89:330|46:302,2,95,0|0|4,0:0|0:0|0:0,0:0:0:0:
269,325,145664,5,0,0:0:0:0:
215,205,145834,1,4,0:0:0:0:
342,255,146003,1,0,0:0:0:0:
255,97,146173,2,0,B|306:96|323:142|323:142|385:140|397:197,1,190,4|0,0:0|0:0,0:0:0:0:
370,356,146681,2,0,B|319:357|302:311|302:311|240:313|228:256,1,190
342,255,147190,2,0,P|383:275|431:268,1,95
451,124,147529,2,0,P|413:152|396:196,1,95
510,286,147868,2,0,P|505:236|470:198,2,95,0|0|4,0:0|0:0|0:0,0:0:0:0:
370,356,148376,53,0,0:0:0:0:
295,211,148546,1,4,0:0:0:0:
279,301,148715,1,0,0:0:0:0:
192,164,148885,2,0,B|167:120|167:120|126:92,1,95,4|0,0:0|0:0,0:0:0:0:
135,211,149224,2,0,B|160:255|160:255|201:283,1,95
281,168,149563,2,0,B|306:124|306:124|347:96,1,95
358,214,149902,2,0,B|333:258|333:258|292:286,1,95
238,110,150241,1,4,0:0:0:0:
450,257,150579,5,0,0:0:0:0:
288,250,150749,2,0,B|228:247|228:247|146:262|146:262|90:260,1,190
194,164,151257,1,0,0:0:0:0:
288,250,151427,1,0,0:0:0:0:
339,125,151596,5,0,0:0:0:0:
447,201,151766,1,8,0:0:0:0:
447,201,151851,1,8,0:0:0:0:
447,201,151935,1,8,0:0:0:0:
353,260,152105,1,4,0:0:0:0:
442,286,152274,1,0,0:0:0:0:
423,313,152359,1,0,0:0:0:0:
398,335,152444,1,0,0:0:0:0:
368,350,152529,1,0,0:0:0:0:
335,352,152613,1,4,0:0:0:0:
240,281,152783,5,0,0:0:0:0:
256,350,152952,1,0,0:0:0:0:
161,323,153122,1,8,0:0:0:0:
161,323,153207,1,8,0:0:0:0:
161,323,153291,1,8,0:0:0:0:
319,289,153461,1,8,0:0:0:0:
319,289,153546,1,8,0:0:0:0:
319,289,153630,1,8,0:0:0:0:
185,240,153800,5,0,0:0:0:0:
269,165,153969,1,0,0:0:0:0:
375,225,154139,1,8,0:0:0:0:
375,225,154224,1,8,0:0:0:0:
375,225,154308,6,0,P|421:213|464:195,1,95,10|0,0:0|0:0,0:0:0:0:
319,289,154647,1,0,0:0:0:0:
234,173,154816,1,0,0:0:0:0:
234,173,154901,1,0,0:0:0:0:
234,173,154986,2,0,P|275:150|321:136,1,95
244,255,155325,1,0,0:0:0:0:
119,152,155494,1,0,0:0:0:0:
225,31,155664,6,0,P|273:52|310:89,1,95,2|0,0:0|0:0,0:0:0:0:
234,173,156002,1,0,0:0:0:0:
159,262,156173,2,0,P|195:293|239:312,1,95
379,249,156511,1,0,0:0:0:0:
385,346,156680,1,0,0:0:0:0:
305,222,156851,5,8,0:0:0:0:
305,222,156936,1,8,0:0:0:0:
305,222,157020,2,0,P|304:274|330:311,1,95,10|0,0:0|0:0,0:0:0:0:
455,246,157358,1,0,0:0:0:0:
345,152,157529,2,0,P|320:112|322:65,1,95
447,143,157867,1,0,0:0:0:0:
305,222,158036,1,0,0:0:0:0:
358,354,158206,21,0,0:0:0:0:
358,354,158291,1,0,0:0:0:0:
358,354,158376,2,0,P|300:358|248:353,1,95,2|0,0:0|0:0,0:0:0:0:
168,252,158714,1,0,0:0:0:0:
305,222,158885,2,0,P|363:226|414:221,1,95
237,169,159223,1,0,0:0:0:0:
325,46,159392,1,0,0:0:0:0:
482,75,159562,5,8,0:0:0:0:
453,100,159647,1,8,0:0:0:0:
419,117,159732,2,0,P|365:132|312:136,1,95,10|0,0:0|0:0,0:0:0:0:
202,250,160070,1,0,0:0:0:0:
116,111,160240,2,0,P|170:96|223:92,1,95
300,176,160579,1,0,0:0:0:0:
133,191,160748,1,0,0:0:0:0:
202,250,160918,5,0,0:0:0:0:
202,250,161002,1,0,0:0:0:0:
202,250,161088,2,0,P|160:277|97:264,1,95,2|0,0:0|0:0,0:0:0:0:
28,149,161426,1,0,0:0:0:0:
28,149,161596,2,0,L|115:110,1,95
256,131,161935,2,0,L|343:92,2,95,0|0|8,0:0|0:0|0:0,0:0:0:0:
242,166,162358,1,8,0:0:0:0:
224,200,162444,6,0,B|131:242|131:242|68:313,1,190,10|0,0:0|0:0,0:0:0:0:
231,277,162952,2,0,L|327:231,1,95
193,130,163291,2,0,L|107:171,1,95
267,193,163630,2,2,P|285:94|215:35,1,190
65,85,164138,22,0,L|111:180,1,95
193,130,164477,1,0,0:0:0:0:
17,135,164647,1,8,0:0:0:0:
17,135,164732,1,8,0:0:0:0:
17,135,164817,1,8,0:0:0:0:
165,196,164986,1,0,0:0:0:0:
32,288,165156,6,0,P|71:327|126:354,1,95,8|0,0:0|0:0,0:0:0:0:
165,196,165494,1,0,0:0:0:0:
217,287,165664,1,0,0:0:0:0:
302,227,165834,1,0,0:0:0:0:
331,338,166002,1,0,0:0:0:0:
398,257,166173,2,0,P|416:203|411:149,1,95
397,131,166427,1,0,0:0:0:0:
376,98,166512,6,0,P|364:62|367:3,1,95,2|0,0:0|0:0,0:0:0:0:
483,141,166850,1,0,0:0:0:0:
329,193,167020,2,0,P|273:204|233:188,1,95
285,119,167358,1,0,0:0:0:0:
315,277,167528,1,0,0:0:0:0:
200,252,167697,5,8,0:0:0:0:
200,252,167782,1,8,0:0:0:0:
200,252,167868,2,0,P|156:232|123:199,1,95,10|0,0:0|0:0,0:0:0:0:
165,105,168206,1,0,0:0:0:0:
285,119,168376,2,0,L|388:132,1,95
492,248,168715,2,0,L|397:259,1,95
249,195,169054,2,0,L|343:183,1,95,2|0,0:0|0:0,0:0:0:0:
247,313,169393,2,0,L|152:301,1,95,2|0,0:0|0:0,0:0:0:0:
296,260,169732,2,2,B|313:313|370:322|370:322|420:330|457:368,1,190
375,241,170240,1,0,0:0:0:0:
282,367,170409,21,8,0:0:0:0:
282,367,170494,1,8,0:0:0:0:
282,367,170579,2,0,P|240:329|223:279,1,95,10|0,0:0|0:0,0:0:0:0:
302,190,170918,1,0,0:0:0:0:
296,260,171088,2,0,B|241:252|230:193|230:193|202:149|234:108,1,190
343,132,171596,1,0,0:0:0:0:
276,48,171765,1,0,0:0:0:0:
399,72,171935,6,0,B|442:101|442:101|475:138,1,95,2|0,0:0|0:0,0:0:0:0:
354,235,172274,1,0,0:0:0:0:
445,219,172443,2,0,P|438:274|401:315,1,95
261,297,172782,1,0,0:0:0:0:
354,235,172952,1,0,0:0:0:0:
255,185,173121,1,0,0:0:0:0:
348,103,173291,6,0,P|389:127|436:129,1,95,2|0,0:0|0:0,0:0:0:0:
366,18,173630,1,0,0:0:0:0:
366,18,173799,2,0,P|312:25|273:61,1,95
506,128,174139,2,0,P|499:74|463:35,1,95
348,103,174478,5,0,0:0:0:0:
348,103,174647,2,0,L|357:207,1,95,2|0,0:0|0:0,0:0:0:0:
438,167,174986,1,8,0:0:0:0:
276,151,175156,1,8,0:0:0:0:
360,262,175325,1,8,0:0:0:0:
360,262,175410,1,8,0:0:0:0:
360,262,175495,1,8,0:0:0:0:
463,292,175664,5,0,0:0:0:0:
453,313,175748,1,0,0:0:0:0:
439,332,175833,1,0,0:0:0:0:
421,348,175918,1,0,0:0:0:0:
401,361,176003,2,0,B|356:373|313:358|313:358|268:341|212:367,1,190
142,262,176512,2,0,P|186:243|233:234,1,95
215,365,176851,1,0,0:0:0:0:
78,324,177020,2,0,P|54:269|66:217,1,95
164,113,177359,6,0,P|148:170|105:203,2,95,2|0|0,0:0|0:0|0:0,0:0:0:0:
57,235,177868,1,0,0:0:0:0:
57,235,178037,2,0,P|45:186|75:133,1,95
212,205,178376,1,0,0:0:0:0:
123,194,178546,1,0,0:0:0:0:
276,144,178715,6,0,P|301:193|291:246,1,95,2|0,0:0|0:0,0:0:0:0:
351,99,179054,2,0,P|397:128|421:182,1,95,2|0,0:0|0:0,0:0:0:0:
393,22,179393,2,0,P|447:24|504:37,1,95,2|0,0:0|0:0,0:0:0:0:
416,162,179732,1,2,0:0:0:0:
290,65,179902,1,2,0:0:0:0:
426,91,180071,6,0,B|470:113|470:113|505:162,1,95,2|0,0:0|0:0,0:0:0:0:
373,222,180410,1,2,0:0:0:0:
464,257,180579,1,0,0:0:0:0:
323,287,180749,1,8,0:0:0:0:
323,287,180834,1,8,0:0:0:0:
323,287,180918,1,8,0:0:0:0:
416,162,181088,5,0,0:0:0:0:
416,162,181173,1,0,0:0:0:0:
416,162,181257,1,0,0:0:0:0:
416,162,181342,1,0,0:0:0:0:
416,162,181427,2,0,B|365:136|327:167|327:167|334:110|281:83,1,190,4|0,0:0|0:0,0:0:0:0:
373,222,181935,1,0,0:0:0:0:
256,152,182105,1,0,0:0:0:0:
379,81,182274,1,0,0:0:0:0:
447,227,182444,2,0,P|424:280|375:297,1,95
276,312,182783,5,8,0:0:0:0:
276,312,182868,1,8,0:0:0:0:
276,312,182953,1,8,0:0:0:0:
209,233,183122,1,8,0:0:0:0:
180,250,183207,1,8,0:0:0:0:
155,271,183291,2,0,P|137:292|114:328,1,47.5,0|8,0:0|0:0,0:0:0:0:
97,367,183461,1,0,0:0:0:0:
52,277,183630,1,8,0:0:0:0:
52,277,183715,1,8,0:0:0:0:
52,277,183800,1,8,0:0:0:0:
310,171,205664,6,0,L|305:115,1,35.625001358986
300,68,205834,1,0,0:0:0:0:
158,203,206173,53,0,0:0:0:0:
224,102,206342,1,0,0:0:0:0:
422,240,206681,1,0,0:0:0:0:
395,124,206850,1,0,0:0:0:0:
282,252,207190,5,0,0:0:0:0:
414,96,207529,53,0,0:0:0:0:
480,196,207698,1,0,0:0:0:0:
281,153,208037,1,0,0:0:0:0:
263,273,208207,1,0,0:0:0:0:
150,100,208546,5,0,0:0:0:0:
401,137,208885,53,0,0:0:0:0:
281,153,209054,1,0,0:0:0:0:
76,283,209393,1,0,0:0:0:0:
193,253,209563,1,0,0:0:0:0:
383,292,209902,5,0,0:0:0:0:
117,111,210241,53,0,0:0:0:0:
188,204,210410,1,0,0:0:0:0:
175,85,210749,1,0,0:0:0:0:
262,168,210918,2,8,L|304:207,3,35.625001358986
312,215,211257,5,0,0:0:0:0:
312,215,211596,1,0,0:0:0:0:
408,288,211766,2,0,L|479:342,1,71.2500027179719
450,208,212105,1,0,0:0:0:0:
348,272,212274,2,0,L|274:314,1,71.2500027179719
163,289,212613,38,0,L|233:251,1,71.2500027179719
290,152,212952,1,0,0:0:0:0:
185,90,213122,2,0,L|104:84,1,71.2500027179719
192,177,213461,1,0,0:0:0:0:
252,72,213630,2,0,L|326:42,1,71.2500027179719
434,80,213969,22,0,L|358:115,1,71.2500027179719
327,223,214308,1,0,0:0:0:0:
448,216,214478,2,0,L|434:297,1,71.2500027179719
392,170,214817,1,0,0:0:0:0:
271,177,214986,2,0,L|337:231,1,71.2500027179719
448,216,215325,38,0,L|392:170,1,71.2500027179719
260,249,215664,1,0,0:0:0:0:
354,325,215834,2,0,L|266:371,1,71.2500027179719
182,303,216173,37,0,0:0:0:0:
163,281,216257,1,0,0:0:0:0:
149,255,216342,1,0,0:0:0:0:
141,227,216427,1,0,0:0:0:0:
139,198,216512,1,0,0:0:0:0:
144,170,216596,1,0,0:0:0:0:
156,144,216681,54,0,B|175:118|201:93|243:77|282:84|309:123|309:123|344:83|423:88,1,285,8|0,0:0|0:0,0:0:0:0:
485,171,217359,2,0,P|442:176|380:168,1,95
364,188,217613,2,0,P|383:231|411:269,1,95
411,302,217868,1,0,0:0:0:0:
411,302,218037,6,0,B|358:324|313:302|313:302|268:279|220:295,1,190
259,363,218546,2,0,P|165:338|168:242,1,190
226,292,219054,1,0,0:0:0:0:
123,194,219224,53,0,0:0:0:0:
123,194,219308,1,0,0:0:0:0:
123,194,219393,1,0,0:0:0:0:
248,197,219563,1,8,0:0:0:0:
248,197,219647,1,8,0:0:0:0:
248,197,219732,1,8,0:0:0:0:
179,141,219902,2,0,B|126:96|75:131|75:131|83:49|189:16,1,285
456,68,220749,6,0,P|457:187|414:261,1,190
388,127,221257,2,0,P|329:230|245:260,1,190
306,142,221766,2,0,P|268:176|219:185,1,95
81,137,222105,54,0,B|107:176|163:187|163:187|103:209|84:244,1,190,8|0,0:0|0:0,0:0:0:0:
297,303,222783,1,0,0:0:0:0:
297,303,222952,2,0,P|232:320|163:315,1,95
88,237,223291,1,0,0:0:0:0:
88,237,223460,2,0,P|153:220|222:225,1,95,8|0,0:0|0:0,0:0:0:0:
112,319,223800,5,0,0:0:0:0:
0,273,223969,2,0,B|-15:178|59:149|59:149|86:140|114:136,1,190,8|0,0:0|0:0,0:0:0:0:
220,61,224478,2,0,P|241:112|241:161,1,95
371,109,224817,1,0,0:0:0:0:
377,141,224901,1,0,0:0:0:0:
377,174,224986,1,0,0:0:0:0:
370,207,225071,1,0,0:0:0:0:
358,238,225156,2,0,P|304:304|210:350,2,190
228,149,226173,54,0,L|180:173,3,47.5,2|0|0|0,0:0|0:0|0:0|0:0,0:0:0:0:
295,155,226512,2,0,L|349:128,3,47.5,2|0|0|0,0:0|0:0|0:0|0:0,0:0:0:0:
268,94,226851,1,2,0:0:0:0:
237,79,226935,1,0,0:0:0:0:
205,71,227020,1,0,0:0:0:0:
172,69,227105,1,0,0:0:0:0:
139,74,227189,1,8,0:0:0:0:
108,85,227274,1,8,0:0:0:0:
79,102,227359,1,8,0:0:0:0:
55,124,227444,1,8,0:0:0:0:
38,153,227529,6,0,P|29:200|34:264,1,95,8|0,0:0|0:0,0:0:0:0:
164,259,227868,1,0,0:0:0:0:
118,182,228037,1,0,0:0:0:0:
95,306,228207,2,0,P|127:335|199:333,1,95
261,268,228546,53,8,0:0:0:0:
261,268,228630,1,8,0:0:0:0:
261,268,228715,1,8,0:0:0:0:
261,268,228800,1,8,0:0:0:0:
261,268,228885,2,0,P|305:296|366:305,1,95,10|0,0:0|0:0,0:0:0:0:
422,242,229224,1,2,0:0:0:0:
347,179,229393,1,0,0:0:0:0:
249,162,229563,1,2,0:0:0:0:
264,185,229647,1,0,0:0:0:0:
285,204,229732,1,0,0:0:0:0:
375,119,229902,5,8,0:0:0:0:
356,97,229986,1,8,0:0:0:0:
335,76,230071,1,8,0:0:0:0:
310,61,230156,1,8,0:0:0:0:
283,50,230241,1,8,0:0:0:0:
163,86,230410,1,0,0:0:0:0:
232,12,230579,1,0,0:0:0:0:
229,115,230749,1,0,0:0:0:0:
166,16,230918,2,0,P|137:20|108:38,2,47.5
128,150,231257,1,8,0:0:0:0:
128,150,231342,1,8,0:0:0:0:
128,150,231427,1,8,0:0:0:0:
25,203,231596,53,0,0:0:0:0:
139,235,231766,1,0,0:0:0:0:
139,235,231851,1,0,0:0:0:0:
139,235,231935,1,0,0:0:0:0:
57,334,232105,1,0,0:0:0:0:
161,306,232274,1,8,0:0:0:0:
188,298,232359,1,8,0:0:0:0:
216,296,232444,1,8,0:0:0:0:
244,301,232529,1,8,0:0:0:0:
269,312,232613,1,8,0:0:0:0:
367,347,232783,1,4,0:0:0:0:
342,259,232952,6,0,P|327:233|306:215,3,47.5,2|0|0|0,0:0|0:0|0:0|0:0,0:0:0:0:
407,244,233291,2,0,P|407:213|397:187,3,47.5,2|0|0|0,0:0|0:0|0:0|0:0,0:0:0:0:
472,262,233630,1,2,0:0:0:0:
479,234,233715,1,0,0:0:0:0:
483,205,233800,1,0,0:0:0:0:
481,176,233885,1,0,0:0:0:0:
476,148,233969,2,0,P|469:120|458:97,3,47.5,2|0|0|0,0:0|0:0|0:0|0:0,0:0:0:0:
372,66,234308,54,0,P|380:101|394:133,3,47.5,2|0|0|0,0:0|0:0|0:0|0:0,0:0:0:0:
296,61,234647,2,0,P|300:37|308:15,3,47.5,2|0|0|0,0:0|0:0|0:0|0:0,0:0:0:0:
224,71,234986,1,2,0:0:0:0:
220,94,235070,1,0,0:0:0:0:
213,116,235155,1,0,0:0:0:0:
200,136,235240,1,0,0:0:0:0:
183,152,235324,1,2,0:0:0:0:
154,170,235410,5,0,0:0:0:0:
125,186,235495,1,0,0:0:0:0:
100,207,235579,1,0,0:0:0:0:
82,235,235664,2,2,B|66:272|94:300|136:309|171:294|192:258|192:258|257:269|309:251,1,285
391,249,236342,53,0,0:0:0:0:
433,240,236427,1,0,0:0:0:0:
472,223,236512,1,0,0:0:0:0:
496,188,236596,1,0,0:0:0:0:
502,145,236681,2,0,P|498:113|485:82,3,47.5,2|0|0|0,0:0|0:0|0:0|0:0,0:0:0:0:
471,61,237020,6,8,P|458:27|456:5,1,47.5
319,143,237359,2,8,P|300:108|283:87,1,47.5
409,156,237698,1,8,0:0:0:0:
409,156,237783,1,8,0:0:0:0:
409,156,237868,1,8,0:0:0:0:
269,203,238037,1,8,0:0:0:0:
269,203,238122,1,8,0:0:0:0:
269,203,238207,1,8,0:0:0:0:
392,230,238376,6,0,P|448:237|489:233,1,71.2500027179719
422,322,238715,1,0,0:0:0:0:
318,270,238885,1,0,0:0:0:0:
344,353,239054,2,0,P|303:357|265:338,1,71.2500027179719
206,246,239393,1,0,0:0:0:0:
163,317,239563,1,0,0:0:0:0:
163,196,239732,6,0,B|192:114|192:114|175:57,1,142.500005435944
295,33,240241,2,0,B|266:115|266:115|283:172,1,142.500005435944
387,61,240749,1,0,0:0:0:0:
355,147,240918,1,0,0:0:0:0:
385,234,241088,2,0,P|414:269|455:288,1,71.2500027179719
470,195,241427,1,0,0:0:0:0:
470,195,241596,2,0,P|463:155|474:102,1,71.2500027179719
387,61,241935,1,0,0:0:0:0:
387,61,242105,54,0,B|326:100|366:203|361:207|254:209|243:297,1,285.000010871888
256,136,243122,2,0,P|194:182|152:252,1,142.500005435944
352,135,243800,5,4,0:0:0:0:
181,62,244139,2,0,L|270:62,1,71.2500027179719
352,135,244478,2,0,L|280:135,1,71.2500027179719
87,206,244986,1,0,0:0:0:0:
87,206,245156,2,0,P|114:244|152:269,1,71.2500027179719
238,199,245495,1,0,0:0:0:0:
383,214,245664,2,0,P|363:244|337:268,1,71.2500027179719
223,312,246003,53,0,0:0:0:0:
343,333,246173,1,0,0:0:0:0:
253,370,246342,1,0,0:0:0:0:
337,268,246512,2,0,P|381:280|403:306,1,71.2500027179719
453,376,246851,1,0,0:0:0:0:
453,376,247020,2,0,B|475:342|475:342|482:298,1,71.2500027179719
478,190,247359,1,0,0:0:0:0:
460,69,247529,2,0,B|384:83|361:148|361:148|281:119|214:160,1,285.000010871888
294,269,248546,1,0,0:0:0:0:
117,216,248885,5,0,0:0:0:0:
117,216,249054,1,0,0:0:0:0:
117,216,249224,1,4,0:0:0:0:
247,74,249563,2,0,P|228:122|203:157,1,71.2500027179719
166,46,249902,1,0,0:0:0:0:
290,15,250071,1,0,0:0:0:0:
380,87,250241,2,0,P|390:138|388:181,1,71.2500027179719
264,221,250579,54,0,P|289:260|319:287,1,71.2500027179719
414,254,250918,1,0,0:0:0:0:
390,158,251088,2,0,P|432:177|472:183,1,71.2500027179719
375,83,251427,1,0,0:0:0:0:
283,121,251596,1,0,0:0:0:0:
264,221,251766,1,0,0:0:0:0:
414,254,251935,6,0,P|393:294|357:333,1,71.2500027179719
260,350,252274,1,0,0:0:0:0:
260,350,252444,2,0,P|238:321|222:289,1,71.2500027179719
109,245,252783,1,0,0:0:0:0:
109,245,252952,2,0,B|109:287|126:324|126:324|39:332|7:243|16:178,1,285.000010871888
138,123,253969,2,0,P|200:157|236:229,1,142.500005435944
109,245,254478,1,0,0:0:0:0:
208,289,254647,2,0,P|250:293|283:275,1,71.2500027179719,4|0,0:0|0:0,0:0:0:0:
381,189,254986,53,0,0:0:0:0:
437,296,255156,1,0,0:0:0:0:
461,206,255325,1,0,0:0:0:0:
353,305,255495,2,0,B|319:332|319:332|274:348,1,71.2500027179719
446,146,256003,5,0,0:0:0:0:
325,160,256173,2,0,B|281:163|281:163|235:151,1,71.2500027179719
280,64,256512,1,0,0:0:0:0:
378,92,256681,1,0,0:0:0:0:
389,212,256851,2,0,L|397:297,1,71.2500027179719
305,348,257190,53,0,0:0:0:0:
305,348,257359,2,0,L|299:278,1,71.2500027179719
178,293,257698,2,0,L|207:228,1,71.2500027179719
95,181,258037,2,0,L|153:139,1,71.2500027179719,4|0,0:0|0:0,0:0:0:0:
290,160,258376,1,0,0:0:0:0:
207,228,258546,1,0,0:0:0:0:
332,222,258715,6,0,L|398:226,2,47.5000018119813
290,160,259054,2,0,L|237:156,2,47.5000018119813
336,97,259393,2,0,L|402:101,2,47.5000018119813
297,33,259732,2,0,L|244:29,2,47.5000018119813
336,97,260071,5,0,0:0:0:0:
400,224,260410,1,0,0:0:0:0:
270,282,260749,1,0,0:0:0:0:
206,154,261088,1,0,0:0:0:0:
366,146,261427,5,0,0:0:0:0:
357,288,261766,1,0,0:0:0:0:
216,264,262105,1,0,0:0:0:0:
241,123,262444,1,0,0:0:0:0:
346,231,262783,53,0,0:0:0:0:
331,89,263122,1,0,0:0:0:0:
192,122,263461,1,0,0:0:0:0:
279,234,263800,1,0,0:0:0:0:
365,106,264139,5,0,0:0:0:0:
226,74,264478,1,0,0:0:0:0:
142,189,264817,1,0,0:0:0:0:
239,293,265156,1,0,0:0:0:0:
276,155,265495,54,0,L|289:227,1,71.2500027179719
357,204,265834,2,0,L|344:276,1,71.2500027179719
412,252,266173,2,0,L|425:324,1,71.2500027179719
481,279,266512,2,0,L|493:208,1,71.2500027179719
441,119,266851,6,0,L|428:191,1,71.2500027179719
372,144,267190,2,0,L|359:73,1,71.2500027179719
301,115,267529,2,0,L|288:44,1,71.2500027179719
232,89,267868,2,0,L|219:161,1,71.2500027179719
126,228,268207,54,0,L|140:157,1,71.2500027179719
219,290,268546,2,0,L|195:221,1,71.2500027179719
330,293,268885,2,0,L|275:245,1,71.2500027179719
430,243,269224,2,0,L|359:228,1,71.2500027179719
422,175,269563,6,0,L|492:187,1,71.2500027179719
349,129,269902,2,0,L|415:104,1,71.2500027179719
265,121,270241,2,0,L|310:66,1,71.2500027179719
190,162,270580,2,0,L|202:91,1,71.2500027179719
89,181,270918,54,0,B|99:224|126:270,1,80.750001540184
154,282,271173,2,0,P|214:261|276:251,1,121.125002310276
408,241,271596,2,0,L|346:188,1,80.750001540184
270,251,271935,1,0,0:0:0:0:
373,292,272105,1,0,0:0:0:0:
483,251,272274,54,0,P|478:207|490:155,1,80.750001540184
488,130,272529,2,0,P|482:83|442:12,1,121.125002310276
406,145,272952,2,0,P|402:105|372:64,1,80.750001540184
329,131,273291,1,0,0:0:0:0:
279,47,273461,1,0,0:0:0:0:
197,120,273630,6,0,P|166:148|143:186,1,80.750001540184
167,215,273885,2,0,P|141:266|88:315,1,121.125002310276
54,216,274308,1,0,0:0:0:0:
232,329,274647,1,0,0:0:0:0:
266,255,274817,1,0,0:0:0:0:
248,176,274986,54,0,B|238:133|238:133|247:95,1,80.750001540184
326,163,275495,1,0,0:0:0:0:
326,163,275664,1,0,0:0:0:0:
494,198,276003,1,0,0:0:0:0:
455,266,276173,1,0,0:0:0:0:
352,281,276342,6,0,P|385:318|404:356,1,80.750001540184
434,346,276596,2,0,P|500:335|535:284,1,121.125002310276
421,192,277020,2,0,L|459:276,1,80.750001540184
399,345,277359,1,0,0:0:0:0:
304,315,277529,1,0,0:0:0:0:
221,369,277698,54,0,B|181:353|181:353|137:353,1,80.750001540184
112,326,277952,2,0,B|75:288|75:288|115:277|127:229,1,121.125002310276
273,262,278376,2,0,L|185:286,1,80.750001540184
54,222,278715,1,0,0:0:0:0:
183,208,278885,1,0,0:0:0:0:
105,133,279054,6,0,L|199:127,1,80.750001540184
225,124,279308,2,0,P|266:129|345:98,1,121.125002310276
323,211,279732,2,0,L|417:205,1,80.750001540184
494,140,280071,1,0,0:0:0:0:
494,140,280241,1,0,0:0:0:0:
494,140,280410,54,0,P|455:114|407:109,1,80.750001540184
260,108,280918,1,0,0:0:0:0:
260,108,281088,2,0,P|299:82|347:77,1,80.750001540184
365,149,281427,38,0,B|357:188|357:188|370:215|370:215|359:246|359:246|366:271,1,121.125002310276
366,276,281766,53,0,0:0:0:0:
289,327,281935,1,0,0:0:0:0:
199,350,282105,2,0,P|148:346|110:328,1,71.2500027179719
178,227,282444,1,0,0:0:0:0:
58,248,282613,2,0,P|46:204|57:154,1,71.2500027179719
181,129,282952,2,0,P|252:189|314:199,1,142.500005435944
245,76,283461,38,0,P|221:56|167:48,1,71.2500027179719
62,61,283800,2,0,P|86:81|140:89,1,71.2500027179719
287,31,284139,2,0,L|356:83,1,71.2500027179719
253,120,284478,21,0,0:0:0:0:
365,198,284647,1,0,0:0:0:0:
295,179,284817,2,0,B|263:195|263:195|234:224,2,71.2500027179719
425,244,285325,1,0,0:0:0:0:
325,257,285495,1,0,0:0:0:0:
415,167,285664,2,0,P|481:189|497:268,1,142.500005435944
355,323,286173,38,0,L|423:347,1,71.2500027179719
352,254,286512,2,0,L|283:268,1,71.2500027179719
220,333,286851,2,0,L|288:357,1,71.2500027179719
232,214,287190,21,0,0:0:0:0:
134,235,287359,1,0,0:0:0:0:
57,298,287529,2,0,P|84:320|121:333,2,71.2500027179719
68,177,288037,1,0,0:0:0:0:
8,240,288207,1,0,0:0:0:0:
134,235,288376,2,0,P|156:194|163:144,1,71.2500027179719
108,87,288715,37,0,0:0:0:0:
108,87,288885,1,0,0:0:0:0:
161,170,289054,1,0,0:0:0:0:
161,170,289224,1,0,0:0:0:0:
216,79,289393,1,0,0:0:0:0:
216,79,289563,2,0,L|281:47,1,71.2500027179719
399,67,289902,22,0,B|379:102|379:102|336:129,1,71.2500027179719
290,222,290241,2,0,B|330:220|330:220|422:164,1,142.500005435944
492,218,290749,2,0,L|423:260,1,71.2500027179719
369,359,291088,2,0,L|439:317,1,71.2500027179719
317,320,291427,37,0,0:0:0:0:
240,373,291596,2,0,B|206:356|206:356|176:318,1,71.2500027179719
257,241,291935,1,0,0:0:0:0:
257,241,292105,1,0,0:0:0:0:
257,241,292274,2,0,P|229:211|202:193,1,71.2500027179719
146,108,292613,21,0,0:0:0:0:
223,57,292782,1,0,0:0:0:0:
313,34,292952,2,0,P|363:38|402:56,1,71.2500027179719
334,166,293291,1,0,0:0:0:0:
407,186,293460,2,0,P|408:150|391:115,1,71.2500027179719
331,258,293800,2,0,P|268:231|243:148,1,142.500005435944
266,307,294308,38,0,P|309:323|354:322,1,71.2500027179719
460,304,294647,2,0,P|427:290|391:287,1,71.2500027179719
254,380,294986,2,0,L|185:327,1,71.2500027179719
259,263,295325,21,0,0:0:0:0:
147,185,295494,1,0,0:0:0:0:
217,204,295664,2,0,B|249:189|249:189|278:160,2,71.2500027179719
87,140,296172,1,0,0:0:0:0:
187,127,296342,1,0,0:0:0:0:
96,217,296512,2,0,P|31:194|15:116,1,142.500005435944
156,60,297020,38,0,L|89:37,1,71.2500027179719
159,129,297359,2,0,L|229:116,1,71.2500027179719
291,50,297698,2,0,L|224:27,1,71.2500027179719
280,169,298037,21,0,0:0:0:0:
378,149,298206,1,0,0:0:0:0:
455,86,298376,2,0,P|427:63|391:51,2,71.2500027179719
444,207,298884,1,0,0:0:0:0:
503,143,299054,1,0,0:0:0:0:
378,149,299223,2,0,P|356:190|349:240,1,71.2500027179719
404,297,299562,37,0,0:0:0:0:
404,297,299732,1,0,0:0:0:0:
351,214,299901,1,0,0:0:0:0:
351,214,300071,1,0,0:0:0:0:
296,305,300240,1,0,0:0:0:0:
296,305,300410,2,0,L|231:336,1,71.2500027179719
116,322,300749,22,0,B|80:341|80:341|29:341,1,71.2500027179719
58,262,301088,2,0,B|93:242|93:242|200:240,1,142.500005435944
231,158,301596,2,0,L|150:158,1,71.2500027179719
52,104,301935,2,0,L|133:102,1,71.2500027179719
195,64,302274,37,0,0:0:0:0:
272,11,302443,2,0,B|305:28|305:28|336:66,1,71.2500027179719
404,169,302782,1,0,0:0:0:0:
404,169,303122,1,0,0:0:0:0:
260,225,303461,5,8,0:0:0:0:
284,245,303546,1,8,0:0:0:0:
307,266,303630,1,8,0:0:0:0:
330,288,303715,1,8,0:0:0:0:
353,310,303800,1,8,0:0:0:0:
353,310,304308,53,0,0:0:0:0:
353,310,304647,1,0,0:0:0:0:
353,310,304986,1,0,0:0:0:0:
230,349,305325,5,8,0:0:0:0:
230,349,305410,1,8,0:0:0:0:
230,349,305495,2,0,P|189:319|172:280,1,71.2500027179719,8|0,0:0|0:0,0:0:0:0:
158,206,305834,1,2,0:0:0:0:
158,206,306173,6,0,P|192:184|248:172,1,71.2500027179719,2|0,0:0|0:0,0:0:0:0:
329,169,306512,1,0,0:0:0:0:
420,190,306682,2,0,P|407:223|381:246,1,71.2500027179719
276,212,307021,1,8,0:0:0:0:
380,124,307190,1,0,0:0:0:0:
381,246,307360,1,8,0:0:0:0:
458,104,307529,2,0,P|489:167|479:237,1,142.500005435944,8|0,0:0|0:0,0:0:0:0:
381,246,308038,1,0,0:0:0:0:
269,338,308376,5,8,0:0:0:0:
269,338,308546,2,0,P|233:323|205:283,1,71.2500027179719,0|8,0:0|0:0,0:0:0:0:
319,195,308885,1,8,0:0:0:0:
319,195,309054,2,0,P|308:228|284:254,1,71.2500027179719
168,188,309393,2,0,P|202:180|236:187,1,71.2500027179719
283,254,309732,1,8,0:0:0:0:
321,325,309902,2,0,P|355:333|389:326,1,71.2500027179719,0|8,0:0|0:0,0:0:0:0:
456,208,310241,6,0,B|479:285|479:285|472:356,1,142.500005435944,8|0,0:0|0:0,0:0:0:0:
352,262,310749,2,0,B|328:184|328:184|336:114,1,142.500005435944,0|8,0:0|0:0,0:0:0:0:
335,123,311258,1,0,0:0:0:0:
199,48,311427,5,8,0:0:0:0:
247,118,311597,1,8,0:0:0:0:
160,123,311766,1,0,0:0:0:0:
219,182,311936,1,8,0:0:0:0:
144,209,312105,1,8,0:0:0:0:
213,280,312444,5,8,0:0:0:0:
144,209,312614,2,0,P|120:241|114:286,1,71.2500027179719,8|0,0:0|0:0,0:0:0:0:
182,341,312952,2,0,P|206:309|212:264,1,71.2500027179719,8|0,0:0|0:0,0:0:0:0:
329,337,313291,1,8,0:0:0:0:
329,337,313461,2,0,B|299:308|297:273|297:273|295:237|262:213,1,142.500005435944,8|0,0:0|0:0,0:0:0:0:
264,214,313970,1,4,0:0:0:0:
154,69,314308,5,0,0:0:0:0:
241,71,314478,2,0,P|230:116|197:143,1,71.2500027179719
128,135,314817,2,0,P|139:180|172:207,1,71.2500027179719
274,276,315156,1,8,0:0:0:0:
234,198,315326,1,0,0:0:0:0:
213,339,315495,6,0,P|277:363|339:331,1,142.500005435944,8|0,0:0|0:0,0:0:0:0:
397,254,316003,1,0,0:0:0:0:
271,143,316342,1,0,0:0:0:0:
398,142,316512,1,0,0:0:0:0:
334,198,316681,2,0,L|282:248,1,71.2500027179719,2|0,0:0|0:0,0:0:0:0:
398,142,317020,6,0,P|362:118|265:149,1,142.500005435944,10|0,0:0|0:0,0:0:0:0:
152,170,317529,2,0,P|191:178|217:199,1,71.2500027179719
282,246,317868,2,0,P|219:275|155:246,1,142.500005435944,8|8,0:0|0:0,0:0:0:0:
155,246,318376,1,8,0:0:0:0:
355,316,318715,1,0,0:0:0:0:
237,343,318885,2,0,L|146:360,1,71.2500027179719
282,246,319224,5,8,0:0:0:0:
196,278,319393,1,0,0:2:0:0:
355,316,319563,1,8,0:0:0:0:
237,343,319732,2,0,L|167:356,1,71.2500027179719,8|0,0:0|0:0,0:0:0:0:
292,310,320071,1,0,0:0:0:0:
219,212,320241,2,0,P|205:179|209:131,1,71.2500027179719
293,161,320579,2,0,P|297:125|324:85,1,71.2500027179719,8|0,0:0|0:0,0:0:0:0:
383,153,320918,1,8,0:0:0:0:
461,226,321088,6,0,P|400:259|318:238,1,142.500005435944,8|0,0:0|0:0,0:0:0:0:
225,150,321596,2,0,P|266:148|298:166,1,71.2500027179719
251,227,321935,1,8,0:0:0:0:
251,227,322105,1,0,0:0:0:0:
169,189,322274,5,8,0:0:0:0:
156,266,322444,1,8,0:0:0:0:
60,212,322613,1,0,0:0:0:0:
48,321,322783,1,8,0:0:0:0:
3,265,322952,1,8,0:0:0:0:
136,109,323291,5,8,0:0:0:0:
147,181,323461,1,8,0:0:0:0:
66,82,323630,1,0,0:0:0:0:
76,188,323800,2,0,P|88:222|114:245,1,71.2500027179719,8|0,0:0|0:0,0:0:0:0:
234,177,324139,1,8,0:0:0:0:
184,237,324308,2,0,B|215:266|260:252|260:252|299:238|330:260,1,142.500005435944,8|8,0:0|0:0,0:0:0:0:
395,135,324817,6,0,P|411:169|408:211,1,71.2500027179719,0|8,0:0|0:0,0:0:0:0:
319,253,325156,1,8,0:0:0:0:
234,177,325325,2,0,P|234:141|249:109,1,71.2500027179719
395,135,325664,1,8,0:0:0:0:
441,241,325834,2,0,P|477:218|500:184,1,71.2500027179719,8|0,0:0|0:0,0:0:0:0:
490,74,326173,1,8,0:0:0:0:
395,135,326342,1,8,0:0:0:0:
494,195,326512,6,0,L|496:346,1,142.500005435944
354,233,327190,1,0,0:0:0:0:
281,309,327359,1,8,0:0:0:0:
281,309,327444,1,8,0:0:0:0:
281,309,327529,1,8,0:0:0:0:
357,313,327698,1,0,0:0:0:0:
279,225,327868,38,0,B|229:230|194:202|194:202|183:213|183:213|150:190|98:193,1,190
174,109,328376,2,0,B|223:103|258:131|258:131|269:120|269:120|302:143|349:140,1,190
326,51,328885,2,0,P|284:18|228:0,1,95
349,140,329224,2,0,P|385:169|429:187,1,95
512,76,329563,2,0,P|470:43|414:25,2,95,0|0|4,0:0|0:0|0:0,0:0:0:0:
349,140,330071,5,0,0:0:0:0:
432,151,330241,1,4,0:0:0:0:
288,198,330410,1,0,0:0:0:0:
445,246,330579,2,0,B|395:236|358:269|358:269|318:303|261:293,1,190,4|0,0:0|0:0,0:0:0:0:
111,246,331088,2,0,B|161:255|201:221|201:221|238:187|287:197,1,190
200,305,331596,2,0,P|146:317|100:315,1,95
41,182,331935,2,0,P|95:170|141:172,1,95
287,197,332274,2,0,P|341:209|387:207,2,95,0|0|4,0:0|0:0|0:0,0:0:0:0:
171,84,332783,53,0,0:0:0:0:
280,130,332952,1,4,0:0:0:0:
134,171,333122,1,0,0:0:0:0:
256,253,333291,2,0,L|224:343,1,95,4|0,0:0|0:0,0:0:0:0:
102,260,333630,2,0,L|134:170,1,95
256,253,333969,6,0,B|296:277|296:277|362:282,1,95
453,180,334308,2,0,B|413:204|413:204|347:209,1,95
247,153,334647,2,0,B|287:129|287:129|335:125,1,95,4|0,0:0|0:0,0:0:0:0:
444,80,334986,2,0,B|404:56|404:56|355:52,1,95
247,153,335325,2,0,P|195:177|149:179,1,95
37,157,335664,1,0,0:0:0:0:
37,157,335834,1,0,0:0:0:0:
139,98,336003,5,4,0:0:0:0:
82,239,336173,1,8,0:0:0:0:
82,239,336257,1,8,0:0:0:0:
82,239,336342,1,8,0:0:0:0:
157,179,336512,1,0,0:0:0:0:
174,283,336681,1,8,0:0:0:0:
195,293,336765,1,8,0:0:0:0:
217,300,336850,1,8,0:0:0:0:
241,303,336935,1,8,0:0:0:0:
264,302,337020,2,0,P|316:288|366:262,1,95,8|0,0:0|0:0,0:0:0:0:
269,181,337359,5,0,0:0:0:0:
372,108,337529,1,0,0:0:0:0:
377,135,337613,1,0,0:0:0:0:
390,160,337698,1,0,0:0:0:0:
411,180,337783,1,0,0:0:0:0:
434,197,337867,1,0,0:0:0:0:
451,219,337952,1,0,0:0:0:0:
461,246,338037,1,0,0:0:0:0:
353,269,338207,5,0,0:0:0:0:
281,346,338376,2,8,L|246:313,1,47.5
264,248,338546,2,8,L|217:237,1,47.5
181,297,338715,6,0,B|128:311|128:311|75:303,1,95,10|0,0:0|0:0,0:0:0:0:
76,166,339054,1,0,0:0:0:0:
235,145,339223,1,0,0:0:0:0:
223,177,339308,1,0,0:0:0:0:
202,204,339393,2,0,B|155:231|155:231|101:237,1,95
152,104,339732,1,0,0:0:0:0:
235,145,339901,1,0,0:0:0:0:
303,205,340071,6,0,P|323:247|330:295,1,95,2|0,0:0|0:3,0:3:0:0:
202,204,340409,1,0,0:0:0:0:
103,263,340579,2,0,P|138:294|182:312,1,95
330,294,340918,1,0,0:0:0:0:
447,357,341087,1,0,0:0:0:0:
399,269,341257,5,8,0:0:0:0:
399,269,341342,1,8,0:0:0:0:
399,269,341426,2,0,B|390:220|390:220|396:168,1,95,10|0,0:0|0:0,0:0:0:0:
354,52,341765,1,0,0:0:0:0:
502,102,341935,2,0,B|510:155|510:155|499:201,1,95
395,175,342274,1,0,0:0:0:0:
504,277,342443,1,0,0:0:0:0:
403,366,342613,21,0,0:0:0:0:
403,366,342698,1,0,0:0:0:0:
403,366,342782,2,0,P|345:370|294:365,1,95,2|0,0:0|0:0,0:0:0:0:
399,269,343121,1,0,0:0:0:0:
265,266,343291,2,0,P|207:254|159:236,1,95
304,183,343630,1,0,0:0:0:0:
282,80,343799,1,0,0:0:0:0:
459,122,343969,5,8,0:0:0:0:
430,147,344054,1,8,0:0:0:0:
396,164,344138,2,0,P|342:179|289:183,1,95,10|0,0:0|0:0,0:0:0:0:
173,242,344477,1,0,0:0:0:0:
81,162,344647,2,0,P|135:147|188:143,1,95
265,266,344986,1,0,0:0:0:0:
85,244,345155,1,0,0:0:0:0:
216,359,345325,5,0,0:0:0:0:
216,359,345409,1,0,0:0:0:0:
216,359,345495,2,0,P|269:369|328:354,1,95,2|0,0:0|0:0,0:0:0:0:
403,220,345833,1,0,0:0:0:0:
403,220,346003,2,0,L|300:265,1,95
183,207,346342,2,0,L|270:168,2,95,0|0|8,0:0|0:0|0:0,0:0:0:0:
143,198,346765,1,8,0:0:0:0:
111,177,346851,6,0,B|89:146|51:142|51:142|71:83|160:71,1,190,10|0,0:0|0:0,0:0:0:0:
279,123,347359,2,0,P|239:148|193:144,1,95
221,61,347698,2,0,P|260:35|306:39,1,95
343,149,348037,2,2,P|382:191|465:119,1,190
279,123,348545,22,0,P|284:175|318:225,1,95
403,131,348885,1,0,0:0:0:0:
393,99,348969,1,0,0:0:0:0:
380,68,349054,1,0,0:0:0:0:
359,41,349139,1,0,0:0:0:0:
333,19,349224,2,8,P|292:11|267:10,1,47.5
270,74,349393,2,8,P|246:71|223:65,1,47.5
215,0,349563,6,0,P|157:9|107:39,1,95,10|0,0:0|0:0,0:0:0:0:
174,139,349901,1,0,0:0:0:0:
270,74,350070,1,0,0:0:0:0:
114,95,350240,1,0,0:0:0:0:
247,137,350409,1,0,0:0:0:0:
113,188,350579,2,0,P|153:212|198:225,1,95
231,230,350833,1,0,0:0:0:0:
264,230,350918,6,0,P|323:243|375:266,1,95,2|0,0:0|0:0,0:0:0:0:
195,302,351257,1,0,0:0:0:0:
268,168,351427,2,0,P|223:151|176:142,1,95
264,230,351765,1,0,0:0:0:0:
340,132,351935,1,0,0:0:0:0:
355,255,352104,5,8,0:0:0:0:
355,255,352189,1,8,0:0:0:0:
355,255,352274,2,0,B|321:295|321:295|277:313,1,95,10|0,0:0|0:0,0:0:0:0:
182,342,352613,1,0,0:0:0:0:
122,258,352782,2,0,L|149:166,1,95
28,91,353121,2,0,L|55:183,1,95
216,243,353460,2,0,L|243:151,1,95,2|0,0:0|0:0,0:0:0:0:
122,76,353799,2,0,L|149:168,1,95,2|0,0:0|0:0,0:0:0:0:
309,165,354139,2,2,B|315:99|247:84|247:84|201:74|175:43,1,190,0|0,0:0|0:0,0:0:0:0:
319,42,354647,1,0,0:0:0:0:
244,155,354816,21,8,0:0:0:0:
244,155,354901,1,8,0:0:0:0:
244,155,354986,2,0,P|250:210|286:253,1,95,10|0,0:0|0:0,0:0:0:0:
359,164,355325,1,0,0:0:0:0:
476,142,355495,2,0,B|490:194|458:236|458:236|423:279|440:333,1,190
271,241,356003,1,0,0:0:0:0:
359,164,356172,1,0,0:0:0:0:
260,109,356342,6,0,B|213:85|213:85|165:75,1,95,2|0,0:0|0:0,0:0:0:0:
359,164,356681,1,0,0:0:0:0:
442,151,356850,2,0,P|418:105|363:78,1,95
260,109,357189,1,8,0:0:0:0:
359,164,357359,1,8,0:0:0:0:
278,207,357528,1,8,0:0:0:0:
411,232,357698,6,0,P|389:278|343:309,1,95,10|0,0:0|0:0,0:0:0:0:
240,327,358037,1,0,0:0:0:0:
278,207,358207,2,0,B|242:240|242:240|193:255,1,95
199,180,358546,2,0,B|151:190|151:190|101:179,1,95
148,119,358885,2,2,B|101:104|101:104|67:73|67:73|100:39|100:39|152:22,1,190
232,70,359393,1,0,0:0:0:0:
199,180,359563,1,0,0:0:0:0:
296,139,359732,5,8,0:0:0:0:
305,170,359817,1,8,0:0:0:0:
314,202,359902,1,8,0:0:0:0:
393,117,360071,1,8,0:0:0:0:
393,117,360156,1,8,0:0:0:0:
393,117,360241,1,8,0:0:0:0:
393,117,360325,1,8,0:0:0:0:
393,117,360410,22,0,L|444:240,1,95,10|0,0:0|0:0,0:0:0:0:
376,299,360749,1,0,0:0:0:0:
271,274,360918,2,0,L|234:186,1,95
336,204,361257,1,0,0:0:0:0:
271,274,361427,1,0,0:0:0:0:
178,275,361596,1,0,0:0:0:0:
142,178,361766,6,0,P|188:172|234:186,1,95,2|0,0:0|0:0,0:0:0:0:
107,244,362105,1,0,0:0:0:0:
10,294,362274,2,0,P|-2:248|5:201,1,95
112,80,362613,1,0,0:0:0:0:
74,164,362783,1,0,0:0:0:0:
26,67,362952,1,0,0:0:0:0:
112,80,363122,6,2,P|170:98|296:70,1,190,0|0,0:0|0:0,0:0:0:0:
240,197,363630,2,0,P|269:236|322:271,1,95
337,168,363969,2,0,P|381:187|445:191,1,95
402,102,364308,1,8,0:0:0:0:
427,192,364478,2,0,L|460:305,1,95,10|0,0:0|0:0,0:0:0:0:
311,376,364817,1,0,0:0:0:0:
384,336,364986,2,0,P|298:293|233:349,1,190
234,346,365495,1,0,0:0:0:0:
30,309,365664,5,8,0:0:0:0:
59,284,365749,1,8,0:0:0:0:
93,267,365834,2,0,P|147:252|200:248,1,95,10|0,0:0|0:0,0:0:0:0:
302,245,366172,1,0,0:0:0:0:
234,346,366342,2,0,P|180:361|127:365,1,95
185,248,366681,1,0,0:0:0:0:
239,158,366850,1,0,0:0:0:0:
302,245,367020,21,0,0:0:0:0:
302,245,367104,1,0,0:0:0:0:
302,245,367190,2,0,P|349:249|407:231,1,95,2|0,0:0|0:0,0:0:0:0:
427,129,367528,1,0,0:0:0:0:
427,129,367698,2,0,L|340:168,1,95
172,168,368037,2,0,L|85:129,2,95,0|0|8,0:0|0:0|0:0,0:0:0:0:
205,165,368460,1,8,0:0:0:0:
238,162,368546,6,0,B|263:119|316:107|316:107|334:60|384:38,1,190,10|0,0:0|0:0,0:0:0:0:
257,47,369054,2,0,P|214:73|177:113,1,95
163,219,369393,2,0,P|206:193|243:153,1,95
68,166,369732,1,2,0:0:0:0:
91,281,369902,1,2,0:0:0:0:
91,281,369986,1,0,0:0:0:0:
91,281,370071,1,0,0:0:0:0:
203,324,370241,2,0,L|204:374,2,47.5
281,262,370579,5,8,0:0:0:0:
306,240,370664,1,8,0:0:0:0:
336,226,370749,1,8,0:0:0:0:
369,224,370834,1,0,0:0:0:0:
401,228,370918,1,0,0:0:0:0:
434,228,371003,1,0,0:0:0:0:
465,216,371088,1,0,0:0:0:0:
488,192,371173,1,0,0:0:0:0:
494,159,371257,1,12,0:0:0:0:
487,126,371596,5,0,0:0:0:0:
487,126,371766,2,0,P|430:121|385:96,2,95
335,177,372274,1,0,0:0:0:0:
465,216,372444,1,0,0:0:0:0:
335,287,372613,2,0,P|288:274|240:226,1,95,2|0,0:0|0:0,0:0:0:0:
155,225,372952,1,0,0:0:0:0:
180,129,373122,2,0,P|225:141|262:170,1,95
111,165,373461,21,0,0:0:0:0:
262,170,373630,1,0,0:0:0:0:
195,69,373800,1,8,0:0:0:0:
226,75,373885,1,8,0:0:0:0:
253,80,373969,2,0,L|359:92,1,95,10|0,0:0|0:0,0:0:0:0:
362,226,374308,1,0,0:0:0:0:
362,226,374478,2,0,L|424:311,1,95
423,187,374817,6,0,P|380:155|328:161,1,95
263,252,375156,2,0,P|216:250|180:220,1,95,2|0,0:0|0:0,0:0:0:0:
217,102,375495,2,0,P|174:70|122:76,1,95,2|0,0:0|0:0,0:0:0:0:
84,184,375834,2,2,B|91:239|80:272|80:272|66:314|95:344|145:355,1,190,0|0,0:0|0:0,0:0:0:0:
180,220,376342,1,0,0:0:0:0:
245,324,376512,5,8,0:0:0:0:
245,324,376596,1,8,0:0:0:0:
245,324,376681,2,0,L|195:241,1,95,10|0,0:0|0:0,0:0:0:0:
336,205,377020,1,0,0:0:0:0:
331,276,377190,2,0,B|276:268|267:216|267:216|257:170|200:149,1,190
343,132,377698,1,0,0:0:0:0:
276,48,377867,1,0,0:0:0:0:
399,72,378037,6,0,B|442:101|442:101|475:138,1,95,2|0,0:0|0:0,0:0:0:0:
354,235,378376,1,0,0:0:0:0:
445,219,378545,2,0,P|438:274|401:315,1,95
261,297,378884,1,8,0:0:0:0:
354,235,379054,1,8,0:0:0:0:
255,185,379223,1,8,0:0:0:0:
165,248,379393,22,0,P|118:245|77:221,1,95,10|0,0:0|0:0,0:0:0:0:
92,135,379732,1,0,0:0:0:0:
92,135,379901,2,0,P|38:142|-1:178,1,95
188,148,380241,2,0,P|181:94|145:55,1,95
92,135,380579,1,0,0:0:0:0:
163,212,380749,5,10,0:0:0:0:
163,212,380834,1,8,0:0:0:0:
163,212,380918,1,8,0:0:0:0:
163,212,381003,1,0,0:0:0:0:
163,212,381088,2,0,L|206:253,2,47.5
301,181,381427,1,8,0:0:0:0:
308,213,381512,1,8,0:0:0:0:
325,240,381596,2,0,P|348:261|379:280,1,47.5,8|0,0:0|0:0,0:0:0:0:
411,319,381766,1,8,0:0:0:0:
411,319,381851,1,8,0:0:0:0:
411,319,381935,2,0,P|389:335|362:346,1,47.5,8|0,0:0|0:0,0:0:0:0:
313,314,382105,6,0,B|268:326|225:311|225:311|180:294|124:320,1,190,2|0,0:0|0:0,0:0:0:0:
75,259,382614,2,0,P|119:240|166:231,1,95
127,318,382953,1,0,0:0:0:0:
26,314,383122,2,0,P|2:259|19:212,1,95
100,176,383461,6,0,P|124:121|107:74,2,95,2|0|0,0:0|0:0|0:0,0:0:0:0:
35,116,383970,1,0,0:0:0:0:
35,116,384139,2,0,P|11:61|28:14,1,95,8|0,0:0|0:0,0:0:0:0:
116,88,384478,1,8,0:0:0:0:
25,186,384648,1,8,0:0:0:0:
134,229,384817,22,0,P|159:278|149:331,1,95,10|0,0:0|0:0,0:0:0:0:
211,187,385156,2,0,P|257:216|281:270,1,95,2|0,0:0|0:0,0:0:0:0:
274,121,385495,2,0,P|328:123|385:136,1,95,2|0,0:0|0:0,0:0:0:0:
340,204,385834,1,2,0:0:0:0:
322,44,386004,1,2,0:0:0:0:
368,130,386173,6,0,B|407:162|407:162|464:173,1,95,2|0,0:0|0:0,0:0:0:0:
340,204,386512,1,2,0:0:0:0:
450,170,386681,1,0,0:0:0:0:
426,269,386851,1,10,0:0:0:0:
426,269,386936,1,8,0:0:0:0:
426,269,387020,1,8,0:0:0:0:
340,204,387190,6,0,P|300:216|248:253,1,95
218,170,387529,2,2,B|170:193|152:232|152:232|132:278|71:300,1,190,0|0,0:0|0:0,0:0:0:0:
0,229,388037,1,8,0:0:0:0:
82,296,388207,1,8,0:0:0:0:
87,185,388376,1,8,0:0:0:0:
2,308,388546,2,0,P|22:359|75:382,1,95,8|0,0:0|0:0,0:0:0:0:
167,340,388885,5,8,0:0:0:0:
167,340,388970,1,8,0:0:0:0:
167,340,389054,2,0,P|214:317|274:302,1,95,8|0,0:0|0:0,0:0:0:0:
396,335,389393,2,0,P|324:289|340:196,1,190
399,255,389902,1,0,0:0:0:0:
249,206,390071,1,0,0:0:0:0:
395,161,390241,22,0,P|442:140|475:96,1,95,2|0,0:0|0:0,0:0:0:0:
324,120,390579,2,0,P|354:78|360:23,1,95,2|0,0:0|0:0,0:0:0:0:
244,124,390918,2,0,P|249:72|227:22,1,95,2|0,0:0|0:0,0:0:0:0:
174,185,391257,1,2,0:0:0:0:
282,185,391427,1,2,0:0:0:0:
187,267,391596,6,0,L|144:303,2,47.5,2|0|0,0:0|0:0|0:0,0:0:0:0:
276,308,391935,2,0,L|317:273,2,47.5,2|0|0,0:0|0:0|0:0,0:0:0:0:
368,353,392274,1,10,0:0:0:0:
368,353,392359,1,8,0:0:0:0:
368,353,392444,1,8,0:0:0:0:
368,353,392529,1,0,0:0:0:0:
368,353,392613,2,0,L|444:290,1,95
482,187,392952,6,0,P|462:147|410:110,1,95,12|0,0:0|0:0,0:0:0:0:
386,206,393291,1,8,0:0:0:0:
350,297,393461,2,0,P|313:267|292:226,1,95,0|8,0:0|0:0,0:0:0:0:
341,150,393800,1,0,0:0:0:0:
245,131,393969,2,0,P|265:91|317:54,1,95,8|0,0:0|0:0,0:0:0:0:
341,150,394308,6,0,P|291:218|185:208,1,190,8|8,0:0|0:0,0:0:0:0:
245,131,394817,1,0,0:0:0:0:
148,79,394986,1,8,0:0:0:0:
248,46,395156,1,0,0:0:0:0:
148,79,395325,2,0,P|102:113|76:143,1,95,8|0,0:0|0:0,0:0:0:0:
171,150,395664,6,0,L|206:243,1,95,8|0,0:0|0:0,0:0:0:0:
99,245,396003,2,0,L|82:343,1,95,8|0,0:0|0:0,0:0:0:0:
208,198,396342,2,0,L|241:286,1,95,8|0,0:0|0:0,0:0:0:0:
66,276,396681,2,0,L|49:374,1,95,8|0,0:0|0:0,0:0:0:0:
194,346,397020,2,0,L|211:253,1,95,8|0,0:0|0:0,0:0:0:0:
33,330,397359,2,0,L|0:242,1,95,8|0,0:0|0:0,0:0:0:0:
134,189,397698,5,8,0:0:0:0:
153,215,397783,1,8,0:0:0:0:
178,236,397868,1,8,0:0:0:0:
207,250,397952,1,8,0:0:0:0:
239,259,398037,2,0,P|275:265|313:255,3,47.5,8|0|0|0,0:0|0:0|0:0|0:0,0:0:0:0:
345,258,398376,5,6,0:0:0:0:
172,113,399563,1,4,0:0:0:0:
172,113,399647,1,4,0:0:0:0:
172,113,399732,1,4,0:0:0:0:
364,62,400410,2,0,P|367:102|362:133,3,47.5
307,104,400749,2,0,P|303:127|304:151,3,47.5,0|4|4|4,0:0|0:0|0:0|0:0,0:0:0:0:
362,173,401088,54,0,P|382:224|381:284,1,95
278,243,401427,1,0,0:0:0:0:
169,240,401597,2,0,P|179:286|205:326,1,95
317,295,401936,1,0,0:0:0:0:
236,194,402105,1,0,0:0:0:0:
342,170,402275,37,0,0:0:0:0:
342,170,402360,1,0,0:0:0:0:
342,170,402444,2,0,P|386:191|454:184,1,95
408,97,402783,1,0,0:0:0:0:
473,24,402953,2,0,P|428:2|361:10,1,95
469,91,403292,1,0,0:0:0:0:
347,108,403461,1,0,0:0:0:0:
218,91,403631,21,0,0:0:0:0:
218,91,403715,1,0,0:0:0:0:
218,91,403800,2,0,L|252:179,1,95,4|0,0:0|0:0,0:0:0:0:
306,306,404139,1,0,0:0:0:0:
188,267,404309,1,0,0:0:0:0:
188,267,404478,1,0,0:0:0:0:
308,239,404648,1,0,0:0:0:0:
230,334,404817,2,0,P|177:346|126:317,1,95
123,302,405071,1,0,0:0:0:0:
109,271,405156,38,0,P|56:259|5:288,1,95
70,360,405495,1,0,0:0:0:0:
188,267,405665,2,0,P|164:217|110:192,1,95,0|0,0:3|0:3,0:3:0:0:
109,271,406004,1,0,0:0:0:0:
230,178,406173,1,0,0:0:0:0:
303,301,406512,22,0,L|351:194,1,95,4|0,0:0|0:0,0:0:0:0:
219,226,406851,1,0,0:0:0:0:
265,112,407021,2,0,L|300:24,1,95
381,117,407360,1,0,0:0:0:0:
265,112,407529,1,0,0:0:0:0:
342,214,407699,37,0,0:0:0:0:
342,214,407784,1,0,0:0:0:0:
342,214,407868,2,0,P|386:193|454:200,1,95
408,287,408207,1,0,0:0:0:0:
473,360,408377,2,0,P|428:382|361:374,1,95
469,293,408716,1,0,0:0:0:0:
346,245,408885,1,0,0:0:0:0:
431,192,409055,21,0,0:0:0:0:
431,192,409139,1,0,0:0:0:0:
431,192,409224,2,0,L|465:104,1,95,4|0,0:0|0:0,0:0:0:0:
306,78,409563,1,0,0:0:0:0:
188,117,409733,1,0,0:0:0:0:
308,145,409902,1,0,0:0:0:0:
188,117,410072,1,0,0:0:0:0:
230,50,410241,2,0,P|177:38|126:67,1,95
115,82,410495,1,0,0:0:0:0:
99,118,410580,38,0,L|64:207,1,95
130,323,410919,1,0,0:0:0:0:
251,209,411089,2,0,P|206:241|147:236,1,95,0|0,0:3|0:3,0:3:0:0:
183,158,411428,1,0,0:0:0:0:
64,207,411597,1,8,0:0:0:0:
64,207,411681,1,8,0:0:0:0:
64,207,411766,1,8,0:0:0:0:
64,207,411851,1,8,0:0:0:0:
64,207,411935,22,0,L|64:305,1,95,12|0,0:0|0:0,0:0:0:0:
183,158,412274,1,0,0:0:0:0:
205,252,412444,2,0,L|231:351,1,95
293,184,412783,1,0,0:0:0:0:
315,278,412953,2,0,L|341:377,1,95
411,244,413291,2,0,L|381:142,1,95,8|0,0:0|0:0,0:0:0:0:
431,62,413630,5,0,0:0:0:0:
326,41,413800,2,0,L|248:104,1,95
384,152,414139,1,0,0:0:0:0:
366,255,414308,2,0,L|288:318,1,95
154,288,414647,2,0,L|227:228,1,95,8|0,0:0|0:0,0:0:0:0:
160,129,414986,53,0,0:0:0:0:
273,158,415156,2,0,L|379:184,1,95
227,228,415495,1,0,0:0:0:0:
340,257,415665,2,0,L|446:283,1,95
466,124,416003,2,0,L|373:101,1,95,8|0,0:0|0:0,0:0:0:0:
273,158,416342,5,0,0:0:0:0:
164,126,416512,2,0,L|106:50,1,95
230,104,416851,1,0,0:0:0:0:
157,196,417020,1,0,0:0:0:0:
227,223,417190,53,8,0:0:0:0:
227,223,417274,1,8,0:0:0:0:
227,223,417359,2,0,L|276:330,1,95,12|0,0:0|0:0,0:0:0:0:
143,348,417698,1,0,0:0:0:0:
152,233,417868,2,0,L|160:135,1,95
53,280,418207,1,0,0:0:0:0:
62,165,418376,2,0,L|70:67,1,95
213,0,418715,2,0,L|205:94,1,95,8|0,0:0|0:0,0:0:0:0:
198,212,419054,5,0,0:0:0:0:
264,295,419224,2,0,L|364:296,1,95
291,173,419563,1,0,0:0:0:0:
371,105,419732,2,0,L|471:106,1,95
416,201,420071,37,8,0:0:0:0:
416,201,420156,1,8,0:0:0:0:
416,201,420241,1,0,0:0:0:0:
308,115,420410,1,8,0:0:0:0:
308,115,420495,1,8,0:0:0:0:
308,115,420579,1,0,0:0:0:0:
226,210,420749,1,8,0:0:0:0:
226,210,420834,1,8,0:0:0:0:
226,210,420918,2,0,P|195:234|171:247,1,47.5
149,217,421088,2,0,P|116:237|96:259,3,47.5
86,305,421427,5,0,0:0:0:0:
119,309,421512,1,0,0:0:0:0:
151,306,421596,1,8,0:0:0:0:
183,297,421681,1,8,0:0:0:0:
216,293,421766,2,0,P|241:293|281:300,3,47.5
298,349,422105,2,0,P|323:349|363:342,3,47.5
386,303,422444,5,8,0:0:0:0:
386,303,422529,1,8,0:0:0:0:
386,303,422613,1,8,0:0:0:0:
386,303,422698,2,0,B|401:260|381:217|381:217|409:182|409:182|392:130,1,178.12500679493,8|0,0:0|0:0,0:0:0:0:
