osu file format v14

[General]
AudioFilename: audio.mp3
AudioLeadIn: 0
PreviewTime: 80813
Countdown: 0
SampleSet: Soft
StackLeniency: 0.7
Mode: 0
LetterboxInBreaks: 0
WidescreenStoryboard: 0

[Editor]
DistanceSpacing: 1.5
BeatDivisor: 4
GridSize: 8
TimelineZoom: 2.3

[Metadata]
Title:Suigetsu Kyouka Koubou Issen
TitleUnicode:水月鏡花光芒一閃
Artist:Xenon, Onocchi
ArtistUnicode:キセノン, おのっち
Creator:PunyFlash
Version:Lucky Charm
Source:東方Project
Tags:onocchi, xenon, touhou, konpaku, youmu
BeatmapID:1257107
BeatmapSetID:594330

[Difficulty]
HPDrainRate:4
CircleSize:4
OverallDifficulty:6
ApproachRate:10
SliderMultiplier:2
SliderTickRate:1

[Events]
//Background and Video events
0,0,"Ryner.Lute.full.753103.jpg",0,0
//Break Periods
2,181970,189608
//Storyboard Layer 0 (Background)
//Storyboard Layer 1 (Fail)
//Storyboard Layer 2 (Pass)
//Storyboard Layer 3 (Foreground)
//Storyboard Layer 4 (Overlay)
//Storyboard Sound Samples

[TimingPoints]
2415,600,4,2,0,40,1,0
16815,666.666666666667,4,2,0,40,1,0
18148,750,4,2,0,40,1,0
19648,875.912408759124,4,2,0,40,1,0
23162,521.739130434783,4,2,0,100,1,0
23162,-133.333333333333,4,1,0,100,0,0
29422,-100,4,1,0,100,0,0
39857,260.869565217391,4,3,0,100,1,0
39857,-133.333333333333,4,1,0,100,0,0
56552,-200,4,1,0,100,0,0
80813,-100,4,1,0,100,0,0
81596,-100,4,1,0,100,0,1
114987,-133.333333333333,4,1,0,100,0,0
198465,-100,4,1,0,100,0,1
231856,-133.333333333333,4,1,0,70,0,0

[Colours]
Combo1 : 172,0,255
Combo2 : 255,0,0
Combo3 : 255,255,255
Combo4 : 0,0,255

[HitObjects]
128,240,2415,5,4,0:0:0:0:
69,101,2715,1,0,0:0:0:0:
207,43,3015,1,0,0:0:0:0:
266,181,3315,1,0,0:0:0:0:
64,272,3615,5,4,0:0:0:0:
203,331,3915,1,0,0:0:0:0:
261,193,4215,1,0,0:0:0:0:
123,134,4515,1,0,0:0:0:0:
384,144,4815,5,4,0:0:0:0:
443,283,5115,1,0,0:0:0:0:
305,341,5415,1,0,0:0:0:0:
246,203,5715,1,0,0:0:0:0:
448,112,6015,5,4,0:0:0:0:
309,53,6315,1,0,0:0:0:0:
251,191,6615,1,0,0:0:0:0:
400,256,6915,1,0,0:0:0:0:
72,104,7215,6,4,L|120:112,2,25
352,136,7515,1,0,0:0:0:0:
136,280,7815,1,0,0:0:0:0:
384,200,8115,1,0,0:0:0:0:
192,64,8415,6,4,L|200:88,2,25
72,200,8715,1,8,0:0:0:0:
82,222,8790,1,0,0:0:0:0:
98,241,8865,1,0,0:0:0:0:
119,256,8940,1,0,0:0:0:0:
142,265,9015,1,8,0:0:0:0:
360,312,9315,1,0,0:0:0:0:
448,48,9615,5,4,0:0:0:0:
432,256,9915,1,0,0:0:0:0:
288,112,10215,1,4,0:0:0:0:
168,280,10515,1,0,0:0:0:0:
64,128,10815,2,4,P|72:100|88:80,2,50
428,264,11415,6,8,P|386:291|337:300,1,100
376,96,12015,5,4,0:0:0:0:
256,192,12315,1,0,0:0:0:0:
216,48,12615,1,0,0:0:0:0:
96,144,12915,1,0,0:0:0:0:
256,192,13215,5,4,0:0:0:0:
152,304,13515,1,0,0:0:0:0:
312,336,13815,1,0,0:0:0:0:
256,192,14115,1,0,0:0:0:0:
400,240,14415,5,4,0:0:0:0:
332,104,14715,1,0,0:0:0:0:
259,237,15015,1,0,0:0:0:0:
156,120,15315,1,0,0:0:0:0:
76,240,15615,5,4,0:0:0:0:
192,308,15915,1,0,0:0:0:0:
88,156,16215,1,0,0:0:0:0:
264,224,16515,1,0,0:0:0:0:
416,104,16815,6,4,L|424:144,2,25
456,272,17148,1,0,0:0:0:0:
328,352,17481,1,0,0:0:0:0:
184,320,17815,1,0,0:0:0:0:
224,192,18148,6,4,L|248:160,2,25
312,72,18523,1,8,0:0:0:0:
287,66,18616,1,0,0:0:0:0:
262,64,18710,1,0,0:0:0:0:
237,65,18804,1,0,0:0:0:0:
213,70,18898,1,8,0:0:0:0:
64,152,19273,1,4,0:0:0:0:
160,272,19648,2,4,L|128:244,1,25
256,192,19866,12,0,22932,0:0:0:0:
360,44,23162,6,0,B|448:60|472:132|472:132|436:136|392:184,1,225.000008583069
324,200,24031,5,4,0:0:0:0:
296,180,24118,1,4,0:0:0:0:
268,148,24205,2,4,B|242:124|228:84|228:84|192:108|188:144|188:144|236:176|248:220,1,225.000008583069
248,268,25118,5,4,0:0:0:0:
244,340,25248,2,2,B|209:363|149:355|114:315,1,112.500004291535
208,140,25944,2,0,P|248:116|296:120,1,87.5000033378603,4|0,0:0|0:0,0:0:0:0:
344,256,26466,2,2,P|313:312|288:320,1,75.0000028610231,6|2,0:0|0:0,0:0:0:0:
80,240,26901,2,0,P|72:192|80:176,1,50.0000019073487
168,160,27205,1,4,0:0:0:0:
256,224,27335,6,0,B|336:279|363:326|363:326|361:267|352:232,1,225.000008583069
304,116,28248,1,0,0:0:0:0:
144,104,28379,2,0,B|122:150|77:190|77:190|112:252|176:236|176:236|176:208|188:184,1,262.500010013581
260,48,29422,6,0,P|325:45|387:74,1,100
444,160,29814,1,0,0:0:0:0:
448,304,29944,2,0,P|361:273|314:278,1,100
200,236,30466,1,0,0:0:0:0:
408,152,30727,1,0,0:0:0:0:
256,280,30988,2,0,L|294:288,1,33.3333333333333
224,296,31162,2,0,L|257:310,1,33.3333333333333
192,312,31335,2,0,L|220:340,1,33.3333333333333
56,316,31509,6,0,P|62:235|96:196,1,100
124,144,31901,1,0,0:0:0:0:
60,80,32031,5,0,0:0:0:0:
90,40,32161,1,0,0:0:0:0:
135,31,32292,1,0,0:0:0:0:
180,44,32422,1,0,0:0:0:0:
208,80,32553,2,0,P|232:112|352:116,1,150
435,110,33075,2,0,P|463:141|471:199,1,100
376,316,33466,1,0,0:0:0:0:
220,324,33596,6,0,P|143:291|116:244,1,100
116,104,33988,1,0,0:0:0:0:
152,140,34118,1,0,0:0:0:0:
192,169,34248,1,0,0:0:0:0:
240,182,34378,1,0,0:0:0:0:
289,177,34509,1,0,0:0:0:0:
424,72,34640,2,0,P|380:56|324:56,1,100
136,80,35031,5,0,0:0:0:0:
112,128,35162,1,0,0:0:0:0:
104,176,35292,1,0,0:0:0:0:
117,224,35422,1,0,0:0:0:0:
149,262,35553,1,0,0:0:0:0:
192,292,35683,2,0,B|240:272|240:272|256:320|256:320|292:292|292:292|320:332|320:332|352:296|352:296|372:324|400:332,1,300
460,268,36596,1,0,0:0:0:0:
444,176,36727,6,0,B|412:112|332:80|332:80|364:168|296:220,1,300
232,272,37640,1,0,0:0:0:0:
148,280,37770,1,0,0:0:0:0:
112,268,37856,1,0,0:0:0:0:
80,248,37943,1,0,0:0:0:0:
56,224,38031,2,0,B|40:168|80:128,1,100
216,48,38552,1,0,0:0:0:0:
360,80,38814,5,0,0:0:0:0:
354,112,38900,1,0,0:0:0:0:
335,139,38987,1,0,0:0:0:0:
307,156,39074,1,0,0:0:0:0:
208,256,39205,5,0,0:0:0:0:
96,104,39335,5,0,0:0:0:0:
116,118,39400,1,0,0:0:0:0:
138,129,39465,1,0,0:0:0:0:
161,139,39530,1,0,0:0:0:0:
185,146,39595,1,0,0:0:0:0:
210,151,39661,1,0,0:0:0:0:
235,152,39726,1,0,0:0:0:0:
260,152,39791,1,0,0:0:0:0:
432,136,39857,6,0,P|396:140|348:132,1,75.0000028610231
160,48,40117,2,0,P|232:32|320:88,1,150.000005722046
336,224,40509,1,0,0:0:0:0:
192,256,40639,6,0,P|145:250|120:216,1,75.0000028610231
216,64,40900,1,0,0:0:0:0:
216,64,40965,1,0,0:0:0:0:
216,64,41030,1,0,0:0:0:0:
328,216,41161,5,0,0:0:0:0:
368,32,41291,1,0,0:0:0:0:
368,32,41356,1,0,0:0:0:0:
368,32,41421,1,0,0:0:0:0:
264,248,41552,5,0,0:0:0:0:
184,80,41683,2,0,P|192:104|248:144,1,75.0000028610231
384,240,41943,6,0,P|352:192|312:176,1,75.0000028610231
112,176,42204,2,0,P|168:224|264:240,1,150.000005722046
408,200,42596,1,0,0:0:0:0:
408,24,42726,6,0,P|360:24|320:32,1,75.0000028610231
152,88,42987,1,0,0:0:0:0:
152,88,43052,1,0,0:0:0:0:
152,88,43117,1,0,0:0:0:0:
336,136,43247,5,0,0:0:0:0:
184,240,43378,1,0,0:0:0:0:
184,240,43443,1,0,0:0:0:0:
184,240,43508,1,0,0:0:0:0:
272,72,43639,5,0,0:0:0:0:
88,112,43770,2,0,P|48:136|40:176,1,75.0000028610231
72,344,44030,6,0,P|104:304|152:288,1,75.0000028610231
328,248,44291,2,0,P|304:312|232:352,1,150.000005722046
160,176,44683,1,0,0:0:0:0:
312,64,44813,6,0,P|352:72|376:96,1,75.0000028610231
448,264,45074,1,0,0:0:0:0:
448,264,45139,1,0,0:0:0:0:
448,264,45204,1,0,0:0:0:0:
288,160,45335,5,0,0:0:0:0:
336,344,45465,1,0,0:0:0:0:
336,344,45530,1,0,0:0:0:0:
336,344,45595,1,0,0:0:0:0:
344,120,45726,5,0,0:0:0:0:
168,56,45856,2,0,P|120:48|88:64,1,75.0000028610231
36,288,46117,6,0,P|56:228|96:208,1,75.0000028610231
240,140,46378,1,0,0:0:0:0:
188,340,46509,1,0,0:0:0:0:
76,144,46639,6,0,P|111:95|151:89,1,75.0000028610231
372,64,46900,1,0,0:0:0:0:
272,264,47031,1,0,0:0:0:0:
128,48,47161,5,0,0:0:0:0:
52,268,47291,1,0,0:0:0:0:
248,112,47422,1,0,0:0:0:0:
288,344,47552,1,0,0:0:0:0:
416,128,47683,5,0,0:0:0:0:
422,164,47748,1,0,0:0:0:0:
420,202,47813,1,0,0:0:0:0:
409,237,47878,1,0,0:0:0:0:
390,270,47943,1,0,0:0:0:0:
364,297,48009,1,0,0:0:0:0:
332,317,48074,1,0,0:0:0:0:
88,152,48204,6,0,P|128:176|152:208,1,75.0000028610231
224,344,48465,2,0,P|164:332|80:260,1,150.000005722046
216,136,48856,1,0,0:0:0:0:
372,80,48986,6,0,P|419:86|444:120,1,75.0000028610231
328,232,49247,1,0,0:0:0:0:
328,232,49312,1,0,0:0:0:0:
328,232,49377,1,0,0:0:0:0:
184,104,49508,5,0,0:0:0:0:
120,280,49638,1,0,0:0:0:0:
120,280,49703,1,0,0:0:0:0:
120,280,49770,1,0,0:0:0:0:
248,144,49899,5,0,0:0:0:0:
312,320,50030,2,0,P|272:320|228:284,1,75.0000028610231
120,160,50291,6,0,P|152:192|192:200,1,75.0000028610231
432,192,50552,2,0,P|376:144|288:128,1,150.000005722046
128,224,50943,1,0,0:0:0:0:
264,352,51074,6,0,P|312:352|344:336,1,75.0000028610231
440,200,51334,1,0,0:0:0:0:
440,200,51399,1,0,0:0:0:0:
440,200,51464,1,0,0:0:0:0:
264,264,51596,5,0,0:0:0:0:
176,96,51725,1,0,0:0:0:0:
176,96,51790,1,0,0:0:0:0:
176,96,51855,1,0,0:0:0:0:
160,280,51986,5,0,0:0:0:0:
344,336,52117,2,0,P|384:312|392:272,1,75.0000028610231
416,96,52378,6,0,P|384:144|360:152,1,75.0000028610231
160,200,52639,2,0,P|184:136|256:88,1,150.000005722046
400,216,53030,1,0,0:0:0:0:
240,320,53161,6,0,P|200:312|160:280,1,75.0000028610231
80,128,53421,1,0,0:0:0:0:
80,128,53486,1,0,0:0:0:0:
80,128,53551,1,0,0:0:0:0:
256,200,53682,5,0,0:0:0:0:
160,40,53812,1,0,0:0:0:0:
160,40,53877,1,0,0:0:0:0:
160,40,53942,1,0,0:0:0:0:
128,224,54073,5,0,0:0:0:0:
296,296,54204,2,0,P|344:304|376:288,1,75.0000028610231
422,56,54465,6,0,P|448:108|435:156,1,75.0000028610231
224,292,54726,1,0,0:0:0:0:
240,96,54856,1,0,0:0:0:0:
418,230,54987,6,0,P|391:282|346:301,1,75.0000028610231
104,204,55248,1,0,0:0:0:0:
328,48,55378,1,0,0:0:0:0:
328,272,55509,5,0,0:0:0:0:
214,106,55639,1,0,0:0:0:0:
300,339,55770,5,0,0:0:0:0:
163,177,55900,1,0,0:0:0:0:
372,354,56031,5,0,0:0:0:0:
136,259,56160,1,0,0:0:0:0:
394,291,56291,5,0,0:0:0:0:
155,335,56422,1,0,0:0:0:0:
368,104,56552,5,0,0:0:0:0:
375,127,56617,1,0,0:0:0:0:
373,152,56682,1,0,0:0:0:0:
364,175,56747,1,0,0:0:0:0:
348,194,56812,1,0,0:0:0:0:
184,120,57074,5,0,0:0:0:0:
44,236,57335,1,0,0:0:0:0:
41,260,57400,1,0,0:0:0:0:
47,285,57465,1,0,0:0:0:0:
59,306,57530,1,0,0:0:0:0:
78,322,57595,1,0,0:0:0:0:
256,336,57856,5,0,0:0:0:0:
388,212,58117,1,0,0:0:0:0:
404,193,58182,1,0,0:0:0:0:
415,171,58247,1,0,0:0:0:0:
421,146,58312,1,0,0:0:0:0:
420,121,58377,1,0,0:0:0:0:
160,104,58639,5,0,0:0:0:0:
128,264,58900,1,0,0:0:0:0:
288,296,59161,1,0,0:0:0:0:
320,136,59422,1,0,0:0:0:0:
107,170,59683,2,0,P|107:226|139:274,1,100
296,324,60204,1,0,0:0:0:0:
264,148,60465,1,0,0:0:0:0:
84,120,60726,5,0,0:0:0:0:
88,144,60791,1,0,0:0:0:0:
99,166,60856,1,0,0:0:0:0:
115,185,60921,1,0,0:0:0:0:
137,198,60986,1,0,0:0:0:0:
312,244,61248,5,0,0:0:0:0:
428,108,61509,1,0,0:0:0:0:
405,97,61574,1,0,0:0:0:0:
380,92,61639,1,0,0:0:0:0:
355,92,61704,1,0,0:0:0:0:
331,97,61769,1,0,0:0:0:0:
188,148,62030,5,0,0:0:0:0:
332,308,62291,1,0,0:0:0:0:
307,303,62356,1,0,0:0:0:0:
284,292,62421,1,0,0:0:0:0:
265,276,62486,1,0,0:0:0:0:
250,257,62551,1,0,0:0:0:0:
378,65,62813,5,0,0:0:0:0:
410,225,63074,1,0,0:0:0:0:
250,257,63335,1,0,0:0:0:0:
218,97,63596,1,0,0:0:0:0:
388,156,63856,5,0,0:0:0:0:
346,179,63942,1,0,0:0:0:0:
310,210,64029,1,0,0:0:0:0:
280,246,64116,5,0,0:0:0:0:
270,201,64203,1,0,0:0:0:0:
248,159,64290,1,0,0:0:0:0:
210,132,64377,1,0,0:0:0:0:
163,130,64464,1,0,0:0:0:0:
121,152,64551,1,0,0:0:0:0:
88,184,64639,2,0,P|80:196|76:210,3,25
76,228,64900,5,0,0:0:0:0:
100,234,64965,1,0,0:0:0:0:
122,244,65030,1,0,0:0:0:0:
143,258,65095,1,0,0:0:0:0:
161,275,65160,1,0,0:0:0:0:
328,348,65422,6,0,P|296:316|276:252,1,100
272,240,65748,1,0,0:0:0:0:
268,215,65813,1,0,0:0:0:0:
272,190,65878,1,0,0:0:0:0:
283,168,65943,1,0,0:0:0:0:
412,76,66204,5,0,0:0:0:0:
460,248,66465,1,0,0:0:0:0:
437,259,66530,1,0,0:0:0:0:
414,266,66595,1,0,0:0:0:0:
389,269,66660,1,0,0:0:0:0:
364,266,66725,1,0,0:0:0:0:
192,216,66987,5,0,0:0:0:0:
64,272,67248,1,0,0:0:0:0:
88,120,67509,1,0,0:0:0:0:
240,88,67770,1,0,0:0:0:0:
384,144,68030,2,0,P|342:183|280:202,1,100
120,192,68552,1,0,0:0:0:0:
240,88,68812,1,0,0:0:0:0:
392,48,69074,5,0,0:0:0:0:
409,65,69139,1,0,0:0:0:0:
423,86,69204,1,0,0:0:0:0:
431,110,69269,1,0,0:0:0:0:
433,134,69334,1,0,0:0:0:0:
328,280,69596,5,0,0:0:0:0:
152,320,69856,1,0,0:0:0:0:
127,318,69921,1,0,0:0:0:0:
103,309,69986,1,0,0:0:0:0:
84,293,70051,1,0,0:0:0:0:
70,273,70116,1,0,0:0:0:0:
64,120,70378,5,0,0:0:0:0:
272,248,70639,1,0,0:0:0:0:
253,231,70704,1,0,0:0:0:0:
240,209,70769,1,0,0:0:0:0:
234,185,70834,1,0,0:0:0:0:
236,160,70899,1,0,0:0:0:0:
328,48,71161,5,0,0:0:0:0:
351,57,71226,1,0,0:0:0:0:
369,73,71291,1,0,0:0:0:0:
381,95,71356,1,0,0:0:0:0:
384,120,71421,1,0,0:0:0:0:
320,288,71683,1,0,0:0:0:0:
216,160,71943,1,0,0:0:0:0:
64,64,72204,5,0,0:0:0:0:
94,94,72290,1,0,0:0:0:0:
105,134,72377,1,0,0:0:0:0:
99,177,72464,1,0,0:0:0:0:
72,209,72551,1,0,0:0:0:0:
60,250,72638,1,0,0:0:0:0:
71,290,72725,5,0,0:0:0:0:
105,316,72812,1,0,0:0:0:0:
147,323,72899,1,0,0:0:0:0:
189,316,72987,2,0,L|224:308,3,25
228,300,73248,6,0,P|260:280|288:160,1,150
324,56,73770,2,0,P|376:92|396:140,1,100
404,208,74161,1,0,0:0:0:0:
328,256,74291,2,0,P|232:244|248:64,1,300
320,60,75204,1,0,0:0:0:0:
412,92,75335,6,0,P|444:136|448:240,1,150
404,356,75856,2,0,P|388:288|364:264,1,100
280,216,76248,1,0,0:0:0:0:
188,256,76378,2,0,P|156:288|140:292,1,50
48,216,76639,2,0,P|48:256|64:280,1,50
264,336,76900,2,0,P|220:349|204:345,1,50
124,220,77161,1,0,0:0:0:0:
280,192,77292,1,0,0:0:0:0:
396,296,77422,6,0,P|432:240|432:144,1,150
396,52,77943,2,0,P|376:100|332:136,1,100
252,152,78335,1,0,0:0:0:0:
144,176,78465,6,0,B|72:224|72:224|136:280,1,150
240,296,78987,2,0,P|266:301|292:296,1,50
440,224,79248,2,0,P|408:232|372:232,1,50
304,212,79509,6,0,P|252:197|160:248,1,150
84,324,80030,2,0,P|110:318|131:303,1,50
168,148,80292,2,0,P|146:155|126:175,1,50
256,308,80552,1,0,0:0:0:0:
464,240,80813,6,0,B|456:296|400:320,1,100
216,200,81074,2,0,B|266:174|312:205,1,100
120,304,81335,2,0,B|70:269|72:197,1,100
260,92,81596,6,0,P|309:91|360:120,1,100
460,284,81856,2,0,P|411:285|352:256,1,100
136,176,82117,1,0,0:0:0:0:
408,168,82248,1,0,0:0:0:0:
160,336,82378,2,0,B|230:323|251:251,1,100
240,124,82639,1,0,0:0:0:0:
380,320,82770,1,0,0:0:0:0:
356,92,82900,6,0,B|314:44|249:38,1,100
72,44,83161,2,0,B|40:92|64:160,1,100
96,328,83422,2,0,P|160:304|199:312,1,100
324,328,83683,6,0,B|292:268|352:204,1,100
488,120,83943,2,0,B|510:182|449:240,1,100
232,172,84204,1,0,0:0:0:0:
404,284,84335,1,0,0:0:0:0:
396,44,84465,2,0,P|383:103|348:160,1,100
144,288,84726,1,0,0:0:0:0:
280,272,84856,1,0,0:0:0:0:
72,132,84987,6,0,B|95:77|150:72,1,100
352,128,85248,2,0,B|326:180|280:208,1,100
76,320,85509,2,0,B|29:280|55:220,1,100
272,52,85770,6,0,B|220:60|196:120,1,100
76,320,86030,2,0,P|88:256|136:216,1,100
352,164,86291,1,0,0:0:0:0:
160,156,86422,1,0,0:0:0:0:
368,280,86552,2,0,P|304:280|268:252,1,100
276,84,86813,1,0,0:0:0:0:
176,280,86943,1,0,0:0:0:0:
432,112,87074,6,0,B|401:164|336:153,1,100
128,80,87335,2,0,B|158:27|223:38,1,100
392,276,87596,2,0,B|224:340|120:172,1,300
108,152,88052,5,0,0:0:0:0:
88,112,88117,2,0,B|72:49|139:18,1,100
229,111,88378,2,0,B|244:173|177:204,1,100
68,280,88639,6,0,B|75:215|148:209,1,100
232,264,88900,2,0,B|224:328|151:334,1,100
272,176,89161,6,0,P|304:160|376:184,1,100
392,184,89356,1,0,0:0:0:0:
424,192,89422,2,0,P|472:176|480:128,1,100,0|0,0:0|0:0,0:0:0:0:
296,40,89683,6,0,B|216:56|256:160|168:192,2,200
400,120,90335,1,0,0:0:0:0:
256,308,90465,1,0,0:0:0:0:
368,244,90596,1,0,0:0:0:0:
134,267,90726,2,0,P|160:220|216:200,1,100
464,252,90987,1,0,0:0:0:0:
304,140,91117,1,0,0:0:0:0:
405,332,91248,6,0,B|357:288|369:238,1,100
408,83,91509,2,0,B|452:115|443:176,1,100
280,336,91770,2,0,B|232:356|168:328,1,100
64,268,92030,6,0,B|32:212|52:164,1,100
116,40,92291,2,0,B|172:28|224:80,1,100
284,236,92552,1,0,0:0:0:0:
380,84,92683,1,0,0:0:0:0:
184,176,92813,2,0,P|256:144|320:160,1,100
444,264,93074,1,0,0:0:0:0:
300,72,93204,1,0,0:0:0:0:
132,128,93335,6,0,B|177:82|245:62,1,100
468,28,93596,2,0,B|404:16|340:40,1,100
200,248,93856,2,0,B|256:208|324:232,1,100
444,264,94117,6,0,B|487:219|456:156,1,100
360,72,94378,2,0,P|296:80|252:101,1,100
88,288,94639,1,0,0:0:0:0:
128,140,94770,1,0,0:0:0:0:
228,288,94900,2,0,P|252:288|292:200,1,100
216,72,95161,1,0,0:0:0:0:
368,196,95291,1,0,0:0:0:0:
80,212,95422,6,0,P|152:212|200:184,1,100
304,96,95683,2,0,P|364:100|408:148,1,100
460,272,95943,2,0,P|428:304|364:320,1,100
340,324,96139,1,0,0:0:0:0:
304,328,96204,2,0,B|207:337|107:273|108:152,1,300
256,184,96726,2,0,P|240:236|194:263,1,100
56,216,96987,1,0,0:0:0:0:
164,108,97117,1,0,2:0:0:0:
320,148,97248,5,0,0:0:0:0:
370,163,97334,1,0,2:3:0:0:
399,207,97421,1,0,2:3:0:0:
392,259,97508,1,0,2:3:0:0:
353,294,97595,1,0,2:3:0:0:
301,295,97683,1,0,2:3:0:0:
252,275,97769,1,0,0:0:0:0:
201,285,97856,1,0,2:3:0:0:
164,323,97943,5,0,2:3:0:0:
216,332,98029,1,0,2:3:0:0:
260,304,98116,1,0,2:3:0:0:
275,254,98203,1,0,2:3:0:0:
251,208,98291,6,0,B|192:160|392:160|184:80|281:38|336:64,1,200
464,116,98683,1,0,0:0:0:0:
440,264,98813,2,0,P|404:316|336:324,1,100
148,320,99074,2,0,P|176:265|152:220,1,100
44,144,99335,6,0,P|72:92|112:72,1,100
260,52,99596,1,0,0:0:0:0:
260,52,99661,1,0,0:0:0:0:
260,52,99726,1,0,0:0:0:0:
400,88,99856,2,0,P|440:128|449:197,1,100
364,336,100117,2,0,P|312:309|282:246,1,100
148,144,100378,6,0,P|100:175|80:248,2,100
292,104,100770,1,0,0:0:0:0:
456,204,100900,6,0,P|440:244|380:280,1,100
180,308,101161,1,0,0:0:0:0:
180,308,101226,1,0,0:0:0:0:
180,308,101291,1,0,0:0:0:0:
332,204,101422,6,0,P|268:213|221:178,1,100
140,104,101683,1,0,0:0:0:0:
140,104,101748,1,0,0:0:0:0:
140,104,101813,1,0,0:0:0:0:
312,28,101943,6,0,P|288:76|302:122,1,100
452,228,102204,2,0,P|396:236|356:264,1,100
264,348,102465,2,0,P|185:326|111:233,1,200
288,140,102856,1,0,0:0:0:0:
360,288,102987,2,0,P|308:276|248:228,1,100
120,100,103248,2,0,P|172:72|224:72,1,100
456,160,103509,1,0,0:0:0:0:
456,160,103574,1,0,0:0:0:0:
456,160,103639,1,0,0:0:0:0:
256,324,103770,2,0,P|264:268|292:224,1,100
288,104,104031,6,0,P|200:56|88:68,1,200
20,196,104422,1,0,0:0:0:0:
136,292,104552,5,0,0:0:0:0:
136,292,104617,1,0,0:0:0:0:
136,292,104683,2,0,P|187:331|240:334,1,100
344,340,104944,1,0,0:0:0:0:
456,260,105074,2,0,P|475:205|462:139,1,100
376,64,105335,2,0,P|304:60|248:88,1,100
136,296,105596,5,0,0:0:0:0:
136,296,105661,1,0,0:0:0:0:
136,296,105726,2,0,P|184:328|240:328,1,100
424,232,105987,1,0,0:0:0:0:
304,64,106117,1,0,0:0:0:0:
304,64,106183,1,0,0:0:0:0:
304,64,106248,2,0,P|232:48|192:56,1,100
88,116,106509,1,0,0:0:0:0:
160,284,106639,6,0,P|264:308|360:228,1,200
180,168,107030,1,0,0:0:0:0:
264,232,107161,2,0,P|305:164|288:112,1,100
144,48,107422,1,0,0:0:0:0:
144,48,107487,1,0,0:0:0:0:
144,48,107552,1,0,0:0:0:0:
64,264,107683,2,0,P|148:324|180:324,1,100
456,72,107943,6,0,P|400:104|376:148,1,100
376,248,108204,2,0,P|400:304|440:344,2,100
272,64,108596,1,0,0:0:0:0:
112,184,108726,6,0,P|152:248|280:264,1,200
200,24,109117,1,0,0:0:0:0:
216,184,109248,2,0,P|296:184|392:96,1,200
456,24,109639,1,0,0:0:0:0:
312,32,109770,2,0,P|216:72|200:96,1,100
56,272,110030,2,0,P|97:217|134:211,1,100
288,340,110291,5,0,0:0:0:0:
288,340,110356,1,0,0:0:0:0:
288,340,110422,2,0,P|356:328|404:276,1,100
448,176,110683,1,0,0:0:0:0:
252,52,110813,6,0,P|176:40|112:56,2,100
408,92,111204,1,0,0:0:0:0:
328,248,111335,2,0,P|272:264|224:256,1,100
56,128,111596,2,0,P|72:208|88:224,1,100
216,320,111856,6,0,P|296:336|432:272,1,200
320,144,112248,1,0,0:0:0:0:
148,48,112378,2,0,L|196:80,3,50
132,144,112639,2,0,L|164:184,3,50
80,216,112900,6,0,B|132:376|320:336,1,300
464,292,113422,2,0,B|472:176|336:100,1,200
252,56,113813,1,0,0:0:0:0:
88,136,113943,6,0,P|104:188|152:220,1,100
292,272,114204,1,0,0:0:0:0:
248,112,114335,1,0,0:0:0:0:
96,284,114465,6,0,P|136:320|194:323,1,100
348,336,114726,1,0,0:0:0:0:
224,200,114857,1,0,0:0:0:0:
452,320,114987,5,0,0:0:0:0:
452,320,115052,1,0,0:0:0:0:
452,320,115117,1,0,0:0:0:0:
408,216,115248,2,0,P|388:216|400:220,1,75.0000028610231
348,120,115509,2,0,B|304:56|152:176,1,225.000008583069
84,264,116030,5,0,0:0:0:0:
84,264,116095,1,0,0:0:0:0:
84,264,116160,1,0,0:0:0:0:
180,296,116291,2,0,P|194:319|191:291,1,75.0000028610231
300,328,116552,2,0,B|348:344|388:200,1,150.000005722046
376,104,116943,1,0,0:0:0:0:
280,48,117074,5,0,0:0:0:0:
242,50,117139,1,0,0:0:0:0:
206,59,117204,1,0,0:0:0:0:
171,73,117269,1,0,0:0:0:0:
139,93,117334,5,0,0:0:0:0:
165,110,117400,1,0,0:0:0:0:
198,128,117465,1,0,0:0:0:0:
231,147,117530,1,0,0:0:0:0:
262,167,117595,5,0,0:0:0:0:
228,167,117660,1,0,0:0:0:0:
190,171,117726,1,0,0:0:0:0:
154,181,117791,1,0,0:0:0:0:
120,197,117856,2,0,B|144:240|144:240|184:272,1,75.0000028610231
280,328,118117,2,0,B|360:328|412:268|412:268|405:214|388:188,1,225.000008583069
340,120,118639,5,0,0:0:0:0:
294,98,118725,1,0,0:0:0:0:
246,88,118812,1,0,0:0:0:0:
196,89,118899,1,0,0:0:0:0:
148,102,118986,1,0,0:0:0:0:
104,126,119073,1,0,0:0:0:0:
76,168,119161,6,0,B|96:168|96:168|100:180|100:180|116:168|116:168|120:188|120:188|140:172|140:172|136:196|136:196|160:176|160:176|152:204|152:204|180:180|180:180|172:212|172:212|200:208|212:180,1,300.000011444092
384,144,119943,1,0,0:0:0:0:
168,96,120204,2,0,L|56:224,1,150.000005722046
200,352,120726,2,0,L|312:224,1,150.000005722046
173,140,121248,6,0,L|100:223,1,75.0000028610231
194,307,121509,2,0,L|266:223,1,75.0000028610231
59,217,121770,2,0,L|120:304,1,75.0000028610231
269,246,122031,2,0,L|216:160,1,75.0000028610231
120,292,122291,2,0,P|240:300|380:220,1,262.500010013581
404,204,122813,5,0,0:0:0:0:
441,168,122899,1,0,2:3:0:0:
452,116,122986,1,0,2:3:0:0:
427,70,123073,1,0,2:3:0:0:
378,51,123160,1,0,2:3:0:0:
329,69,123248,1,0,2:3:0:0:
296,104,123335,6,0,P|274:190|340:233,1,150.000005722046
452,280,123726,1,0,0:0:0:0:
316,336,123856,2,0,P|220:344|172:304,1,150.000005722046
100,232,124248,1,0,0:0:0:0:
188,112,124378,5,0,0:0:0:0:
188,112,124443,1,0,0:0:0:0:
188,112,124509,1,0,0:0:0:0:
292,152,124639,1,0,0:0:0:0:
292,152,124704,1,0,0:0:0:0:
292,152,124770,1,0,0:0:0:0:
352,248,124900,2,0,P|248:280|200:248,1,150.000005722046
136,152,125291,1,0,0:0:0:0:
244,52,125422,6,0,P|309:64|340:84,1,75.0000028610231
432,264,125683,2,0,P|416:200|392:176,1,75.0000028610231
136,152,125943,2,0,P|192:136|224:136,1,75.0000028610231
320,312,126204,2,0,P|320:264|312:224,1,75.0000028610231
256,140,126465,5,0,0:0:0:0:
256,140,126530,1,0,0:0:0:0:
256,140,126596,1,0,0:0:0:0:
152,184,126726,1,0,0:0:0:0:
152,184,126791,1,0,0:0:0:0:
152,184,126856,1,0,0:0:0:0:
76,268,126987,2,0,P|148:292|244:276,1,150.000005722046
332,196,127378,1,0,0:0:0:0:
432,96,127509,6,0,P|440:180|400:260,3,150.000005722046
280,332,128422,1,0,0:0:0:0:
124,236,128552,6,0,P|113:184|129:146,1,75.0000028610231
256,112,128813,2,0,P|266:163|250:201,1,75.0000028610231
251,264,129074,2,0,P|247:212|267:176,1,75.0000028610231
392,160,129335,2,0,P|396:212|376:248,1,75.0000028610231
216,296,129596,5,0,0:0:0:0:
170,275,129682,1,0,0:0:0:0:
140,236,129769,1,0,0:0:0:0:
144,187,129856,1,0,0:0:0:0:
178,153,129943,1,0,0:0:0:0:
227,145,130030,1,0,0:0:0:0:
272,165,130117,1,0,0:0:0:0:
298,206,130204,1,0,0:0:0:0:
286,252,130291,1,0,0:0:0:0:
238,262,130378,1,0,0:0:0:0:
196,237,130465,1,0,0:0:0:0:
200,195,130552,1,0,0:0:0:0:
246,209,130639,5,0,0:0:0:0:
232,240,130704,1,0,0:0:0:0:
184,239,130790,1,0,0:0:0:0:
191,197,130877,1,0,0:0:0:0:
239,186,130964,1,0,0:0:0:0:
282,209,131051,1,0,0:0:0:0:
281,257,131138,1,0,0:0:0:0:
243,288,131225,1,0,0:0:0:0:
194,293,131312,1,0,0:0:0:0:
150,271,131399,1,0,0:0:0:0:
138,225,131486,1,0,0:0:0:0:
160,180,131573,1,0,0:0:0:0:
112,88,131683,5,0,0:0:0:0:
112,88,131748,1,0,0:0:0:0:
112,88,131813,1,0,0:0:0:0:
264,144,131943,2,0,P|256:200|232:232,1,75.0000028610231
237,55,132204,5,0,0:0:0:0:
237,55,132270,1,0,0:0:0:0:
237,55,132334,1,0,0:0:0:0:
247,215,132465,2,0,P|192:230|164:216,1,75.0000028610231
344,104,132726,6,0,P|424:136|428:332,1,300.000011444092
60,100,133509,2,0,P|60:148|76:192,1,75.0000028610231
148,284,133770,5,0,0:0:0:0:
148,284,133835,1,0,0:0:0:0:
148,284,133900,1,0,0:0:0:0:
340,260,134030,2,0,P|302:287|245:289,1,75.0000028610231
376,168,134291,5,0,0:0:0:0:
376,168,134356,1,0,0:0:0:0:
376,168,134422,1,0,0:0:0:0:
184,128,134552,6,0,L|209:41,1,75.0000028610231
329,17,134813,2,0,P|393:65|473:273,1,300.000011444092
368,312,135596,6,0,P|344:276|300:248,1,75.0000028610231
116,96,135856,2,0,P|160:176|224:216,1,150.000005722046
312,56,136378,1,0,0:0:0:0:
332,248,136639,2,0,P|320:288|272:320,1,75.0000028610231
92,237,136900,6,0,P|182:255|253:231,1,150.000005722046
187,61,137422,1,0,0:0:0:0:
345,172,137683,1,0,0:0:0:0:
64,320,137943,6,0,L|144:308,1,75.0000028610231
448,256,138204,2,0,L|364:244,1,75.0000028610231
64,192,138465,2,0,L|144:180,1,75.0000028610231
448,116,138726,2,0,L|364:104,1,75.0000028610231
96,108,138987,5,0,0:0:0:0:
117,73,139073,1,0,0:0:0:0:
154,56,139160,1,0,0:0:0:0:
196,54,139247,1,0,0:0:0:0:
229,77,139334,1,0,0:0:0:0:
253,110,139421,1,0,0:0:0:0:
270,133,139508,5,0,0:0:0:0:
277,104,139595,1,0,0:0:0:0:
290,65,139682,1,0,0:0:0:0:
322,39,139769,1,0,0:0:0:0:
361,36,139856,1,0,0:0:0:0:
399,52,139943,1,0,0:0:0:0:
420,88,140030,6,0,P|436:176|420:232,1,150.000005722046
276,244,140422,1,0,0:0:0:0:
228,92,140552,6,0,P|200:177|160:219,1,150.000005722046
36,140,140944,1,0,0:0:0:0:
192,64,141074,6,0,L|232:24,3,37.5000014305115
232,136,141335,2,0,L|280:128,3,37.5000014305115
224,224,141596,2,0,P|306:260|384:248,1,150.000005722046
464,216,141987,1,0,0:0:0:0:
280,56,142117,5,0,0:0:0:0:
280,56,142183,1,0,0:0:0:0:
280,56,142248,1,0,0:0:0:0:
160,184,142378,2,0,P|208:216|256:208,1,75.0000028610231
376,144,142639,1,0,0:0:0:0:
376,144,142704,1,0,0:0:0:0:
376,144,142770,1,0,0:0:0:0:
68,184,142900,2,0,P|64:224|88:272,1,75.0000028610231
232,320,143161,6,0,L|296:256,1,75.0000028610231
456,112,143422,2,0,L|404:188,1,75.0000028610231
304,344,143683,2,0,L|288:260,1,75.0000028610231
248,56,143943,2,0,P|208:72|176:96,1,75.0000028610231
56,240,144204,6,0,P|176:288|224:280,1,150.000005722046
344,248,144596,1,0,0:0:0:0:
424,88,144726,2,0,L|456:32,2,37.5000014305115
224,56,144987,2,0,L|184:96,2,37.5000014305115
142,363,145248,6,0,P|262:316|292:278,1,150.000005722046
358,172,145640,1,0,0:0:0:0:
228,64,145770,2,0,L|213:2,2,37.5000014305115
72,120,146031,2,0,L|70:176,2,37.5000014305115
288,320,146291,5,0,0:0:0:0:
274,271,146377,1,0,0:0:0:0:
267,222,146464,1,0,0:0:0:0:
272,172,146551,1,0,0:0:0:0:
291,127,146638,1,0,0:0:0:0:
328,93,146725,1,0,0:0:0:0:
376,82,146812,1,0,0:0:0:0:
422,101,146899,1,0,0:0:0:0:
446,144,146986,5,0,0:0:0:0:
447,193,147073,1,0,0:0:0:0:
419,234,147160,1,0,0:0:0:0:
373,252,147247,1,0,0:0:0:0:
324,245,147334,1,0,0:0:0:0:
280,223,147421,1,0,0:0:0:0:
241,191,147508,1,0,0:0:0:0:
209,153,147595,1,0,0:0:0:0:
72,128,147857,2,0,B|96:160|96:160|88:192|88:192|120:208|120:208|120:256,1,150.000005722046
272,67,148378,5,0,0:0:0:0:
300,86,148443,1,0,0:0:0:0:
324,108,148508,1,0,0:0:0:0:
347,131,148573,1,0,0:0:0:0:
368,157,148638,1,0,0:0:0:0:
388,184,148704,1,0,0:0:0:0:
404,212,148769,1,0,0:0:0:0:
421,242,148834,1,0,0:0:0:0:
428,271,148900,5,0,0:0:0:0:
388,280,148965,1,0,0:0:0:0:
348,288,149030,1,0,0:0:0:0:
308,297,149095,1,0,0:0:0:0:
264,306,149160,1,0,0:0:0:0:
220,315,149226,1,0,0:0:0:0:
175,324,149291,1,0,0:0:0:0:
129,333,149356,1,0,0:0:0:0:
118,311,149421,5,0,0:0:0:0:
111,288,149486,1,0,0:0:0:0:
105,269,149551,1,0,0:0:0:0:
102,248,149617,1,0,0:0:0:0:
100,226,149682,1,0,0:0:0:0:
100,208,149747,1,0,0:0:0:0:
104,192,149812,1,0,0:0:0:0:
113,175,149878,1,0,0:0:0:0:
128,152,149943,5,0,0:0:0:0:
132,148,150008,1,0,0:0:0:0:
152,128,150074,5,0,0:0:0:0:
156,124,150139,1,0,0:0:0:0:
176,116,150204,5,0,0:0:0:0:
180,112,150269,1,0,0:0:0:0:
204,104,150335,5,0,0:0:0:0:
208,100,150400,1,0,0:0:0:0:
240,100,150465,6,0,L|257:146,4,37.5000014305115
25,293,150856,2,0,L|91:288,4,37.5000014305115
330,333,151248,2,0,L|317:293,3,37.5000014305115
361,297,151509,1,0,0:0:0:0:
381,261,151574,1,0,0:0:0:0:
401,224,151639,1,0,0:0:0:0:
419,186,151704,1,0,0:0:0:0:
431,146,151769,1,0,0:0:0:0:
430,105,151835,5,0,0:0:0:0:
407,73,151900,1,0,0:0:0:0:
370,54,151965,1,0,0:0:0:0:
329,46,152030,1,0,0:0:0:0:
287,43,152095,1,0,0:0:0:0:
246,44,152161,1,0,0:0:0:0:
202,49,152226,1,0,0:0:0:0:
163,57,152291,2,0,B|149:58|149:58|145:74|145:74|133:65|133:65|130:80|130:80|116:72|116:72|113:88|113:88|103:87,1,75.0000028610231
46,124,152552,5,0,0:0:0:0:
46,124,152617,1,0,0:0:0:0:
46,124,152682,1,0,0:0:0:0:
130,336,152813,5,0,0:0:0:0:
130,336,152878,1,0,0:0:0:0:
130,336,152943,1,0,0:0:0:0:
214,53,153074,5,0,0:0:0:0:
214,53,153139,1,0,0:0:0:0:
218,58,153204,1,0,0:0:0:0:
311,301,153335,5,0,0:0:0:0:
311,301,153400,1,0,0:0:0:0:
311,301,153465,1,0,0:0:0:0:
435,61,153596,5,0,0:0:0:0:
435,61,153661,1,0,0:0:0:0:
435,61,153726,1,0,0:0:0:0:
457,317,153856,6,0,L|381:242,1,75.0000028610231
319,97,154117,5,0,0:0:0:0:
314,132,154182,1,0,0:0:0:0:
311,167,154247,1,0,0:0:0:0:
187,306,154378,5,0,0:0:0:0:
159,283,154443,1,0,0:0:0:0:
134,259,154508,1,0,0:0:0:0:
79,57,154639,5,0,0:0:0:0:
114,34,154704,1,0,0:0:0:0:
153,18,154769,1,0,0:0:0:0:
193,10,154834,1,0,0:0:0:0:
239,13,154900,2,0,L|283:49,3,37.5000014305115
301,67,155161,5,0,0:0:0:0:
310,107,155227,1,0,0:0:0:0:
331,141,155292,1,0,0:0:0:0:
361,169,155357,1,0,0:0:0:0:
398,187,155422,2,0,L|416:230,3,37.5000014305115
394,261,155683,5,0,0:0:0:0:
354,249,155748,1,0,0:0:0:0:
313,240,155813,1,0,0:0:0:0:
272,237,155878,1,0,0:0:0:0:
230,238,155943,1,0,0:0:0:0:
188,242,156009,1,0,0:0:0:0:
147,252,156074,1,0,0:0:0:0:
109,266,156139,1,0,0:0:0:0:
70,284,156204,6,0,L|70:226,3,37.5000014305115
35,248,156465,2,0,L|61:204,3,37.5000014305115
17,199,156726,5,0,0:0:0:0:
26,158,156791,1,0,0:0:0:0:
38,118,156856,1,0,0:0:0:0:
55,79,156921,1,0,0:0:0:0:
76,40,156987,2,0,L|128:4,3,37.5000014305115
155,17,157247,5,0,0:0:0:0:
188,39,157312,1,0,0:0:0:0:
222,64,157378,1,0,0:0:0:0:
254,91,157443,1,0,0:0:0:0:
284,119,157508,1,0,0:0:0:0:
312,150,157573,1,0,0:0:0:0:
338,182,157639,1,0,0:0:0:0:
360,217,157704,1,0,0:0:0:0:
380,261,157770,6,0,L|323:257,3,37.5000014305115
296,257,158030,5,0,0:0:0:0:
260,235,158095,1,0,0:0:0:0:
230,205,158160,1,0,0:0:0:0:
211,169,158225,1,0,0:0:0:0:
207,204,158291,1,0,0:0:0:0:
201,239,158356,1,0,0:0:0:0:
196,280,158421,1,0,0:0:0:0:
192,321,158486,1,0,0:0:0:0:
182,357,158552,5,0,0:0:0:0:
147,333,158617,1,0,0:0:0:0:
114,310,158682,1,0,0:0:0:0:
79,286,158747,1,0,0:0:0:0:
53,252,158813,2,0,L|53:195,3,37.5000014305115
62,173,159074,1,0,0:0:0:0:
80,135,159139,1,0,0:0:0:0:
110,105,159204,1,0,0:0:0:0:
145,85,159269,1,0,0:0:0:0:
188,73,159335,6,0,L|237:76,3,37.5000014305115
230,115,159596,2,0,L|253:161,3,37.5000014305115
266,93,159856,2,0,L|315:102,3,37.5000014305115
339,82,160117,5,0,0:0:0:0:
368,111,160182,1,0,0:0:0:0:
388,147,160247,1,0,0:0:0:0:
398,187,160312,1,0,0:0:0:0:
398,228,160377,1,0,0:0:0:0:
387,269,160443,1,0,0:0:0:0:
366,305,160508,1,0,0:0:0:0:
336,333,160573,1,0,0:0:0:0:
304,361,160638,5,0,0:0:0:0:
267,342,160703,1,0,0:0:0:0:
238,312,160769,1,0,0:0:0:0:
216,278,160834,1,0,0:0:0:0:
184,303,160900,6,0,L|149:337,3,37.5000014305115
56,290,161161,5,0,0:0:0:0:
31,139,161291,1,0,0:0:0:0:
120,224,161422,5,0,0:0:0:0:
244,64,161552,1,0,0:0:0:0:
208,200,161683,5,0,0:0:0:0:
428,108,161813,1,0,0:0:0:0:
344,288,161943,5,0,0:0:0:0:
344,288,162009,1,0,0:0:0:0:
344,288,162074,1,0,0:0:0:0:
289,89,162204,5,0,0:0:0:0:
66,240,162335,1,0,0:0:0:0:
378,173,162465,5,0,0:0:0:0:
45,130,162596,1,0,0:0:0:0:
323,297,162726,5,0,0:0:0:0:
163,60,162856,1,0,0:0:0:0:
223,336,162987,5,0,0:0:0:0:
230,301,163052,1,0,0:0:0:0:
247,269,163117,1,0,0:0:0:0:
439,136,163248,5,0,0:0:0:0:
404,123,163313,1,0,0:0:0:0:
368,124,163378,1,0,0:0:0:0:
60,164,163509,2,0,P|131:138|158:146,1,75.0000028610231
415,315,163770,1,0,0:0:0:0:
401,275,163835,1,0,0:0:0:0:
378,241,163900,1,0,0:0:0:0:
166,31,164030,6,0,B|264:40|317:120,1,150.000005722046
166,208,164422,1,0,0:0:0:0:
308,85,164552,5,0,0:0:0:0:
349,82,164617,1,0,0:0:0:0:
390,83,164682,1,0,0:0:0:0:
431,90,164747,1,0,0:0:0:0:
471,101,164812,5,0,0:0:0:0:
432,114,164878,1,0,0:0:0:0:
392,128,164943,1,0,0:0:0:0:
355,144,165008,1,0,0:0:0:0:
317,164,165074,6,0,P|388:182|408:196,1,75.0000028610231
104,94,165335,1,0,0:0:0:0:
111,134,165400,1,0,0:0:0:0:
119,175,165465,1,0,0:0:0:0:
272,315,165596,6,0,P|317:342|352:342,1,75.0000028610231
246,138,165856,1,0,0:0:0:0:
267,173,165921,1,0,0:0:0:0:
289,207,165986,1,0,0:0:0:0:
465,284,166117,6,0,P|493:246|500:196,1,75.0000028610231
361,31,166378,1,0,0:0:0:0:
322,43,166443,1,0,0:0:0:0:
282,55,166508,1,0,0:0:0:0:
317,333,166639,6,0,P|328:286|315:237,1,75.0000028610231
123,58,166900,1,0,0:0:0:0:
91,83,166965,1,0,0:0:0:0:
59,110,167030,1,0,0:0:0:0:
159,303,167161,5,0,0:0:0:0:
269,70,167291,1,0,0:0:0:0:
221,314,167422,5,0,0:0:0:0:
387,94,167552,1,0,0:0:0:0:
410,350,167683,5,0,0:0:0:0:
329,81,167813,1,0,0:0:0:0:
347,338,167943,5,0,0:0:0:0:
209,59,168074,1,0,0:0:0:0:
284,327,168204,5,0,0:0:0:0:
447,104,168335,1,0,0:0:0:0:
264,292,168465,5,0,0:0:0:0:
285,55,168597,1,0,0:0:0:0:
231,310,168726,5,0,0:0:0:0:
134,131,168856,1,0,0:0:0:0:
256,343,168987,5,0,0:0:0:0:
375,46,169118,1,0,0:0:0:0:
463,333,169248,6,0,L|476:276,3,37.5000014305115
415,324,169509,2,0,L|415:280,3,37.5000014305115
366,328,169770,2,0,L|357:280,3,37.5000014305115
326,351,170030,2,0,P|290:297|256:262,1,112.500004291535
60,40,170291,5,0,0:0:0:0:
76,78,170356,1,0,0:0:0:0:
88,118,170421,1,0,0:0:0:0:
94,159,170486,1,0,0:0:0:0:
94,200,170551,1,0,0:0:0:0:
91,242,170617,1,0,0:0:0:0:
83,282,170682,1,0,0:0:0:0:
72,323,170747,1,0,0:0:0:0:
62,358,170812,5,0,0:0:0:0:
100,340,170877,1,0,0:0:0:0:
137,319,170943,1,0,0:0:0:0:
169,295,171008,1,0,0:0:0:0:
199,265,171073,1,0,0:0:0:0:
222,232,171138,1,0,0:0:0:0:
240,195,171204,1,0,0:0:0:0:
250,154,171269,1,0,0:0:0:0:
256,120,171335,2,0,L|308:85,3,37.5000014305115
326,85,171596,5,0,0:0:0:0:
366,94,171661,1,0,0:0:0:0:
401,115,171726,1,0,0:0:0:0:
426,146,171791,1,0,0:0:0:0:
428,186,171856,2,0,L|392:231,3,37.5000014305115
370,248,172117,5,0,0:0:0:0:
332,229,172182,1,0,0:0:0:0:
292,219,172247,1,0,0:0:0:0:
250,217,172312,1,0,0:0:0:0:
209,222,172377,5,0,0:0:0:0:
189,259,172443,1,0,0:0:0:0:
164,289,172508,1,0,0:0:0:0:
132,316,172573,1,0,0:0:0:0:
95,336,172638,5,0,0:0:0:0:
72,303,172703,1,0,0:0:0:0:
54,265,172769,1,0,0:0:0:0:
45,224,172834,1,0,0:0:0:0:
38,192,172900,2,0,L|74:159,3,37.5000014305115
64,124,173161,2,0,L|91:80,3,37.5000014305115
131,67,173422,6,0,P|206:36|292:64,1,150.000005722046
175,262,173813,1,0,0:0:0:0:
370,351,173943,2,0,P|423:288|450:200,1,150.000005722046
450,174,174270,1,0,0:0:0:0:
442,133,174335,1,0,0:0:0:0:
421,97,174400,1,0,0:0:0:0:
397,67,174465,2,0,P|324:104|224:100,1,150.000005722046
84,100,174856,1,0,0:0:0:0:
96,240,174987,2,0,P|115:305|151:350,2,112.500004291535
164,80,175509,6,0,P|200:62|240:62,1,75.0000028610231
397,49,175770,1,0,0:0:0:0:
308,293,175900,1,0,0:0:0:0:
503,258,176030,1,0,0:0:0:0:
238,142,176161,1,0,0:0:0:0:
415,337,176291,1,0,0:0:0:0:
308,58,176422,1,0,0:0:0:0:
215,351,176552,6,0,P|171:333|144:284,1,75.0000028610231
339,146,176813,1,0,0:0:0:0:
69,200,176943,1,0,0:0:0:0:
300,248,177074,1,0,0:0:0:0:
82,54,177204,1,0,0:0:0:0:
131,315,177335,1,0,0:0:0:0:
238,14,177465,1,0,0:0:0:0:
246,244,177596,5,0,0:0:0:0:
284,259,177661,1,0,0:0:0:0:
326,261,177726,1,0,0:0:0:0:
366,251,177791,1,0,0:0:0:0:
401,229,177856,1,0,0:0:0:0:
428,198,177922,1,0,0:0:0:0:
443,160,177987,1,0,0:0:0:0:
446,119,178052,1,0,0:0:0:0:
441,80,178117,2,0,L|423:40,7,37.5000014305115
379,27,178639,5,0,0:0:0:0:
337,22,178704,1,0,0:0:0:0:
296,27,178769,1,0,0:0:0:0:
258,43,178834,1,0,0:0:0:0:
224,66,178899,1,0,0:0:0:0:
198,98,178965,1,0,0:0:0:0:
180,136,179030,1,0,0:0:0:0:
171,176,179095,1,0,0:0:0:0:
175,218,179161,2,0,L|198:253,7,37.5000014305115
256,192,179683,12,0,181770,0:0:0:0:
196,40,190117,5,0,0:0:0:0:
376,128,190378,1,0,0:0:0:0:
196,208,190639,2,0,P|252:240|288:244,2,75.0000028610231
72,80,191161,2,0,P|48:120|44:224,1,150.000005722046
260,332,191683,5,0,0:0:0:0:
436,268,191944,1,0,0:0:0:0:
240,184,192205,2,0,P|296:228|328:240,2,75.0000028610231
472,176,192726,5,0,0:0:0:0:
320,84,192987,2,0,P|352:128|396:148,2,75.0000028610231
448,40,193509,5,0,0:0:0:0:
184,124,193770,1,0,0:0:0:0:
392,268,194030,1,0,0:0:0:0:
292,336,194161,1,0,0:0:0:0:
176,304,194291,2,0,P|231:300|363:114,1,300.000011444092
160,104,195074,1,0,0:0:0:0:
176,224,195204,1,0,0:0:0:0:
276,292,195335,2,0,P|325:265|369:42,1,300.000011444092
124,216,196117,1,0,0:0:0:0:
380,344,196378,5,0,0:0:0:0:
380,344,196443,1,0,0:0:0:0:
380,344,196509,1,0,0:0:0:0:
380,344,196574,1,0,0:0:0:0:
380,344,196639,1,0,0:0:0:0:
448,128,196900,5,0,0:0:0:0:
415,90,196986,1,0,0:0:0:0:
372,64,197073,1,0,0:0:0:0:
324,51,197160,1,0,0:0:0:0:
274,50,197247,1,0,0:0:0:0:
225,58,197334,1,0,0:0:0:0:
177,71,197421,5,0,0:0:0:0:
221,88,197508,1,0,0:0:0:0:
267,109,197595,1,0,0:0:0:0:
310,133,197682,1,0,0:0:0:0:
351,162,197769,1,0,0:0:0:0:
389,195,197856,1,0,0:0:0:0:
423,231,197943,5,0,0:0:0:0:
377,248,198030,1,0,0:0:0:0:
327,255,198117,1,0,0:0:0:0:
278,251,198204,1,0,0:0:0:0:
230,236,198291,1,0,0:0:0:0:
185,214,198378,1,0,0:0:0:0:
145,185,198465,6,0,P|112:128|112:88,1,100
310,133,198726,1,0,0:0:0:0:
256,336,198856,1,0,0:0:0:0:
72,232,198987,2,0,P|128:288|184:296,1,100
356,264,199248,1,0,0:0:0:0:
356,264,199313,1,0,0:0:0:0:
356,264,199378,1,0,0:0:0:0:
448,104,199509,2,0,P|453:158|416:216,1,100
244,308,199770,6,0,P|188:268|172:212,1,100
92,52,200030,2,0,P|148:100|196:108,1,100
372,36,200291,1,0,0:0:0:0:
228,180,200422,1,0,0:0:0:0:
436,192,200552,6,0,P|415:253|386:274,1,100
176,288,200813,1,0,0:0:0:0:
176,288,200878,1,0,0:0:0:0:
176,288,200943,1,0,0:0:0:0:
384,168,201074,6,0,P|340:215|305:223,1,100
112,144,201335,1,0,0:0:0:0:
112,144,201400,1,0,0:0:0:0:
112,144,201465,1,0,0:0:0:0:
288,48,201596,2,0,P|352:56|408:88,1,100
432,312,201856,5,0,0:0:0:0:
268,176,201987,1,0,0:0:0:0:
140,340,202117,2,0,P|92:316|68:268,1,100
152,40,202378,2,0,P|112:96|112:160,1,100
208,268,202639,6,0,P|268:268|328:236,1,100
356,76,202900,1,0,0:0:0:0:
356,76,202965,1,0,0:0:0:0:
356,76,203030,1,0,0:0:0:0:
312,336,203161,6,0,P|386:289|405:258,1,100
224,120,203422,1,0,0:0:0:0:
224,120,203487,1,0,0:0:0:0:
224,120,203552,1,0,0:0:0:0:
40,168,203683,2,0,P|88:229|139:236,1,100
400,256,203943,1,0,0:0:0:0:
200,328,204074,1,0,0:0:0:0:
176,36,204204,2,0,P|134:97|143:142,1,100
288,264,204465,2,0,P|312:216|304:168,1,100
184,48,204726,6,0,B|80:144|200:248,1,200
173,222,205052,1,0,0:0:0:0:
173,222,205117,1,0,0:0:0:0:
352,320,205248,2,0,P|400:304|432:256,1,100
416,32,205509,2,0,P|352:64|328:96,1,100
256,256,205770,5,0,0:0:0:0:
256,256,205835,1,0,0:0:0:0:
256,256,205900,1,0,0:0:0:0:
432,208,206030,2,0,P|392:144|344:112,1,100
48,168,206291,2,0,P|112:112|144:104,1,100
440,48,206552,2,0,P|368:40|312:56,1,100
168,320,206813,6,0,P|224:344|280:344,1,100
432,208,207074,1,0,0:0:0:0:
432,208,207139,1,0,0:0:0:0:
432,208,207204,1,0,0:0:0:0:
48,216,207335,6,0,P|105:235|161:230,1,100
318,87,207596,1,0,0:0:0:0:
318,87,207661,1,0,0:0:0:0:
318,87,207726,1,0,0:0:0:0:
120,56,207856,2,0,P|160:116|176:160,1,100
236,340,208117,1,0,0:0:0:0:
312,196,208248,1,0,0:0:0:0:
88,288,208378,2,0,P|64:240|72:176,1,100
256,48,208639,2,0,P|200:64|152:112,1,100
424,312,208900,6,0,P|416:248|384:216,1,100
184,304,209161,1,0,0:0:0:0:
184,304,209226,1,0,0:0:0:0:
184,304,209291,1,0,0:0:0:0:
320,152,209422,6,0,P|301:90|263:64,1,100
81,185,209683,1,0,0:0:0:0:
81,185,209748,1,0,0:0:0:0:
81,185,209813,1,0,0:0:0:0:
280,328,209943,2,0,P|316:276|312:212,1,100
272,76,210204,1,0,0:0:0:0:
408,164,210335,1,0,0:0:0:0:
152,128,210465,2,0,P|176:176|232:216,1,100
360,280,210726,2,0,P|296:296|240:280,1,100
156,32,210987,6,0,P|204:72|228:112,1,100
248,272,211248,1,0,0:0:0:0:
248,272,211313,1,0,0:0:0:0:
248,272,211378,1,0,0:0:0:0:
336,84,211509,6,0,P|343:145|333:190,1,100
176,328,211770,1,0,0:0:0:0:
176,328,211835,1,0,0:0:0:0:
176,328,211900,1,0,0:0:0:0:
56,168,212030,2,0,P|80:112|128:72,1,100
400,48,212291,6,0,P|440:120|440:160,1,100
384,360,212552,2,0,P|384:288|368:224,1,100
232,48,212813,2,0,P|280:96|288:152,1,100
260,316,213074,2,0,P|160:320|72:248,1,200
54,208,213421,5,0,0:0:0:0:
57,146,213508,1,0,0:0:0:0:
87,90,213595,1,0,0:0:0:0:
136,67,213682,1,0,0:0:0:0:
196,64,213769,1,0,0:0:0:0:
244,96,213856,1,0,0:0:0:0:
272,144,213943,1,0,0:0:0:0:
284,200,214030,1,0,0:0:0:0:
296,248,214117,6,0,P|328:296|376:320,1,100
500,300,214378,1,0,0:0:0:0:
392,144,214509,1,0,0:0:0:0:
236,340,214639,6,0,P|292:329|344:304,1,100
428,216,214900,1,0,0:0:0:0:
236,168,215031,1,0,0:0:0:0:
112,292,215161,5,0,0:0:0:0:
164,112,215291,1,0,0:0:0:0:
24,72,215422,2,0,P|28:152|56:184,1,100
248,272,215683,1,0,0:0:0:0:
40,240,215813,1,0,0:0:0:0:
236,72,215943,2,0,P|316:76|352:92,1,100
456,200,216204,5,0,0:0:0:0:
272,184,216335,1,0,0:0:0:0:
436,336,216465,2,0,P|392:288|388:248,1,100
416,88,216726,2,0,P|360:76|292:92,1,100
48,80,216987,2,0,P|116:100|148:124,1,100
256,272,217248,1,0,0:0:0:0:
228,60,217378,1,0,0:0:0:0:
116,188,217509,2,0,P|164:216|212:220,1,100
384,96,217770,5,0,0:0:0:0:
444,248,217900,1,0,0:0:0:0:
272,136,218030,1,0,0:0:0:0:
352,280,218161,1,0,0:0:0:0:
148,56,218291,2,0,P|88:104|76:148,1,100
272,196,218552,1,0,0:0:0:0:
136,248,218683,1,0,0:0:0:0:
392,80,218813,2,0,P|424:128|432:184,1,100
296,344,219074,2,0,P|316:292|320:228,1,100
276,32,219335,5,0,0:0:0:0:
79,123,219465,1,0,0:0:0:0:
300,148,219596,2,0,P|232:196|192:204,1,100
52,256,219856,1,0,0:0:0:0:
252,348,219987,1,0,0:0:0:0:
172,144,220117,1,0,0:0:0:0:
336,292,220248,1,0,0:0:0:0:
304,68,220378,2,0,P|360:92|396:156,1,100
434,279,220639,6,0,P|370:291|298:287,1,100
44,248,220900,2,0,P|112:272|160:264,1,100
440,104,221161,2,0,P|404:156|360:184,1,100
72,116,221422,5,0,0:0:0:0:
107,81,221487,1,0,0:0:0:0:
153,61,221552,1,0,0:0:0:0:
202,57,221617,1,0,0:0:0:0:
250,71,221683,2,0,P|324:108|360:160,1,100
392,328,221943,2,0,P|364:276|312:228,1,100
40,208,222204,2,0,P|80:276|140:304,1,100
422,82,222465,5,0,0:0:0:0:
380,55,222530,1,0,0:0:0:0:
331,44,222595,1,0,0:0:0:0:
282,49,222660,1,0,0:0:0:0:
238,72,222726,2,0,P|173:122|147:180,1,100
368,312,222987,1,0,0:0:0:0:
256,164,223117,1,0,0:0:0:0:
64,140,223248,2,0,P|68:200|106:238,1,100
172,332,223509,6,0,P|240:352|300:344,1,100
424,280,223770,1,0,0:0:0:0:
256,252,223900,1,0,0:0:0:0:
100,192,224030,2,0,P|152:140|220:128,1,100
448,196,224291,1,0,0:0:0:0:
368,80,224422,1,0,0:0:0:0:
304,344,224552,2,0,P|386:280|400:257,1,100
308,132,224813,5,0,0:0:0:0:
208,268,224943,1,0,0:0:0:0:
160,104,225074,1,0,0:0:0:0:
148,272,225204,1,0,0:0:0:0:
48,132,225335,1,0,0:0:0:0:
96,296,225465,1,0,0:0:0:0:
260,340,225596,6,0,P|296:300|308:244,1,100
320,88,225856,1,0,0:0:0:0:
152,112,225987,1,0,0:0:0:0:
44,244,226117,2,0,P|120:212|168:204,1,100
400,188,226378,1,0,0:0:0:0:
280,248,226509,1,0,0:0:0:0:
176,360,226639,2,0,P|244:352|300:316,1,100
472,256,226900,6,0,P|488:200|468:128,1,100
304,24,227161,2,0,P|360:40|416:76,1,100
244,316,227422,2,0,P|316:280|344:224,1,100
168,116,227683,5,0,0:0:0:0:
312,104,227813,1,0,0:0:0:0:
76,220,227943,1,0,0:0:0:0:
280,244,228074,1,0,0:0:0:0:
24,308,228204,2,0,P|64:336|116:344,1,100
388,296,228465,2,0,P|324:336|272:332,1,100
172,216,228726,1,0,0:0:0:0:
372,184,228856,1,0,0:0:0:0:
432,68,228987,6,0,P|356:60|324:64,1,100
64,216,229248,2,0,P|96:160|144:132,1,100
476,240,229509,2,0,P|432:200|388:188,1,100
108,312,229770,2,0,B|148:312|148:312|148:272|148:272|192:272|192:272|192:228|192:228|240:228|240:228|240:184|240:184|284:184|284:184|320:136|304:88,1,400
180,24,230422,1,0,0:0:0:0:
52,104,230552,2,0,P|36:160|64:224,1,100
176,336,230813,6,0,P|228:320|276:284,1,100
296,180,231074,1,0,0:0:0:0:
156,200,231204,1,0,0:0:0:0:
308,288,231335,6,0,P|345:248|368:192,1,100
333,92,231596,1,0,0:0:0:0:
222,180,231726,1,0,0:0:0:0:
92,208,231856,5,0,0:0:0:0:
89,170,231921,1,0,0:0:0:0:
96,133,231986,1,0,0:0:0:0:
110,99,232051,1,0,0:0:0:0:
131,68,232117,2,0,P|172:48|208:48,1,75.0000028610231
408,168,232378,2,0,P|360:102|295:68,1,150.000005722046
120,328,232900,5,0,0:0:0:0:
96,298,232965,1,0,0:0:0:0:
79,265,233030,1,0,0:0:0:0:
70,229,233095,1,0,0:0:0:0:
70,191,233161,2,0,P|88:148|112:124,1,75.0000028610231
352,92,233422,2,0,P|274:67|202:77,1,150.000005722046
212,260,233813,1,0,0:0:0:0:
376,276,233943,6,0,P|432:252|448:212,1,75.0000028610231
316,176,234204,2,0,P|260:200|244:240,1,75.0000028610231
408,164,234465,2,0,P|381:101|352:92,1,75.0000028610231
272,276,234726,2,0,P|299:339|337:353,1,75.0000028610231
260,156,234987,1,0,0:0:0:0:
224,144,235052,1,0,0:0:0:0:
187,147,235117,1,0,0:0:0:0:
154,165,235182,1,0,0:0:0:0:
131,194,235248,2,0,P|96:240|60:260,1,75.0000028610231
44,152,235509,6,0,P|72:112|128:96,1,75.0000028610231
256,232,235770,2,0,P|256:192|248:140,1,75.0000028610231
88,264,236030,1,0,0:0:0:0:
111,293,236095,1,0,0:0:0:0:
141,315,236160,1,0,0:0:0:0:
175,331,236225,1,0,0:0:0:0:
212,337,236291,2,0,P|304:340|384:304,1,150.000005722046
472,268,236683,1,0,0:0:0:0:
356,244,236813,2,0,P|312:244|260:208,1,75.0000028610231
188,28,237074,6,0,P|220:67|216:102,1,75.0000028610231
144,194,237335,2,0,P|111:154|115:119,1,75.0000028610231
256,172,237596,2,0,P|274:219|260:251,1,75.0000028610231
162,316,237857,2,0,P|143:268|157:236,1,75.0000028610231
392,336,238117,6,0,P|360:360|312:364,1,75.0000028610231
156,304,238378,1,0,0:0:0:0:
156,304,238443,1,0,0:0:0:0:
156,304,238509,1,0,0:0:0:0:
88,160,238639,6,0,P|132:136|180:132,1,75.0000028610231
300,248,238900,1,0,0:0:0:0:
300,248,238965,1,0,0:0:0:0:
300,248,239031,1,0,0:0:0:0:
302,88,239161,6,0,P|352:85|424:280,1,300.000011444092
380,256,239769,1,0,0:0:0:0:
332,241,239856,1,0,0:0:0:0:
282,236,239943,1,0,0:0:0:0:
232,239,240030,1,0,0:0:0:0:
184,250,240117,1,0,0:0:0:0:
138,270,240204,6,0,P|100:228|88:180,1,75.0000028610231
168,60,240465,2,0,P|208:88|244:84,1,75.0000028610231
408,56,240726,1,0,0:0:0:0:
408,56,240791,1,0,0:0:0:0:
408,56,240856,1,0,0:0:0:0:
304,260,240987,2,0,P|352:212|360:180,1,75.0000028610231
124,304,241248,6,0,P|96:254|95:205,1,75.0000028610231
200,106,241509,2,0,P|232:142|268:146,1,75.0000028610231
435,156,241770,1,0,0:0:0:0:
435,156,241835,1,0,0:0:0:0:
435,156,241900,1,0,0:0:0:0:
258,279,242031,2,0,P|304:252|330:213,1,75.0000028610231
400,56,242291,6,0,P|348:68|316:92,1,75.0000028610231
144,232,242552,2,0,P|163:200|192:176,1,75.0000028610231
452,200,242813,2,0,P|412:176|376:168,1,75.0000028610231
160,56,243074,2,0,P|208:88|224:116,1,75.0000028610231
312,300,243335,5,0,0:0:0:0:
274,298,243400,1,0,0:0:0:0:
238,290,243465,1,0,0:0:0:0:
202,277,243530,1,0,0:0:0:0:
169,260,243595,1,0,0:0:0:0:
199,242,243661,1,0,0:0:0:0:
230,220,243726,1,0,0:0:0:0:
264,200,243791,1,0,0:0:0:0:
296,180,243856,6,0,P|332:148|352:108,1,75.0000028610231
152,56,244117,2,0,P|192:48|240:48,1,75.0000028610231
392,184,244378,1,0,0:0:0:0:
392,184,244443,1,0,0:0:0:0:
392,184,244509,1,0,0:0:0:0:
328,324,244639,2,0,P|284:308|260:280,1,75.0000028610231
240,108,244900,2,0,P|288:120|316:144,1,75.0000028610231
148,240,245161,2,0,P|116:216|108:176,1,75.0000028610231
400,168,245422,5,0,0:0:0:0:
400,168,245487,1,0,0:0:0:0:
400,168,245553,1,0,0:0:0:0:
281,265,245683,2,0,P|248:231|239:195,1,75.0000028610231
320,68,245943,1,0,0:0:0:0:
320,68,246009,1,0,0:0:0:0:
320,68,246074,1,0,0:0:0:0:
156,111,246205,2,0,P|137:75|148:35,1,75.0000028610231
368,184,246465,5,0,0:0:0:0:
360,233,246551,1,0,0:0:0:0:
340,278,246638,1,0,0:0:0:0:
302,310,246725,1,0,0:0:0:0:
254,325,246812,1,0,0:0:0:0:
205,326,246899,1,0,0:0:0:0:
156,319,246986,5,0,0:0:0:0:
201,297,247073,1,0,0:0:0:0:
241,268,247160,1,0,0:0:0:0:
275,231,247247,1,0,0:0:0:0:
295,185,247334,1,0,0:0:0:0:
298,136,247421,1,0,0:0:0:0:
287,87,247508,5,0,0:0:0:0:
238,76,247595,1,0,0:0:0:0:
189,76,247682,1,0,0:0:0:0:
143,96,247769,1,0,0:0:0:0:
113,135,247856,1,0,0:0:0:0:
97,182,247943,1,0,0:0:0:0:
92,232,248030,1,0,0:0:0:0:
432,132,248552,5,0,0:0:0:0:
432,132,248617,1,0,0:0:0:0:
432,132,248683,1,0,0:0:0:0:
475,260,248813,2,0,P|438:287|405:292,1,75.0000028610231
336,225,249074,5,0,0:0:0:0:
336,225,249139,1,0,0:0:0:0:
336,225,249205,1,0,0:0:0:0:
291,353,249335,2,0,P|245:352|215:335,1,75.0000028610231
232,144,249596,5,0,0:0:0:0:
190,171,249682,1,0,0:0:0:0:
142,181,249769,1,0,0:0:0:0:
92,180,249856,1,0,0:0:0:0:
117,137,249943,1,0,0:0:0:0:
152,101,250030,1,0,0:0:0:0:
194,75,250117,1,0,0:0:0:0:
243,63,250204,1,0,0:0:0:0:
293,63,250291,1,0,0:0:0:0:
342,73,250378,6,0,P|384:84|412:108,1,75.0000028610231
384,244,250639,1,0,0:0:0:0:
384,244,250704,1,0,0:0:0:0:
384,244,250770,1,0,0:0:0:0:
248,128,250900,6,0,P|279:157|293:191,1,75.0000028610231
216,300,251161,1,0,0:0:0:0:
216,300,251226,1,0,0:0:0:0:
216,300,251292,1,0,0:0:0:0:
84,200,251422,1,0,0:0:0:0:
84,200,251487,1,0,0:0:0:0:
84,200,251552,1,0,0:0:0:0:
136,64,251683,6,0,P|200:48|236:48,1,75.0000028610231
364,116,251943,1,0,0:0:0:0:
232,196,252074,1,0,0:0:0:0:
76,136,252204,2,0,P|140:149|172:165,1,75.0000028610231
258,282,252464,1,0,0:0:0:0:
104,296,252595,1,0,0:0:0:0:
