osu file format v14

[General]
AudioFilename: Curiosity killed the fairy.mp3
AudioLeadIn: 0
PreviewTime: 80174
Countdown: 0
SampleSet: None
StackLeniency: 0.7
Mode: 1
LetterboxInBreaks: 0
WidescreenStoryboard: 0

[Editor]
DistanceSpacing: 0.8
BeatDivisor: 4
GridSize: 32
TimelineZoom: 2.4

[Metadata]
Title:Curiosity killed the fairy
TitleUnicode:Curiosity killed the fairy
Artist:Xenon
ArtistUnicode:キセノン
Creator:JhowM
Version:Lunatic
Source:
Tags:東方 年中夢中の好奇心
BeatmapID:1541520
BeatmapSetID:730419

[Difficulty]
HPDrainRate:7
CircleSize:5
OverallDifficulty:7
ApproachRate:5
SliderMultiplier:1.4
SliderTickRate:1

[Events]
//Background and Video events
0,0,"31963808.jpg",0,155
//Break Periods
//Storyboard Layer 0 (Background)
//Storyboard Layer 1 (Fail)
//Storyboard Layer 2 (Pass)
//Storyboard Layer 3 (Foreground)
Sprite,Foreground,Centre,"a.png",320,240 M,0,0,,320,240
//Storyboard Sound Samples

[TimingPoints]
1274,300,4,1,0,100,1,0
99674,-100,4,1,0,75,0,0
117674,-100,4,1,0,90,0,0
118274,-100,4,1,0,100,0,0
157274,-100,4,1,0,75,0,0
175274,-100,4,1,0,90,0,0
176474,-100,4,1,0,100,0,1
194474,-100,4,1,0,50,0,0
195974,-100,4,1,0,5,0,0

[HitObjects]
256,192,1274,5,0,0:0:0:0:
256,192,1424,1,8,0:0:0:0:
256,192,1499,1,8,0:0:0:0:
256,192,1574,1,0,0:0:0:0:
256,192,1724,1,8,0:0:0:0:
256,192,1874,1,0,0:0:0:0:
256,192,2024,1,8,0:0:0:0:
256,192,2174,1,0,0:0:0:0:
256,192,2324,1,8,0:0:0:0:
256,192,2474,1,0,0:0:0:0:
256,192,2624,1,8,0:0:0:0:
256,192,2774,1,0,0:0:0:0:
256,192,2924,1,0,0:0:0:0:
256,192,2999,1,0,0:0:0:0:
256,192,3074,1,8,0:0:0:0:
256,192,3224,1,0,0:0:0:0:
256,192,3374,1,8,0:0:0:0:
256,192,3449,1,8,0:0:0:0:
256,192,3524,1,8,0:0:0:0:
256,192,3599,1,8,0:0:0:0:
256,192,3674,1,0,0:0:0:0:
256,192,3974,1,0,0:0:0:0:
256,192,4124,1,0,0:0:0:0:
256,192,4274,1,8,0:0:0:0:
256,192,4574,1,0,0:0:0:0:
256,192,4724,1,8,0:0:0:0:
256,192,4874,1,0,0:0:0:0:
256,192,5024,1,0,0:0:0:0:
256,192,5174,1,0,0:0:0:0:
256,192,5324,1,0,0:0:0:0:
256,192,5474,1,8,0:0:0:0:
256,192,5774,1,8,0:0:0:0:
256,192,5924,1,0,0:0:0:0:
256,192,5999,1,0,0:0:0:0:
256,192,6074,1,8,0:0:0:0:
256,192,6224,1,8,0:0:0:0:
256,192,6299,1,8,0:0:0:0:
256,192,6374,1,0,0:0:0:0:
256,192,6524,1,8,0:0:0:0:
256,192,6674,1,0,0:0:0:0:
256,192,6824,1,8,0:0:0:0:
256,192,6974,1,0,0:0:0:0:
256,192,7124,1,8,0:0:0:0:
256,192,7274,1,0,0:0:0:0:
256,192,7424,1,0,0:0:0:0:
256,192,7574,1,8,0:0:0:0:
256,192,7724,1,8,0:0:0:0:
256,192,7874,1,8,0:0:0:0:
256,192,7949,1,0,0:0:0:0:
256,192,8024,1,8,0:0:0:0:
256,192,8099,1,0,0:0:0:0:
256,192,8174,1,8,0:0:0:0:
256,192,8324,1,0,0:0:0:0:
256,192,8474,1,0,0:0:0:0:
256,192,8774,1,0,0:0:0:0:
256,192,8924,1,0,0:0:0:0:
256,192,9074,1,8,0:0:0:0:
256,192,9374,1,0,0:0:0:0:
256,192,9524,1,8,0:0:0:0:
256,192,9674,1,0,0:0:0:0:
256,192,9824,1,0,0:0:0:0:
256,192,9974,1,0,0:0:0:0:
256,192,10124,1,0,0:0:0:0:
256,192,10274,1,8,0:0:0:0:
256,192,10574,1,8,0:0:0:0:
256,192,10724,1,0,0:0:0:0:
256,192,10799,1,0,0:0:0:0:
256,192,10874,1,8,0:0:0:0:
256,192,11174,1,8,0:0:0:0:
256,192,11474,1,8,0:0:0:0:
256,192,11624,1,8,0:0:0:0:
256,192,11774,1,0,0:0:0:0:
256,192,12074,1,8,0:0:0:0:
256,192,12224,1,0,0:0:0:0:
256,192,12374,1,8,0:0:0:0:
256,192,12524,1,8,0:0:0:0:
256,192,12674,1,0,0:0:0:0:
256,192,12824,1,0,0:0:0:0:
256,192,12899,1,0,0:0:0:0:
256,192,12974,1,8,0:0:0:0:
256,192,13274,1,0,0:0:0:0:
256,192,13424,1,0,0:0:0:0:
256,192,13499,1,0,0:0:0:0:
256,192,13574,1,0,0:0:0:0:
256,192,13724,1,8,0:0:0:0:
256,192,13874,1,0,0:0:0:0:
256,192,14024,1,0,0:0:0:0:
256,192,14174,1,8,0:0:0:0:
256,192,14249,1,0,0:0:0:0:
256,192,14324,1,8,0:0:0:0:
256,192,14474,1,0,0:0:0:0:
256,192,14624,1,0,0:0:0:0:
256,192,14699,1,0,0:0:0:0:
256,192,14774,1,8,0:0:0:0:
256,192,14924,1,0,0:0:0:0:
256,192,15074,1,8,0:0:0:0:
256,192,15374,1,8,0:0:0:0:
256,192,15674,1,0,0:0:0:0:
256,192,15824,1,0,0:0:0:0:
256,192,15899,1,0,0:0:0:0:
256,192,15974,1,0,0:0:0:0:
256,192,16124,1,8,0:0:0:0:
256,192,16274,1,0,0:0:0:0:
256,192,16424,1,0,0:0:0:0:
256,192,16574,1,8,0:0:0:0:
256,192,16724,1,8,0:0:0:0:
256,192,16874,1,8,0:0:0:0:
256,192,16949,1,8,0:0:0:0:
256,192,17024,1,0,0:0:0:0:
256,192,17174,1,8,0:0:0:0:
256,192,17324,1,0,0:0:0:0:
256,192,17474,1,8,0:0:0:0:
256,192,17774,1,8,0:0:0:0:
256,192,17849,1,8,0:0:0:0:
256,192,17924,1,8,0:0:0:0:
256,192,18074,1,0,0:0:0:0:
256,192,18149,1,0,0:0:0:0:
256,192,18224,1,0,0:0:0:0:
256,192,18374,1,0,0:0:0:0:
256,192,18524,1,8,0:0:0:0:
256,192,18674,1,0,0:0:0:0:
256,192,18824,1,0,0:0:0:0:
256,192,18974,1,8,0:0:0:0:
256,192,19124,1,0,0:0:0:0:
256,192,19274,1,8,0:0:0:0:
256,192,19349,1,8,0:0:0:0:
256,192,19424,1,0,0:0:0:0:
256,192,19499,1,0,0:0:0:0:
256,192,19574,1,8,0:0:0:0:
256,192,19649,1,8,0:0:0:0:
256,192,19724,1,0,0:0:0:0:
256,192,19799,1,0,0:0:0:0:
256,192,19874,1,8,0:0:0:0:
256,192,20174,1,0,0:0:0:0:
256,192,20249,1,0,0:0:0:0:
256,192,20324,1,0,0:0:0:0:
256,192,20399,1,0,0:0:0:0:
256,192,20474,1,0,0:0:0:0:
256,192,20624,1,0,0:0:0:0:
256,192,20774,1,8,0:0:0:0:
256,192,20924,1,0,0:0:0:0:
256,192,21074,1,0,0:0:0:0:
256,192,21149,1,0,0:0:0:0:
256,192,21224,1,8,0:0:0:0:
256,192,21299,1,8,0:0:0:0:
256,192,21374,1,0,0:0:0:0:
256,192,21524,1,8,0:0:0:0:
256,192,21674,1,0,0:0:0:0:
256,192,21824,1,8,0:0:0:0:
256,192,21974,1,8,0:0:0:0:
256,192,22124,1,0,0:0:0:0:
256,192,22274,1,8,0:0:0:0:
256,192,22349,1,0,0:0:0:0:
256,192,22424,1,8,0:0:0:0:
256,192,22499,1,0,0:0:0:0:
256,192,22574,1,8,0:0:0:0:
256,192,22724,1,0,0:0:0:0:
256,192,22799,1,0,0:0:0:0:
256,192,22874,1,8,0:0:0:0:
256,192,23024,1,0,0:0:0:0:
256,192,23174,1,8,0:0:0:0:
256,192,23324,1,0,0:0:0:0:
256,192,23399,1,0,0:0:0:0:
256,192,23474,1,8,0:0:0:0:
256,192,23624,1,8,0:0:0:0:
256,192,23699,1,8,0:0:0:0:
256,192,23774,1,0,0:0:0:0:
256,192,23924,1,0,0:0:0:0:
256,192,23999,1,0,0:0:0:0:
256,192,24074,1,8,0:0:0:0:
256,192,24224,1,8,0:0:0:0:
256,192,24374,1,0,0:0:0:0:
256,192,24524,1,0,0:0:0:0:
256,192,24599,1,0,0:0:0:0:
256,192,24674,1,8,0:0:0:0:
256,192,24824,1,8,0:0:0:0:
256,192,24974,1,0,0:0:0:0:
256,192,25124,1,8,0:0:0:0:
256,192,25199,1,8,0:0:0:0:
256,192,25274,1,0,0:0:0:0:
256,192,25424,1,8,0:0:0:0:
256,192,25574,1,0,0:0:0:0:
256,192,25724,1,8,0:0:0:0:
256,192,25799,1,0,0:0:0:0:
256,192,25874,1,8,0:0:0:0:
256,192,26024,1,8,0:0:0:0:
256,192,26174,1,0,0:0:0:0:
256,192,26324,1,8,0:0:0:0:
256,192,26474,1,8,0:0:0:0:
256,192,26624,1,0,0:0:0:0:
256,192,26774,1,8,0:0:0:0:
256,192,26924,1,0,0:0:0:0:
256,192,27074,1,12,0:0:0:0:
256,192,27374,1,0,0:0:0:0:
256,192,27449,1,0,0:0:0:0:
256,192,27524,1,0,0:0:0:0:
256,192,27599,1,0,0:0:0:0:
256,192,27674,1,12,0:0:0:0:
256,192,27824,1,0,0:0:0:0:
256,192,27974,1,8,0:0:0:0:
256,192,28124,1,0,0:0:0:0:
256,192,28199,1,0,0:0:0:0:
256,192,28274,1,8,0:0:0:0:
256,192,28424,1,8,0:0:0:0:
256,192,28499,1,8,0:0:0:0:
256,192,28574,1,0,0:0:0:0:
256,192,28724,1,0,0:0:0:0:
256,192,28799,1,0,0:0:0:0:
256,192,28874,1,8,0:0:0:0:
256,192,29024,1,8,0:0:0:0:
256,192,29174,1,0,0:0:0:0:
256,192,29324,1,0,0:0:0:0:
256,192,29399,1,0,0:0:0:0:
256,192,29474,1,8,0:0:0:0:
256,192,29624,1,8,0:0:0:0:
256,192,29774,1,0,0:0:0:0:
256,192,29924,1,8,0:0:0:0:
256,192,29999,1,8,0:0:0:0:
256,192,30074,1,0,0:0:0:0:
256,192,30224,1,8,0:0:0:0:
256,192,30374,1,0,0:0:0:0:
256,192,30524,1,8,0:0:0:0:
256,192,30599,1,0,0:0:0:0:
256,192,30674,1,8,0:0:0:0:
256,192,30824,1,8,0:0:0:0:
256,192,30974,1,0,0:0:0:0:
256,192,31124,1,8,0:0:0:0:
256,192,31274,1,8,0:0:0:0:
256,192,31424,1,0,0:0:0:0:
256,192,31499,1,0,0:0:0:0:
256,192,31649,1,0,0:0:0:0:
256,192,31724,1,8,0:0:0:0:
256,192,31874,1,8,0:0:0:0:
256,192,32024,1,0,0:0:0:0:
256,192,32174,1,8,0:0:0:0:
256,192,32249,1,8,0:0:0:0:
256,192,32324,1,8,0:0:0:0:
256,192,32399,1,8,0:0:0:0:
256,192,32474,1,8,0:0:0:0:
256,192,32624,1,0,0:0:0:0:
256,192,32774,1,8,0:0:0:0:
256,192,32924,1,0,0:0:0:0:
256,192,32999,1,0,0:0:0:0:
256,192,33074,1,8,0:0:0:0:
256,192,33224,1,8,0:0:0:0:
256,192,33299,1,8,0:0:0:0:
256,192,33374,1,0,0:0:0:0:
256,192,33524,1,0,0:0:0:0:
256,192,33599,1,0,0:0:0:0:
256,192,33674,1,8,0:0:0:0:
256,192,33824,1,8,0:0:0:0:
256,192,33974,1,0,0:0:0:0:
256,192,34124,1,0,0:0:0:0:
256,192,34199,1,0,0:0:0:0:
256,192,34274,1,8,0:0:0:0:
256,192,34424,1,8,0:0:0:0:
256,192,34574,1,0,0:0:0:0:
256,192,34724,1,8,0:0:0:0:
256,192,34799,1,8,0:0:0:0:
256,192,34874,1,0,0:0:0:0:
256,192,35024,1,8,0:0:0:0:
256,192,35174,1,0,0:0:0:0:
256,192,35324,1,8,0:0:0:0:
256,192,35399,1,0,0:0:0:0:
256,192,35474,1,8,0:0:0:0:
256,192,35624,1,8,0:0:0:0:
256,192,35774,1,0,0:0:0:0:
256,192,35924,1,8,0:0:0:0:
256,192,36074,1,8,0:0:0:0:
256,192,36224,1,0,0:0:0:0:
256,192,36374,1,8,0:0:0:0:
256,192,36524,1,0,0:0:0:0:
256,192,36674,1,12,0:0:0:0:
256,192,36974,1,0,0:0:0:0:
256,192,37049,1,0,0:0:0:0:
256,192,37124,1,0,0:0:0:0:
256,192,37199,1,0,0:0:0:0:
256,192,37274,1,12,0:0:0:0:
256,192,37424,1,0,0:0:0:0:
256,192,37574,1,8,0:0:0:0:
256,192,37724,1,0,0:0:0:0:
256,192,37799,1,0,0:0:0:0:
256,192,37874,1,8,0:0:0:0:
256,192,38024,1,8,0:0:0:0:
256,192,38099,1,8,0:0:0:0:
256,192,38174,1,0,0:0:0:0:
256,192,38324,1,0,0:0:0:0:
256,192,38399,1,0,0:0:0:0:
256,192,38474,1,8,0:0:0:0:
256,192,38624,1,8,0:0:0:0:
256,192,38774,1,0,0:0:0:0:
256,192,38924,1,0,0:0:0:0:
256,192,38999,1,0,0:0:0:0:
256,192,39074,1,8,0:0:0:0:
256,192,39224,1,8,0:0:0:0:
256,192,39374,1,0,0:0:0:0:
256,192,39524,1,8,0:0:0:0:
256,192,39599,1,8,0:0:0:0:
256,192,39674,1,0,0:0:0:0:
256,192,39824,1,8,0:0:0:0:
256,192,39974,1,0,0:0:0:0:
256,192,40124,1,8,0:0:0:0:
256,192,40199,1,0,0:0:0:0:
256,192,40274,1,8,0:0:0:0:
256,192,40424,1,8,0:0:0:0:
256,192,40574,1,0,0:0:0:0:
256,192,40724,1,0,0:0:0:0:
256,192,40874,1,8,0:0:0:0:
256,192,41024,1,0,0:0:0:0:
256,192,41099,1,0,0:0:0:0:
256,192,41249,1,0,0:0:0:0:
256,192,41324,1,8,0:0:0:0:
256,192,41474,1,8,0:0:0:0:
256,192,41624,1,0,0:0:0:0:
256,192,41774,1,8,0:0:0:0:
256,192,41849,1,8,0:0:0:0:
256,192,41924,1,8,0:0:0:0:
256,192,41999,1,8,0:0:0:0:
256,192,42074,1,8,0:0:0:0:
256,192,42224,1,0,0:0:0:0:
256,192,42374,1,8,0:0:0:0:
256,192,42524,1,0,0:0:0:0:
256,192,42599,1,0,0:0:0:0:
256,192,42674,1,8,0:0:0:0:
256,192,42824,1,8,0:0:0:0:
256,192,42974,1,0,0:0:0:0:
256,192,43049,1,0,0:0:0:0:
256,192,43124,1,0,0:0:0:0:
256,192,43199,1,0,0:0:0:0:
256,192,43274,1,8,0:0:0:0:
256,192,43424,1,8,0:0:0:0:
256,192,43574,1,0,0:0:0:0:
256,192,43724,1,0,0:0:0:0:
256,192,43874,1,8,0:0:0:0:
256,192,43949,1,0,0:0:0:0:
256,192,44024,1,8,0:0:0:0:
256,192,44174,1,0,0:0:0:0:
256,192,44324,1,8,0:0:0:0:
256,192,44474,1,0,0:0:0:0:
256,192,44624,1,8,0:0:0:0:
256,192,44774,1,0,0:0:0:0:
256,192,44924,1,8,0:0:0:0:
256,192,44999,1,0,0:0:0:0:
256,192,45074,1,8,0:0:0:0:
256,192,45224,1,8,0:0:0:0:
256,192,45374,1,8,0:0:0:0:
256,192,45524,1,0,0:0:0:0:
256,192,45674,1,8,0:0:0:0:
256,192,45824,1,8,0:0:0:0:
256,192,45974,1,8,0:0:0:0:
256,192,46124,1,0,0:0:0:0:
256,192,46274,1,12,0:0:0:0:
256,192,46574,1,0,0:0:0:0:
256,192,46649,1,0,0:0:0:0:
256,192,46724,1,0,0:0:0:0:
256,192,46799,1,0,0:0:0:0:
256,192,46874,1,8,0:0:0:0:
256,192,47024,1,0,0:0:0:0:
256,192,47099,1,0,0:0:0:0:
256,192,47174,1,8,0:0:0:0:
256,192,47324,1,8,0:0:0:0:
256,192,47399,1,0,0:0:0:0:
256,192,47474,1,8,0:0:0:0:
256,192,47624,1,8,0:0:0:0:
256,192,47774,1,0,0:0:0:0:
256,192,47924,1,0,0:0:0:0:
256,192,47999,1,0,0:0:0:0:
256,192,48074,1,8,0:0:0:0:
256,192,48224,1,8,0:0:0:0:
256,192,48374,1,0,0:0:0:0:
256,192,48524,1,0,0:0:0:0:
256,192,48599,1,0,0:0:0:0:
256,192,48674,1,8,0:0:0:0:
256,192,48824,1,8,0:0:0:0:
256,192,48899,1,8,0:0:0:0:
256,192,48974,1,8,0:0:0:0:
256,192,49124,1,8,0:0:0:0:
256,192,49199,1,8,0:0:0:0:
256,192,49274,1,0,0:0:0:0:
256,192,49424,1,8,0:0:0:0:
256,192,49574,1,0,0:0:0:0:
256,192,49724,1,0,0:0:0:0:
256,192,49874,1,8,0:0:0:0:
256,192,50024,1,8,0:0:0:0:
256,192,50099,1,8,0:0:0:0:
256,192,50174,1,0,0:0:0:0:
256,192,50324,1,0,0:0:0:0:
256,192,50474,1,8,0:0:0:0:
256,192,50549,1,8,0:0:0:0:
256,192,50624,1,8,0:0:0:0:
256,192,50774,1,0,0:0:0:0:
256,192,50849,1,0,0:0:0:0:
256,192,50924,1,0,0:0:0:0:
256,192,51074,1,12,0:0:0:0:
256,192,51224,1,0,0:0:0:0:
256,192,51374,1,12,0:0:0:0:
256,192,51524,1,0,0:0:0:0:
256,192,51674,1,8,0:0:0:0:
256,192,51824,1,8,0:0:0:0:
256,192,51974,1,8,0:0:0:0:
256,192,52274,1,8,0:0:0:0:
256,192,52424,1,8,0:0:0:0:
256,192,52574,1,0,0:0:0:0:
256,192,52874,1,8,0:0:0:0:
256,192,53024,1,8,0:0:0:0:
256,192,53174,1,0,0:0:0:0:
256,192,53249,1,8,0:0:0:0:
256,192,53324,1,0,0:0:0:0:
256,192,53474,1,8,0:0:0:0:
256,192,53624,1,0,0:0:0:0:
256,192,53774,1,8,0:0:0:0:
256,192,53849,1,0,0:0:0:0:
256,192,53924,1,8,0:0:0:0:
256,192,54074,1,0,0:0:0:0:
256,192,54224,1,8,0:0:0:0:
256,192,54374,1,0,0:0:0:0:
256,192,54524,1,8,0:0:0:0:
256,192,54599,1,0,0:0:0:0:
256,192,54674,1,8,0:0:0:0:
256,192,54824,1,8,0:0:0:0:
256,192,54974,1,0,0:0:0:0:
256,192,55124,1,8,0:0:0:0:
256,192,55274,1,8,0:0:0:0:
256,192,55424,1,0,0:0:0:0:
256,192,55574,1,8,0:0:0:0:
256,192,55724,1,0,0:0:0:0:
256,192,55874,1,12,0:0:0:0:
256,192,56174,1,0,0:0:0:0:
256,192,56249,1,0,0:0:0:0:
256,192,56324,1,0,0:0:0:0:
256,192,56399,1,0,0:0:0:0:
256,192,56474,1,12,0:0:0:0:
256,192,56624,1,0,0:0:0:0:
256,192,56774,1,8,0:0:0:0:
256,192,56924,1,0,0:0:0:0:
256,192,56999,1,0,0:0:0:0:
256,192,57074,1,8,0:0:0:0:
256,192,57224,1,8,0:0:0:0:
256,192,57374,1,0,0:0:0:0:
256,192,57524,1,0,0:0:0:0:
256,192,57599,1,0,0:0:0:0:
256,192,57674,1,8,0:0:0:0:
256,192,57824,1,8,0:0:0:0:
256,192,57974,1,0,0:0:0:0:
256,192,58124,1,0,0:0:0:0:
256,192,58199,1,0,0:0:0:0:
256,192,58274,1,8,0:0:0:0:
256,192,58424,1,8,0:0:0:0:
256,192,58574,1,0,0:0:0:0:
256,192,58724,1,8,0:0:0:0:
256,192,58799,1,0,0:0:0:0:
256,192,58874,1,8,0:0:0:0:
256,192,59024,1,0,0:0:0:0:
256,192,59099,1,0,0:0:0:0:
256,192,59174,1,8,0:0:0:0:
256,192,59324,1,8,0:0:0:0:
256,192,59399,1,8,0:0:0:0:
256,192,59474,1,0,0:0:0:0:
256,192,59624,1,8,0:0:0:0:
256,192,59774,1,0,0:0:0:0:
256,192,59924,1,8,0:0:0:0:
256,192,59999,1,8,0:0:0:0:
256,192,60074,1,0,0:0:0:0:
256,192,60224,1,8,0:0:0:0:
256,192,60374,1,8,0:0:0:0:
256,192,60449,1,8,0:0:0:0:
256,192,60524,1,8,0:0:0:0:
256,192,60599,1,8,0:0:0:0:
256,192,60674,1,4,0:0:0:0:
256,192,60974,1,0,0:0:0:0:
256,192,61049,1,0,0:0:0:0:
256,192,61124,1,0,0:0:0:0:
256,192,61199,1,0,0:0:0:0:
256,192,61274,1,12,0:0:0:0:
256,192,61424,1,8,0:0:0:0:
256,192,61574,1,0,0:0:0:0:
256,192,61724,1,8,0:0:0:0:
256,192,61874,1,0,0:0:0:0:
256,192,62024,1,8,0:0:0:0:
256,192,62174,1,8,0:0:0:0:
256,192,62249,1,0,0:0:0:0:
256,192,62324,1,8,0:0:0:0:
256,192,62474,1,0,0:0:0:0:
256,192,62624,1,0,0:0:0:0:
256,192,62774,1,8,0:0:0:0:
256,192,62924,1,0,0:0:0:0:
256,192,63074,1,8,0:0:0:0:
256,192,63374,1,8,0:0:0:0:
256,192,63524,1,8,0:0:0:0:
256,192,63674,1,0,0:0:0:0:
256,192,63824,1,8,0:0:0:0:
256,192,63899,1,8,0:0:0:0:
256,192,63974,1,0,0:0:0:0:
256,192,64124,1,8,0:0:0:0:
256,192,64199,1,8,0:0:0:0:
256,192,64274,1,8,0:0:0:0:
256,192,64424,1,8,0:0:0:0:
256,192,64574,1,0,0:0:0:0:
256,192,64724,1,0,0:0:0:0:
256,192,64874,1,12,0:0:0:0:
256,192,65024,1,0,0:0:0:0:
256,192,65174,1,8,0:0:0:0:
256,192,65324,1,12,0:0:0:0:
256,192,65474,1,8,0:0:0:0:
256,192,65624,1,0,0:0:0:0:
256,192,65774,1,8,0:0:0:0:
256,192,65849,1,8,0:0:0:0:
256,192,65924,1,8,0:0:0:0:
256,192,65999,1,8,0:0:0:0:
256,192,66074,1,0,0:0:0:0:
256,192,66224,1,8,0:0:0:0:
256,192,66374,1,0,0:0:0:0:
256,192,66524,1,8,0:0:0:0:
256,192,66674,1,8,0:0:0:0:
256,192,66749,1,8,0:0:0:0:
256,192,66899,1,0,0:0:0:0:
256,192,66974,1,8,0:0:0:0:
256,192,67124,1,0,0:0:0:0:
256,192,67274,1,8,0:0:0:0:
256,192,67349,1,8,0:0:0:0:
256,192,67424,1,8,0:0:0:0:
256,192,67499,1,8,0:0:0:0:
256,192,67574,1,0,0:0:0:0:
256,192,67649,1,0,0:0:0:0:
256,192,67724,1,0,0:0:0:0:
256,192,67799,1,0,0:0:0:0:
256,192,67874,1,12,0:0:0:0:
256,192,68024,1,0,0:0:0:0:
256,192,68174,1,12,0:0:0:0:
256,192,68474,1,0,0:0:0:0:
256,192,68624,1,0,0:0:0:0:
256,192,68774,1,8,0:0:0:0:
256,192,68924,1,8,0:0:0:0:
256,192,69074,1,8,0:0:0:0:
256,192,69224,1,8,0:0:0:0:
256,192,69299,1,8,0:0:0:0:
256,192,69374,1,0,0:0:0:0:
256,192,69524,1,8,0:0:0:0:
256,192,69674,1,8,0:0:0:0:
256,192,69824,1,0,0:0:0:0:
256,192,69974,1,8,0:0:0:0:
256,192,70124,1,0,0:0:0:0:
256,192,70274,1,8,0:0:0:0:
256,192,70349,1,0,0:0:0:0:
256,192,70424,1,8,0:0:0:0:
256,192,70499,1,0,0:0:0:0:
256,192,70574,1,8,0:0:0:0:
256,192,70724,1,0,0:0:0:0:
256,192,70799,1,0,0:0:0:0:
256,192,70874,1,0,0:0:0:0:
256,192,71024,1,8,0:0:0:0:
256,192,71174,1,0,0:0:0:0:
256,192,71324,1,8,0:0:0:0:
256,192,71399,1,8,0:0:0:0:
256,192,71474,1,0,0:0:0:0:
256,192,71624,1,0,0:0:0:0:
256,192,71774,1,8,0:0:0:0:
256,192,71849,1,0,0:0:0:0:
256,192,71924,1,8,0:0:0:0:
256,192,72074,1,0,0:0:0:0:
256,192,72224,1,0,0:0:0:0:
256,192,72299,1,0,0:0:0:0:
256,192,72374,1,8,0:0:0:0:
256,192,72524,1,0,0:0:0:0:
256,192,72674,1,8,0:0:0:0:
256,192,72824,1,0,0:0:0:0:
256,192,72899,1,0,0:0:0:0:
256,192,72974,1,8,0:0:0:0:
256,192,73124,1,0,0:0:0:0:
256,192,73274,1,0,0:0:0:0:
256,192,73424,1,8,0:0:0:0:
256,192,73499,1,8,0:0:0:0:
256,192,73574,1,0,0:0:0:0:
256,192,73724,1,8,0:0:0:0:
256,192,73799,1,8,0:0:0:0:
256,192,73874,1,8,0:0:0:0:
256,192,74024,1,0,0:0:0:0:
256,192,74174,1,0,0:0:0:0:
256,192,74324,1,0,0:0:0:0:
256,192,74474,1,12,0:0:0:0:
256,192,74624,1,0,0:0:0:0:
256,192,74774,1,8,0:0:0:0:
256,192,74924,1,12,0:0:0:0:
256,192,75074,1,8,0:0:0:0:
256,192,75224,1,0,0:0:0:0:
256,192,75374,1,8,0:0:0:0:
256,192,75449,1,0,0:0:0:0:
256,192,75524,1,8,0:0:0:0:
256,192,75674,1,0,0:0:0:0:
256,192,75749,1,0,0:0:0:0:
256,192,75824,1,0,0:0:0:0:
256,192,75974,1,0,0:0:0:0:
256,192,76124,1,8,0:0:0:0:
256,192,76274,1,0,0:0:0:0:
256,192,76349,1,0,0:0:0:0:
256,192,76424,1,0,0:0:0:0:
256,192,76574,1,8,0:0:0:0:
256,192,76724,1,0,0:0:0:0:
256,192,76799,1,0,0:0:0:0:
256,192,76874,1,8,0:0:0:0:
256,192,77024,1,0,0:0:0:0:
256,192,77099,1,8,0:0:0:0:
256,192,77249,1,0,0:0:0:0:
256,192,77324,1,8,0:0:0:0:
256,192,77474,1,8,0:0:0:0:
256,192,77549,1,8,0:0:0:0:
256,192,77624,1,8,0:0:0:0:
256,192,77699,1,8,0:0:0:0:
256,192,77774,1,0,0:0:0:0:
256,192,77849,1,0,0:0:0:0:
256,192,77924,1,0,0:0:0:0:
256,192,77999,1,0,0:0:0:0:
256,192,78074,1,8,0:0:0:0:
256,192,78224,1,8,0:0:0:0:
256,192,78374,1,8,0:0:0:0:
256,192,78524,1,8,0:0:0:0:
256,192,78674,1,8,0:0:0:0:
256,192,78824,1,8,0:0:0:0:
256,192,78899,1,8,0:0:0:0:
256,192,78974,1,0,0:0:0:0:
256,192,79049,1,0,0:0:0:0:
256,192,79124,1,8,0:0:0:0:
256,192,79274,1,8,0:0:0:0:
256,192,79424,1,0,0:0:0:0:
256,192,79574,1,8,0:0:0:0:
256,192,79724,1,8,0:0:0:0:
256,192,79874,1,8,0:0:0:0:
256,192,80024,1,0,0:0:0:0:
256,192,80174,1,0,0:0:0:0:
256,192,80249,1,0,0:0:0:0:
256,192,80324,1,8,0:0:0:0:
256,192,80474,1,8,0:0:0:0:
256,192,80624,1,0,0:0:0:0:
256,192,80774,1,8,0:0:0:0:
256,192,80924,1,8,0:0:0:0:
256,192,81074,1,0,0:0:0:0:
256,192,81524,1,8,0:0:0:0:
256,192,81824,1,0,0:0:0:0:
256,192,81974,1,8,0:0:0:0:
256,192,82124,1,0,0:0:0:0:
256,192,82274,1,8,0:0:0:0:
256,192,82424,1,0,0:0:0:0:
256,192,82724,1,8,0:0:0:0:
256,192,82874,1,0,0:0:0:0:
256,192,83174,1,8,0:0:0:0:
256,192,83474,1,8,0:0:0:0:
256,192,83774,1,8,0:0:0:0:
256,192,83924,1,0,0:0:0:0:
256,192,84074,1,0,0:0:0:0:
256,192,84374,1,8,0:0:0:0:
256,192,84674,1,8,0:0:0:0:
256,192,84824,1,0,0:0:0:0:
256,192,84974,1,8,0:0:0:0:
256,192,85274,1,8,0:0:0:0:
256,192,85424,1,0,0:0:0:0:
256,192,85574,1,8,0:0:0:0:
256,192,85724,1,0,0:0:0:0:
256,192,85874,1,8,0:0:0:0:
256,192,86024,1,8,0:0:0:0:
256,192,86174,1,8,0:0:0:0:
256,192,86324,1,0,0:0:0:0:
256,192,86624,1,8,0:0:0:0:
256,192,86774,1,0,0:0:0:0:
256,192,86924,1,8,0:0:0:0:
256,192,87074,1,8,0:0:0:0:
256,192,87224,1,0,0:0:0:0:
256,192,87524,1,0,0:0:0:0:
256,192,87674,1,8,0:0:0:0:
256,192,87974,1,8,0:0:0:0:
256,192,88199,1,8,0:0:0:0:
256,192,88424,1,8,0:0:0:0:
256,192,88574,1,8,0:0:0:0:
256,192,88724,1,0,0:0:0:0:
256,192,88874,1,8,0:0:0:0:
256,192,89474,1,8,0:0:0:0:
256,192,89774,1,0,0:0:0:0:
256,192,89924,1,0,0:0:0:0:
256,192,90074,1,8,0:0:0:0:
256,192,90224,1,0,0:0:0:0:
256,192,90374,1,8,0:0:0:0:
256,192,90524,1,8,0:0:0:0:
256,192,90674,1,0,0:0:0:0:
256,192,91124,1,8,0:0:0:0:
256,192,91424,1,0,0:0:0:0:
256,192,91574,1,8,0:0:0:0:
256,192,91724,1,0,0:0:0:0:
256,192,91874,1,8,0:0:0:0:
256,192,92024,1,0,0:0:0:0:
256,192,92324,1,0,0:0:0:0:
256,192,92474,1,8,0:0:0:0:
256,192,92774,1,8,0:0:0:0:
256,192,93074,1,0,0:0:0:0:
256,192,93374,1,8,0:0:0:0:
256,192,93524,1,0,0:0:0:0:
256,192,93674,1,0,0:0:0:0:
256,192,93974,1,8,0:0:0:0:
256,192,94274,1,8,0:0:0:0:
256,192,94424,1,0,0:0:0:0:
256,192,94574,1,8,0:0:0:0:
256,192,94874,1,8,0:0:0:0:
256,192,95024,1,0,0:0:0:0:
256,192,95174,1,8,0:0:0:0:
256,192,95324,1,0,0:0:0:0:
256,192,95474,1,8,0:0:0:0:
256,192,95624,1,8,0:0:0:0:
256,192,95774,1,8,0:0:0:0:
256,192,95924,1,0,0:0:0:0:
256,192,96224,1,8,0:0:0:0:
256,192,96374,1,0,0:0:0:0:
256,192,96524,1,8,0:0:0:0:
256,192,96674,1,8,0:0:0:0:
256,192,96824,1,0,0:0:0:0:
256,192,97124,1,0,0:0:0:0:
256,192,97274,1,8,0:0:0:0:
256,192,97574,1,8,0:0:0:0:
256,192,97799,1,8,0:0:0:0:
256,192,98024,1,8,0:0:0:0:
256,192,98174,1,8,0:0:0:0:
256,192,98324,1,0,0:0:0:0:
256,192,98474,1,8,0:0:0:0:
256,192,99074,1,8,0:0:0:0:
256,192,99374,1,0,0:0:0:0:
256,192,99524,1,8,0:0:0:0:
256,192,99674,1,4,0:0:0:0:
256,192,99824,1,0,0:0:0:0:
256,192,99974,1,0,0:0:0:0:
256,192,100124,1,8,0:0:0:0:
256,192,100274,1,0,0:0:0:0:
256,192,100724,1,0,0:0:0:0:
256,192,101024,1,0,0:0:0:0:
256,192,101174,1,0,0:0:0:0:
256,192,101324,1,0,0:0:0:0:
256,192,101474,1,8,0:0:0:0:
256,192,101624,1,0,0:0:0:0:
256,192,101924,1,0,0:0:0:0:
256,192,102074,1,0,0:0:0:0:
256,192,102374,1,8,0:0:0:0:
256,192,102674,1,0,0:0:0:0:
256,192,102974,1,0,0:0:0:0:
256,192,103124,1,8,0:0:0:0:
256,192,103274,1,0,0:0:0:0:
256,192,103574,1,8,0:0:0:0:
256,192,103874,1,8,0:0:0:0:
256,192,104024,1,0,0:0:0:0:
256,192,104174,1,8,0:0:0:0:
256,192,104474,1,4,0:0:0:0:
256,192,104624,1,0,0:0:0:0:
256,192,104774,1,0,0:0:0:0:
256,192,104924,1,0,0:0:0:0:
256,192,105074,1,8,0:0:0:0:
256,192,105224,1,0,0:0:0:0:
256,192,105374,1,8,0:0:0:0:
256,192,105524,1,0,0:0:0:0:
256,192,105824,1,0,0:0:0:0:
256,192,105974,1,0,0:0:0:0:
256,192,106124,1,0,0:0:0:0:
256,192,106274,1,8,0:0:0:0:
256,192,106424,1,0,0:0:0:0:
256,192,106724,1,0,0:0:0:0:
256,192,106874,1,8,0:0:0:0:
256,192,107174,1,0,0:0:0:0:
256,192,107399,1,8,0:0:0:0:
256,192,107624,1,0,0:0:0:0:
256,192,107774,1,8,0:0:0:0:
256,192,107924,1,0,0:0:0:0:
256,192,108074,1,0,0:0:0:0:
256,192,108674,1,8,0:0:0:0:
256,192,108974,1,0,0:0:0:0:
256,192,109124,1,0,0:0:0:0:
256,192,109274,1,4,0:0:0:0:
256,192,109424,1,0,0:0:0:0:
256,192,109574,1,0,0:0:0:0:
256,192,109724,1,8,0:0:0:0:
256,192,109874,1,0,0:0:0:0:
256,192,110324,1,0,0:0:0:0:
256,192,110624,1,0,0:0:0:0:
256,192,110774,1,0,0:0:0:0:
256,192,110924,1,0,0:0:0:0:
256,192,111074,1,8,0:0:0:0:
256,192,111224,1,0,0:0:0:0:
256,192,111524,1,0,0:0:0:0:
256,192,111674,1,0,0:0:0:0:
256,192,111974,1,8,0:0:0:0:
256,192,112274,1,0,0:0:0:0:
256,192,112574,1,0,0:0:0:0:
256,192,112724,1,8,0:0:0:0:
256,192,112874,1,0,0:0:0:0:
256,192,113174,1,8,0:0:0:0:
256,192,113474,1,8,0:0:0:0:
256,192,113624,1,0,0:0:0:0:
256,192,113774,1,8,0:0:0:0:
256,192,114074,1,4,0:0:0:0:
256,192,114224,1,0,0:0:0:0:
256,192,114374,1,0,0:0:0:0:
256,192,114524,1,0,0:0:0:0:
256,192,114674,1,8,0:0:0:0:
256,192,114824,1,0,0:0:0:0:
256,192,114974,1,8,0:0:0:0:
256,192,115124,1,0,0:0:0:0:
256,192,115274,1,4,0:0:0:0:
256,192,115424,1,0,0:0:0:0:
256,192,115574,1,0,0:0:0:0:
256,192,115724,1,0,0:0:0:0:
256,192,115874,1,8,0:0:0:0:
256,192,116024,1,0,0:0:0:0:
256,192,116324,1,0,0:0:0:0:
256,192,116474,1,4,0:0:0:0:
256,192,116774,1,0,0:0:0:0:
256,192,117074,1,4,0:0:0:0:
256,192,117374,1,0,0:0:0:0:
256,192,117674,1,0,0:0:0:0:
256,192,117824,1,0,0:0:0:0:
256,192,117974,1,8,0:0:0:0:
256,192,118124,1,0,0:0:0:0:
256,192,118199,1,0,0:0:0:0:
256,192,118274,1,12,0:0:0:0:
256,192,118424,1,0,0:0:0:0:
256,192,118499,1,0,0:0:0:0:
256,192,118574,1,12,0:0:0:0:
256,192,118874,1,12,0:0:0:0:
256,192,119024,1,8,0:0:0:0:
256,192,119174,1,0,0:0:0:0:
256,192,119249,1,0,0:0:0:0:
256,192,119324,1,8,0:0:0:0:
256,192,119474,1,0,0:0:0:0:
256,192,119624,1,0,0:0:0:0:
256,192,119774,1,8,0:0:0:0:
256,192,119849,1,0,0:0:0:0:
256,192,119924,1,8,0:0:0:0:
256,192,120074,1,0,0:0:0:0:
256,192,120224,1,0,0:0:0:0:
256,192,120299,1,0,0:0:0:0:
256,192,120374,1,8,0:0:0:0:
256,192,120524,1,0,0:0:0:0:
256,192,120599,1,0,0:0:0:0:
256,192,120674,1,8,0:0:0:0:
256,192,120824,1,0,0:0:0:0:
256,192,120974,1,8,0:0:0:0:
256,192,121124,1,8,0:0:0:0:
256,192,121274,1,0,0:0:0:0:
256,192,121424,1,8,0:0:0:0:
256,192,121499,1,8,0:0:0:0:
256,192,121574,1,0,0:0:0:0:
256,192,121724,1,8,0:0:0:0:
256,192,121799,1,8,0:0:0:0:
256,192,121874,1,8,0:0:0:0:
256,192,122024,1,8,0:0:0:0:
256,192,122174,1,0,0:0:0:0:
256,192,122324,1,0,0:0:0:0:
256,192,122474,1,12,0:0:0:0:
256,192,122624,1,0,0:0:0:0:
256,192,122774,1,8,0:0:0:0:
256,192,122924,1,12,0:0:0:0:
256,192,123074,1,8,0:0:0:0:
256,192,123224,1,0,0:0:0:0:
256,192,123374,1,8,0:0:0:0:
256,192,123449,1,8,0:0:0:0:
256,192,123524,1,8,0:0:0:0:
256,192,123599,1,8,0:0:0:0:
256,192,123674,1,0,0:0:0:0:
256,192,123749,1,0,0:0:0:0:
256,192,123824,1,8,0:0:0:0:
256,192,123974,1,0,0:0:0:0:
256,192,124124,1,8,0:0:0:0:
256,192,124424,1,0,0:0:0:0:
256,192,124574,1,8,0:0:0:0:
256,192,124724,1,0,0:0:0:0:
256,192,124874,1,8,0:0:0:0:
256,192,124949,1,8,0:0:0:0:
256,192,125024,1,8,0:0:0:0:
256,192,125099,1,8,0:0:0:0:
256,192,125174,1,0,0:0:0:0:
256,192,125249,1,0,0:0:0:0:
256,192,125324,1,0,0:0:0:0:
256,192,125399,1,0,0:0:0:0:
256,192,125474,1,12,0:0:0:0:
256,192,125624,1,0,0:0:0:0:
256,192,125774,1,12,0:0:0:0:
256,192,126074,1,0,0:0:0:0:
256,192,126224,1,0,0:0:0:0:
256,192,126374,1,8,0:0:0:0:
256,192,126524,1,8,0:0:0:0:
256,192,126674,1,8,0:0:0:0:
256,192,126824,1,0,0:0:0:0:
256,192,126899,1,8,0:0:0:0:
256,192,126974,1,0,0:0:0:0:
256,192,127124,1,8,0:0:0:0:
256,192,127274,1,8,0:0:0:0:
256,192,127424,1,0,0:0:0:0:
256,192,127574,1,8,0:0:0:0:
256,192,127724,1,0,0:0:0:0:
256,192,127874,1,12,0:0:0:0:
256,192,128174,1,0,0:0:0:0:
256,192,128249,1,0,0:0:0:0:
256,192,128324,1,0,0:0:0:0:
256,192,128399,1,0,0:0:0:0:
256,192,128474,1,12,0:0:0:0:
256,192,128624,1,8,0:0:0:0:
256,192,128774,1,0,0:0:0:0:
256,192,128849,1,0,0:0:0:0:
256,192,128924,1,8,0:0:0:0:
256,192,129074,1,0,0:0:0:0:
256,192,129224,1,0,0:0:0:0:
256,192,129374,1,8,0:0:0:0:
256,192,129449,1,0,0:0:0:0:
256,192,129524,1,8,0:0:0:0:
256,192,129674,1,0,0:0:0:0:
256,192,129824,1,0,0:0:0:0:
256,192,129899,1,0,0:0:0:0:
256,192,129974,1,8,0:0:0:0:
256,192,130124,1,0,0:0:0:0:
256,192,130199,1,0,0:0:0:0:
256,192,130274,1,8,0:0:0:0:
256,192,130424,1,0,0:0:0:0:
256,192,130574,1,8,0:0:0:0:
256,192,130724,1,8,0:0:0:0:
256,192,130874,1,0,0:0:0:0:
256,192,131024,1,8,0:0:0:0:
256,192,131099,1,8,0:0:0:0:
256,192,131174,1,0,0:0:0:0:
256,192,131324,1,8,0:0:0:0:
256,192,131399,1,8,0:0:0:0:
256,192,131474,1,8,0:0:0:0:
256,192,131624,1,8,0:0:0:0:
256,192,131774,1,0,0:0:0:0:
256,192,131924,1,0,0:0:0:0:
256,192,132074,1,12,0:0:0:0:
256,192,132224,1,0,0:0:0:0:
256,192,132374,1,8,0:0:0:0:
256,192,132524,1,12,0:0:0:0:
256,192,132674,1,8,0:0:0:0:
256,192,132824,1,0,0:0:0:0:
256,192,132974,1,8,0:0:0:0:
256,192,133049,1,8,0:0:0:0:
256,192,133124,1,8,0:0:0:0:
256,192,133199,1,8,0:0:0:0:
256,192,133274,1,0,0:0:0:0:
256,192,133349,1,0,0:0:0:0:
256,192,133424,1,8,0:0:0:0:
256,192,133574,1,0,0:0:0:0:
256,192,133724,1,8,0:0:0:0:
256,192,133874,1,8,0:0:0:0:
256,192,133949,1,8,0:0:0:0:
256,192,134099,1,0,0:0:0:0:
256,192,134174,1,8,0:0:0:0:
256,192,134324,1,0,0:0:0:0:
256,192,134474,1,8,0:0:0:0:
256,192,134549,1,8,0:0:0:0:
256,192,134624,1,8,0:0:0:0:
256,192,134699,1,8,0:0:0:0:
256,192,134774,1,0,0:0:0:0:
256,192,134849,1,0,0:0:0:0:
256,192,134924,1,0,0:0:0:0:
256,192,134999,1,0,0:0:0:0:
256,192,135074,1,12,0:0:0:0:
256,192,135224,1,0,0:0:0:0:
256,192,135374,1,12,0:0:0:0:
256,192,135524,1,0,0:0:0:0:
256,192,135674,1,0,0:0:0:0:
256,192,135824,1,0,0:0:0:0:
256,192,135974,1,8,0:0:0:0:
256,192,136124,1,8,0:0:0:0:
256,192,136274,1,8,0:0:0:0:
256,192,136424,1,0,0:0:0:0:
256,192,136499,1,8,0:0:0:0:
256,192,136574,1,0,0:0:0:0:
256,192,136724,1,8,0:0:0:0:
256,192,136874,1,8,0:0:0:0:
256,192,137024,1,0,0:0:0:0:
256,192,137174,1,8,0:0:0:0:
256,192,137324,1,8,0:0:0:0:
256,192,137474,1,12,0:0:0:0:
256,192,137774,1,0,0:0:0:0:
256,192,137849,1,0,0:0:0:0:
256,192,137924,1,0,0:0:0:0:
256,192,137999,1,0,0:0:0:0:
256,192,138074,1,8,0:0:0:0:
256,192,138224,1,0,0:0:0:0:
256,192,138374,1,8,0:0:0:0:
256,192,138524,1,0,0:0:0:0:
256,192,138599,1,0,0:0:0:0:
256,192,138674,1,8,0:0:0:0:
256,192,138824,1,8,0:0:0:0:
256,192,138899,1,8,0:0:0:0:
256,192,138974,1,0,0:0:0:0:
256,192,139124,1,0,0:0:0:0:
256,192,139199,1,0,0:0:0:0:
256,192,139274,1,8,0:0:0:0:
256,192,139424,1,8,0:0:0:0:
256,192,139574,1,0,0:0:0:0:
256,192,139724,1,0,0:0:0:0:
256,192,139799,1,0,0:0:0:0:
256,192,139874,1,8,0:0:0:0:
256,192,140024,1,8,0:0:0:0:
256,192,140174,1,0,0:0:0:0:
256,192,140324,1,8,0:0:0:0:
256,192,140399,1,8,0:0:0:0:
256,192,140474,1,0,0:0:0:0:
256,192,140624,1,8,0:0:0:0:
256,192,140774,1,0,0:0:0:0:
256,192,140924,1,8,0:0:0:0:
256,192,140999,1,0,0:0:0:0:
256,192,141074,1,8,0:0:0:0:
256,192,141224,1,8,0:0:0:0:
256,192,141374,1,0,0:0:0:0:
256,192,141524,1,8,0:0:0:0:
256,192,141599,1,0,0:0:0:0:
256,192,141674,1,8,0:0:0:0:
256,192,141824,1,0,0:0:0:0:
256,192,141974,1,8,0:0:0:0:
256,192,142124,1,0,0:0:0:0:
256,192,142274,1,8,0:0:0:0:
256,192,142349,1,8,0:0:0:0:
256,192,142424,1,8,0:0:0:0:
256,192,142574,1,0,0:0:0:0:
256,192,142649,1,0,0:0:0:0:
256,192,142724,1,0,0:0:0:0:
256,192,142799,1,0,0:0:0:0:
256,192,142874,1,12,0:0:0:0:
256,192,143024,1,0,0:0:0:0:
256,192,143174,1,8,0:0:0:0:
256,192,143324,1,0,0:0:0:0:
256,192,143399,1,0,0:0:0:0:
256,192,143474,1,8,0:0:0:0:
256,192,143624,1,8,0:0:0:0:
256,192,143699,1,8,0:0:0:0:
256,192,143774,1,0,0:0:0:0:
256,192,143924,1,0,0:0:0:0:
256,192,143999,1,0,0:0:0:0:
256,192,144074,1,8,0:0:0:0:
256,192,144224,1,8,0:0:0:0:
256,192,144374,1,0,0:0:0:0:
256,192,144524,1,0,0:0:0:0:
256,192,144599,1,0,0:0:0:0:
256,192,144674,1,8,0:0:0:0:
256,192,144824,1,8,0:0:0:0:
256,192,144974,1,0,0:0:0:0:
256,192,145124,1,8,0:0:0:0:
256,192,145199,1,8,0:0:0:0:
256,192,145274,1,0,0:0:0:0:
256,192,145424,1,8,0:0:0:0:
256,192,145574,1,0,0:0:0:0:
256,192,145724,1,8,0:0:0:0:
256,192,145799,1,0,0:0:0:0:
256,192,145874,1,8,0:0:0:0:
256,192,146024,1,8,0:0:0:0:
256,192,146174,1,0,0:0:0:0:
256,192,146324,1,8,0:0:0:0:
256,192,146399,1,0,0:0:0:0:
256,192,146474,1,8,0:0:0:0:
256,192,146624,1,0,0:0:0:0:
256,192,146774,1,0,0:0:0:0:
256,192,146849,1,0,0:0:0:0:
256,192,146924,1,8,0:0:0:0:
256,192,147074,1,8,0:0:0:0:
256,192,147149,1,8,0:0:0:0:
256,192,147224,1,8,0:0:0:0:
256,192,147374,1,0,0:0:0:0:
256,192,147449,1,0,0:0:0:0:
256,192,147524,1,0,0:0:0:0:
256,192,147599,1,0,0:0:0:0:
256,192,147674,1,8,0:0:0:0:
256,192,147824,1,0,0:0:0:0:
256,192,147974,1,8,0:0:0:0:
256,192,148124,1,0,0:0:0:0:
256,192,148199,1,0,0:0:0:0:
256,192,148274,1,8,0:0:0:0:
256,192,148424,1,8,0:0:0:0:
256,192,148499,1,8,0:0:0:0:
256,192,148574,1,0,0:0:0:0:
256,192,148724,1,0,0:0:0:0:
256,192,148799,1,0,0:0:0:0:
256,192,148874,1,8,0:0:0:0:
256,192,149024,1,8,0:0:0:0:
256,192,149174,1,0,0:0:0:0:
256,192,149324,1,0,0:0:0:0:
256,192,149399,1,0,0:0:0:0:
256,192,149474,1,8,0:0:0:0:
256,192,149624,1,8,0:0:0:0:
256,192,149774,1,0,0:0:0:0:
256,192,149924,1,8,0:0:0:0:
256,192,149999,1,8,0:0:0:0:
256,192,150074,1,0,0:0:0:0:
256,192,150224,1,8,0:0:0:0:
256,192,150374,1,0,0:0:0:0:
256,192,150524,1,8,0:0:0:0:
256,192,150599,1,0,0:0:0:0:
256,192,150674,1,8,0:0:0:0:
256,192,150824,1,8,0:0:0:0:
256,192,150974,1,0,0:0:0:0:
256,192,151124,1,8,0:0:0:0:
256,192,151199,1,0,0:0:0:0:
256,192,151274,1,8,0:0:0:0:
256,192,151424,1,0,0:0:0:0:
256,192,151574,1,8,0:0:0:0:
256,192,151724,1,0,0:0:0:0:
256,192,151874,1,8,0:0:0:0:
256,192,151949,1,8,0:0:0:0:
256,192,152024,1,8,0:0:0:0:
256,192,152174,1,0,0:0:0:0:
256,192,152249,1,0,0:0:0:0:
256,192,152324,1,0,0:0:0:0:
256,192,152399,1,0,0:0:0:0:
256,192,152474,1,12,0:0:0:0:
256,192,152624,1,0,0:0:0:0:
256,192,152774,1,8,0:0:0:0:
256,192,152924,1,0,0:0:0:0:
256,192,152999,1,0,0:0:0:0:
256,192,153074,1,8,0:0:0:0:
256,192,153224,1,8,0:0:0:0:
256,192,153299,1,8,0:0:0:0:
256,192,153374,1,0,0:0:0:0:
256,192,153524,1,0,0:0:0:0:
256,192,153599,1,0,0:0:0:0:
256,192,153674,1,8,0:0:0:0:
256,192,153824,1,8,0:0:0:0:
256,192,153974,1,0,0:0:0:0:
256,192,154124,1,0,0:0:0:0:
256,192,154199,1,0,0:0:0:0:
256,192,154274,1,8,0:0:0:0:
256,192,154424,1,8,0:0:0:0:
256,192,154574,1,0,0:0:0:0:
256,192,154724,1,8,0:0:0:0:
256,192,154799,1,8,0:0:0:0:
256,192,154874,1,0,0:0:0:0:
256,192,155024,1,8,0:0:0:0:
256,192,155174,1,0,0:0:0:0:
256,192,155324,1,8,0:0:0:0:
256,192,155399,1,0,0:0:0:0:
256,192,155474,1,8,0:0:0:0:
256,192,155624,1,8,0:0:0:0:
256,192,155774,1,0,0:0:0:0:
256,192,155924,1,8,0:0:0:0:
256,192,155999,1,0,0:0:0:0:
256,192,156074,1,8,0:0:0:0:
256,192,156224,1,0,0:0:0:0:
256,192,156374,1,0,0:0:0:0:
256,192,156449,1,0,0:0:0:0:
256,192,156524,1,8,0:0:0:0:
256,192,156674,1,8,0:0:0:0:
256,192,156749,1,8,0:0:0:0:
256,192,156824,1,8,0:0:0:0:
256,192,156974,1,8,0:0:0:0:
256,192,157049,1,8,0:0:0:0:
256,192,157124,1,8,0:0:0:0:
256,192,157199,1,8,0:0:0:0:
256,192,157274,1,0,0:0:0:0:
256,192,157574,1,8,0:0:0:0:
256,192,157874,1,0,0:0:0:0:
256,192,158024,1,8,0:0:0:0:
256,192,158174,1,0,0:0:0:0:
256,192,158474,1,0,0:0:0:0:
256,192,158624,1,8,0:0:0:0:
256,192,158774,1,0,0:0:0:0:
256,192,159074,1,0,0:0:0:0:
256,192,159224,1,8,0:0:0:0:
256,192,159374,1,0,0:0:0:0:
256,192,159524,1,8,0:0:0:0:
256,192,159824,1,0,0:0:0:0:
256,192,160124,1,8,0:0:0:0:
256,192,160274,1,0,0:0:0:0:
256,192,160424,1,8,0:0:0:0:
256,192,160574,1,0,0:0:0:0:
256,192,160724,1,8,0:0:0:0:
256,192,160874,1,8,0:0:0:0:
256,192,161024,1,0,0:0:0:0:
256,192,161174,1,8,0:0:0:0:
256,192,161324,1,8,0:0:0:0:
256,192,161474,1,0,0:0:0:0:
256,192,162074,1,0,0:0:0:0:
256,192,162374,1,8,0:0:0:0:
256,192,162674,1,0,0:0:0:0:
256,192,162824,1,8,0:0:0:0:
256,192,162974,1,0,0:0:0:0:
256,192,163274,1,0,0:0:0:0:
256,192,163424,1,8,0:0:0:0:
256,192,163574,1,0,0:0:0:0:
256,192,163874,1,0,0:0:0:0:
256,192,164024,1,8,0:0:0:0:
256,192,164174,1,0,0:0:0:0:
256,192,164324,1,8,0:0:0:0:
256,192,164624,1,0,0:0:0:0:
256,192,164924,1,8,0:0:0:0:
256,192,165074,1,0,0:0:0:0:
256,192,165224,1,8,0:0:0:0:
256,192,165374,1,0,0:0:0:0:
256,192,165524,1,8,0:0:0:0:
256,192,165674,1,8,0:0:0:0:
256,192,166874,1,0,0:0:0:0:
256,192,167174,1,8,0:0:0:0:
256,192,167324,1,0,0:0:0:0:
256,192,167474,1,8,0:0:0:0:
256,192,167624,1,8,0:0:0:0:
256,192,167774,1,0,0:0:0:0:
256,192,168074,1,8,0:0:0:0:
256,192,168224,1,8,0:0:0:0:
256,192,168299,1,8,0:0:0:0:
256,192,168374,1,0,0:0:0:0:
256,192,168524,1,0,0:0:0:0:
256,192,168674,1,8,0:0:0:0:
256,192,168824,1,8,0:0:0:0:
256,192,168974,1,0,0:0:0:0:
256,192,169124,1,8,0:0:0:0:
256,192,169274,1,0,0:0:0:0:
256,192,169424,1,8,0:0:0:0:
256,192,169724,1,8,0:0:0:0:
256,192,169874,1,0,0:0:0:0:
256,192,170024,1,8,0:0:0:0:
256,192,170174,1,0,0:0:0:0:
256,192,170324,1,8,0:0:0:0:
256,192,170474,1,8,0:0:0:0:
256,192,170624,1,0,0:0:0:0:
256,192,170774,1,8,0:0:0:0:
256,192,170924,1,8,0:0:0:0:
256,192,171074,1,0,0:0:0:0:
256,192,171374,1,0,0:0:0:0:
256,192,171674,1,0,0:0:0:0:
256,192,171974,1,8,0:0:0:0:
256,192,172124,1,0,0:0:0:0:
256,192,172274,1,8,0:0:0:0:
256,192,172424,1,8,0:0:0:0:
256,192,172574,1,0,0:0:0:0:
256,192,172874,1,8,0:0:0:0:
256,192,173024,1,8,0:0:0:0:
256,192,173099,1,8,0:0:0:0:
256,192,173174,1,0,0:0:0:0:
256,192,173324,1,0,0:0:0:0:
256,192,173474,1,8,0:0:0:0:
256,192,173624,1,8,0:0:0:0:
256,192,173774,1,0,0:0:0:0:
256,192,173924,1,8,0:0:0:0:
256,192,174074,1,0,0:0:0:0:
256,192,174224,1,8,0:0:0:0:
256,192,174524,1,8,0:0:0:0:
256,192,174674,1,0,0:0:0:0:
256,192,174824,1,8,0:0:0:0:
256,192,174974,1,0,0:0:0:0:
256,192,175124,1,8,0:0:0:0:
256,192,175274,1,8,0:0:0:0:
256,192,175349,1,8,0:0:0:0:
256,192,175424,1,8,0:0:0:0:
256,192,175499,1,8,0:0:0:0:
256,192,175574,1,0,0:0:0:0:
256,192,175649,1,0,0:0:0:0:
256,192,175724,1,0,0:0:0:0:
256,192,175799,1,0,0:0:0:0:
256,192,175874,1,8,0:0:0:0:
256,192,176174,1,8,0:0:0:0:
256,192,176474,1,8,0:0:0:0:
256,192,176624,1,0,0:0:0:0:
256,192,176774,1,8,0:0:0:0:
256,192,176924,1,0,0:0:0:0:
256,192,176999,1,0,0:0:0:0:
256,192,177074,1,8,0:0:0:0:
256,192,177224,1,8,0:0:0:0:
256,192,177374,1,0,0:0:0:0:
256,192,177449,1,0,0:0:0:0:
256,192,177524,1,0,0:0:0:0:
256,192,177599,1,0,0:0:0:0:
256,192,177674,1,8,0:0:0:0:
256,192,177824,1,8,0:0:0:0:
256,192,177974,1,0,0:0:0:0:
256,192,178124,1,0,0:0:0:0:
256,192,178274,1,8,0:0:0:0:
256,192,178424,1,8,0:0:0:0:
256,192,178574,1,0,0:0:0:0:
256,192,178724,1,8,0:0:0:0:
256,192,178874,1,0,0:0:0:0:
256,192,179024,1,8,0:0:0:0:
256,192,179174,1,0,0:0:0:0:
256,192,179324,1,8,0:0:0:0:
256,192,179399,1,0,0:0:0:0:
256,192,179474,1,8,0:0:0:0:
256,192,179624,1,8,0:0:0:0:
256,192,179774,1,0,0:0:0:0:
256,192,179924,1,8,0:0:0:0:
256,192,179999,1,0,0:0:0:0:
256,192,180074,1,8,0:0:0:0:
256,192,180224,1,0,0:0:0:0:
256,192,180374,1,8,0:0:0:0:
256,192,180524,1,8,0:0:0:0:
256,192,180674,1,8,0:0:0:0:
256,192,180749,1,8,0:0:0:0:
256,192,180824,1,8,0:0:0:0:
256,192,180974,1,0,0:0:0:0:
256,192,181049,1,0,0:0:0:0:
256,192,181124,1,0,0:0:0:0:
256,192,181199,1,0,0:0:0:0:
256,192,181274,1,8,0:0:0:0:
256,192,181424,1,8,0:0:0:0:
256,192,181499,1,0,0:0:0:0:
256,192,181574,1,8,0:0:0:0:
256,192,181724,1,0,0:0:0:0:
256,192,181799,1,0,0:0:0:0:
256,192,181874,1,8,0:0:0:0:
256,192,182024,1,8,0:0:0:0:
256,192,182174,1,0,0:0:0:0:
256,192,182324,1,0,0:0:0:0:
256,192,182399,1,0,0:0:0:0:
256,192,182474,1,8,0:0:0:0:
256,192,182624,1,8,0:0:0:0:
256,192,182774,1,0,0:0:0:0:
256,192,182924,1,0,0:0:0:0:
256,192,182999,1,0,0:0:0:0:
256,192,183074,1,8,0:0:0:0:
256,192,183224,1,8,0:0:0:0:
256,192,183299,1,0,0:0:0:0:
256,192,183374,1,8,0:0:0:0:
256,192,183524,1,8,0:0:0:0:
256,192,183599,1,8,0:0:0:0:
256,192,183674,1,0,0:0:0:0:
256,192,183824,1,8,0:0:0:0:
256,192,183974,1,0,0:0:0:0:
256,192,184124,1,8,0:0:0:0:
256,192,184274,1,8,0:0:0:0:
256,192,184424,1,8,0:0:0:0:
256,192,184499,1,8,0:0:0:0:
256,192,184574,1,0,0:0:0:0:
256,192,184724,1,8,0:0:0:0:
256,192,184799,1,0,0:0:0:0:
256,192,184874,1,8,0:0:0:0:
256,192,185024,1,0,0:0:0:0:
256,192,185174,1,8,0:0:0:0:
256,192,185249,1,8,0:0:0:0:
256,192,185324,1,8,0:0:0:0:
256,192,185399,1,8,0:0:0:0:
256,192,185474,1,4,0:0:0:0:
256,192,185624,1,0,0:0:0:0:
256,192,185774,1,0,0:0:0:0:
256,192,185849,1,0,0:0:0:0:
256,192,185924,1,0,0:0:0:0:
256,192,185999,1,0,0:0:0:0:
256,192,186074,1,12,0:0:0:0:
256,192,186224,1,0,0:0:0:0:
256,192,186374,1,12,0:0:0:0:
256,192,186674,1,8,0:0:0:0:
256,192,186749,1,0,0:0:0:0:
256,192,186824,1,8,0:0:0:0:
256,192,186899,1,8,0:0:0:0:
256,192,186974,1,4,0:0:0:0:
256,192,187274,1,8,0:0:0:0:
256,192,187424,1,0,0:0:0:0:
256,192,187574,1,8,0:0:0:0:
256,192,187649,1,8,0:0:0:0:
256,192,187724,1,0,0:0:0:0:
256,192,187874,1,8,0:0:0:0:
256,192,188024,1,0,0:0:0:0:
256,192,188174,1,8,0:0:0:0:
256,192,188249,1,8,0:0:0:0:
256,192,188324,1,8,0:0:0:0:
256,192,188474,1,0,0:0:0:0:
256,192,188624,1,8,0:0:0:0:
256,192,188774,1,0,0:0:0:0:
256,192,188924,1,8,0:0:0:0:
256,192,188999,1,0,0:0:0:0:
256,192,189074,1,8,0:0:0:0:
256,192,189224,1,8,0:0:0:0:
256,192,189374,1,0,0:0:0:0:
256,192,189524,1,0,0:0:0:0:
256,192,189674,1,8,0:0:0:0:
256,192,189824,1,8,0:0:0:0:
256,192,189974,1,8,0:0:0:0:
256,192,190124,1,0,0:0:0:0:
256,192,190274,1,8,0:0:0:0:
256,192,190349,1,8,0:0:0:0:
256,192,190424,1,0,0:0:0:0:
256,192,190574,1,0,0:0:0:0:
256,192,190649,1,0,0:0:0:0:
256,192,190724,1,0,0:0:0:0:
256,192,190799,1,0,0:0:0:0:
256,192,190874,1,12,0:0:0:0:
256,192,191024,1,0,0:0:0:0:
256,192,191174,1,8,0:0:0:0:
256,192,191324,1,0,0:0:0:0:
256,192,191474,1,8,0:0:0:0:
256,192,191549,1,0,0:0:0:0:
256,192,191624,1,8,0:0:0:0:
256,192,191774,1,0,0:0:0:0:
256,192,191924,1,0,0:0:0:0:
256,192,192074,1,8,0:0:0:0:
256,192,192224,1,8,0:0:0:0:
256,192,192299,1,8,0:0:0:0:
256,192,192374,1,0,0:0:0:0:
256,192,192524,1,0,0:0:0:0:
256,192,192599,1,0,0:0:0:0:
256,192,192674,1,8,0:0:0:0:
256,192,192824,1,8,0:0:0:0:
256,192,192974,1,0,0:0:0:0:
256,192,193124,1,8,0:0:0:0:
256,192,193274,1,8,0:0:0:0:
256,192,193349,1,8,0:0:0:0:
256,192,193424,1,0,0:0:0:0:
256,192,193499,1,0,0:0:0:0:
256,192,193574,1,8,0:0:0:0:
256,192,193649,1,8,0:0:0:0:
256,192,193724,1,0,0:0:0:0:
256,192,193799,1,0,0:0:0:0:
256,192,193874,1,8,0:0:0:0:
256,192,194024,1,0,0:0:0:0:
256,192,194174,1,0,0:0:0:0:
256,192,194324,1,0,0:0:0:0:
256,192,194474,1,8,0:0:0:0:
256,192,195074,1,8,0:0:0:0:
256,192,195374,1,0,0:0:0:0:
256,192,195524,1,0,0:0:0:0:
256,192,195599,1,0,0:0:0:0:
256,192,195674,1,8,0:0:0:0:
224,192,196274,2,0,L|480:32,3,280
