osu file format v14

[General]
AudioFilename: audio.mp3
AudioLeadIn: 0
PreviewTime: 22868
Countdown: 0
SampleSet: Normal
StackLeniency: 0.7
Mode: 1
LetterboxInBreaks: 0
WidescreenStoryboard: 1

[Editor]
DistanceSpacing: 0.9
BeatDivisor: 4
GridSize: 4
TimelineZoom: 2.5

[Metadata]
Title:Curiosity killed the fairy
TitleUnicode:Curiosity killed the fairy
Artist:Xenon
ArtistUnicode:キセノン
Creator:Ideal
Version:Muzukashii
Source:妖精大戦争 ~ 東方三月精
Tags:genjuro kqrth hivie 年中夢中の好奇心 year-round absorbed air reitaisai 8 great wars eastern three fairies 東方Project 12.8 touhou project 再生「グランドレガシー」 regeneration 'grand legacy' doujin dojin electronic instrumental chiptune breakcore th12.8 yousei daisensou 東方 sangetsusei team shanghai alice video game stage 2 mischievous サニーミルク sunny milk ルナチャイルド luna child スターサファイア star sapphire chipbreak kisenon of light 光の三妖精 hikari no sanyousei san-yousei sunnymilk starsapphire starsaphire saphire lunachild zun curiousity
BeatmapID:2413615
BeatmapSetID:1155202

[Difficulty]
HPDrainRate:6
CircleSize:5
OverallDifficulty:5
ApproachRate:5
SliderMultiplier:1.4
SliderTickRate:1

[Events]
//Background and Video events
0,0,"80546003_p0.png",0,30
//Break Periods
//Storyboard Layer 0 (Background)
//Storyboard Layer 1 (Fail)
//Storyboard Layer 2 (Pass)
//Storyboard Layer 3 (Foreground)
//Storyboard Layer 4 (Overlay)
//Storyboard Sound Samples

[TimingPoints]
1268,300,4,1,0,75,1,0
1268,-111.111111111111,4,1,0,75,0,0
13268,-105.263157894737,4,1,0,80,0,0
22268,-104.166666666667,4,1,0,80,0,0
22343,-103.092783505155,4,1,0,80,0,0
22418,-102.040816326531,4,1,0,80,0,0
22568,-100,4,1,0,80,0,0
22868,-95.2380952380952,4,1,0,90,0,1
47993,-95.2380952380952,4,1,0,80,0,1
49343,-95.2380952380952,4,1,0,90,0,1
60818,-96.1538461538461,4,1,0,90,0,1
60893,-97.0873786407767,4,1,0,90,0,1
60968,-98.0392156862745,4,1,0,90,0,1
61268,-100,4,1,0,85,0,0
80430,-101.010101010101,4,1,0,60,0,0
80543,-102.040816326531,4,1,0,60,0,0
80693,-103.092783505155,4,1,0,60,0,0
80993,-104.166666666667,4,1,0,60,0,0
81143,-105.263157894737,4,1,0,60,0,0
99293,-107.52688172043,4,1,0,60,0,0
99443,-109.89010989011,4,1,0,60,0,0
99593,-111.111111111111,4,1,0,40,0,0
117593,-111.111111111111,4,1,0,60,0,0
118118,-109.89010989011,4,1,0,60,0,0
118268,-108.695652173913,4,1,0,85,0,0
118343,-107.52688172043,4,1,0,85,0,0
118418,-106.382978723404,4,1,0,85,0,0
118568,-105.263157894737,4,1,0,85,0,0
137468,-104.166666666667,4,1,0,85,0,0
137543,-103.092783505155,4,1,0,85,0,0
137618,-102.040816326531,4,1,0,85,0,0
138068,-95.2380952380952,4,1,0,90,0,1
156668,-97.0873786407767,4,1,0,90,0,1
156743,-99.009900990099,4,1,0,90,0,1
156818,-100,4,1,0,90,0,1
157268,-111.111111111111,4,1,0,60,0,0
175230,-111.111111111111,4,1,0,85,0,0
176468,-95.2380952380952,4,1,0,90,0,1
194018,-96.1538461538461,4,1,0,90,0,1
194093,-97.0873786407767,4,1,0,90,0,1
194168,-98.0392156862745,4,1,0,90,0,1
194318,-99.009900990099,4,1,0,90,0,1
194468,-100,4,1,0,60,0,0

[HitObjects]
255,195,1268,5,0,0:0:0:0:
255,195,1418,1,0,0:0:0:0:
255,195,1493,1,0,0:0:0:0:
260,195,1568,1,0,0:0:0:0:
261,194,1718,1,8,0:0:0:0:
255,195,2018,1,8,0:0:0:0:
255,195,2318,1,0,0:0:0:0:
255,192,2618,1,0,0:0:0:0:
255,195,2918,1,0,0:0:0:0:
255,195,2993,1,0,0:0:0:0:
255,195,3068,1,0,0:0:0:0:
255,192,3368,1,8,0:0:0:0:
247,192,3443,1,8,0:0:0:0:
255,192,3518,1,8,0:0:0:0:
250,190,3968,1,8,0:0:0:0:
249,190,4118,1,0,0:0:0:0:
249,190,4268,1,8,0:0:0:0:
241,189,4568,1,0,0:0:0:0:
241,189,4718,1,8,0:0:0:0:
242,190,4868,1,0,0:0:0:0:
244,190,5018,1,0,0:0:0:0:
244,190,5168,1,8,0:0:0:0:
250,191,5468,1,8,0:0:0:0:
247,195,5768,1,8,0:0:0:0:
245,195,5918,1,8,0:0:0:0:
245,195,6068,1,0,0:0:0:0:
245,195,6218,1,0,0:0:0:0:
245,195,6293,1,0,0:0:0:0:
245,195,6368,1,0,0:0:0:0:
241,195,6518,1,8,0:0:0:0:
236,193,6818,1,8,0:0:0:0:
245,195,7118,1,8,0:0:0:0:
241,195,7418,1,0,0:0:0:0:
243,198,7568,1,8,0:0:0:0:
241,197,7718,1,8,0:0:0:0:
239,197,7868,1,8,0:0:0:0:
239,197,7943,1,8,0:0:0:0:
239,197,8018,1,8,0:0:0:0:
241,202,8168,1,0,0:0:0:0:
224,192,8468,1,0,0:0:0:0:
224,192,8768,1,8,0:0:0:0:
224,192,8918,1,0,0:0:0:0:
224,192,9068,1,8,0:0:0:0:
224,192,9368,1,0,0:0:0:0:
224,192,9518,1,8,0:0:0:0:
224,192,9668,1,0,0:0:0:0:
224,192,9818,1,0,0:0:0:0:
224,192,9968,1,8,0:0:0:0:
224,192,10268,1,8,0:0:0:0:
217,194,10868,1,8,0:0:0:0:
217,194,11168,1,8,0:0:0:0:
218,192,11468,1,0,0:0:0:0:
218,192,11618,1,8,0:0:0:0:
217,194,11768,1,0,0:0:0:0:
217,194,12068,1,0,0:0:0:0:
214,196,12218,1,8,0:0:0:0:
214,198,12368,1,0,0:0:0:0:
218,201,12518,1,0,0:0:0:0:
217,194,12668,1,0,0:0:0:0:
223,197,12968,1,8,0:0:0:0:
223,195,13268,1,0,0:0:0:0:
226,194,13418,1,0,0:0:0:0:
225,194,13718,1,8,0:0:0:0:
227,192,14018,1,0,0:0:0:0:
228,196,14168,1,8,0:0:0:0:
229,195,14243,1,8,0:0:0:0:
226,194,14318,1,8,0:0:0:0:
226,194,14468,1,0,0:0:0:0:
220,188,14618,1,0,0:0:0:0:
227,192,14768,1,8,0:0:0:0:
231,187,15068,1,4,0:0:0:0:
231,187,15368,1,4,0:0:0:0:
236,187,15668,1,0,0:0:0:0:
235,187,15818,1,0,0:0:0:0:
231,187,16118,1,8,0:0:0:0:
236,187,16568,1,8,0:0:0:0:
231,190,16643,1,8,0:0:0:0:
235,187,16718,1,8,0:0:0:0:
235,187,16868,1,8,0:0:0:0:
236,190,17018,1,4,0:0:0:0:
236,190,17168,1,12,0:0:0:0:
236,189,17318,1,12,0:0:0:0:
235,187,17468,1,4,0:0:0:0:
235,187,17768,1,8,0:0:0:0:
235,187,17843,1,8,0:0:0:0:
235,187,17918,1,8,0:0:0:0:
236,190,18068,1,0,0:0:0:0:
236,189,18218,1,0,0:0:0:0:
235,187,18518,1,8,0:0:0:0:
226,187,18968,1,8,0:0:0:0:
220,182,19118,1,0,0:0:0:0:
226,185,19268,1,8,0:0:0:0:
227,187,19418,1,8,0:0:0:0:
227,187,19568,1,8,0:0:0:0:
229,186,19718,1,8,0:0:0:0:
228,186,19868,1,0,0:0:0:0:
224,182,19943,1,0,0:0:0:0:
223,185,20018,1,0,0:0:0:0:
221,182,20168,1,8,0:0:0:0:
212,181,20468,1,0,0:0:0:0:
212,182,20618,1,0,0:0:0:0:
211,181,20768,1,8,0:0:0:0:
211,181,20918,1,0,0:0:0:0:
211,181,21068,1,0,0:0:0:0:
211,181,21143,1,0,0:0:0:0:
211,181,21218,1,0,0:0:0:0:
211,181,21368,1,0,0:0:0:0:
211,181,21518,1,8,0:0:0:0:
206,177,21968,1,8,0:0:0:0:
206,177,22118,1,8,0:0:0:0:
206,177,22268,1,0,0:0:0:0:
206,177,22343,1,0,0:0:0:0:
206,177,22418,1,0,0:0:0:0:
206,177,22568,1,0,0:0:0:0:
211,181,22868,1,8,0:0:0:0:
204,185,23018,1,0,0:0:0:0:
206,182,23093,1,0,0:0:0:0:
206,182,23168,1,0,0:0:0:0:
206,177,23318,1,8,0:0:0:0:
206,177,23468,1,0,0:0:0:0:
206,177,23618,1,8,0:0:0:0:
205,179,23768,1,0,0:0:0:0:
192,179,24068,1,4,0:0:0:0:
192,179,24368,1,4,0:0:0:0:
191,179,24518,1,4,0:0:0:0:
193,175,24668,1,8,0:0:0:0:
193,175,24743,1,8,0:0:0:0:
193,174,24818,1,8,0:0:0:0:
191,171,25118,1,0,0:0:0:0:
190,171,25193,1,0,0:0:0:0:
186,171,25268,1,0,0:0:0:0:
191,179,25418,1,8,0:0:0:0:
193,175,25718,1,8,0:0:0:0:
193,175,25793,1,8,0:0:0:0:
192,175,25868,1,8,0:0:0:0:
192,175,26018,1,8,0:0:0:0:
192,175,26168,1,0,0:0:0:0:
179,173,26468,1,8,0:0:0:0:
177,173,26618,1,8,0:0:0:0:
177,173,26768,1,0,0:0:0:0:
176,173,26918,1,0,0:0:0:0:
166,177,27068,1,12,0:0:0:0:
165,167,27668,1,12,0:0:0:0:
168,178,27818,1,8,0:0:0:0:
169,177,27893,1,8,0:0:0:0:
169,178,27968,1,8,0:0:0:0:
169,177,28118,1,8,0:0:0:0:
169,177,28268,1,0,0:0:0:0:
165,174,28418,1,8,0:0:0:0:
165,174,28568,1,0,0:0:0:0:
175,157,28868,1,0,0:0:0:0:
175,157,29018,1,8,0:0:0:0:
175,157,29168,1,0,0:0:0:0:
172,162,29468,1,0,0:0:0:0:
174,159,29618,1,8,0:0:0:0:
172,162,29768,1,0,0:0:0:0:
172,162,29918,1,8,0:0:0:0:
175,162,30068,1,4,0:0:0:0:
172,162,30218,1,8,0:0:0:0:
172,162,30293,1,8,0:0:0:0:
172,162,30368,1,8,0:0:0:0:
172,162,30518,1,4,0:0:0:0:
172,162,30818,1,8,0:0:0:0:
170,162,30968,1,4,0:0:0:0:
172,162,31118,1,4,0:0:0:0:
181,164,31268,1,8,0:0:0:0:
181,164,31418,1,0,0:0:0:0:
181,164,31493,1,0,0:0:0:0:
181,164,31568,1,0,0:0:0:0:
178,158,31868,1,8,0:0:0:0:
186,173,31943,1,8,0:0:0:0:
186,183,32018,1,8,0:0:0:0:
211,181,32468,1,8,0:0:0:0:
204,185,32618,1,0,0:0:0:0:
206,182,32693,1,0,0:0:0:0:
206,182,32768,1,0,0:0:0:0:
206,177,32918,1,8,0:0:0:0:
206,177,33068,1,0,0:0:0:0:
206,177,33218,1,8,0:0:0:0:
205,179,33368,1,0,0:0:0:0:
192,179,33668,1,4,0:0:0:0:
192,179,33968,1,4,0:0:0:0:
191,179,34118,1,4,0:0:0:0:
193,175,34268,1,8,0:0:0:0:
193,175,34343,1,8,0:0:0:0:
193,174,34418,1,8,0:0:0:0:
191,171,34718,1,0,0:0:0:0:
190,171,34793,1,0,0:0:0:0:
186,171,34868,1,0,0:0:0:0:
191,179,35018,1,8,0:0:0:0:
193,175,35318,1,8,0:0:0:0:
193,175,35393,1,8,0:0:0:0:
192,175,35468,1,8,0:0:0:0:
192,175,35618,1,8,0:0:0:0:
192,175,35768,1,0,0:0:0:0:
179,173,36068,1,8,0:0:0:0:
174,171,36218,1,8,0:0:0:0:
172,163,36368,1,0,0:0:0:0:
172,163,36518,1,8,0:0:0:0:
166,177,36668,1,4,0:0:0:0:
165,167,37268,1,12,0:0:0:0:
168,178,37418,1,0,0:0:0:0:
169,177,37493,1,0,0:0:0:0:
169,178,37568,1,0,0:0:0:0:
171,172,37718,1,8,0:0:0:0:
169,177,37868,1,0,0:0:0:0:
165,174,38018,1,8,0:0:0:0:
165,174,38093,1,8,0:0:0:0:
165,174,38168,1,8,0:0:0:0:
175,157,38468,1,0,0:0:0:0:
175,157,38618,1,8,0:0:0:0:
175,157,38693,1,8,0:0:0:0:
175,157,38768,1,8,0:0:0:0:
172,162,39068,1,8,0:0:0:0:
172,162,39143,1,8,0:0:0:0:
174,159,39218,1,8,0:0:0:0:
172,162,39368,1,0,0:0:0:0:
172,162,39518,1,8,0:0:0:0:
152,155,39668,1,4,0:0:0:0:
172,162,39968,1,8,0:0:0:0:
172,162,40118,1,4,0:0:0:0:
169,161,40268,1,8,0:0:0:0:
172,162,40343,1,8,0:0:0:0:
172,162,40418,1,8,0:0:0:0:
170,162,40568,1,4,0:0:0:0:
181,164,40868,1,8,0:0:0:0:
181,164,41018,1,0,0:0:0:0:
181,164,41093,1,0,0:0:0:0:
181,164,41168,1,0,0:0:0:0:
185,162,41468,1,8,0:0:0:0:
181,158,41543,1,8,0:0:0:0:
178,158,41618,1,8,0:0:0:0:
172,156,42068,1,8,0:0:0:0:
189,172,42218,1,0,0:0:0:0:
181,164,42293,1,0,0:0:0:0:
180,164,42368,1,0,0:0:0:0:
181,158,42518,1,8,0:0:0:0:
178,158,42668,1,4,0:0:0:0:
183,158,42968,1,8,0:0:0:0:
183,158,43043,1,8,0:0:0:0:
183,158,43118,1,8,0:0:0:0:
184,155,43268,1,0,0:0:0:0:
181,158,43418,1,8,0:0:0:0:
181,162,43568,1,8,0:0:0:0:
181,162,43718,1,8,0:0:0:0:
181,162,43868,1,0,0:0:0:0:
175,157,44168,1,0,0:0:0:0:
175,157,44318,1,8,0:0:0:0:
178,158,44618,1,8,0:0:0:0:
176,156,44918,1,8,0:0:0:0:
176,156,44993,1,8,0:0:0:0:
175,154,45068,1,8,0:0:0:0:
178,158,45218,1,8,0:0:0:0:
175,157,45368,1,0,0:0:0:0:
176,155,45668,1,8,0:0:0:0:
176,156,45818,1,8,0:0:0:0:
176,156,45968,1,8,0:0:0:0:
182,151,46118,1,8,0:0:0:0:
183,150,46268,1,4,0:0:0:0:
179,152,46868,1,8,0:0:0:0:
167,150,47018,1,8,0:0:0:0:
167,151,47093,1,8,0:0:0:0:
167,151,47168,1,8,0:0:0:0:
186,157,47318,1,8,0:0:0:0:
167,149,47468,1,4,0:0:0:0:
167,149,47618,1,12,0:0:0:0:
167,149,47768,1,4,0:0:0:0:
167,151,48068,1,0,0:0:0:0:
160,154,48218,1,8,0:0:0:0:
161,154,48368,1,0,0:0:0:0:
161,154,48668,1,8,0:0:0:0:
161,154,48743,1,8,0:0:0:0:
161,154,48818,1,8,0:0:0:0:
161,154,48968,1,0,0:0:0:0:
163,154,49043,1,0,0:0:0:0:
160,154,49118,1,0,0:0:0:0:
162,163,49418,1,12,0:0:0:0:
161,154,49868,1,4,0:0:0:0:
160,154,50168,1,4,0:0:0:0:
149,148,50468,1,0,0:0:0:0:
156,150,50543,1,0,0:0:0:0:
156,150,50618,1,0,0:0:0:0:
145,149,50768,1,8,0:0:0:0:
146,149,51068,1,8,0:0:0:0:
147,150,51143,1,8,0:0:0:0:
147,150,51218,1,8,0:0:0:0:
152,147,51368,1,0,0:0:0:0:
149,148,51443,1,0,0:0:0:0:
156,150,51518,1,0,0:0:0:0:
150,150,51668,1,12,0:0:0:0:
145,152,51818,1,12,0:0:0:0:
146,149,51968,1,12,0:0:0:0:
147,150,52268,1,4,0:0:0:0:
145,152,52418,1,12,0:0:0:0:
146,154,52568,1,4,0:0:0:0:
152,153,52868,1,8,0:0:0:0:
151,155,53018,1,8,0:0:0:0:
156,153,53168,1,0,0:0:0:0:
156,153,53243,1,0,0:0:0:0:
156,152,53393,1,8,0:0:0:0:
161,151,53468,1,8,0:0:0:0:
161,151,53618,1,0,0:0:0:0:
152,153,53768,1,8,0:0:0:0:
155,151,53843,1,8,0:0:0:0:
151,155,53993,1,0,0:0:0:0:
154,153,54068,1,0,0:0:0:0:
162,150,54218,1,8,0:0:0:0:
158,149,54518,1,8,0:0:0:0:
158,149,54593,1,8,0:0:0:0:
157,149,54668,1,8,0:0:0:0:
156,151,54818,1,8,0:0:0:0:
156,147,54968,1,0,0:0:0:0:
151,143,55268,1,8,0:0:0:0:
151,143,55418,1,8,0:0:0:0:
151,143,55568,1,8,0:0:0:0:
151,143,55718,1,8,0:0:0:0:
151,143,55868,1,4,0:0:0:0:
154,137,56468,1,12,0:0:0:0:
151,143,56768,1,12,0:0:0:0:
151,143,57068,1,4,0:0:0:0:
151,143,57218,1,12,0:0:0:0:
156,142,57368,1,4,0:0:0:0:
149,137,57668,1,0,0:0:0:0:
151,143,57818,1,8,0:0:0:0:
151,143,57968,1,0,0:0:0:0:
149,134,58268,1,0,0:0:0:0:
149,134,58343,1,0,0:0:0:0:
148,133,58418,1,0,0:0:0:0:
149,137,58568,1,0,0:0:0:0:
148,132,58718,1,8,0:0:0:0:
150,132,58868,1,0,0:0:0:0:
149,134,59168,1,8,0:0:0:0:
149,130,59468,1,0,0:0:0:0:
145,126,59618,1,0,0:0:0:0:
145,126,59693,1,0,0:0:0:0:
145,126,59768,1,0,0:0:0:0:
145,126,59918,1,8,0:0:0:0:
149,134,60068,1,0,0:0:0:0:
148,133,60368,1,8,0:0:0:0:
149,130,60443,1,8,0:0:0:0:
145,126,60518,1,8,0:0:0:0:
145,126,60668,1,0,0:0:0:0:
145,126,60818,1,0,0:0:0:0:
145,126,60893,1,0,0:0:0:0:
146,126,60968,1,0,0:0:0:0:
146,129,61268,1,0,0:0:0:0:
149,130,61418,1,0,0:0:0:0:
145,126,61493,1,0,0:0:0:0:
145,126,61568,1,0,0:0:0:0:
145,126,61718,1,8,0:0:0:0:
146,129,62168,1,8,0:0:0:0:
146,129,62243,1,8,0:0:0:0:
149,130,62318,1,8,0:0:0:0:
145,126,62468,1,0,0:0:0:0:
145,126,62618,1,0,0:0:0:0:
145,126,62693,1,0,0:0:0:0:
145,132,62768,1,0,0:0:0:0:
132,124,63068,1,8,0:0:0:0:
141,137,63218,1,8,0:0:0:0:
134,133,63368,1,0,0:0:0:0:
126,132,63668,1,0,0:0:0:0:
121,147,63818,1,0,0:0:0:0:
124,146,63893,1,0,0:0:0:0:
124,146,63968,1,0,0:0:0:0:
124,139,64118,1,8,0:0:0:0:
138,152,64568,1,0,0:0:0:0:
131,146,64718,1,0,0:0:0:0:
136,146,64868,1,12,0:0:0:0:
130,155,65018,1,0,0:0:0:0:
130,154,65093,1,0,0:0:0:0:
130,154,65168,1,0,0:0:0:0:
124,155,65318,1,8,0:0:0:0:
136,160,65468,1,0,0:0:0:0:
127,157,65768,1,8,0:0:0:0:
122,151,65843,1,8,0:0:0:0:
133,157,65918,1,8,0:0:0:0:
124,154,66068,1,0,0:0:0:0:
117,159,66368,1,8,0:0:0:0:
117,159,66518,1,0,0:0:0:0:
117,159,66668,1,8,0:0:0:0:
117,159,66743,1,8,0:0:0:0:
117,159,66818,1,8,0:0:0:0:
117,159,66968,1,8,0:0:0:0:
138,165,67268,1,8,0:0:0:0:
136,164,67418,1,8,0:0:0:0:
136,164,67493,1,8,0:0:0:0:
136,164,67568,1,8,0:0:0:0:
136,164,67868,1,0,0:0:0:0:
138,165,68018,1,0,0:0:0:0:
138,165,68168,1,8,0:0:0:0:
134,169,68468,1,0,0:0:0:0:
134,169,68618,1,0,0:0:0:0:
134,170,68768,1,8,0:0:0:0:
135,171,68918,1,8,0:0:0:0:
135,171,69068,1,8,0:0:0:0:
136,174,69218,1,0,0:0:0:0:
134,169,69518,1,8,0:0:0:0:
133,166,69818,1,8,0:0:0:0:
134,166,69893,1,8,0:0:0:0:
134,166,69968,1,8,0:0:0:0:
135,166,70118,1,8,0:0:0:0:
143,170,70268,1,0,0:0:0:0:
145,169,70343,1,0,0:0:0:0:
143,168,70418,1,0,0:0:0:0:
134,166,70868,1,0,0:0:0:0:
143,170,71018,1,0,0:0:0:0:
145,169,71318,1,8,0:0:0:0:
142,168,71618,1,0,0:0:0:0:
140,171,71768,1,8,0:0:0:0:
141,174,71843,1,8,0:0:0:0:
139,173,71918,1,8,0:0:0:0:
145,177,72068,1,0,0:0:0:0:
147,177,72218,1,0,0:0:0:0:
146,183,72368,1,8,0:0:0:0:
150,169,72668,1,8,0:0:0:0:
161,173,72818,1,8,0:0:0:0:
164,172,72893,1,8,0:0:0:0:
164,172,72968,1,8,0:0:0:0:
162,171,73118,1,8,0:0:0:0:
161,171,73268,1,0,0:0:0:0:
168,172,73418,1,0,0:0:0:0:
177,177,73493,1,0,0:0:0:0:
168,172,73568,1,0,0:0:0:0:
177,175,73718,1,8,0:0:0:0:
171,158,74168,1,0,0:0:0:0:
170,158,74318,1,0,0:0:0:0:
171,168,74468,1,12,0:0:0:0:
183,171,74618,1,0,0:0:0:0:
168,172,74768,1,0,0:0:0:0:
164,163,74918,1,12,0:0:0:0:
166,159,75068,1,0,0:0:0:0:
178,164,75668,1,0,0:0:0:0:
176,160,75743,1,0,0:0:0:0:
171,169,75818,1,0,0:0:0:0:
174,171,75968,1,0,0:0:0:0:
176,171,76118,1,8,0:0:0:0:
179,167,76268,1,8,0:0:0:0:
179,167,76343,1,8,0:0:0:0:
179,167,76418,1,8,0:0:0:0:
182,166,76568,1,0,0:0:0:0:
180,167,76868,1,8,0:0:0:0:
183,167,77018,1,0,0:0:0:0:
185,165,77093,1,0,0:0:0:0:
179,167,77243,1,0,0:0:0:0:
179,167,77318,1,0,0:0:0:0:
183,172,77468,1,8,0:0:0:0:
183,172,77543,1,8,0:0:0:0:
183,172,77618,1,8,0:0:0:0:
179,172,77768,1,0,0:0:0:0:
181,172,78068,1,0,0:0:0:0:
181,174,78218,1,0,0:0:0:0:
181,174,78368,1,0,0:0:0:0:
183,172,78518,1,0,0:0:0:0:
181,170,78668,1,0,0:0:0:0:
179,172,78818,1,0,0:0:0:0:
184,168,79118,1,8,0:0:0:0:
183,172,79418,1,0,0:0:0:0:
183,176,79493,1,0,0:0:0:0:
184,173,79568,1,0,0:0:0:0:
183,169,79718,1,8,0:0:0:0:
183,162,79868,1,8,0:0:0:0:
182,162,79943,1,8,0:0:0:0:
182,162,80018,1,8,0:0:0:0:
182,162,80468,1,8,0:0:0:0:
183,169,80618,1,0,0:0:0:0:
185,169,80768,1,8,0:0:0:0:
186,168,81068,1,0,0:0:0:0:
183,169,81518,1,8,0:0:0:0:
186,167,81818,1,0,0:0:0:0:
186,168,81968,1,8,0:0:0:0:
188,167,82118,1,8,0:0:0:0:
188,167,82268,1,0,0:0:0:0:
197,170,82718,1,0,0:0:0:0:
167,173,82868,1,8,0:0:0:0:
173,174,83168,1,8,0:0:0:0:
173,174,83468,1,0,0:0:0:0:
173,174,83768,1,0,0:0:0:0:
173,174,83918,1,0,0:0:0:0:
173,174,84068,1,8,0:0:0:0:
173,174,84368,1,8,0:0:0:0:
173,174,84668,1,8,0:0:0:0:
173,174,84818,1,0,0:0:0:0:
173,174,84968,1,8,0:0:0:0:
173,174,85268,1,8,0:0:0:0:
173,174,85418,1,0,0:0:0:0:
173,174,85568,1,8,0:0:0:0:
173,174,85868,1,0,0:0:0:0:
157,164,86168,1,0,0:0:0:0:
157,164,86318,1,8,0:0:0:0:
157,164,86618,1,0,0:0:0:0:
157,164,86768,1,8,0:0:0:0:
157,165,86918,1,8,0:0:0:0:
157,164,87068,1,0,0:0:0:0:
154,173,87518,1,0,0:0:0:0:
160,170,87668,1,8,0:0:0:0:
171,180,87968,1,8,0:0:0:0:
155,167,88193,1,8,0:0:0:0:
155,167,88418,1,8,0:0:0:0:
155,167,88568,1,8,0:0:0:0:
157,164,88718,1,0,0:0:0:0:
157,164,88868,1,8,0:0:0:0:
154,162,89468,1,8,0:0:0:0:
157,164,89768,1,0,0:0:0:0:
154,162,89918,1,0,0:0:0:0:
154,162,90068,1,8,0:0:0:0:
154,162,90368,1,8,0:0:0:0:
157,164,90668,1,0,0:0:0:0:
158,167,91118,1,8,0:0:0:0:
157,164,91418,1,0,0:0:0:0:
157,164,91568,1,8,0:0:0:0:
158,167,91718,1,8,0:0:0:0:
158,167,91868,1,0,0:0:0:0:
165,176,92318,1,0,0:0:0:0:
165,176,92468,1,8,0:0:0:0:
165,177,92768,1,8,0:0:0:0:
165,176,93068,1,0,0:0:0:0:
165,177,93368,1,8,0:0:0:0:
165,177,93518,1,0,0:0:0:0:
165,176,93668,1,8,0:0:0:0:
165,176,93968,1,8,0:0:0:0:
165,176,94268,1,0,0:0:0:0:
165,177,94418,1,0,0:0:0:0:
165,177,94568,1,8,0:0:0:0:
165,176,94868,1,8,0:0:0:0:
164,169,95018,1,0,0:0:0:0:
167,169,95168,1,8,0:0:0:0:
169,170,95468,1,0,0:0:0:0:
181,163,95918,1,8,0:0:0:0:
171,187,96218,1,0,0:0:0:0:
171,187,96368,1,8,0:0:0:0:
172,183,96518,1,8,0:0:0:0:
173,183,96668,1,0,0:0:0:0:
175,175,97118,1,0,0:0:0:0:
175,175,97268,1,8,0:0:0:0:
156,177,97568,1,8,0:0:0:0:
175,175,97793,1,8,0:0:0:0:
175,175,98018,1,8,0:0:0:0:
175,175,98168,1,8,0:0:0:0:
175,175,98318,1,0,0:0:0:0:
175,175,98468,1,8,0:0:0:0:
184,158,99068,1,8,0:0:0:0:
164,165,99368,1,0,0:0:0:0:
167,168,99518,1,0,0:0:0:0:
167,168,99668,1,8,0:0:0:0:
156,179,99968,1,8,0:0:0:0:
155,179,100268,1,0,0:0:0:0:
163,165,100718,1,8,0:0:0:0:
171,177,101168,1,8,0:0:0:0:
171,177,101468,1,0,0:0:0:0:
163,165,102068,1,8,0:0:0:0:
168,169,102368,1,8,0:0:0:0:
163,165,102668,1,0,0:0:0:0:
168,169,102968,1,0,0:0:0:0:
163,165,103268,1,0,0:0:0:0:
163,165,103568,1,8,0:0:0:0:
163,165,103868,1,0,0:0:0:0:
163,165,104168,1,8,0:0:0:0:
163,165,104468,1,8,0:0:0:0:
164,160,104768,1,8,0:0:0:0:
163,165,105068,1,8,0:0:0:0:
164,160,105518,1,0,0:0:0:0:
163,165,105968,1,8,0:0:0:0:
163,165,106268,1,0,0:0:0:0:
162,157,106868,1,8,0:0:0:0:
161,161,107168,1,8,0:0:0:0:
163,157,107393,1,8,0:0:0:0:
162,157,107768,1,8,0:0:0:0:
163,165,107918,1,0,0:0:0:0:
163,165,108068,1,8,0:0:0:0:
193,153,108668,1,8,0:0:0:0:
193,153,108968,1,0,0:0:0:0:
195,158,109268,1,8,0:0:0:0:
195,158,109568,1,8,0:0:0:0:
196,158,109868,1,0,0:0:0:0:
156,189,110318,1,8,0:0:0:0:
190,164,110768,1,8,0:0:0:0:
196,165,111068,1,0,0:0:0:0:
200,170,111668,1,8,0:0:0:0:
202,169,111968,1,8,0:0:0:0:
200,170,112268,1,0,0:0:0:0:
203,166,112568,1,0,0:0:0:0:
202,169,112868,1,8,0:0:0:0:
203,166,113468,1,8,0:0:0:0:
206,165,113768,1,8,0:0:0:0:
205,166,114068,1,8,0:0:0:0:
203,166,114368,1,8,0:0:0:0:
206,165,114668,1,0,0:0:0:0:
195,157,114968,1,0,0:0:0:0:
203,166,115268,1,8,0:0:0:0:
206,165,115568,1,8,0:0:0:0:
201,163,115868,1,0,0:0:0:0:
206,165,116468,1,8,0:0:0:0:
213,165,117068,1,8,0:0:0:0:
213,165,117668,1,8,0:0:0:0:
206,165,117818,1,0,0:0:0:0:
207,167,117893,1,0,0:0:0:0:
207,167,117968,1,0,0:0:0:0:
201,167,118268,1,8,0:0:0:0:
201,167,118343,1,8,0:0:0:0:
201,167,118418,1,8,0:0:0:0:
146,129,118568,1,8,0:0:0:0:
146,129,118868,1,0,0:0:0:0:
145,126,119168,1,0,0:0:0:0:
145,126,119318,1,8,0:0:0:0:
146,129,119768,1,8,0:0:0:0:
146,129,119843,1,8,0:0:0:0:
149,130,119918,1,8,0:0:0:0:
145,126,120068,1,0,0:0:0:0:
145,126,120218,1,0,0:0:0:0:
145,126,120293,1,0,0:0:0:0:
145,132,120368,1,0,0:0:0:0:
132,124,120668,1,8,0:0:0:0:
141,137,120818,1,8,0:0:0:0:
134,133,120968,1,0,0:0:0:0:
126,132,121268,1,0,0:0:0:0:
121,147,121418,1,0,0:0:0:0:
124,146,121493,1,0,0:0:0:0:
124,146,121568,1,0,0:0:0:0:
124,139,121718,1,8,0:0:0:0:
138,152,122168,1,0,0:0:0:0:
131,146,122318,1,0,0:0:0:0:
136,146,122468,1,12,0:0:0:0:
130,155,122618,1,0,0:0:0:0:
130,154,122693,1,0,0:0:0:0:
130,154,122768,1,0,0:0:0:0:
124,155,122918,1,8,0:0:0:0:
136,160,123068,1,0,0:0:0:0:
127,157,123218,1,8,0:0:0:0:
122,151,123293,1,8,0:0:0:0:
133,157,123368,1,8,0:0:0:0:
124,154,123668,1,0,0:0:0:0:
115,155,123818,1,0,0:0:0:0:
117,159,123968,1,0,0:0:0:0:
117,159,124118,1,8,0:0:0:0:
117,159,124418,1,0,0:0:0:0:
117,159,124493,1,0,0:0:0:0:
117,159,124568,1,0,0:0:0:0:
138,165,124868,1,8,0:0:0:0:
136,164,125018,1,8,0:0:0:0:
136,164,125093,1,8,0:0:0:0:
136,164,125168,1,8,0:0:0:0:
121,156,125318,1,0,0:0:0:0:
121,156,125468,1,8,0:0:0:0:
121,156,125618,1,8,0:0:0:0:
121,156,125768,1,0,0:0:0:0:
134,169,126068,1,0,0:0:0:0:
134,169,126218,1,0,0:0:0:0:
134,170,126368,1,8,0:0:0:0:
135,171,126518,1,8,0:0:0:0:
135,171,126668,1,8,0:0:0:0:
136,174,126818,1,0,0:0:0:0:
134,169,127118,1,8,0:0:0:0:
133,166,127418,1,0,0:0:0:0:
134,166,127493,1,0,0:0:0:0:
134,166,127568,1,0,0:0:0:0:
135,166,127718,1,8,0:0:0:0:
143,170,127868,1,8,0:0:0:0:
145,169,127943,1,8,0:0:0:0:
143,168,128018,1,8,0:0:0:0:
134,166,128468,1,0,0:0:0:0:
143,170,128618,1,0,0:0:0:0:
143,165,128693,1,0,0:0:0:0:
143,170,128768,1,0,0:0:0:0:
145,169,128918,1,8,0:0:0:0:
142,168,129218,1,0,0:0:0:0:
140,171,129368,1,8,0:0:0:0:
141,174,129443,1,8,0:0:0:0:
139,173,129518,1,8,0:0:0:0:
145,177,129668,1,0,0:0:0:0:
146,183,129968,1,8,0:0:0:0:
150,169,130268,1,0,0:0:0:0:
161,173,130418,1,8,0:0:0:0:
164,172,130493,1,8,0:0:0:0:
164,172,130568,1,8,0:0:0:0:
162,171,130718,1,8,0:0:0:0:
161,171,130868,1,0,0:0:0:0:
168,172,131018,1,0,0:0:0:0:
177,177,131093,1,0,0:0:0:0:
168,172,131168,1,0,0:0:0:0:
177,175,131318,1,8,0:0:0:0:
171,158,131768,1,0,0:0:0:0:
170,158,131918,1,0,0:0:0:0:
171,168,132068,1,12,0:0:0:0:
183,171,132218,1,0,0:0:0:0:
168,172,132368,1,0,0:0:0:0:
164,163,132518,1,12,0:0:0:0:
166,159,132668,1,0,0:0:0:0:
178,164,133268,1,0,0:0:0:0:
176,160,133343,1,0,0:0:0:0:
171,169,133418,1,0,0:0:0:0:
174,171,133568,1,0,0:0:0:0:
176,171,133718,1,8,0:0:0:0:
179,167,133868,1,8,0:0:0:0:
179,167,133943,1,8,0:0:0:0:
179,167,134018,1,8,0:0:0:0:
182,166,134168,1,0,0:0:0:0:
180,167,134468,1,8,0:0:0:0:
183,167,134618,1,0,0:0:0:0:
185,165,134693,1,0,0:0:0:0:
179,167,134843,1,0,0:0:0:0:
179,167,134918,1,0,0:0:0:0:
183,172,135068,1,8,0:0:0:0:
183,172,135143,1,8,0:0:0:0:
183,172,135218,1,8,0:0:0:0:
179,172,135368,1,0,0:0:0:0:
181,172,135668,1,0,0:0:0:0:
181,174,135818,1,0,0:0:0:0:
181,174,135968,1,8,0:0:0:0:
183,172,136118,1,8,0:0:0:0:
181,170,136268,1,8,0:0:0:0:
179,172,136418,1,0,0:0:0:0:
184,168,136718,1,8,0:0:0:0:
183,172,137018,5,0,0:0:0:0:
184,173,137168,1,0,0:0:0:0:
183,169,137318,1,8,0:0:0:0:
183,162,137468,1,8,0:0:0:0:
182,162,137543,1,8,0:0:0:0:
182,162,137618,1,8,0:0:0:0:
211,181,138068,1,8,0:0:0:0:
204,185,138218,1,0,0:0:0:0:
206,182,138293,1,0,0:0:0:0:
206,182,138368,1,0,0:0:0:0:
206,177,138518,1,8,0:0:0:0:
206,177,138668,1,0,0:0:0:0:
206,177,138818,1,8,0:0:0:0:
205,179,138968,1,0,0:0:0:0:
192,179,139268,1,4,0:0:0:0:
192,179,139568,1,4,0:0:0:0:
191,179,139718,1,4,0:0:0:0:
193,175,139868,1,8,0:0:0:0:
193,175,139943,1,8,0:0:0:0:
193,174,140018,1,8,0:0:0:0:
191,171,140318,1,0,0:0:0:0:
190,171,140393,1,0,0:0:0:0:
186,171,140468,1,0,0:0:0:0:
191,179,140618,1,8,0:0:0:0:
193,175,140918,1,8,0:0:0:0:
193,175,140993,1,8,0:0:0:0:
192,175,141068,1,8,0:0:0:0:
192,175,141218,1,8,0:0:0:0:
192,175,141368,1,0,0:0:0:0:
179,173,141668,1,8,0:0:0:0:
177,173,141818,1,8,0:0:0:0:
177,173,141968,1,0,0:0:0:0:
176,173,142118,1,0,0:0:0:0:
166,177,142268,1,12,0:0:0:0:
165,167,142868,1,12,0:0:0:0:
168,178,143018,1,8,0:0:0:0:
169,177,143093,1,8,0:0:0:0:
169,178,143168,1,8,0:0:0:0:
169,177,143318,1,8,0:0:0:0:
169,177,143468,1,0,0:0:0:0:
165,174,143618,1,8,0:0:0:0:
165,174,143768,1,0,0:0:0:0:
175,157,144068,1,0,0:0:0:0:
175,157,144218,1,8,0:0:0:0:
175,157,144368,1,0,0:0:0:0:
172,162,144668,1,0,0:0:0:0:
174,159,144818,1,8,0:0:0:0:
172,162,144968,1,0,0:0:0:0:
172,162,145118,1,8,0:0:0:0:
175,162,145268,1,4,0:0:0:0:
172,162,145418,1,8,0:0:0:0:
172,162,145493,1,8,0:0:0:0:
172,162,145568,1,8,0:0:0:0:
172,162,145718,1,4,0:0:0:0:
172,162,146018,1,8,0:0:0:0:
170,162,146168,1,4,0:0:0:0:
172,162,146318,1,4,0:0:0:0:
181,164,146468,1,8,0:0:0:0:
181,164,146618,1,0,0:0:0:0:
181,164,146693,1,0,0:0:0:0:
181,164,146768,1,0,0:0:0:0:
178,158,147068,1,8,0:0:0:0:
186,173,147143,1,8,0:0:0:0:
186,183,147218,1,8,0:0:0:0:
211,181,147668,1,8,0:0:0:0:
204,185,147818,1,0,0:0:0:0:
206,182,147893,1,0,0:0:0:0:
206,182,147968,1,0,0:0:0:0:
206,177,148118,1,8,0:0:0:0:
206,177,148268,1,0,0:0:0:0:
206,177,148418,1,8,0:0:0:0:
205,179,148568,1,0,0:0:0:0:
192,179,148868,1,4,0:0:0:0:
192,179,149168,1,4,0:0:0:0:
191,179,149318,1,4,0:0:0:0:
193,175,149468,1,8,0:0:0:0:
193,175,149543,1,8,0:0:0:0:
193,174,149618,1,8,0:0:0:0:
191,171,149918,1,0,0:0:0:0:
190,171,149993,1,0,0:0:0:0:
186,171,150068,1,0,0:0:0:0:
191,179,150218,1,8,0:0:0:0:
193,175,150518,1,8,0:0:0:0:
193,175,150593,1,8,0:0:0:0:
192,175,150668,1,8,0:0:0:0:
192,175,150818,1,8,0:0:0:0:
192,175,150968,1,0,0:0:0:0:
179,173,151268,1,8,0:0:0:0:
174,171,151418,1,8,0:0:0:0:
172,163,151568,1,0,0:0:0:0:
172,163,151718,1,8,0:0:0:0:
166,177,151868,1,4,0:0:0:0:
165,167,152468,1,12,0:0:0:0:
168,178,152618,1,0,0:0:0:0:
169,177,152693,1,0,0:0:0:0:
169,178,152768,1,0,0:0:0:0:
165,172,152918,1,8,0:0:0:0:
169,177,153068,1,0,0:0:0:0:
165,174,153218,1,8,0:0:0:0:
165,174,153293,1,8,0:0:0:0:
165,174,153368,1,8,0:0:0:0:
175,157,153668,1,0,0:0:0:0:
175,157,153818,1,8,0:0:0:0:
175,157,153893,1,8,0:0:0:0:
175,157,153968,1,8,0:0:0:0:
172,162,154268,1,8,0:0:0:0:
172,162,154343,1,8,0:0:0:0:
174,159,154418,1,8,0:0:0:0:
172,162,154568,1,0,0:0:0:0:
172,162,154718,1,8,0:0:0:0:
152,155,154868,1,4,0:0:0:0:
172,162,155168,1,8,0:0:0:0:
172,162,155318,1,4,0:0:0:0:
169,161,155468,1,8,0:0:0:0:
172,162,155543,1,8,0:0:0:0:
172,162,155618,1,8,0:0:0:0:
170,162,155768,1,4,0:0:0:0:
181,164,156068,1,8,0:0:0:0:
181,164,156218,5,0,0:0:0:0:
181,164,156293,1,0,0:0:0:0:
181,164,156368,1,0,0:0:0:0:
185,162,156668,1,8,0:0:0:0:
181,158,156743,1,8,0:0:0:0:
178,158,156818,1,8,0:0:0:0:
172,156,157268,5,8,0:0:0:0:
183,154,157568,5,8,0:0:0:0:
183,154,157868,1,0,0:0:0:0:
183,154,158018,1,8,0:0:0:0:
184,157,158168,1,0,0:0:0:0:
183,154,158468,1,0,0:0:0:0:
183,154,158618,1,8,0:0:0:0:
185,160,158768,1,0,0:0:0:0:
184,157,159068,1,0,0:0:0:0:
183,154,159218,1,8,0:0:0:0:
179,158,159368,1,0,0:0:0:0:
179,158,159518,1,8,0:0:0:0:
179,158,159818,1,8,0:0:0:0:
179,158,160118,1,8,0:0:0:0:
179,158,160268,1,0,0:0:0:0:
179,158,160418,1,8,0:0:0:0:
179,158,160568,1,0,0:0:0:0:
179,158,160868,1,8,0:0:0:0:
179,158,161018,1,8,0:0:0:0:
179,158,161168,1,0,0:0:0:0:
179,158,161318,1,8,0:0:0:0:
183,160,161468,1,0,0:0:0:0:
185,156,162068,1,8,0:0:0:0:
183,160,162368,1,8,0:0:0:0:
185,156,162668,1,0,0:0:0:0:
185,156,162818,1,8,0:0:0:0:
185,156,162968,1,0,0:0:0:0:
183,160,163268,1,0,0:0:0:0:
185,156,163418,1,8,0:0:0:0:
185,156,163568,1,0,0:0:0:0:
185,156,163868,1,0,0:0:0:0:
187,156,164018,1,8,0:0:0:0:
190,156,164168,1,0,0:0:0:0:
190,156,164318,1,8,0:0:0:0:
185,156,164618,1,8,0:0:0:0:
187,156,164918,1,8,0:0:0:0:
190,156,165068,1,0,0:0:0:0:
190,156,165218,1,8,0:0:0:0:
187,152,165368,1,0,0:0:0:0:
189,152,165518,1,0,0:0:0:0:
187,156,165668,1,8,0:0:0:0:
184,150,166868,1,0,0:0:0:0:
184,150,167168,1,8,0:0:0:0:
184,150,167318,1,0,0:0:0:0:
184,150,167468,1,8,0:0:0:0:
184,150,167768,1,8,0:0:0:0:
184,150,167918,1,8,0:0:0:0:
184,150,168068,1,0,0:0:0:0:
184,150,168218,1,8,0:0:0:0:
184,150,168368,1,0,0:0:0:0:
184,150,168668,1,8,0:0:0:0:
166,151,168968,1,0,0:0:0:0:
166,151,169118,1,8,0:0:0:0:
174,150,169418,1,0,0:0:0:0:
171,139,169718,1,8,0:0:0:0:
161,149,169868,1,0,0:0:0:0:
174,150,170018,1,8,0:0:0:0:
176,151,170168,1,0,0:0:0:0:
177,150,170468,1,8,0:0:0:0:
177,148,170618,1,8,0:0:0:0:
177,148,170768,1,0,0:0:0:0:
174,150,170918,1,8,0:0:0:0:
175,151,171068,1,0,0:0:0:0:
161,147,171668,1,8,0:0:0:0:
161,147,171968,1,8,0:0:0:0:
161,147,172268,1,0,0:0:0:0:
161,147,172418,1,8,0:0:0:0:
161,147,172568,1,0,0:0:0:0:
161,147,172868,1,0,0:0:0:0:
161,147,173018,1,8,0:0:0:0:
161,147,173168,1,0,0:0:0:0:
161,147,173468,1,0,0:0:0:0:
161,147,173618,1,8,0:0:0:0:
161,147,173768,1,0,0:0:0:0:
161,147,173918,1,8,0:0:0:0:
161,147,174218,1,8,0:0:0:0:
161,147,174518,1,8,0:0:0:0:
163,138,174668,1,0,0:0:0:0:
161,147,174818,1,8,0:0:0:0:
161,147,174968,1,0,0:0:0:0:
161,147,175268,1,8,0:0:0:0:
161,147,175343,1,8,0:0:0:0:
161,147,175418,1,8,0:0:0:0:
159,143,175568,1,0,0:0:0:0:
161,147,175718,1,0,0:0:0:0:
157,142,175868,1,8,0:0:0:0:
172,156,176468,1,8,0:0:0:0:
189,172,176618,1,0,0:0:0:0:
181,164,176693,1,0,0:0:0:0:
180,164,176768,1,0,0:0:0:0:
181,158,176918,1,8,0:0:0:0:
178,158,177068,1,4,0:0:0:0:
183,158,177368,1,8,0:0:0:0:
183,158,177443,1,8,0:0:0:0:
183,158,177518,1,8,0:0:0:0:
184,155,177668,1,0,0:0:0:0:
181,158,177818,1,8,0:0:0:0:
181,162,177968,1,8,0:0:0:0:
181,162,178118,1,8,0:0:0:0:
181,162,178268,1,0,0:0:0:0:
175,157,178568,1,0,0:0:0:0:
175,157,178718,1,8,0:0:0:0:
178,158,179018,1,8,0:0:0:0:
176,156,179318,1,8,0:0:0:0:
176,156,179393,1,8,0:0:0:0:
175,154,179468,1,8,0:0:0:0:
178,158,179618,1,8,0:0:0:0:
175,157,179768,1,0,0:0:0:0:
176,155,180068,1,8,0:0:0:0:
176,156,180218,1,8,0:0:0:0:
176,156,180368,1,8,0:0:0:0:
182,151,180518,1,8,0:0:0:0:
183,150,180668,1,4,0:0:0:0:
179,152,181268,1,8,0:0:0:0:
167,150,181418,1,8,0:0:0:0:
167,151,181493,1,8,0:0:0:0:
167,151,181568,1,8,0:0:0:0:
167,149,181868,1,4,0:0:0:0:
167,149,182018,1,12,0:0:0:0:
167,149,182168,1,4,0:0:0:0:
167,151,182468,1,0,0:0:0:0:
160,154,182618,1,8,0:0:0:0:
161,154,182768,1,0,0:0:0:0:
161,154,183068,1,8,0:0:0:0:
161,154,183143,1,8,0:0:0:0:
161,154,183218,1,8,0:0:0:0:
161,154,183368,1,0,0:0:0:0:
163,154,183443,1,0,0:0:0:0:
160,154,183518,1,0,0:0:0:0:
162,163,183818,1,12,0:0:0:0:
161,154,184268,1,4,0:0:0:0:
161,154,184418,1,8,0:0:0:0:
160,154,184568,1,4,0:0:0:0:
152,147,184718,1,8,0:0:0:0:
149,148,184868,1,0,0:0:0:0:
156,150,184943,1,0,0:0:0:0:
156,150,185018,1,0,0:0:0:0:
145,149,185168,1,8,0:0:0:0:
146,149,185468,1,4,0:0:0:0:
150,150,186068,1,12,0:0:0:0:
145,152,186218,1,12,0:0:0:0:
146,149,186368,1,12,0:0:0:0:
147,150,186668,1,4,0:0:0:0:
145,152,186818,1,12,0:0:0:0:
146,154,186968,1,4,0:0:0:0:
152,153,187268,1,8,0:0:0:0:
151,155,187418,1,8,0:0:0:0:
156,153,187568,1,0,0:0:0:0:
156,153,187643,1,0,0:0:0:0:
156,152,187793,1,8,0:0:0:0:
161,151,187868,1,8,0:0:0:0:
161,151,188018,1,0,0:0:0:0:
152,153,188168,1,8,0:0:0:0:
155,151,188243,1,8,0:0:0:0:
151,155,188393,1,0,0:0:0:0:
154,153,188468,1,0,0:0:0:0:
162,150,188618,1,8,0:0:0:0:
158,149,188918,1,8,0:0:0:0:
158,149,188993,1,8,0:0:0:0:
157,149,189068,1,8,0:0:0:0:
156,151,189218,1,8,0:0:0:0:
156,147,189368,1,0,0:0:0:0:
151,143,189668,1,8,0:0:0:0:
151,143,189818,1,8,0:0:0:0:
151,143,189968,1,8,0:0:0:0:
151,143,190118,1,8,0:0:0:0:
151,143,190268,1,4,0:0:0:0:
154,137,190868,1,12,0:0:0:0:
151,143,191168,1,12,0:0:0:0:
151,143,191468,1,4,0:0:0:0:
151,143,191618,1,12,0:0:0:0:
156,142,191768,1,4,0:0:0:0:
149,137,192068,1,0,0:0:0:0:
151,143,192218,1,8,0:0:0:0:
151,143,192368,1,0,0:0:0:0:
149,134,192668,1,0,0:0:0:0:
149,134,192743,1,0,0:0:0:0:
148,133,192818,1,0,0:0:0:0:
149,137,192968,1,0,0:0:0:0:
148,132,193118,1,8,0:0:0:0:
150,132,193268,1,0,0:0:0:0:
149,134,193568,1,8,0:0:0:0:
149,130,193868,1,0,0:0:0:0:
145,126,194018,5,0,0:0:0:0:
145,126,194093,1,0,0:0:0:0:
145,126,194168,1,0,0:0:0:0:
145,126,194318,1,8,0:0:0:0:
149,134,194468,1,0,0:0:0:0:
146,132,195068,5,8,0:0:0:0:
146,132,195368,1,0,0:0:0:0:
149,130,195518,1,8,0:0:0:0:
149,130,195668,1,0,0:0:0:0:
256,192,195818,8,0,198068,0:0:0:0:
