osu file format v14

[General]
AudioFilename: audio.mp3
AudioLeadIn: 0
PreviewTime: 93979
Countdown: 0
SampleSet: Normal
StackLeniency: 0.7
Mode: 1
LetterboxInBreaks: 0
WidescreenStoryboard: 1

[Editor]
Bookmarks: 3030,19363,51362,88696,124695,148310,178768,225434
DistanceSpacing: 1.7
BeatDivisor: 16
GridSize: 32
TimelineZoom: 4.500003

[Metadata]
Title:?63HiiraossHuikgoeH53?
TitleUnicode:?63HiiraossHuikgoeH53?
Artist:Xenon
ArtistUnicode:キセノン
Creator:-Kazu-
Version:?InnerrOnI?
Source:卯酉東海道 ~ Retrospective 53 minutes
Tags:Bouyu Toukaidou ~ Reiteisai 7 Black Onyx DiGiTiZeD FAiRiES breakcore -[ ix Ishida xi ]-
BeatmapID:1711365
BeatmapSetID:816062

[Difficulty]
HPDrainRate:6
CircleSize:5
OverallDifficulty:6
ApproachRate:5
SliderMultiplier:1.4
SliderTickRate:1

[Events]
//Background and Video events
0,0,"22569c5fe511432eca9c831161dd806b.png",0,200
//Break Periods
//Storyboard Layer 0 (Background)
//Storyboard Layer 1 (Fail)
//Storyboard Layer 2 (Pass)
//Storyboard Layer 3 (Foreground)
//Storyboard Sound Samples

[TimingPoints]
2030,500,4,1,0,40,1,8
2530,-133.333333333333,4,1,0,40,0,8
14280,-128.205128205128,4,1,0,40,0,8
14530,-123.456790123457,4,1,0,40,0,8
14780,-119.047619047619,4,1,0,40,0,8
15030,-114.942528735632,4,1,0,40,0,8
15280,-111.111111111111,4,1,0,40,0,8
15530,-107.52688172043,4,1,0,40,0,8
15780,-104.166666666667,4,1,0,40,0,8
16030,-101.010101010101,4,1,0,40,0,8
16280,-98.0392156862745,4,1,0,40,0,8
16530,-95.2380952380952,4,1,0,40,0,8
16780,-92.5925925925926,4,1,0,40,0,8
17030,-90.0900900900901,4,1,0,40,0,8
17280,-87.719298245614,4,1,0,40,0,8
17530,-85.4700854700855,4,1,0,40,0,8
17780,-83.3333333333333,4,1,0,40,0,8
18030,-33.3333333333333,4,1,0,40,0,8
18280,-33.3333333333333,4,1,0,40,0,8
18405,-33.3333333333333,4,1,0,40,0,8
18530,-33.3333333333333,4,1,0,40,0,8
18655,-33.3333333333333,4,1,0,40,0,8
18780,-33.3333333333333,4,1,0,40,0,8
18905,-33.3333333333333,4,1,0,40,0,8
19030,-33.3333333333333,4,1,0,40,0,8
19155,-33.3333333333333,4,1,0,40,0,8
19280,-33.3333333333333,4,1,0,40,0,8
19363,333.333333333333,4,1,0,80,1,0
40696,-83.3333333333333,4,1,0,80,0,0
43029,-81.9672131147541,4,1,0,80,0,0
43112,-80.6451612903226,4,1,0,80,0,0
43196,-79.3650793650794,4,1,0,80,0,0
43279,-78.125,4,1,0,80,0,0
43362,-76.9230769230769,4,1,0,80,0,0
43612,-71.4285714285714,4,1,0,80,0,0
43862,-74.0740740740741,4,1,0,80,0,0
43904,-76.9230769230769,4,1,0,80,0,0
43946,-80,4,1,0,80,0,0
43987,-83.3333333333333,4,1,0,80,0,0
44029,-86.9565217391304,4,1,0,80,0,0
44196,-83.3333333333333,4,1,0,80,0,0
46029,-50,4,1,0,80,0,0
46196,-83.3333333333333,4,1,0,80,0,0
46529,-33.3333333333333,4,1,0,80,0,0
46696,-83.3333333333333,4,1,0,80,0,0
47029,-50,4,1,0,80,0,0
47196,-66.6666666666667,4,1,0,80,0,0
47362,-74.0740740740741,4,1,0,80,0,0
47529,-83.3333333333333,4,1,0,80,0,0
47862,-33.3333333333333,4,1,0,80,0,0
48029,-83.3333333333333,4,1,0,80,0,0
48362,-71.4285714285714,4,1,0,80,0,0
48779,-72.463768115942,4,1,0,80,0,0
48862,-73.5294117647059,4,1,0,80,0,0
48946,-74.6268656716418,4,1,0,80,0,0
49029,-75.7575757575758,4,1,0,80,0,0
49112,-76.9230769230769,4,1,0,80,0,0
49196,-78.125,4,1,0,80,0,0
49279,-79.3650793650794,4,1,0,80,0,0
49362,-71.4285714285714,4,1,0,80,0,0
51362,-71.4285714285714,4,1,0,80,0,0
51529,-100,4,1,0,80,0,0
53279,-66.6666666666667,4,1,0,80,0,0
53362,-80,4,1,0,80,0,0
53446,-100,4,1,0,80,0,0
53612,-66.6666666666667,4,1,0,80,0,0
53695,-80,4,1,0,80,0,0
53779,-100,4,1,0,80,0,0
62029,-83.3333333333333,4,1,0,80,0,1
63362,-76.9230769230769,4,1,0,80,0,0
64696,-71.4285714285714,4,1,0,80,0,0
67362,-66.6666666666667,4,1,0,80,0,1
70029,-66.6666666666667,4,1,0,80,0,0
70112,-68.9655172413793,4,1,0,80,0,0
70196,-71.4285714285714,4,1,0,80,0,0
70279,-74.0740740740741,4,1,0,80,0,0
70362,-76.9230769230769,4,1,0,80,0,0
70446,-80,4,1,0,80,0,0
70529,-83.3333333333333,4,1,0,80,0,0
70612,-86.9565217391304,4,1,0,80,0,0
70696,-90.9090909090909,4,1,0,80,0,0
70862,-95.2380952380952,4,1,0,80,0,0
71029,-100,4,1,0,80,0,0
71196,-105.263157894737,4,1,0,80,0,0
71362,-66.6666666666667,4,1,0,80,0,1
72362,-66.6666666666667,4,1,0,80,0,0
72696,-83.3333333333333,4,1,0,80,0,0
86112,-100,4,1,0,80,0,0
88029,-76.9230769230769,4,1,0,80,0,0
88112,-86.9565217391304,4,1,0,80,0,0
88196,-100,4,1,0,80,0,0
88362,-76.9230769230769,4,1,0,80,0,0
88445,-86.9565217391304,4,1,0,80,0,0
88529,-100,4,1,0,80,0,0
88696,-133.333333333333,4,1,0,20,0,0
88779,-135.135135135135,4,1,0,20,0,0
88862,-136.986301369863,4,1,0,20,0,0
89362,-138.888888888889,4,1,0,20,0,0
89446,-140.845070422535,4,1,0,20,0,0
89529,-142.857142857143,4,1,0,20,0,0
90029,-144.927536231884,4,1,0,20,0,0
90112,-147.058823529412,4,1,0,20,0,0
90196,-149.253731343284,4,1,0,20,0,0
90696,-151.515151515152,4,1,0,20,0,0
90779,-153.846153846154,4,1,0,20,0,0
90862,-156.25,4,1,0,20,0,0
91362,-158.730158730159,4,1,0,20,0,0
91446,-161.290322580645,4,1,0,20,0,0
91529,-163.934426229508,4,1,0,20,0,0
92029,-100,4,1,0,70,0,0
92112,-104.166666666667,4,1,0,70,0,0
92196,-107.52688172043,4,1,0,70,0,0
92279,-111.111111111111,4,1,0,70,0,0
92362,-114.942528735632,4,1,0,70,0,0
92446,-119.047619047619,4,1,0,70,0,0
92529,-123.456790123457,4,1,0,70,0,0
92612,-128.205128205128,4,1,0,70,0,0
92696,-83.3333333333333,4,1,0,55,0,0
93362,-133.333333333333,4,1,0,40,0,0
94029,-100,4,1,0,80,0,0
99362,-83.3333333333333,4,1,0,80,0,0
114112,-100,4,1,0,80,0,0
118696,-50,4,1,0,50,0,0
119362,333.333333333333,4,1,0,80,1,8
119362,-100,4,1,0,80,0,0
124695,333.333333333333,4,1,0,80,1,8
124696,333.333333333333,4,1,0,80,1,0
124696,-83.3333333333333,4,1,0,80,0,0
128862,-100,4,1,0,80,0,0
129529,-95.2380952380952,4,1,0,80,0,0
129696,-90.9090909090909,4,1,0,80,0,0
129862,-86.9565217391304,4,1,0,80,0,0
130029,-83.3333333333333,4,1,0,80,0,0
130696,-50,4,1,0,40,0,0
131362,-83.3333333333333,4,1,0,80,0,0
132362,-25,4,1,0,30,0,0
132696,-83.3333333333333,4,1,0,80,0,0
134112,-100,4,1,0,50,0,0
134946,-97.0873786407767,4,1,0,50,0,0
135029,-94.3396226415094,4,1,0,50,0,0
135112,-91.743119266055,4,1,0,50,0,0
135196,-89.2857142857143,4,1,0,50,0,0
135279,-86.9565217391304,4,1,0,50,0,0
135362,-84.7457627118644,4,1,0,50,0,0
136696,-80,4,1,0,50,0,0
137362,-76.9230769230769,4,1,0,50,0,0
138029,-71.4285714285714,4,1,0,50,0,0
138279,-62.5,4,1,0,50,0,0
138529,-55.5555555555556,4,1,0,50,0,0
138862,-133.333333333333,4,1,0,50,0,0
139362,-100,4,1,0,50,0,0
140029,-66.6666666666667,4,1,0,50,0,0
140112,-68.0272108843537,4,1,0,50,0,0
140196,-69.4444444444444,4,1,0,50,0,0
140279,-70.9219858156028,4,1,0,50,0,0
140362,-72.463768115942,4,1,0,50,0,0
140446,-74.0740740740741,4,1,0,50,0,0
140529,-75.7575757575758,4,1,0,50,0,0
140612,-77.5193798449612,4,1,0,50,0,0
140696,-79.3650793650794,4,1,0,50,0,0
141696,-25,4,1,0,50,0,0
142029,333.333333333333,4,1,0,50,1,8
142029,-66.6666666666667,4,1,0,50,0,0
142112,-68.9655172413793,4,1,0,50,0,0
142195,-71.4285714285714,4,1,0,50,0,0
142279,-74.0740740740741,4,1,0,50,0,0
142362,-76.9230769230769,4,1,0,50,0,0
142473,-80,4,1,0,50,0,0
142529,-83.3333333333333,4,1,0,50,0,0
142640,-86.9565217391304,4,1,0,50,0,0
142716,-90.9090909090909,4,1,0,50,0,0
142841,-95.2380952380952,4,1,0,50,0,0
143008,-100,4,1,0,50,0,0
143362,333.333333333333,4,1,0,50,1,8
143362,-166.666666666667,4,1,0,50,0,0
143695,-133.333333333333,4,1,0,50,0,0
144362,-200,4,1,0,50,0,0
144695,333.333333333333,4,1,0,50,1,8
144695,-133.333333333333,4,1,0,50,0,0
146028,333.333333333333,4,1,0,50,1,8
147279,500,4,1,0,5,1,8
148279,-100,4,1,0,30,0,0
149279,472.44094488189,4,1,0,30,1,0
164397,-100,4,1,0,55,0,0
168176,465.116279069767,4,1,0,55,1,0
170036,451.127819548872,4,1,0,55,1,0
171840,441.176470588235,4,1,0,55,1,0
173604,437.956204379562,4,1,0,55,1,0
175355,428.571428571429,4,1,0,55,1,0
178768,333.333333333333,4,1,0,80,1,0
180768,-83.3333333333333,4,1,0,80,0,0
181518,-100,4,1,0,80,0,0
182768,-83.3333333333333,4,1,0,80,0,1
192143,-76.9230769230769,4,1,0,40,0,1
192393,-83.3333333333333,4,1,0,80,0,1
192476,-76.9230769230769,4,1,0,40,0,1
192893,-83.3333333333333,4,1,0,80,0,1
192976,-76.9230769230769,4,1,0,40,0,1
193059,-83.3333333333333,4,1,0,80,0,1
193142,-76.9230769230769,4,1,0,40,0,1
193392,-83.3333333333333,4,1,0,80,0,1
193434,-83.3333333333333,4,1,0,80,0,0
193601,-133.333333333333,4,1,0,60,0,0
198767,-100,4,1,0,80,0,0
202184,-97.0873786407767,4,1,0,80,0,0
202267,-94.3396226415094,4,1,0,80,0,0
202351,-91.743119266055,4,1,0,80,0,0
202434,-89.2857142857143,4,1,0,80,0,0
202517,-86.9565217391304,4,1,0,80,0,0
202601,-84.7457627118644,4,1,0,80,0,0
202684,-82.6446280991736,4,1,0,80,0,0
202767,-80.6451612903226,4,1,0,80,0,0
204101,-71.4285714285714,4,1,0,80,0,1
212101,-62.5,4,1,0,80,0,0
213434,-62.5,4,1,0,80,0,1
214184,-50,4,1,0,80,0,1
214767,-50,4,1,0,80,0,0
214851,-83.3333333333333,4,1,0,80,0,0
226101,-100,4,1,0,80,0,0
227116,363.636363636364,4,1,0,80,1,0
227479,400,4,1,0,80,1,0
227879,444.444444444444,4,1,0,80,1,0
228323,461.538461538462,4,1,0,80,1,0

[HitObjects]
349,133,3030,5,8,0:0:0:0:
387,66,3092,1,8,0:0:0:0:
387,66,3280,1,8,0:0:0:0:
274,112,3530,1,8,0:0:0:0:
274,112,3780,1,8,0:0:0:0:
274,112,4030,1,0,0:0:0:0:
247,79,4280,1,0,0:0:0:0:
247,79,4530,1,8,0:0:0:0:
247,79,5030,1,0,0:0:0:0:
247,79,5280,1,0,0:0:0:0:
247,79,5530,1,8,0:0:0:0:
247,79,6030,1,0,0:0:0:0:
247,79,6280,1,0,0:0:0:0:
247,79,6530,1,8,0:0:0:0:
288,65,7030,1,8,0:0:0:0:
288,65,7280,1,0,0:0:0:0:
288,65,7530,1,8,0:0:0:0:
288,65,7780,1,8,0:0:0:0:
288,65,8030,1,0,0:0:0:0:
288,65,8280,1,0,0:0:0:0:
288,65,8530,1,8,0:0:0:0:
288,65,9030,1,8,0:0:0:0:
288,65,9280,1,0,0:0:0:0:
288,65,9530,1,8,0:0:0:0:
288,65,10030,1,0,0:0:0:0:
288,65,10280,1,0,0:0:0:0:
288,65,10530,1,8,0:0:0:0:
288,65,11030,1,8,0:0:0:0:
288,65,11280,1,0,0:0:0:0:
288,65,11530,1,8,0:0:0:0:
288,65,11780,1,8,0:0:0:0:
214,82,12030,1,0,0:0:0:0:
321,114,12280,1,0,0:0:0:0:
321,114,12530,1,8,0:0:0:0:
321,114,13030,1,8,0:0:0:0:
321,114,13280,1,0,0:0:0:0:
321,114,13530,1,8,0:0:0:0:
321,114,14030,1,0,0:0:0:0:
321,114,14280,1,0,0:0:0:0:
321,114,14530,1,0,0:0:0:0:
321,118,14780,1,0,0:0:0:0:
321,118,15030,1,8,0:0:0:0:
321,118,15280,1,0,0:0:0:0:
207,82,15530,1,8,0:0:0:0:
217,113,15780,1,8,0:0:0:0:
311,126,16030,1,12,0:0:0:0:
311,126,16280,1,4,0:0:0:0:
311,126,16530,1,4,0:0:0:0:
311,126,16780,1,12,0:0:0:0:
311,126,17030,1,12,0:0:0:0:
311,126,17280,1,12,0:0:0:0:
311,126,17530,1,4,0:0:0:0:
311,126,17780,1,4,0:0:0:0:
253,187,18030,1,12,0:0:0:0:
234,79,18280,1,12,0:0:0:0:
202,101,18405,1,12,0:0:0:0:
202,101,18530,1,12,0:0:0:0:
202,101,18655,1,12,0:0:0:0:
202,101,18780,1,12,0:0:0:0:
202,101,18905,1,12,0:0:0:0:
234,79,19030,1,12,0:0:0:0:
257,69,19155,1,12,0:0:0:0:
257,69,19280,1,12,0:0:0:0:
256,192,19363,5,0,0:0:0:0:
256,192,19529,1,0,0:0:0:0:
256,192,19696,1,8,0:0:0:0:
256,192,19779,1,0,0:0:0:0:
256,192,19863,1,8,0:0:0:0:
256,192,19946,1,0,0:0:0:0:
256,192,20029,1,0,0:0:0:0:
256,192,20113,1,8,0:0:0:0:
256,192,20196,1,0,0:0:0:0:
256,192,20279,1,8,0:0:0:0:
256,192,20363,1,8,0:0:0:0:
256,192,20529,1,0,0:0:0:0:
256,192,20613,1,8,0:0:0:0:
256,192,20696,1,8,0:0:0:0:
256,192,20863,1,0,0:0:0:0:
256,192,20946,1,8,0:0:0:0:
256,192,21113,1,0,0:0:0:0:
256,192,21196,1,8,0:0:0:0:
256,192,21279,1,0,0:0:0:0:
256,192,21362,1,0,0:0:0:0:
256,192,21418,1,0,0:0:0:0:
256,192,21612,1,0,0:0:0:0:
256,192,21696,1,8,0:0:0:0:
256,192,21779,1,0,0:0:0:0:
256,192,21862,1,8,0:0:0:0:
256,192,21904,1,8,0:0:0:0:
256,192,21946,1,8,0:0:0:0:
256,192,21987,1,8,0:0:0:0:
256,192,22029,1,0,0:0:0:0:
256,192,22196,1,0,0:0:0:0:
256,192,22279,1,0,0:0:0:0:
256,192,22362,1,8,0:0:0:0:
256,192,22529,1,0,0:0:0:0:
256,192,22612,1,8,0:0:0:0:
256,192,22696,1,0,0:0:0:0:
256,192,22779,1,0,0:0:0:0:
256,192,22862,1,8,0:0:0:0:
256,192,22946,1,8,0:0:0:0:
256,192,23029,1,0,0:0:0:0:
256,192,23196,1,8,0:0:0:0:
256,192,23279,1,0,0:0:0:0:
256,192,23362,1,8,0:0:0:0:
256,192,23446,1,8,0:0:0:0:
256,192,23529,1,8,0:0:0:0:
256,192,23612,1,8,0:0:0:0:
256,192,23696,1,0,0:0:0:0:
256,192,23779,1,0,0:0:0:0:
256,192,23862,1,8,0:0:0:0:
256,192,24029,1,0,0:0:0:0:
256,192,24196,1,0,0:0:0:0:
256,192,24362,1,0,0:0:0:0:
256,192,24446,1,8,0:0:0:0:
256,192,24529,1,8,0:0:0:0:
256,192,24612,1,0,0:0:0:0:
256,192,24696,1,0,0:0:0:0:
256,192,24862,1,0,0:0:0:0:
256,192,25029,1,8,0:0:0:0:
256,192,25196,1,0,0:0:0:0:
256,192,25279,1,8,0:0:0:0:
256,192,25362,1,0,0:0:0:0:
256,192,25446,1,8,0:0:0:0:
256,192,25529,1,8,0:0:0:0:
256,192,25612,1,0,0:0:0:0:
256,192,25696,1,8,0:0:0:0:
256,192,25862,1,0,0:0:0:0:
256,192,25946,1,8,0:0:0:0:
256,192,26029,1,8,0:0:0:0:
256,192,26196,1,0,0:0:0:0:
256,192,26279,1,8,0:0:0:0:
256,192,26446,1,8,0:0:0:0:
256,192,26529,1,8,0:0:0:0:
256,192,26612,1,0,0:0:0:0:
256,192,26696,1,8,0:0:0:0:
256,192,26779,1,0,0:0:0:0:
256,192,26862,1,0,0:0:0:0:
256,192,26946,1,8,0:0:0:0:
256,192,27029,1,0,0:0:0:0:
256,192,27196,1,8,0:0:0:0:
256,192,27237,1,8,0:0:0:0:
256,192,27279,1,8,0:0:0:0:
256,192,27321,1,8,0:0:0:0:
256,192,27362,1,0,0:0:0:0:
256,192,27529,1,0,0:0:0:0:
256,192,27612,1,0,0:0:0:0:
256,192,27696,1,8,0:0:0:0:
256,192,27779,1,0,0:0:0:0:
256,192,27946,1,0,0:0:0:0:
256,192,28029,1,8,0:0:0:0:
256,192,28112,1,0,0:0:0:0:
256,192,28196,1,0,0:0:0:0:
256,192,28279,1,0,0:0:0:0:
256,192,28362,1,8,0:0:0:0:
256,192,28529,1,0,0:0:0:0:
256,192,28612,1,0,0:0:0:0:
256,192,28696,1,8,0:0:0:0:
256,192,28779,1,8,0:0:0:0:
256,192,28862,1,8,0:0:0:0:
256,192,28946,1,8,0:0:0:0:
256,192,29029,1,0,0:0:0:0:
256,192,29112,1,0,0:0:0:0:
256,192,29196,1,8,0:0:0:0:
256,192,29279,1,8,0:0:0:0:
256,192,29362,1,0,0:0:0:0:
256,192,29529,1,8,0:0:0:0:
256,192,29696,1,0,0:0:0:0:
256,192,29862,1,8,0:0:0:0:
256,192,29946,1,8,0:0:0:0:
256,192,30029,1,0,0:0:0:0:
256,192,30196,1,8,0:0:0:0:
256,192,30279,1,0,0:0:0:0:
256,192,30362,1,8,0:0:0:0:
256,192,30446,1,0,0:0:0:0:
256,192,30529,1,8,0:0:0:0:
256,192,30612,1,8,0:0:0:0:
256,192,30696,1,0,0:0:0:0:
256,192,30862,1,8,0:0:0:0:
256,192,30946,1,8,0:0:0:0:
256,192,31029,1,8,0:0:0:0:
256,192,31196,1,8,0:0:0:0:
256,192,31362,1,8,0:0:0:0:
256,192,31529,1,0,0:0:0:0:
256,192,31612,1,8,0:0:0:0:
256,192,31696,1,0,0:0:0:0:
256,192,31779,1,0,0:0:0:0:
256,192,31862,1,8,0:0:0:0:
256,192,32029,1,8,0:0:0:0:
256,192,32196,1,0,0:0:0:0:
256,192,32279,1,0,0:0:0:0:
256,192,32446,1,0,0:0:0:0:
256,192,32529,1,8,0:0:0:0:
256,192,32571,1,8,0:0:0:0:
256,192,32612,1,8,0:0:0:0:
256,192,32654,1,8,0:0:0:0:
256,192,32696,1,0,0:0:0:0:
256,192,32862,1,0,0:0:0:0:
256,192,33029,1,8,0:0:0:0:
256,192,33112,1,0,0:0:0:0:
256,192,33279,1,0,0:0:0:0:
256,192,33362,1,8,0:0:0:0:
256,192,33446,1,0,0:0:0:0:
256,192,33529,1,0,0:0:0:0:
256,192,33612,1,8,0:0:0:0:
256,192,33696,1,8,0:0:0:0:
256,192,33862,1,8,0:0:0:0:
256,192,34029,1,8,0:0:0:0:
256,192,34112,1,8,0:0:0:0:
256,192,34196,1,8,0:0:0:0:
256,192,34279,1,8,0:0:0:0:
256,192,34362,1,0,0:0:0:0:
256,192,34446,1,0,0:0:0:0:
256,192,34529,1,8,0:0:0:0:
256,192,34696,1,0,0:0:0:0:
256,192,34779,1,8,0:0:0:0:
256,192,34862,1,8,0:0:0:0:
256,192,35029,1,8,0:0:0:0:
256,192,35196,1,8,0:0:0:0:
256,192,35279,1,8,0:0:0:0:
256,192,35362,1,0,0:0:0:0:
256,192,35446,1,8,0:0:0:0:
256,192,35612,1,0,0:0:0:0:
256,192,35696,1,8,0:0:0:0:
256,192,35779,1,0,0:0:0:0:
256,192,35862,1,8,0:0:0:0:
256,192,35946,1,8,0:0:0:0:
256,192,36029,1,0,0:0:0:0:
256,192,36196,1,8,0:0:0:0:
256,192,36279,1,0,0:0:0:0:
256,192,36362,1,8,0:0:0:0:
256,192,36446,1,8,0:0:0:0:
256,192,36529,1,8,0:0:0:0:
256,192,36696,1,8,0:0:0:0:
256,192,36862,1,0,0:0:0:0:
256,192,37029,1,0,0:0:0:0:
256,192,37196,1,8,0:0:0:0:
256,192,37362,1,0,0:0:0:0:
256,192,37446,1,0,0:0:0:0:
256,192,37529,1,8,0:0:0:0:
256,192,37612,1,0,0:0:0:0:
256,192,37696,1,8,0:0:0:0:
256,192,37779,1,0,0:0:0:0:
256,192,37862,1,8,0:0:0:0:
256,192,37918,1,8,0:0:0:0:
256,192,37974,1,8,0:0:0:0:
256,192,38029,1,0,0:0:0:0:
256,192,38196,1,0,0:0:0:0:
256,192,38362,1,8,0:0:0:0:
256,192,38446,1,0,0:0:0:0:
256,192,38612,1,0,0:0:0:0:
256,192,38696,1,8,0:0:0:0:
256,192,38779,1,0,0:0:0:0:
256,192,38862,1,0,0:0:0:0:
256,192,38946,1,8,0:0:0:0:
256,192,39029,1,0,0:0:0:0:
256,192,39196,1,8,0:0:0:0:
256,192,39279,1,0,0:0:0:0:
256,192,39362,1,8,0:0:0:0:
256,192,39446,1,8,0:0:0:0:
256,192,39529,1,0,0:0:0:0:
256,192,39612,1,8,0:0:0:0:
256,192,39696,1,0,0:0:0:0:
256,192,39862,1,8,0:0:0:0:
256,192,39946,1,8,0:0:0:0:
256,192,40029,1,0,0:0:0:0:
256,192,40112,1,8,0:0:0:0:
256,192,40196,1,0,0:0:0:0:
256,192,40279,1,0,0:0:0:0:
256,192,40362,1,12,0:0:0:0:
256,192,40696,1,0,0:0:0:0:
256,192,40751,1,0,0:0:0:0:
256,192,40807,1,0,0:0:0:0:
256,192,40862,1,8,0:0:0:0:
256,192,40946,1,0,0:0:0:0:
256,192,41029,1,8,0:0:0:0:
256,192,41085,1,0,0:0:0:0:
256,192,41140,1,0,0:0:0:0:
256,192,41196,1,8,0:0:0:0:
256,192,41279,1,0,0:0:0:0:
256,192,41362,1,8,0:0:0:0:
256,192,41446,1,8,0:0:0:0:
256,192,41529,1,0,0:0:0:0:
256,192,41612,1,0,0:0:0:0:
256,192,41696,1,8,0:0:0:0:
256,192,41737,1,8,0:0:0:0:
256,192,41862,1,8,0:0:0:0:
256,192,41904,1,8,0:0:0:0:
256,192,42029,1,0,0:0:0:0:
256,192,42112,1,8,0:0:0:0:
256,192,42196,1,0,0:0:0:0:
256,192,42279,1,0,0:0:0:0:
256,192,42362,1,8,0:0:0:0:
256,192,42446,1,8,0:0:0:0:
256,192,42529,1,8,0:0:0:0:
256,192,42612,1,8,0:0:0:0:
256,192,42696,1,8,0:0:0:0:
256,192,42862,1,8,0:0:0:0:
256,192,43029,1,8,0:0:0:0:
256,192,43112,1,8,0:0:0:0:
256,192,43196,1,8,0:0:0:0:
256,192,43279,1,8,0:0:0:0:
256,192,43362,1,4,0:0:0:0:
256,192,43612,1,4,0:0:0:0:
256,192,43862,1,0,0:0:0:0:
256,192,43904,1,0,0:0:0:0:
256,192,43946,1,0,0:0:0:0:
256,192,43987,1,0,0:0:0:0:
256,192,44029,1,8,0:0:0:0:
256,192,44196,1,8,0:0:0:0:
256,192,44362,1,8,0:0:0:0:
256,192,44529,1,0,0:0:0:0:
256,192,44696,1,0,0:0:0:0:
256,192,44779,1,8,0:0:0:0:
256,192,44862,1,0,0:0:0:0:
256,192,44946,1,0,0:0:0:0:
256,192,45029,1,8,0:0:0:0:
256,192,45112,1,8,0:0:0:0:
256,192,45196,1,0,0:0:0:0:
256,192,45279,1,8,0:0:0:0:
256,192,45362,1,0,0:0:0:0:
256,192,45418,1,0,0:0:0:0:
256,192,45474,1,0,0:0:0:0:
256,192,45529,1,8,0:0:0:0:
256,192,45612,1,0,0:0:0:0:
256,192,45696,1,8,0:0:0:0:
256,192,46029,1,4,0:0:0:0:
256,192,46196,1,8,0:0:0:0:
256,192,46279,1,0,0:0:0:0:
256,192,46362,1,8,0:0:0:0:
256,192,46529,1,4,0:0:0:0:
256,192,46696,1,8,0:0:0:0:
256,192,46779,1,8,0:0:0:0:
256,192,46862,1,0,0:0:0:0:
256,192,47029,1,4,0:0:0:0:
256,192,47196,1,12,0:0:0:0:
256,192,47362,1,4,0:0:0:0:
256,192,47529,1,8,0:0:0:0:
256,192,47612,1,4,0:0:0:0:
256,192,47862,1,12,0:0:0:0:
256,192,48029,1,8,0:0:0:0:
256,192,48112,1,8,0:0:0:0:
256,192,48196,1,8,0:0:0:0:
256,192,48279,1,8,0:0:0:0:
256,192,48362,1,8,0:0:0:0:
256,192,48418,1,8,0:0:0:0:
256,192,48474,1,0,0:0:0:0:
256,192,48529,1,0,0:0:0:0:
256,192,48585,1,0,0:0:0:0:
256,192,48640,1,0,0:0:0:0:
256,192,48696,1,8,0:0:0:0:
256,192,48779,1,8,0:0:0:0:
256,192,48862,1,8,0:0:0:0:
256,192,48946,1,0,0:0:0:0:
256,192,49029,1,0,0:0:0:0:
256,192,49112,1,0,0:0:0:0:
256,192,49196,1,0,0:0:0:0:
256,192,49279,1,0,0:0:0:0:
256,192,49362,1,8,0:0:0:0:
256,192,49404,1,8,0:0:0:0:
256,192,49446,1,0,0:0:0:0:
256,192,49529,1,8,0:0:0:0:
265,202,49612,1,0,0:0:0:0:
256,192,49696,1,8,0:0:0:0:
256,192,49737,1,0,0:0:0:0:
256,192,49779,1,8,0:0:0:0:
256,192,49862,1,8,0:0:0:0:
256,192,50029,1,4,0:0:0:0:
256,192,50196,1,8,0:0:0:0:
256,192,50279,1,8,0:0:0:0:
256,192,50362,1,4,0:0:0:0:
256,192,50529,1,0,0:0:0:0:
256,192,50779,1,8,0:0:0:0:
256,192,50862,1,4,0:0:0:0:
256,192,51029,1,4,0:0:0:0:
256,192,51196,1,8,0:0:0:0:
256,192,51279,1,8,0:0:0:0:
256,192,51362,1,4,0:0:0:0:
209,133,51696,1,8,0:0:0:0:
266,107,52175,1,8,0:0:0:0:
266,107,52342,1,8,0:0:0:0:
268,127,53029,1,8,0:0:0:0:
353,103,53342,1,8,0:0:0:0:
353,103,53426,1,8,0:0:0:0:
353,103,53509,1,8,0:0:0:0:
353,103,53676,1,0,0:0:0:0:
353,103,53759,1,0,0:0:0:0:
353,103,53842,1,0,0:0:0:0:
293,148,54362,1,8,0:0:0:0:
293,148,54842,1,8,0:0:0:0:
293,148,55008,1,8,0:0:0:0:
293,148,55175,1,8,0:0:0:0:
293,148,55258,1,8,0:0:0:0:
293,148,55342,1,8,0:0:0:0:
145,166,55696,1,8,0:0:0:0:
345,133,56175,1,8,0:0:0:0:
345,133,56342,1,8,0:0:0:0:
256,117,56696,1,0,0:0:0:0:
331,134,57196,1,8,0:0:0:0:
331,134,57279,1,8,0:0:0:0:
331,134,57362,1,8,0:0:0:0:
150,125,57529,1,0,0:0:0:0:
296,97,57696,1,8,0:0:0:0:
301,98,58029,1,0,0:0:0:0:
301,98,58362,1,0,0:0:0:0:
301,98,58529,1,0,0:0:0:0:
301,98,58612,1,0,0:0:0:0:
301,98,58696,1,8,0:0:0:0:
301,98,58862,1,0,0:0:0:0:
301,98,58946,1,0,0:0:0:0:
301,98,59029,1,8,0:0:0:0:
301,98,59112,1,8,0:0:0:0:
301,98,59196,1,8,0:0:0:0:
301,98,59279,1,8,0:0:0:0:
301,98,59362,1,0,0:0:0:0:
301,98,59696,1,0,0:0:0:0:
301,98,60029,1,8,0:0:0:0:
301,98,60112,1,8,0:0:0:0:
301,98,60196,1,0,0:0:0:0:
301,98,60279,1,8,0:0:0:0:
301,98,60362,1,8,0:0:0:0:
301,98,60446,1,8,0:0:0:0:
301,98,60529,1,0,0:0:0:0:
301,98,60612,1,0,0:0:0:0:
301,98,60696,1,0,0:0:0:0:
289,82,60862,1,8,0:0:0:0:
301,98,60946,1,0,0:0:0:0:
289,79,61029,1,0,0:0:0:0:
289,82,61196,1,8,0:0:0:0:
289,82,61279,1,0,0:0:0:0:
378,109,61362,1,8,0:0:0:0:
378,109,61404,1,8,0:0:0:0:
378,109,61529,1,8,0:0:0:0:
378,109,61696,1,8,0:0:0:0:
378,109,61862,1,8,0:0:0:0:
378,109,62029,1,4,0:0:0:0:
290,107,62196,1,0,0:0:0:0:
290,107,62362,1,8,0:0:0:0:
356,131,62529,1,0,0:0:0:0:
356,131,62696,1,8,0:0:0:0:
356,131,62779,1,0,0:0:0:0:
356,131,62862,1,0,0:0:0:0:
356,131,62946,1,8,0:0:0:0:
356,131,63029,1,12,0:0:0:0:
356,131,63196,1,12,0:0:0:0:
356,131,63362,1,4,0:0:0:0:
356,131,63529,1,0,0:0:0:0:
356,131,63612,1,0,0:0:0:0:
356,131,63696,1,8,0:0:0:0:
356,131,63779,1,0,0:0:0:0:
356,131,63862,1,8,0:0:0:0:
356,131,63946,1,0,0:0:0:0:
356,131,64029,1,0,0:0:0:0:
433,93,64196,1,0,0:0:0:0:
433,93,64279,1,8,0:0:0:0:
433,93,64362,1,8,0:0:0:0:
433,93,64529,1,8,0:0:0:0:
433,93,64696,1,4,0:0:0:0:
433,93,64946,1,4,0:0:0:0:
383,104,65196,1,8,0:0:0:0:
383,104,65237,1,8,0:0:0:0:
383,104,65279,1,8,0:0:0:0:
383,104,65321,1,8,0:0:0:0:
383,104,65362,1,4,0:0:0:0:
357,148,65529,1,8,0:0:0:0:
357,148,65612,1,8,0:0:0:0:
357,148,65696,1,0,0:0:0:0:
357,148,65862,1,8,0:0:0:0:
357,148,65946,1,8,0:0:0:0:
357,148,66029,1,0,0:0:0:0:
439,122,66112,1,0,0:0:0:0:
439,122,66196,1,0,0:0:0:0:
439,122,66279,1,0,0:0:0:0:
439,122,66362,1,8,0:0:0:0:
439,122,66529,1,0,0:0:0:0:
439,122,66696,1,8,0:0:0:0:
439,122,66862,1,0,0:0:0:0:
439,122,66946,1,0,0:0:0:0:
439,122,67029,1,8,0:0:0:0:
439,122,67196,1,8,0:0:0:0:
439,122,67362,1,4,0:0:0:0:
376,132,67529,1,0,0:0:0:0:
376,132,67612,1,0,0:0:0:0:
376,132,67696,1,8,0:0:0:0:
376,132,67862,1,4,0:0:0:0:
318,118,68029,1,0,0:0:0:0:
318,118,68112,1,0,0:0:0:0:
318,118,68196,1,8,0:0:0:0:
318,118,68362,1,12,0:0:0:0:
318,118,68529,1,12,0:0:0:0:
318,118,68696,1,4,0:0:0:0:
318,118,68946,1,4,0:0:0:0:
318,118,69196,1,4,0:0:0:0:
318,118,69362,1,0,0:0:0:0:
318,118,69446,1,0,0:0:0:0:
318,118,69529,1,0,0:0:0:0:
318,118,69612,1,0,0:0:0:0:
318,118,69696,1,8,0:0:0:0:
318,118,69779,1,8,0:0:0:0:
318,118,69862,1,0,0:0:0:0:
318,118,69946,1,0,0:0:0:0:
318,118,70029,1,4,0:0:0:0:
318,118,70112,1,0,0:0:0:0:
318,118,70196,1,0,0:0:0:0:
318,118,70279,1,8,0:0:0:0:
318,118,70362,1,8,0:0:0:0:
318,118,70446,1,0,0:0:0:0:
318,118,70529,1,0,0:0:0:0:
318,118,70612,1,0,0:0:0:0:
318,118,70696,1,0,0:0:0:0:
503,53,70724,1,0,0:0:0:0:
362,70,70862,1,0,0:0:0:0:
362,70,70890,1,0,0:0:0:0:
362,70,71029,1,8,0:0:0:0:
362,70,71057,1,8,0:0:0:0:
362,70,71196,1,0,0:0:0:0:
362,70,71362,1,4,0:0:0:0:
358,128,71529,1,8,0:0:0:0:
358,128,71612,1,8,0:0:0:0:
358,128,71696,1,0,0:0:0:0:
358,128,71862,1,8,0:0:0:0:
358,128,71946,1,8,0:0:0:0:
358,128,72196,1,8,0:0:0:0:
358,128,72279,1,8,0:0:0:0:
358,128,72362,1,0,0:0:0:0:
341,138,72696,1,8,0:0:0:0:
226,143,72862,1,0,0:0:0:0:
288,141,72904,1,0,0:0:0:0:
288,141,72946,1,0,0:0:0:0:
288,141,72987,1,0,0:0:0:0:
288,141,73029,1,8,0:0:0:0:
161,178,73196,1,0,0:0:0:0:
231,148,73237,1,8,0:0:0:0:
302,147,73362,1,8,0:0:0:0:
302,147,73446,1,0,0:0:0:0:
302,147,73529,1,0,0:0:0:0:
302,147,73612,1,8,0:0:0:0:
302,147,73696,1,8,0:0:0:0:
335,115,73779,1,8,0:0:0:0:
335,115,73862,1,0,0:0:0:0:
335,115,73946,1,8,0:0:0:0:
335,67,74029,1,4,0:0:0:0:
236,90,74362,1,4,0:0:0:0:
255,98,74696,1,12,0:0:0:0:
255,98,74862,1,12,0:0:0:0:
255,98,75029,1,12,0:0:0:0:
255,98,75196,1,4,0:0:0:0:
348,72,75362,1,12,0:0:0:0:
348,72,75446,1,8,0:0:0:0:
348,72,75529,1,8,0:0:0:0:
348,72,75612,1,8,0:0:0:0:
348,72,75696,1,0,0:0:0:0:
348,72,75862,1,8,0:0:0:0:
348,72,75946,1,8,0:0:0:0:
348,72,76029,1,8,0:0:0:0:
348,72,76112,1,8,0:0:0:0:
348,72,76196,1,0,0:0:0:0:
348,72,76362,1,0,0:0:0:0:
348,72,76529,1,0,0:0:0:0:
339,96,76696,1,8,0:0:0:0:
273,168,76724,1,8,0:0:0:0:
329,120,76862,1,0,0:0:0:0:
329,120,76946,1,8,0:0:0:0:
339,96,77029,1,8,0:0:0:0:
273,168,77057,1,8,0:0:0:0:
301,93,77196,1,0,0:0:0:0:
301,93,77279,1,8,0:0:0:0:
339,96,77362,1,8,0:0:0:0:
273,168,77390,1,8,0:0:0:0:
293,60,77446,1,8,0:0:0:0:
296,63,77529,1,0,0:0:0:0:
281,97,77612,1,0,0:0:0:0:
433,65,77696,1,0,0:0:0:0:
433,80,77751,1,0,0:0:0:0:
433,80,77807,1,0,0:0:0:0:
438,59,77862,1,8,0:0:0:0:
433,70,77904,1,8,0:0:0:0:
433,70,77946,1,8,0:0:0:0:
433,70,77987,1,8,0:0:0:0:
433,70,78029,1,4,0:0:0:0:
298,127,78196,1,8,0:0:0:0:
298,127,78279,1,8,0:0:0:0:
362,189,78362,1,0,0:0:0:0:
282,157,78529,1,8,0:0:0:0:
298,127,78696,1,0,0:0:0:0:
298,127,78779,1,0,0:0:0:0:
338,157,78862,1,8,0:0:0:0:
338,157,79029,1,0,0:0:0:0:
338,157,79196,1,8,0:0:0:0:
338,157,79362,1,8,0:0:0:0:
338,157,79529,1,8,0:0:0:0:
338,157,79612,1,8,0:0:0:0:
338,157,79696,1,8,0:0:0:0:
338,157,79862,1,8,0:0:0:0:
338,157,79946,1,8,0:0:0:0:
338,157,80029,1,8,0:0:0:0:
338,157,80196,1,0,0:0:0:0:
338,157,80362,1,8,0:0:0:0:
338,157,80529,1,8,0:0:0:0:
340,151,80696,1,0,0:0:0:0:
340,151,80862,1,0,0:0:0:0:
340,151,80946,1,0,0:0:0:0:
340,151,81029,1,8,0:0:0:0:
340,151,81112,1,8,0:0:0:0:
340,151,81196,1,8,0:0:0:0:
340,151,81279,1,8,0:0:0:0:
359,178,81362,1,0,0:0:0:0:
359,178,81418,1,0,0:0:0:0:
359,178,81474,1,0,0:0:0:0:
359,178,81529,1,0,0:0:0:0:
435,119,81612,1,0,0:0:0:0:
468,190,81696,1,0,0:0:0:0:
468,190,81751,1,0,0:0:0:0:
468,190,81807,1,0,0:0:0:0:
445,137,81862,1,8,0:0:0:0:
445,137,81904,1,8,0:0:0:0:
445,137,81946,1,8,0:0:0:0:
445,137,81987,1,8,0:0:0:0:
307,84,82029,1,8,0:0:0:0:
400,140,82196,1,0,0:0:0:0:
400,140,82279,1,8,0:0:0:0:
316,163,82446,1,0,0:0:0:0:
316,163,82529,1,8,0:0:0:0:
316,163,82612,1,0,0:0:0:0:
316,163,82696,1,8,0:0:0:0:
316,163,82862,1,0,0:0:0:0:
316,163,83029,1,8,0:0:0:0:
316,163,83112,1,8,0:0:0:0:
316,163,83196,1,8,0:0:0:0:
316,163,83279,1,8,0:0:0:0:
316,163,83362,1,4,0:0:0:0:
298,127,83529,1,8,0:0:0:0:
298,127,83612,1,8,0:0:0:0:
298,127,83696,1,0,0:0:0:0:
298,127,83862,1,8,0:0:0:0:
298,127,84029,1,0,0:0:0:0:
298,127,84112,1,0,0:0:0:0:
298,127,84196,1,8,0:0:0:0:
350,114,84362,1,0,0:0:0:0:
350,114,84446,1,0,0:0:0:0:
350,114,84529,1,8,0:0:0:0:
350,114,84612,1,8,0:0:0:0:
350,114,84696,1,8,0:0:0:0:
350,114,84862,1,8,0:0:0:0:
350,114,84946,1,8,0:0:0:0:
350,114,85029,1,8,0:0:0:0:
350,114,85196,1,8,0:0:0:0:
350,114,85279,1,8,0:0:0:0:
350,114,85362,1,8,0:0:0:0:
350,114,85529,1,0,0:0:0:0:
350,114,85696,1,8,0:0:0:0:
350,114,85862,1,0,0:0:0:0:
350,114,85946,1,8,0:0:0:0:
350,114,86029,1,4,0:0:0:0:
350,114,86362,1,8,0:0:0:0:
350,114,86529,1,0,0:0:0:0:
350,114,86862,1,0,0:0:0:0:
350,114,87029,1,8,0:0:0:0:
350,114,87196,1,0,0:0:0:0:
350,114,87279,1,8,0:0:0:0:
350,114,87362,1,0,0:0:0:0:
350,114,87529,1,0,0:0:0:0:
350,114,87696,1,8,0:0:0:0:
350,114,87862,1,0,0:0:0:0:
310,67,88029,1,8,0:0:0:0:
310,67,88112,1,8,0:0:0:0:
310,67,88196,1,0,0:0:0:0:
314,77,88362,1,8,0:0:0:0:
314,77,88446,1,8,0:0:0:0:
314,77,88529,1,0,0:0:0:0:
256,192,88696,5,0,0:0:0:0:
256,192,88779,1,0,0:0:0:0:
256,192,88862,1,8,0:0:0:0:
256,192,88946,1,0,0:0:0:0:
256,192,89029,1,8,0:0:0:0:
256,192,89112,1,0,0:0:0:0:
256,192,89196,1,0,0:0:0:0:
256,192,89279,1,0,0:0:0:0:
256,192,89362,1,8,0:0:0:0:
256,192,89446,1,8,0:0:0:0:
256,192,89529,1,0,0:0:0:0:
256,192,89612,1,8,0:0:0:0:
256,192,89696,1,0,0:0:0:0:
256,192,89779,1,0,0:0:0:0:
256,192,89862,1,0,0:0:0:0:
256,192,89946,1,0,0:0:0:0:
256,192,90029,1,8,0:0:0:0:
256,192,90112,1,0,0:0:0:0:
256,192,90196,1,8,0:0:0:0:
256,192,90279,1,0,0:0:0:0:
256,192,90362,1,0,0:0:0:0:
256,192,90446,1,8,0:0:0:0:
256,192,90529,1,8,0:0:0:0:
256,192,90612,1,0,0:0:0:0:
256,192,90696,1,8,0:0:0:0:
256,192,90779,1,8,0:0:0:0:
256,192,90862,1,0,0:0:0:0:
256,192,90946,1,8,0:0:0:0:
256,192,91029,1,0,0:0:0:0:
256,192,91112,1,0,0:0:0:0:
256,192,91196,1,0,0:0:0:0:
256,192,91279,1,0,0:0:0:0:
256,192,91362,1,8,0:0:0:0:
256,192,91446,1,0,0:0:0:0:
256,192,91529,1,0,0:0:0:0:
256,192,91612,1,0,0:0:0:0:
256,192,91696,1,8,0:0:0:0:
256,192,91779,1,8,0:0:0:0:
256,192,91862,1,0,0:0:0:0:
256,192,91946,1,0,0:0:0:0:
256,192,92029,1,8,0:0:0:0:
256,192,92112,1,8,0:0:0:0:
256,192,92196,1,0,0:0:0:0:
256,192,92279,1,8,0:0:0:0:
256,192,92362,1,0,0:0:0:0:
256,192,92446,1,0,0:0:0:0:
256,192,92529,1,8,0:0:0:0:
256,192,92612,1,8,0:0:0:0:
256,192,92696,1,0,0:0:0:0:
256,192,92779,1,0,0:0:0:0:
256,192,92946,1,0,0:0:0:0:
256,192,93112,1,0,0:0:0:0:
256,192,93196,1,0,0:0:0:0:
256,192,93279,1,0,0:0:0:0:
256,192,93362,1,8,0:0:0:0:
256,192,93446,1,8,0:0:0:0:
256,192,93529,1,0,0:0:0:0:
256,192,93612,1,8,0:0:0:0:
256,192,93696,1,0,0:0:0:0:
256,192,93779,1,8,0:0:0:0:
256,192,93862,1,0,0:0:0:0:
256,192,93946,1,0,0:0:0:0:
256,192,94029,1,12,0:0:0:0:
256,192,94196,1,8,0:0:0:0:
256,192,94529,1,8,0:0:0:0:
256,192,94862,1,8,0:0:0:0:
256,192,94946,1,8,0:0:0:0:
256,192,95196,1,8,0:0:0:0:
256,192,95362,1,12,0:0:0:0:
256,192,95529,1,8,0:0:0:0:
256,192,95862,1,8,0:0:0:0:
256,192,96196,1,8,0:0:0:0:
256,192,96529,1,8,0:0:0:0:
256,192,96612,1,8,0:0:0:0:
256,192,96696,1,12,0:0:0:0:
256,192,96862,1,8,0:0:0:0:
256,192,97196,1,8,0:0:0:0:
256,192,97362,1,12,0:0:0:0:
256,192,97529,1,8,0:0:0:0:
256,192,97862,1,8,0:0:0:0:
256,192,98029,1,0,0:0:0:0:
256,192,98196,1,0,0:0:0:0:
256,192,98279,1,8,0:0:0:0:
256,192,98362,1,8,0:0:0:0:
256,192,98529,1,0,0:0:0:0:
256,192,98612,1,8,0:0:0:0:
256,192,98696,1,8,0:0:0:0:
256,192,98779,1,8,0:0:0:0:
256,192,98862,1,0,0:0:0:0:
256,192,98946,1,8,0:0:0:0:
256,192,99029,1,0,0:0:0:0:
256,192,99112,1,0,0:0:0:0:
256,192,99196,1,0,0:0:0:0:
256,192,99279,1,0,0:0:0:0:
256,192,99362,1,12,0:0:0:0:
256,192,99529,1,8,0:0:0:0:
256,192,99571,1,8,0:0:0:0:
256,192,99696,1,0,0:0:0:0:
256,192,99862,1,8,0:0:0:0:
256,192,99904,1,8,0:0:0:0:
256,192,100029,1,0,0:0:0:0:
256,192,100112,1,0,0:0:0:0:
256,192,100196,1,8,0:0:0:0:
256,192,100237,1,8,0:0:0:0:
256,192,100279,1,0,0:0:0:0:
256,192,100362,1,8,0:0:0:0:
256,192,100446,1,0,0:0:0:0:
256,192,100529,1,8,0:0:0:0:
256,192,100571,1,8,0:0:0:0:
256,192,100696,1,8,0:0:0:0:
256,192,100779,1,8,0:0:0:0:
256,192,100862,1,8,0:0:0:0:
256,192,100946,1,8,0:0:0:0:
256,192,101029,1,0,0:0:0:0:
256,192,101071,1,0,0:0:0:0:
256,192,101196,1,8,0:0:0:0:
256,192,101237,1,8,0:0:0:0:
256,192,101362,1,0,0:0:0:0:
256,192,101529,1,0,0:0:0:0:
256,192,101696,1,0,0:0:0:0:
256,192,101779,1,0,0:0:0:0:
256,192,101862,1,8,0:0:0:0:
256,192,101904,1,8,0:0:0:0:
256,192,102029,1,0,0:0:0:0:
256,192,102112,1,0,0:0:0:0:
256,192,102196,1,8,0:0:0:0:
256,192,102237,1,8,0:0:0:0:
256,192,102279,1,0,0:0:0:0:
256,192,102362,1,8,0:0:0:0:
256,192,102446,1,0,0:0:0:0:
256,192,102612,1,0,0:0:0:0:
256,192,102696,1,8,0:0:0:0:
256,192,102779,1,0,0:0:0:0:
256,192,102862,1,8,0:0:0:0:
256,192,102904,1,8,0:0:0:0:
256,192,102946,1,8,0:0:0:0:
256,192,103029,1,0,0:0:0:0:
256,192,103071,1,8,0:0:0:0:
256,192,103112,1,0,0:0:0:0:
256,192,103196,1,8,0:0:0:0:
256,192,103362,1,8,0:0:0:0:
256,192,103446,1,8,0:0:0:0:
256,192,103529,1,0,0:0:0:0:
256,192,103612,1,8,0:0:0:0:
256,192,103696,1,0,0:0:0:0:
256,192,103779,1,0,0:0:0:0:
256,192,103862,1,8,0:0:0:0:
256,192,103946,1,0,0:0:0:0:
256,192,104029,1,8,0:0:0:0:
256,192,104071,1,0,0:0:0:0:
256,192,104112,1,8,0:0:0:0:
256,192,104196,1,8,0:0:0:0:
256,192,104362,1,8,0:0:0:0:
256,192,104696,1,4,0:0:0:0:
256,192,104862,1,8,0:0:0:0:
256,192,104904,1,8,0:0:0:0:
256,192,105029,1,0,0:0:0:0:
256,192,105196,1,8,0:0:0:0:
256,192,105237,1,8,0:0:0:0:
256,192,105362,1,0,0:0:0:0:
256,192,105446,1,8,0:0:0:0:
256,192,105529,1,8,0:0:0:0:
256,192,105612,1,8,0:0:0:0:
256,192,105696,1,0,0:0:0:0:
256,192,106029,1,4,0:0:0:0:
256,192,106196,1,8,0:0:0:0:
256,192,106237,1,8,0:0:0:0:
256,192,106362,1,0,0:0:0:0:
256,192,106446,1,8,0:0:0:0:
256,192,106612,1,8,0:0:0:0:
256,192,106696,1,0,0:0:0:0:
256,192,106779,1,8,0:0:0:0:
256,192,106862,1,8,0:0:0:0:
256,192,106946,1,8,0:0:0:0:
256,192,107029,1,0,0:0:0:0:
256,192,107362,1,4,0:0:0:0:
256,192,107529,1,8,0:0:0:0:
256,192,107571,1,8,0:0:0:0:
256,192,107696,1,0,0:0:0:0:
256,192,107751,1,0,0:0:0:0:
256,192,107807,1,0,0:0:0:0:
256,192,107862,1,8,0:0:0:0:
256,192,107904,1,8,0:0:0:0:
256,192,107946,1,8,0:0:0:0:
256,192,107987,1,8,0:0:0:0:
256,192,108029,1,0,0:0:0:0:
256,192,108196,1,8,0:0:0:0:
256,192,108237,1,8,0:0:0:0:
256,192,108362,1,0,0:0:0:0:
256,192,108404,1,0,0:0:0:0:
256,192,108446,1,8,0:0:0:0:
256,192,108529,1,0,0:0:0:0:
256,192,108612,1,8,0:0:0:0:
256,192,108696,1,0,0:0:0:0:
256,192,108946,1,0,0:0:0:0:
256,192,109112,1,0,0:0:0:0:
256,192,109196,1,0,0:0:0:0:
256,192,109279,1,0,0:0:0:0:
256,192,109362,1,8,0:0:0:0:
256,192,109529,1,8,0:0:0:0:
256,192,109585,1,8,0:0:0:0:
256,192,109640,1,8,0:0:0:0:
256,192,109696,1,8,0:0:0:0:
256,192,109779,1,8,0:0:0:0:
256,192,109862,1,8,0:0:0:0:
256,192,109946,1,8,0:0:0:0:
256,192,110029,1,0,0:0:0:0:
256,192,110112,1,8,0:0:0:0:
256,192,110196,1,0,0:0:0:0:
256,192,110279,1,8,0:0:0:0:
256,192,110362,1,8,0:0:0:0:
256,192,110404,1,8,0:0:0:0:
256,192,110446,1,8,0:0:0:0:
256,192,110529,1,8,0:0:0:0:
256,192,110612,1,0,0:0:0:0:
256,192,110696,1,8,0:0:0:0:
256,192,110751,1,0,0:0:0:0:
256,192,110807,1,0,0:0:0:0:
256,192,110862,1,8,0:0:0:0:
256,192,110946,1,0,0:0:0:0:
256,192,111029,1,8,0:0:0:0:
256,192,111196,1,8,0:0:0:0:
256,192,111362,1,0,0:0:0:0:
256,192,111529,1,0,0:0:0:0:
256,192,111612,1,0,0:0:0:0:
256,192,111779,1,8,0:0:0:0:
256,192,111862,1,0,0:0:0:0:
256,192,111946,1,0,0:0:0:0:
256,192,112029,1,8,0:0:0:0:
256,192,112085,1,8,0:0:0:0:
256,192,112140,1,8,0:0:0:0:
256,192,112196,1,0,0:0:0:0:
256,192,112279,1,0,0:0:0:0:
256,192,112362,1,0,0:0:0:0:
256,192,112446,1,0,0:0:0:0:
256,192,112529,1,0,0:0:0:0:
256,192,112612,1,0,0:0:0:0:
256,192,112696,1,8,0:0:0:0:
256,192,113029,1,0,0:0:0:0:
256,192,113362,1,8,0:0:0:0:
256,192,113696,1,0,0:0:0:0:
256,192,114029,1,12,0:0:0:0:
256,192,114362,1,8,0:0:0:0:
256,192,114529,1,0,0:0:0:0:
256,192,115029,1,8,0:0:0:0:
256,192,115362,1,0,0:0:0:0:
256,192,115696,1,8,0:0:0:0:
256,192,116196,1,0,0:0:0:0:
256,192,116362,1,8,0:0:0:0:
256,192,116696,1,0,0:0:0:0:
256,192,117029,1,8,0:0:0:0:
256,192,117529,1,0,0:0:0:0:
256,192,117696,1,8,0:0:0:0:
256,192,118029,1,0,0:0:0:0:
256,192,118362,1,8,0:0:0:0:
256,192,118696,1,8,0:0:0:0:
256,192,118737,1,8,0:0:0:0:
256,192,118779,1,0,0:0:0:0:
256,192,119029,1,8,0:0:0:0:
256,192,119071,1,8,0:0:0:0:
256,192,119112,1,8,0:0:0:0:
256,192,119154,1,8,0:0:0:0:
256,192,119196,1,8,0:0:0:0:
256,192,119529,1,0,0:0:0:0:
256,192,119696,1,8,0:0:0:0:
256,192,119862,1,0,0:0:0:0:
256,192,120196,1,0,0:0:0:0:
256,192,120529,1,0,0:0:0:0:
256,192,120862,1,0,0:0:0:0:
256,192,121029,1,8,0:0:0:0:
256,192,121196,1,0,0:0:0:0:
256,192,121529,1,8,0:0:0:0:
256,192,121612,1,8,0:0:0:0:
256,192,121696,1,0,0:0:0:0:
256,192,121862,1,0,0:0:0:0:
256,192,122196,1,0,0:0:0:0:
256,192,122529,1,0,0:0:0:0:
256,192,122862,1,0,0:0:0:0:
256,192,123029,1,8,0:0:0:0:
256,192,123196,1,0,0:0:0:0:
256,192,123362,1,12,0:0:0:0:
256,192,124029,1,12,0:0:0:0:
256,192,124362,1,12,0:0:0:0:
286,100,124696,1,4,0:0:0:0:
348,163,124862,1,0,0:0:0:0:
348,163,125029,1,8,0:0:0:0:
348,163,125196,1,0,0:0:0:0:
348,163,125279,1,8,0:0:0:0:
348,163,125362,1,8,0:0:0:0:
348,163,125446,1,0,0:0:0:0:
348,163,125529,1,0,0:0:0:0:
348,163,125612,1,8,0:0:0:0:
348,163,125696,1,8,0:0:0:0:
348,163,125862,1,8,0:0:0:0:
348,163,126029,1,0,0:0:0:0:
348,163,126112,1,8,0:0:0:0:
348,163,126196,1,8,0:0:0:0:
348,163,126362,1,8,0:0:0:0:
348,163,126529,1,8,0:0:0:0:
348,163,126612,1,8,0:0:0:0:
348,163,126696,1,0,0:0:0:0:
401,102,126724,1,0,0:0:0:0:
274,84,126862,1,0,0:0:0:0:
274,84,126890,1,0,0:0:0:0:
274,84,127029,1,0,0:0:0:0:
274,84,127057,1,0,0:0:0:0:
351,50,127112,1,0,0:0:0:0:
351,50,127196,1,8,0:0:0:0:
351,50,127362,1,4,0:0:0:0:
351,50,127529,1,4,0:0:0:0:
351,50,127696,1,4,0:0:0:0:
351,50,127862,1,4,0:0:0:0:
402,82,128029,1,8,0:0:0:0:
402,82,128085,1,8,0:0:0:0:
402,82,128140,1,8,0:0:0:0:
402,82,128196,1,0,0:0:0:0:
237,122,128279,1,0,0:0:0:0:
462,87,128362,1,8,0:0:0:0:
462,87,128418,1,8,0:0:0:0:
462,87,128474,1,8,0:0:0:0:
462,87,128529,1,0,0:0:0:0:
271,127,128612,1,0,0:0:0:0:
326,98,128696,1,12,0:0:0:0:
326,98,129029,1,0,0:0:0:0:
326,98,129362,1,8,0:0:0:0:
326,98,129529,1,8,0:0:0:0:
326,98,129696,1,8,0:0:0:0:
326,98,129862,1,8,0:0:0:0:
326,98,130029,1,4,0:0:0:0:
254,109,130196,1,0,0:0:0:0:
254,109,130362,1,8,0:0:0:0:
335,94,130529,1,0,0:0:0:0:
335,94,130612,1,0,0:0:0:0:
363,84,130696,1,8,0:0:0:0:
346,31,130751,1,8,0:0:0:0:
332,61,130807,1,8,0:0:0:0:
332,61,130862,1,8,0:0:0:0:
332,61,130918,1,8,0:0:0:0:
332,61,130974,1,8,0:0:0:0:
332,61,131029,1,8,0:0:0:0:
332,61,131057,1,8,0:0:0:0:
332,61,131112,1,8,0:0:0:0:
332,61,131168,1,8,0:0:0:0:
332,61,131224,1,8,0:0:0:0:
286,104,131279,1,8,0:0:0:0:
286,104,131335,1,8,0:0:0:0:
286,104,131362,1,0,0:0:0:0:
321,87,131529,1,0,0:0:0:0:
321,87,131696,1,0,0:0:0:0:
344,100,131862,1,0,0:0:0:0:
344,100,131946,1,0,0:0:0:0:
344,100,132029,1,8,0:0:0:0:
344,100,132112,1,8,0:0:0:0:
344,100,132196,1,8,0:0:0:0:
344,100,132279,1,8,0:0:0:0:
499,52,132362,2,4,L|236:169,1,280
337,142,132696,1,8,0:0:0:0:
337,142,132862,1,0,0:0:0:0:
337,142,132946,1,0,0:0:0:0:
337,142,133029,1,8,0:0:0:0:
337,142,133196,1,0,0:0:0:0:
337,142,133279,1,0,0:0:0:0:
337,142,133362,1,8,0:0:0:0:
337,142,133446,1,8,0:0:0:0:
337,142,133529,1,8,0:0:0:0:
337,142,133612,1,0,0:0:0:0:
337,142,133696,1,8,0:0:0:0:
337,142,133779,1,8,0:0:0:0:
337,142,133862,1,8,0:0:0:0:
337,142,133946,1,0,0:0:0:0:
337,142,134029,1,12,0:0:0:0:
245,102,134196,1,0,0:0:0:0:
245,102,134279,1,0,0:0:0:0:
245,102,134362,1,8,0:0:0:0:
245,102,134529,1,0,0:0:0:0:
245,102,134612,1,0,0:0:0:0:
245,102,134696,1,8,0:0:0:0:
354,106,134862,1,0,0:0:0:0:
354,106,134946,1,0,0:0:0:0:
354,106,135029,1,8,0:0:0:0:
354,106,135112,1,8,0:0:0:0:
354,106,135196,1,0,0:0:0:0:
354,106,135279,1,0,0:0:0:0:
354,106,135362,1,12,0:0:0:0:
245,102,135529,1,0,0:0:0:0:
245,102,135612,1,0,0:0:0:0:
245,102,135696,1,8,0:0:0:0:
245,102,135862,1,0,0:0:0:0:
245,102,135946,1,0,0:0:0:0:
245,102,136029,1,8,0:0:0:0:
250,145,136362,1,8,0:0:0:0:
250,145,136696,1,12,0:0:0:0:
239,74,136862,1,0,0:0:0:0:
239,74,136946,1,0,0:0:0:0:
239,74,137029,1,8,0:0:0:0:
239,74,137196,1,0,0:0:0:0:
239,74,137279,1,0,0:0:0:0:
239,74,137362,1,12,0:0:0:0:
239,74,137529,1,0,0:0:0:0:
239,74,137612,1,0,0:0:0:0:
239,74,137696,1,8,0:0:0:0:
356,122,137862,1,0,0:0:0:0:
356,122,137946,1,0,0:0:0:0:
356,122,138029,1,12,0:0:0:0:
301,77,138279,1,12,0:0:0:0:
301,77,138529,1,12,0:0:0:0:
301,77,138862,1,0,0:0:0:0:
301,77,139029,1,0,0:0:0:0:
301,77,139362,1,8,0:0:0:0:
301,77,139529,1,8,0:0:0:0:
301,77,139612,1,8,0:0:0:0:
301,77,139696,1,8,0:0:0:0:
301,77,139862,1,0,0:0:0:0:
301,77,139946,1,0,0:0:0:0:
301,77,140029,1,0,0:0:0:0:
301,77,140112,1,8,0:0:0:0:
301,77,140196,1,0,0:0:0:0:
301,77,140279,1,8,0:0:0:0:
301,77,140362,1,8,0:0:0:0:
301,77,140446,1,8,0:0:0:0:
301,77,140529,1,0,0:0:0:0:
301,77,140612,1,8,0:0:0:0:
301,77,140696,1,4,0:0:0:0:
301,77,141029,1,0,0:0:0:0:
247,175,141362,1,0,0:0:0:0:
247,175,141418,1,0,0:0:0:0:
286,104,141474,1,0,0:0:0:0:
286,104,141529,1,0,0:0:0:0:
261,140,141612,1,0,0:0:0:0:
261,140,141696,1,8,0:0:0:0:
325,215,142029,1,0,0:0:0:0:
351,158,142112,1,8,0:0:0:0:
351,158,142196,1,0,0:0:0:0:
351,158,142279,1,8,0:0:0:0:
264,124,142418,1,8,0:0:0:0:
264,124,142501,1,0,0:0:0:0:
264,124,142584,1,8,0:0:0:0:
132,102,142696,1,0,0:0:0:0:
378,74,142737,1,8,0:0:0:0:
319,102,142862,1,8,0:0:0:0:
364,77,143029,1,0,0:0:0:0:
216,109,143612,1,0,0:0:0:0:
289,91,143779,1,8,0:0:0:0:
84,91,144508,1,0,0:0:0:0:
256,192,145029,12,0,147279,0:0:0:0:
256,192,148309,5,0,0:0:0:0:
256,192,148372,1,8,0:0:0:0:
256,192,148560,1,0,0:0:0:0:
256,192,148779,1,0,0:0:0:0:
256,192,149029,1,0,0:0:0:0:
256,192,149279,1,0,0:0:0:0:
256,192,149751,1,8,0:0:0:0:
256,192,150223,1,0,0:0:0:0:
256,192,150282,1,8,0:0:0:0:
256,192,151168,1,0,0:0:0:0:
256,192,151641,1,8,0:0:0:0:
256,192,152113,1,8,0:0:0:0:
256,192,153058,1,0,0:0:0:0:
256,192,153530,1,8,0:0:0:0:
256,192,154003,1,8,0:0:0:0:
256,192,154062,1,8,0:0:0:0:
256,192,154239,1,8,0:0:0:0:
256,192,154475,1,0,0:0:0:0:
256,192,154712,1,8,0:0:0:0:
256,192,154948,1,0,0:0:0:0:
256,192,155420,1,8,0:0:0:0:
256,192,155893,1,0,0:0:0:0:
256,192,156365,1,0,0:0:0:0:
256,192,156838,1,8,0:0:0:0:
256,192,157782,1,0,0:0:0:0:
256,192,158255,1,8,0:0:0:0:
256,192,158727,1,8,0:0:0:0:
256,192,159200,1,8,0:0:0:0:
256,192,159672,1,0,0:0:0:0:
256,192,160145,1,8,0:0:0:0:
256,192,160617,1,8,0:0:0:0:
256,192,161562,1,8,0:0:0:0:
256,192,161798,1,8,0:0:0:0:
256,192,162034,1,0,0:0:0:0:
256,192,162271,1,0,0:0:0:0:
256,192,162507,1,8,0:0:0:0:
256,192,163334,1,8,0:0:0:0:
256,192,163452,1,8,0:0:0:0:
256,192,163688,1,8,0:0:0:0:
256,192,163924,1,8,0:0:0:0:
256,192,164160,1,4,0:0:0:0:
256,192,164397,1,0,0:0:0:0:
256,192,164633,1,8,0:0:0:0:
256,192,164751,1,0,0:0:0:0:
256,192,164987,1,0,0:0:0:0:
256,192,165105,1,8,0:0:0:0:
256,192,165223,1,4,0:0:0:0:
256,192,165341,1,4,0:0:0:0:
256,192,165578,1,4,0:0:0:0:
256,192,165814,1,8,0:0:0:0:
256,192,166050,1,12,0:0:0:0:
256,192,166286,1,4,0:0:0:0:
256,192,166404,1,8,0:0:0:0:
256,192,166523,1,0,0:0:0:0:
256,192,166641,1,8,0:0:0:0:
256,192,166759,1,8,0:0:0:0:
256,192,166995,1,8,0:0:0:0:
256,192,167113,1,4,0:0:0:0:
256,192,167349,1,4,0:0:0:0:
256,192,167586,1,8,0:0:0:0:
256,192,167704,1,0,0:0:0:0:
256,192,167940,1,8,0:0:0:0:
256,192,167999,1,8,0:0:0:0:
256,192,168058,1,8,0:0:0:0:
256,192,168117,1,8,0:0:0:0:
256,192,168176,1,4,0:0:0:0:
256,192,168408,1,0,0:0:0:0:
256,192,168466,1,0,0:0:0:0:
256,192,168524,1,0,0:0:0:0:
256,192,168582,1,0,0:0:0:0:
256,192,168641,1,8,0:0:0:0:
256,192,168989,1,4,0:0:0:0:
256,192,169106,1,4,0:0:0:0:
256,192,169338,1,4,0:0:0:0:
256,192,169571,1,8,0:0:0:0:
256,192,169803,1,4,0:0:0:0:
256,192,170036,1,12,0:0:0:0:
256,192,170374,1,0,0:0:0:0:
256,192,170487,1,8,0:0:0:0:
256,192,170712,1,8,0:0:0:0:
256,192,170825,1,0,0:0:0:0:
256,192,171051,1,8,0:0:0:0:
256,192,171163,1,8,0:0:0:0:
256,192,171276,1,0,0:0:0:0:
256,192,171389,1,0,0:0:0:0:
256,192,171614,1,4,0:0:0:0:
256,192,171727,1,4,0:0:0:0:
256,192,171840,1,12,0:0:0:0:
256,192,172170,1,8,0:0:0:0:
256,192,172280,1,0,0:0:0:0:
256,192,172501,1,8,0:0:0:0:
256,192,172722,1,4,0:0:0:0:
256,192,172942,1,4,0:0:0:0:
256,192,173053,1,8,0:0:0:0:
256,192,173163,1,0,0:0:0:0:
256,192,173273,1,8,0:0:0:0:
256,192,173384,1,8,0:0:0:0:
256,192,173604,1,12,0:0:0:0:
256,192,173822,1,0,0:0:0:0:
256,192,173932,1,8,0:0:0:0:
256,192,174041,1,0,0:0:0:0:
256,192,174151,1,0,0:0:0:0:
256,192,174260,1,8,0:0:0:0:
256,192,174479,1,4,0:0:0:0:
256,192,174698,1,4,0:0:0:0:
256,192,174917,1,8,0:0:0:0:
256,192,175136,1,8,0:0:0:0:
256,192,175246,1,8,0:0:0:0:
256,192,175355,1,4,0:0:0:0:
256,192,175569,1,8,0:0:0:0:
256,192,175783,1,0,0:0:0:0:
256,192,175997,1,8,0:0:0:0:
256,192,176105,1,4,0:0:0:0:
256,192,176319,1,8,0:0:0:0:
256,192,176426,1,0,0:0:0:0:
256,192,176533,1,8,0:0:0:0:
256,192,176640,1,0,0:0:0:0:
256,192,176855,1,8,0:0:0:0:
256,192,176962,1,8,0:0:0:0:
256,192,177069,1,4,0:0:0:0:
256,192,177283,1,8,0:0:0:0:
256,192,177497,1,4,0:0:0:0:
256,192,177605,1,8,0:0:0:0:
256,192,177819,1,4,0:0:0:0:
256,192,177926,1,4,0:0:0:0:
256,192,178140,1,4,0:0:0:0:
256,192,178247,1,4,0:0:0:0:
256,192,178355,1,8,0:0:0:0:
256,192,178408,1,8,0:0:0:0:
256,192,178462,1,8,0:0:0:0:
256,192,178515,1,8,0:0:0:0:
256,192,178569,1,0,0:0:0:0:
170,127,178676,1,0,0:0:0:0:
358,117,178768,1,0,0:0:0:0:
293,123,179434,1,0,0:0:0:0:
331,113,179768,1,0,0:0:0:0:
331,113,180101,1,0,0:0:0:0:
405,167,180434,1,0,0:0:0:0:
270,107,180768,1,8,0:0:0:0:
270,107,180809,1,8,0:0:0:0:
270,107,180851,1,8,0:0:0:0:
270,107,180893,1,8,0:0:0:0:
270,107,180934,1,0,0:0:0:0:
321,117,181018,1,0,0:0:0:0:
368,80,181101,1,0,0:0:0:0:
368,80,181143,1,0,0:0:0:0:
368,80,181184,1,0,0:0:0:0:
368,80,181226,1,0,0:0:0:0:
489,122,181268,1,8,0:0:0:0:
352,116,181309,1,8,0:0:0:0:
352,116,181351,1,8,0:0:0:0:
352,116,181393,1,8,0:0:0:0:
352,116,181434,1,4,0:0:0:0:
320,72,181601,1,0,0:0:0:0:
321,80,181768,1,0,0:0:0:0:
321,80,181934,1,0,0:0:0:0:
321,80,182101,1,8,0:0:0:0:
321,80,182184,1,0,0:0:0:0:
321,80,182268,1,0,0:0:0:0:
321,80,182351,1,8,0:0:0:0:
321,80,182434,1,8,0:0:0:0:
358,127,182601,1,8,0:0:0:0:
358,127,182768,1,0,0:0:0:0:
358,127,182934,1,0,0:0:0:0:
358,127,183101,1,8,0:0:0:0:
358,127,183268,1,0,0:0:0:0:
358,127,183351,1,8,0:0:0:0:
358,127,183434,1,8,0:0:0:0:
358,127,183518,1,0,0:0:0:0:
358,127,183601,1,0,0:0:0:0:
358,127,183684,1,8,0:0:0:0:
358,127,183768,1,8,0:0:0:0:
358,127,183934,1,8,0:0:0:0:
365,148,184101,1,0,0:0:0:0:
365,148,184184,1,0,0:0:0:0:
365,148,184268,1,0,0:0:0:0:
365,148,184351,1,0,0:0:0:0:
365,148,184434,1,8,0:0:0:0:
365,148,184518,1,8,0:0:0:0:
365,148,184601,1,8,0:0:0:0:
365,148,184684,1,8,0:0:0:0:
365,148,184768,1,8,0:0:0:0:
365,148,184934,1,8,0:0:0:0:
365,148,185101,1,8,0:0:0:0:
365,148,185184,1,8,0:0:0:0:
365,148,185268,1,8,0:0:0:0:
365,148,185351,1,8,0:0:0:0:
365,148,185434,1,0,0:0:0:0:
365,148,185684,1,0,0:0:0:0:
375,112,185934,1,0,0:0:0:0:
354,94,185976,1,0,0:0:0:0:
356,90,186018,1,8,0:0:0:0:
354,94,186059,1,8,0:0:0:0:
293,121,186101,1,8,0:0:0:0:
331,77,186156,1,8,0:0:0:0:
354,94,186268,1,8,0:0:0:0:
354,94,186434,1,8,0:0:0:0:
330,91,186601,1,8,0:0:0:0:
330,91,186768,1,0,0:0:0:0:
327,70,186851,1,0,0:0:0:0:
327,70,186934,1,0,0:0:0:0:
327,70,187101,1,8,0:0:0:0:
327,70,187268,1,0,0:0:0:0:
327,70,187351,1,8,0:0:0:0:
327,70,187518,1,8,0:0:0:0:
327,70,187601,1,0,0:0:0:0:
327,70,187768,1,0,0:0:0:0:
327,70,187934,1,8,0:0:0:0:
351,127,188101,1,4,0:0:0:0:
336,115,188268,1,0,0:0:0:0:
336,115,188351,1,0,0:0:0:0:
336,115,188434,1,8,0:0:0:0:
336,115,188601,1,4,0:0:0:0:
336,115,188851,1,0,0:0:0:0:
336,115,188934,1,8,0:0:0:0:
336,115,189101,1,8,0:0:0:0:
336,115,189268,1,8,0:0:0:0:
361,118,189434,1,4,0:0:0:0:
361,118,189684,1,4,0:0:0:0:
361,118,189934,1,4,0:0:0:0:
361,118,190101,1,0,0:0:0:0:
361,118,190184,1,0,0:0:0:0:
361,118,190268,1,0,0:0:0:0:
361,118,190351,1,0,0:0:0:0:
349,91,190434,1,8,0:0:0:0:
349,91,190518,1,8,0:0:0:0:
381,118,190601,1,8,0:0:0:0:
381,118,190643,1,8,0:0:0:0:
381,118,190684,1,8,0:0:0:0:
381,118,190726,1,8,0:0:0:0:
354,114,190768,1,0,0:0:0:0:
313,91,190851,1,8,0:0:0:0:
313,91,190934,1,8,0:0:0:0:
313,91,191018,1,0,0:0:0:0:
313,91,191101,1,8,0:0:0:0:
313,91,191184,1,8,0:0:0:0:
313,91,191268,1,8,0:0:0:0:
313,91,191351,1,8,0:0:0:0:
313,91,191434,1,0,0:0:0:0:
374,133,191601,1,0,0:0:0:0:
374,133,191768,1,8,0:0:0:0:
374,133,191934,1,0,0:0:0:0:
326,142,192101,1,4,0:0:0:0:
349,110,192184,1,8,0:0:0:0:
349,110,192268,1,8,0:0:0:0:
349,110,192351,1,8,0:0:0:0:
349,110,192434,1,4,0:0:0:0:
349,110,192518,1,8,0:0:0:0:
349,110,192601,1,8,0:0:0:0:
349,110,192684,1,8,0:0:0:0:
326,142,192768,1,8,0:0:0:0:
326,142,192851,1,8,0:0:0:0:
326,142,192934,1,4,0:0:0:0:
326,142,193018,1,8,0:0:0:0:
326,142,193101,1,4,0:0:0:0:
326,142,193184,1,8,0:0:0:0:
326,142,193267,1,8,0:0:0:0:
326,142,193351,1,8,0:0:0:0:
326,142,193434,1,4,0:0:0:0:
209,133,193767,1,8,0:0:0:0:
266,107,194246,1,8,0:0:0:0:
266,107,194413,1,8,0:0:0:0:
268,127,195100,1,8,0:0:0:0:
353,103,195413,1,8,0:0:0:0:
353,103,195497,1,8,0:0:0:0:
353,103,195580,1,8,0:0:0:0:
353,103,195747,1,0,0:0:0:0:
353,103,195830,1,0,0:0:0:0:
353,103,195913,1,0,0:0:0:0:
293,148,196433,1,8,0:0:0:0:
293,148,196913,1,8,0:0:0:0:
293,148,197079,1,8,0:0:0:0:
293,148,197246,1,8,0:0:0:0:
293,148,197329,1,8,0:0:0:0:
293,148,197413,1,8,0:0:0:0:
145,166,197767,1,8,0:0:0:0:
345,133,198246,1,8,0:0:0:0:
345,133,198413,1,8,0:0:0:0:
256,117,198767,1,0,0:0:0:0:
331,134,199267,1,8,0:0:0:0:
331,134,199350,1,8,0:0:0:0:
331,134,199433,1,8,0:0:0:0:
150,125,199600,1,0,0:0:0:0:
296,97,199767,1,8,0:0:0:0:
301,98,200100,1,0,0:0:0:0:
301,98,200433,1,0,0:0:0:0:
301,98,200600,1,0,0:0:0:0:
301,98,200683,1,0,0:0:0:0:
301,98,200767,1,8,0:0:0:0:
301,98,200933,1,0,0:0:0:0:
301,98,201017,1,0,0:0:0:0:
301,98,201100,1,8,0:0:0:0:
301,98,201183,1,8,0:0:0:0:
301,98,201267,1,8,0:0:0:0:
301,98,201350,1,8,0:0:0:0:
301,98,201433,1,0,0:0:0:0:
301,98,201767,1,0,0:0:0:0:
301,98,202100,1,8,0:0:0:0:
301,98,202184,1,8,0:0:0:0:
301,98,202267,1,0,0:0:0:0:
301,98,202350,1,8,0:0:0:0:
301,98,202433,1,8,0:0:0:0:
301,98,202517,1,8,0:0:0:0:
301,98,202600,1,0,0:0:0:0:
301,98,202683,1,0,0:0:0:0:
301,98,202767,1,0,0:0:0:0:
289,82,202933,1,8,0:0:0:0:
301,98,203017,1,0,0:0:0:0:
289,79,203100,1,0,0:0:0:0:
289,82,203267,1,8,0:0:0:0:
289,82,203350,1,0,0:0:0:0:
378,109,203433,1,8,0:0:0:0:
378,109,203475,1,8,0:0:0:0:
378,109,203600,1,8,0:0:0:0:
378,109,203767,1,8,0:0:0:0:
378,109,203933,1,8,0:0:0:0:
266,192,204101,1,4,0:0:0:0:
265,113,204267,1,0,0:0:0:0:
265,113,204434,1,8,0:0:0:0:
282,107,204601,1,0,0:0:0:0:
282,107,204684,1,8,0:0:0:0:
282,107,204767,1,8,0:0:0:0:
282,107,204851,1,0,0:0:0:0:
282,107,204934,1,0,0:0:0:0:
282,107,205017,1,8,0:0:0:0:
282,107,205101,1,8,0:0:0:0:
411,133,205267,1,8,0:0:0:0:
411,133,205295,1,8,0:0:0:0:
292,105,205434,1,4,0:0:0:0:
306,143,205601,1,0,0:0:0:0:
306,143,205684,1,0,0:0:0:0:
306,143,205767,1,8,0:0:0:0:
355,116,205795,1,8,0:0:0:0:
306,143,205851,1,0,0:0:0:0:
388,61,205892,1,0,0:0:0:0:
306,143,205934,1,8,0:0:0:0:
306,143,206017,1,0,0:0:0:0:
390,74,206045,1,0,0:0:0:0:
376,77,206101,1,8,0:0:0:0:
376,82,206184,1,0,0:0:0:0:
376,82,206267,1,0,0:0:0:0:
376,82,206351,1,8,0:0:0:0:
376,82,206434,1,8,0:0:0:0:
376,82,206601,1,8,0:0:0:0:
328,82,206767,1,4,0:0:0:0:
349,138,207017,1,4,0:0:0:0:
341,153,207267,1,8,0:0:0:0:
341,153,207309,1,8,0:0:0:0:
341,153,207351,1,8,0:0:0:0:
341,153,207392,1,8,0:0:0:0:
341,153,207434,1,4,0:0:0:0:
326,119,207601,1,8,0:0:0:0:
326,119,207684,1,8,0:0:0:0:
326,119,207767,1,0,0:0:0:0:
403,106,207934,1,8,0:0:0:0:
403,106,208017,1,8,0:0:0:0:
377,114,208101,1,0,0:0:0:0:
377,114,208156,1,0,0:0:0:0:
377,114,208212,1,0,0:0:0:0:
377,114,208267,1,0,0:0:0:0:
306,117,208351,1,0,0:0:0:0:
306,117,208434,1,8,0:0:0:0:
356,103,208490,1,8,0:0:0:0:
356,103,208545,1,0,0:0:0:0:
356,103,208601,1,8,0:0:0:0:
317,88,208684,1,8,0:0:0:0:
424,117,208767,1,0,0:0:0:0:
421,98,208823,1,0,0:0:0:0:
421,98,208879,1,0,0:0:0:0:
271,139,208934,1,8,0:0:0:0:
334,133,208976,1,8,0:0:0:0:
353,78,209017,1,8,0:0:0:0:
353,78,209059,1,8,0:0:0:0:
353,78,209101,1,8,0:0:0:0:
381,116,209156,1,8,0:0:0:0:
381,116,209212,1,8,0:0:0:0:
306,84,209267,1,8,0:0:0:0:
306,84,209351,1,8,0:0:0:0:
381,116,209434,1,4,0:0:0:0:
373,53,209601,1,0,0:0:0:0:
373,66,209684,1,0,0:0:0:0:
373,66,209767,1,8,0:0:0:0:
373,66,209934,1,0,0:0:0:0:
373,66,210184,1,0,0:0:0:0:
373,66,210267,1,8,0:0:0:0:
373,66,210434,1,8,0:0:0:0:
373,66,210601,1,8,0:0:0:0:
373,66,210767,1,4,0:0:0:0:
373,66,211017,1,4,0:0:0:0:
373,66,211267,1,4,0:0:0:0:
373,66,211434,1,0,0:0:0:0:
373,66,211517,1,0,0:0:0:0:
373,66,211601,1,8,0:0:0:0:
373,66,211684,1,0,0:0:0:0:
331,73,211767,1,8,0:0:0:0:
331,73,211851,1,8,0:0:0:0:
331,73,211934,1,0,0:0:0:0:
331,73,212017,1,0,0:0:0:0:
331,73,212101,1,4,0:0:0:0:
331,73,212184,1,0,0:0:0:0:
331,73,212267,1,0,0:0:0:0:
331,73,212351,1,8,0:0:0:0:
331,73,212434,1,8,0:0:0:0:
331,73,212517,1,0,0:0:0:0:
331,73,212601,1,8,0:0:0:0:
331,73,212684,1,8,0:0:0:0:
356,124,212767,1,0,0:0:0:0:
356,124,212809,1,0,0:0:0:0:
356,124,212851,1,0,0:0:0:0:
356,124,212934,1,8,0:0:0:0:
356,124,212976,1,8,0:0:0:0:
356,124,213017,1,0,0:0:0:0:
321,80,213101,1,8,0:0:0:0:
321,80,213142,1,0,0:0:0:0:
321,80,213184,1,0,0:0:0:0:
321,80,213267,1,8,0:0:0:0:
291,41,213309,1,8,0:0:0:0:
371,120,213351,1,8,0:0:0:0:
371,120,213434,1,4,0:0:0:0:
440,147,213601,1,8,0:0:0:0:
440,147,213684,1,0,0:0:0:0:
440,147,213767,1,4,0:0:0:0:
440,147,213934,1,8,0:0:0:0:
440,147,214017,1,0,0:0:0:0:
440,147,214247,1,8,0:0:0:0:
440,147,214331,1,8,0:0:0:0:
440,147,214414,1,0,0:0:0:0:
338,100,214767,1,4,0:0:0:0:
361,136,214934,1,0,0:0:0:0:
361,136,214976,1,0,0:0:0:0:
361,136,215017,1,0,0:0:0:0:
346,117,215059,1,0,0:0:0:0:
346,117,215101,1,8,0:0:0:0:
346,117,215267,1,8,0:0:0:0:
286,124,215351,1,0,0:0:0:0:
286,124,215434,1,8,0:0:0:0:
286,124,215517,1,0,0:0:0:0:
286,124,215601,1,0,0:0:0:0:
286,124,215684,1,8,0:0:0:0:
286,124,215767,1,8,0:0:0:0:
286,124,215851,1,8,0:0:0:0:
286,124,215934,1,0,0:0:0:0:
286,124,216017,1,8,0:0:0:0:
286,124,216101,1,4,0:0:0:0:
286,124,216267,1,0,0:0:0:0:
286,124,216434,1,0,0:0:0:0:
286,124,216601,1,0,0:0:0:0:
286,124,216767,1,12,0:0:0:0:
286,124,216934,1,0,0:0:0:0:
286,124,217101,1,12,0:0:0:0:
286,124,217267,1,0,0:0:0:0:
286,124,217434,1,12,0:0:0:0:
331,115,217517,1,8,0:0:0:0:
331,115,217601,1,8,0:0:0:0:
331,115,217684,1,8,0:0:0:0:
331,115,217767,1,0,0:0:0:0:
373,112,217934,1,8,0:0:0:0:
373,112,218017,1,8,0:0:0:0:
373,112,218101,1,8,0:0:0:0:
373,112,218184,1,8,0:0:0:0:
373,112,218267,1,0,0:0:0:0:
228,129,218434,1,0,0:0:0:0:
228,129,218601,1,0,0:0:0:0:
339,96,218767,1,8,0:0:0:0:
273,168,218795,1,8,0:0:0:0:
329,120,218933,1,0,0:0:0:0:
329,120,219017,1,8,0:0:0:0:
339,96,219100,1,8,0:0:0:0:
273,168,219128,1,8,0:0:0:0:
301,93,219267,1,0,0:0:0:0:
301,93,219350,1,8,0:0:0:0:
339,96,219433,1,8,0:0:0:0:
273,168,219461,1,8,0:0:0:0:
293,60,219517,1,8,0:0:0:0:
296,63,219600,1,0,0:0:0:0:
281,97,219683,1,0,0:0:0:0:
433,65,219767,1,0,0:0:0:0:
433,80,219822,1,0,0:0:0:0:
433,80,219878,1,0,0:0:0:0:
438,59,219933,1,8,0:0:0:0:
433,70,219975,1,8,0:0:0:0:
433,70,220017,1,8,0:0:0:0:
433,70,220058,1,8,0:0:0:0:
433,70,220100,1,4,0:0:0:0:
298,127,220267,1,8,0:0:0:0:
298,127,220350,1,8,0:0:0:0:
362,189,220433,1,0,0:0:0:0:
282,157,220600,1,8,0:0:0:0:
298,127,220767,1,0,0:0:0:0:
298,127,220850,1,0,0:0:0:0:
338,157,220933,1,8,0:0:0:0:
338,157,221100,1,0,0:0:0:0:
338,157,221267,1,8,0:0:0:0:
338,157,221433,1,8,0:0:0:0:
338,157,221600,1,8,0:0:0:0:
338,157,221683,1,8,0:0:0:0:
338,157,221767,1,8,0:0:0:0:
338,157,221933,1,8,0:0:0:0:
338,157,222017,1,8,0:0:0:0:
338,157,222100,1,8,0:0:0:0:
338,157,222267,1,0,0:0:0:0:
338,157,222433,1,8,0:0:0:0:
338,157,222600,1,8,0:0:0:0:
340,151,222767,1,0,0:0:0:0:
340,151,222933,1,0,0:0:0:0:
340,151,223017,1,0,0:0:0:0:
340,151,223100,1,8,0:0:0:0:
340,151,223183,1,8,0:0:0:0:
340,151,223267,1,8,0:0:0:0:
340,151,223350,1,8,0:0:0:0:
359,178,223433,1,0,0:0:0:0:
359,178,223489,1,0,0:0:0:0:
359,178,223545,1,0,0:0:0:0:
359,178,223600,1,0,0:0:0:0:
435,119,223683,1,0,0:0:0:0:
468,190,223767,1,0,0:0:0:0:
468,190,223822,1,0,0:0:0:0:
468,190,223878,1,0,0:0:0:0:
445,137,223933,1,8,0:0:0:0:
445,137,223975,1,8,0:0:0:0:
445,137,224017,1,8,0:0:0:0:
445,137,224058,1,8,0:0:0:0:
307,84,224100,1,8,0:0:0:0:
237,82,224351,1,8,0:0:0:0:
237,82,224517,1,8,0:0:0:0:
237,82,224767,1,8,0:0:0:0:
303,123,224934,1,8,0:0:0:0:
303,123,224976,1,8,0:0:0:0:
303,123,225017,1,8,0:0:0:0:
303,123,225101,1,8,0:0:0:0:
303,123,225184,1,8,0:0:0:0:
303,123,225267,1,8,0:0:0:0:
303,123,225351,1,8,0:0:0:0:
256,192,225434,5,0,0:0:0:0:
256,192,225517,1,8,0:0:0:0:
256,192,225601,1,0,0:0:0:0:
256,192,225684,1,8,0:0:0:0:
256,192,225767,1,0,0:0:0:0:
256,192,225823,1,8,0:0:0:0:
256,192,225879,1,8,0:0:0:0:
256,192,225934,1,0,0:0:0:0:
256,192,226101,1,0,0:0:0:0:
256,192,226184,1,8,0:0:0:0:
256,192,226267,1,0,0:0:0:0:
256,192,226351,1,8,0:0:0:0:
256,192,226434,1,0,0:0:0:0:
256,192,226517,1,8,0:0:0:0:
256,192,226601,1,0,0:0:0:0:
256,192,226656,1,0,0:0:0:0:
256,192,226712,1,0,0:0:0:0:
256,192,226767,1,8,0:0:0:0:
256,192,226934,1,8,0:0:0:0:
256,192,227116,1,0,0:0:0:0:
247,132,227297,1,8,0:0:0:0:
256,192,227479,1,12,0:0:0:0:
256,192,227679,1,0,0:0:0:0:
256,192,227779,1,0,0:0:0:0:
256,192,227879,1,12,0:0:0:0:
256,192,228101,1,8,0:0:0:0:
256,192,228323,1,0,0:0:0:0:
256,192,228553,1,0,0:0:0:0:
256,192,228784,1,8,0:0:0:0:
256,192,229246,1,0,0:0:0:0:
256,192,229476,1,8,0:0:0:0:
256,192,229707,1,8,0:0:0:0:
256,192,230169,1,0,0:0:0:0:
256,192,230399,1,0,0:0:0:0:
256,192,230630,1,8,0:0:0:0:
256,192,231092,1,0,0:0:0:0:
256,192,231323,1,8,0:0:0:0:
256,192,231553,1,0,0:0:0:0:
256,192,232015,1,0,0:0:0:0:
256,192,232246,1,0,0:0:0:0:
256,192,232476,1,8,0:0:0:0:
256,192,232938,1,8,0:0:0:0:
256,192,232996,1,8,0:0:0:0:
256,192,233169,1,8,0:0:0:0:
256,192,233399,1,0,0:0:0:0:
256,192,233630,1,8,0:0:0:0:
256,192,233861,1,0,0:0:0:0:
256,192,234323,1,8,0:0:0:0:
256,192,234553,1,0,0:0:0:0:
256,192,234784,1,8,0:0:0:0:
256,192,235015,1,8,0:0:0:0:
256,192,235246,1,0,0:0:0:0:
256,192,235361,1,0,0:0:0:0:
256,192,235476,1,0,0:0:0:0:
256,192,235707,1,0,0:0:0:0:
256,192,235938,1,0,0:0:0:0:
256,192,236169,1,8,0:0:0:0:
256,192,236630,1,0,0:0:0:0:
256,192,236861,1,8,0:0:0:0:
256,192,237092,1,8,0:0:0:0:
256,192,237553,1,0,0:0:0:0:
256,192,237784,1,0,0:0:0:0:
256,192,238015,1,8,0:0:0:0:
256,192,238476,1,0,0:0:0:0:
256,192,238707,1,8,0:0:0:0:
256,192,238938,1,0,0:0:0:0:
256,192,239399,1,8,0:0:0:0:
256,192,239861,1,8,0:0:0:0:
256,192,240092,1,8,0:0:0:0:
256,192,240323,1,0,0:0:0:0:
256,192,240553,1,8,0:0:0:0:
256,192,240784,1,0,0:0:0:0:
256,192,241015,1,0,0:0:0:0:
256,192,241130,1,0,0:0:0:0:
256,192,241246,1,8,0:0:0:0:
256,192,241476,12,0,243092,0:0:0:0:
