osu file format v14

[General]
AudioFilename: Xenogenocide_-_Reach_Equilibrium.mp3
AudioLeadIn: 1500
PreviewTime: 39670
Countdown: 0
SampleSet: None
StackLeniency: 0.7
Mode: 0
LetterboxInBreaks: 0
WidescreenStoryboard: 0

[Editor]
Bookmarks: 28377,31377,34200,39847,42671,45494,48318,49906,51141,53965,56789,59612,62436,75222,137347,185066,359171
DistanceSpacing: 0.8
BeatDivisor: 4
GridSize: 4
TimelineZoom: 4.232

[Metadata]
Title:Reach Equilibrium
TitleUnicode:Reach Equilibrium
Artist:Xenogenocide
ArtistUnicode:Xenogenocide
Creator:RebellioNlol
Version:Equilibrium
Source:Xenogenocide
Tags:Xenogenocide 666
BeatmapID:676326
BeatmapSetID:301630

[Difficulty]
HPDrainRate:5
CircleSize:4
OverallDifficulty:8.5
ApproachRate:9.6
SliderMultiplier:2.7
SliderTickRate:1

[Events]
//Background and Video events
0,0,"BG1.jpg",0,0
//Break Periods
2,130135,138515
2,152714,163381
2,182283,200087
2,204693,228499
2,229224,236969
2,237694,270411
2,271230,293264
2,327782,348646
//Storyboard Layer 0 (Background)
//Storyboard Layer 1 (Fail)
//Storyboard Layer 2 (Pass)
//Storyboard Layer 3 (Foreground)
//Storyboard Sound Samples

[TimingPoints]
142,352.941176470588,4,3,1,60,1,0
142,-285.714285714286,4,3,1,60,0,0
28377,-100,4,3,1,60,0,0
39318,-83.3333333333333,4,3,1,60,0,0
73553,-83.3333333333333,4,3,1,60,0,1
96141,-83.3333333333333,4,3,1,60,0,0
130024,-83.3333333333333,4,3,1,60,0,1
163906,-200,4,3,1,60,0,0
197083,-200,4,3,1,60,0,0
201318,-133.333333333333,4,3,1,60,0,0
202024,-100,4,3,1,60,0,0
293789,-200,4,3,1,60,0,0
305083,-100,4,3,1,60,0,0
307906,-200,4,3,1,60,0,0
327671,250,4,3,1,60,1,0
327671,-100,4,3,1,60,0,0
357671,-100,4,3,1,60,0,0
359680,352.941176470588,4,3,1,60,1,0
359680,-50,4,3,1,60,0,0
382241,-50,4,3,1,60,0,0
382974,-50,4,3,1,60,0,0

[Colours]
Combo1 : 89,231,238
Combo2 : 255,72,72
Combo3 : 24,10,92
Combo4 : 133,53,145
Combo5 : 254,190,148
Combo6 : 14,152,135

[HitObjects]
112,88,142,6,0,P|172:64|260:100,1,141.749995674133,4|0,0:0|0:0,0:0:0:0:
272,176,847,2,0,P|307:183|372:168,1,94.4999971160889,0|0,3:0|0:0,0:0:0:0:
400,84,1377,1,0,0:0:0:0:
456,160,1553,1,0,0:0:0:0:
436,252,1730,1,0,0:0:0:0:
348,288,1906,1,0,0:0:0:0:
260,252,2083,1,0,0:0:0:0:
224,164,2259,2,0,P|188:156|120:172,1,94.4999971160889,8|0,3:0|3:0,3:0:0:0:
304,248,2965,6,0,P|324:192|280:108,1,141.749995674133,4|0,0:0|0:0,0:0:0:0:
200,140,3671,2,0,P|190:97|204:36,1,94.4999971160889,0|0,3:3|0:3,0:3:0:0:
276,100,4200,1,8,3:0:0:0:
292,192,4377,1,8,3:0:0:0:
220,252,4553,1,8,3:0:0:0:
128,224,4730,1,8,3:0:0:0:
100,312,4906,1,0,3:0:0:0:
80,220,5083,1,0,3:0:0:0:
112,132,5259,1,4,3:0:0:0:
76,200,5436,1,0,3:0:0:0:
108,112,5612,1,4,3:0:0:0:
176,176,5789,6,8,P|196:248|176:316,1,141.749995674133,12|8,0:0|0:0,0:0:0:0:
96,356,6494,6,0,P|83:312|100:252,1,94.4999971160889,4|0,0:0|0:0,0:0:0:0:
168,208,7024,1,8,3:0:0:0:
236,272,7200,1,12,3:0:0:0:
332,264,7377,1,8,3:0:0:0:
260,324,7553,1,8,3:0:0:0:
288,232,7730,1,8,3:0:0:0:
264,140,7906,2,8,L|295:105,1,47.2499985580445
304,72,8259,1,8,3:0:0:0:
352,256,8612,6,0,P|285:276|218:255,1,141.749995674133,4|0,0:0|0:0,0:0:0:0:
212,160,9318,6,0,P|156:148|112:176,1,94.4999971160889,4|0,0:0|0:0,0:0:0:0:
100,256,9847,1,8,3:0:0:0:
64,168,10024,1,12,3:0:0:0:
84,76,10200,1,8,3:0:0:0:
88,172,10377,1,0,3:0:0:0:
109,265,10553,1,4,3:0:0:0:
88,172,10730,1,0,3:0:0:0:
109,265,10906,1,12,3:0:0:0:
200,288,11083,1,8,3:0:0:0:
288,260,11259,1,0,0:0:0:0:
364,204,11436,2,0,P|376:268|368:312,1,94.4999971160889
292,348,11965,1,0,0:0:0:0:
216,292,12141,2,0,L|118:288,1,94.4999971160889
56,216,12671,1,0,3:0:0:0:
92,128,12847,1,0,3:0:0:0:
148,204,13024,1,4,3:0:0:0:
184,116,13200,1,0,3:0:0:0:
104,168,13377,1,0,0:0:0:0:
196,144,13553,2,0,P|204:72|184:40,1,94.4999971160889
80,204,14259,2,0,L|96:316,1,94.4999971160889
180,340,14789,1,0,0:0:0:0:
240,268,14965,2,0,P|286:256|330:271,1,94.4999971160889,0|0,0:3|0:0,0:0:0:0:
376,356,15494,1,0,3:0:0:0:
420,272,15671,1,0,3:0:0:0:
404,180,15847,1,4,3:0:0:0:
392,272,16024,1,0,3:0:0:0:
416,364,16200,1,0,0:0:0:0:
492,308,16377,1,0,0:0:0:0:
408,264,16553,1,0,3:0:0:0:
320,296,16730,1,4,3:0:0:0:
252,364,16906,1,0,3:0:0:0:
328,304,17083,2,0,P|336:264|328:196,1,94.4999971160889
264,144,17612,1,0,0:0:0:0:
192,208,17789,2,0,L|84:200,1,94.4999971160889
72,108,18318,1,0,3:0:0:0:
104,196,18494,1,0,3:0:0:0:
168,128,18671,1,4,3:0:0:0:
80,156,18847,1,0,3:0:0:0:
144,88,19024,1,0,0:0:0:0:
240,92,19200,1,0,3:0:0:0:
184,168,19377,1,0,3:0:0:0:
196,76,19553,1,0,0:0:0:0:
244,260,19906,2,0,P|287:269|356:260,1,94.4999971160889
388,184,20436,1,0,0:0:0:0:
444,260,20612,2,0,L|444:354,1,94.4999971160889
356,316,21141,1,0,3:0:0:0:
276,264,21318,1,0,3:0:0:0:
244,176,21494,1,4,3:0:0:0:
300,252,21671,1,0,3:0:0:0:
300,348,21847,1,0,0:0:0:0:
216,300,22024,1,0,0:0:0:0:
288,236,22200,1,0,3:0:0:0:
264,328,22377,1,4,3:0:0:0:
352,296,22553,1,0,3:0:0:0:
260,272,22730,1,0,3:0:0:0:
256,192,22906,12,0,26877,0:0:0:0:
256,192,26965,12,0,28200,0:0:0:0:
136,108,28377,5,0,0:0:0:0:
236,48,28553,2,0,P|259:70|271:105,2,67.5
331,148,28906,2,0,P|308:171|277:183,2,67.5
232,244,29259,2,0,P|208:221|196:186,1,67.5
136,144,29436,2,0,P|158:120|193:108,1,67.5
236,48,29612,2,0,P|259:70|271:105,1,67.5
331,148,29789,5,0,0:0:0:0:
231,88,29965,2,0,P|207:110|195:145,2,67.5
135,188,30318,2,0,P|158:211|189:223,2,67.5
235,284,30671,2,0,P|258:261|270:226,1,67.5
331,184,30847,2,0,P|308:160|273:148,1,67.5
231,88,31024,2,0,P|207:110|195:145,1,67.5
260,188,31200,5,0,0:0:0:0:
320,288,31377,2,0,P|297:311|262:323,2,67.5
219,383,31730,2,0,P|195:359|183:328,2,67.5
124,284,32083,2,0,P|146:260|181:248,1,67.5
224,188,32259,2,0,P|247:210|259:245,1,67.5
320,288,32436,2,0,P|297:311|262:323,1,67.5
192,296,32612,5,0,0:0:0:0:
252,196,32789,2,0,P|229:172|194:160,2,67.5
151,100,33141,2,0,P|127:123|115:154,2,67.5
56,200,33494,2,0,P|78:223|113:235,1,67.5
156,296,33671,2,0,P|179:273|191:238,1,67.5
252,196,33847,2,0,P|229:172|194:160,1,67.5
132,192,34024,5,0,0:0:0:0:
232,252,34200,2,0,P|255:228|267:197,2,67.5
326,152,34553,2,0,P|302:128|271:116,2,67.5
227,57,34906,2,0,P|203:80|191:111,1,67.5
132,157,35083,2,0,P|155:180|186:192,1,67.5
232,252,35259,2,0,P|255:228|267:197,1,67.5
224,136,35436,5,0,0:0:0:0:
261,26,35612,2,0,P|293:28|325:47,2,67.5
399,41,35965,2,0,P|396:74|379:103,2,67.5
384,179,36318,2,0,P|351:176|319:157,1,67.5
246,164,36494,2,0,P|248:131|267:99,1,67.5
261,26,36671,2,0,P|293:28|325:47,1,67.5
348,116,36847,5,0,0:0:0:0:
311,226,37024,2,0,P|278:223|246:204,2,67.5
173,211,37377,2,0,P|175:177|192:148,2,67.5
188,73,37730,2,0,P|220:75|252:94,1,67.5
326,88,37906,2,0,P|323:120|304:152,1,67.5
311,226,38083,2,0,P|278:223|246:204,1,67.5
204,148,38259,1,0,0:0:0:0:
256,192,38347,12,0,39141,0:0:0:0:
243,265,39318,6,0,P|282:278|321:272,3,80.9999975280763,8|8|8|8,0:0|0:0|0:0|0:0,0:0:0:0:
136,324,39671,6,0,L|136:156,1,161.999995056153
52,72,39936,1,0,3:0:0:0:
52,72,40024,2,0,L|32:288,1,161.999995056153,8|0,3:0|3:0,3:0:0:0:
120,323,40289,1,0,3:0:0:0:
120,323,40377,2,0,L|135:162,1,161.999995056153,8|0,3:0|3:0,3:0:0:0:
200,60,40641,1,0,3:0:0:0:
200,60,40730,2,0,L|316:76,1,86.9999973449708,8|0,3:0|3:0,3:0:0:0:
348,164,40906,2,0,L|236:152,1,86.9999973449708,0|0,3:0|3:0,3:0:0:0:
148,176,41083,6,0,P|120:308|164:356,1,161.999995056153,0|0,3:3|3:3,3:3:0:0:
220,244,41347,1,0,0:0:0:0:
220,244,41436,2,0,P|224:109|172:69,1,161.999995056153,0|0,3:3|3:3,3:3:0:0:
104,44,41700,1,0,0:0:0:0:
104,44,41789,2,0,P|170:76|250:40,1,161.999995056153
343,23,42053,1,0,0:0:0:0:
343,23,42141,2,0,L|352:104,1,80.9999975280763
440,188,42318,2,0,L|448:107,1,80.9999975280763
340,156,42494,6,0,L|352:336,1,161.999995056153,0|0,0:3|0:3,0:3:0:0:
244,256,42759,1,0,0:0:0:0:
244,256,42847,2,0,L|256:76,1,161.999995056153,0|0,0:3|0:3,0:3:0:0:
152,164,43112,1,0,0:0:0:0:
152,164,43200,2,0,L|164:344,1,161.999995056153,0|0,0:3|0:3,0:3:0:0:
40,304,43465,1,0,0:0:0:0:
40,304,43553,2,0,P|99:238|149:248,1,80.9999975280763
196,297,43730,2,0,P|156:291|120:308,1,80.9999975280763
216,384,43906,6,8,P|278:336|284:258,1,161.999995056153
212,160,44171,1,0,0:0:0:0:
212,160,44259,2,8,L|408:152,1,161.999995056153
384,276,44524,1,0,0:0:0:0:
384,276,44612,2,0,P|369:177|417:140,1,161.999995056153
328,55,44877,1,0,0:0:0:0:
328,55,44965,2,0,P|239:50|210:93,1,80.9999975280763
212,160,45142,2,0,P|236:128|273:114,1,80.9999975280763
260,236,45318,6,8,P|182:246|122:195,1,161.999995056153
92,76,45583,1,0,0:0:0:0:
92,76,45671,2,0,P|116:184|40:256,1,161.999995056153
32,328,45936,1,0,0:0:0:0:
32,328,46024,2,0,P|140:304|212:380,1,161.999995056153
288,384,46289,1,0,0:0:0:0:
288,384,46377,2,0,L|296:292,1,80.9999975280763
364,131,46553,2,0,L|372:212,1,80.9999975280763
252,180,46730,6,0,L|272:-4,1,161.999995056153
164,80,46994,1,0,0:0:0:0:
164,80,47083,2,0,P|100:100|120:32,1,161.999995056153
232,16,47347,1,0,0:0:0:0:
232,16,47436,2,0,P|264:87|225:154,1,161.999995056153
124,220,47700,1,0,0:0:0:0:
124,220,47789,2,0,P|56:212|44:196,1,80.9999975280763
148,136,47965,2,0,P|187:129|221:149,1,80.9999975280763
284,252,48141,6,0,P|270:357|214:384,1,161.999995056153
92,336,48406,1,0,0:0:0:0:
92,336,48494,2,0,B|136:324|136:324|288:340,1,161.999995056153
372,356,48759,1,0,0:0:0:0:
372,356,48847,2,0,P|343:302|412:208,1,161.999995056153
484,144,49112,1,0,0:0:0:0:
484,144,49200,6,0,L|368:128,1,80.9999975280763
304,60,49377,2,0,L|384:48,1,80.9999975280763
312,148,49553,1,0,0:0:0:0:
260,168,49641,1,0,0:0:0:0:
204,148,49730,1,0,0:0:0:0:
188,92,49818,1,0,0:0:0:0:
223,48,49906,6,0,L|303:59,1,80.9999975280763
212,124,50083,2,0,L|131:135,1,80.9999975280763
84,164,50259,1,0,0:0:0:0:
64,216,50347,1,0,0:0:0:0:
84,268,50436,1,0,0:0:0:0:
140,284,50524,1,0,0:0:0:0:
192,252,50612,6,0,P|197:220|180:171,1,80.9999975280763
108,272,50789,2,0,P|92:320|96:352,1,80.9999975280763
192,252,50965,6,0,P|272:272|352:224,1,161.999995056153
364,116,51230,1,0,0:0:0:0:
364,116,51318,2,0,B|344:200|344:200|360:304,1,161.999995056153
252,344,51583,1,0,0:0:0:0:
252,344,51671,2,0,B|272:260|272:260|256:156,1,161.999995056153
104,176,51936,1,0,0:0:0:0:
104,176,52024,2,0,P|176:128|192:132,1,80.9999975280763
128,244,52200,2,0,P|43:227|34:212,1,80.9999975280763
56,116,52377,6,0,P|148:88|248:148,1,161.999995056153
260,216,52641,1,0,0:0:0:0:
260,216,52730,2,0,P|237:138|283:61,1,161.999995056153
340,172,52994,1,0,0:0:0:0:
340,172,53083,2,0,P|362:249|316:326,1,161.999995056153
216,272,53347,1,0,0:0:0:0:
216,272,53436,2,0,P|248:248|304:248,1,80.9999975280763
224,348,53612,2,0,P|184:343|152:319,1,80.9999975280763
60,236,53789,6,0,B|56:352|56:352|36:280,1,161.999995056153
60,188,54053,1,0,0:0:0:0:
60,188,54141,2,0,L|64:12,1,161.999995056153,8|0,3:0|3:0,3:0:0:0:
164,96,54406,1,0,0:0:0:0:
163,95,54495,2,0,L|167:257,1,161.999995056153,8|0,3:0|3:0,3:0:0:0:
260,336,54759,1,0,0:0:0:0:
260,336,54847,2,0,L|160:328,1,80.9999975280763,8|0,0:0|0:0,0:0:0:0:
268,244,55024,2,0,L|368:252,1,80.9999975280763,8|0,0:0|0:0,0:0:0:0:
444,324,55200,6,0,P|430:239|460:156,1,161.999995056153
344,112,55465,1,0,0:0:0:0:
344,112,55553,2,0,P|358:197|328:280,1,161.999995056153
228,324,55818,1,0,0:0:0:0:
228,324,55906,2,0,P|308:300|380:332,1,161.999995056153
484,268,56171,1,0,0:0:0:0:
484,268,56260,2,0,P|497:305|494:345,1,80.9999975280763
396,258,56436,2,0,P|389:218|400:180,1,80.9999975280763
500,112,56612,6,0,L|292:104,1,161.999995056153
216,124,56877,1,0,0:0:0:0:
216,124,56965,2,0,L|424:132,1,161.999995056153
496,168,57230,1,0,0:0:0:0:
496,168,57318,2,0,L|288:160,1,161.999995056153
212,168,57583,1,0,0:0:0:0:
212,168,57671,2,0,P|199:214|206:254,1,80.9999975280763
292,332,57847,2,0,P|304:285|297:245,1,80.9999975280763
320,132,58024,6,0,P|328:224|388:276,1,161.999995056153
496,296,58289,1,0,0:0:0:0:
496,296,58377,2,0,B|408:264|408:264|316:284,1,161.999995056153
228,328,58641,1,0,0:0:0:0:
228,328,58730,2,0,P|128:332|76:268,1,161.999995056153
152,192,58994,1,0,0:0:0:0:
152,192,59083,2,0,P|171:226|166:266,1,80.9999975280763
32,184,59259,2,0,P|46:140|80:118,1,80.9999975280763
192,92,59436,6,0,L|16:64,1,161.999995056153
148,28,59700,1,0,0:0:0:0:
148,28,59789,2,0,P|224:24|256:152,1,161.999995056153
280,208,60053,1,0,0:0:0:0:
280,208,60141,2,0,B|260:112|260:112|296:40,1,161.999995056153
356,160,60406,1,0,0:0:0:0:
356,160,60494,2,0,P|356:249|324:272,1,80.9999975280763
292,336,60671,2,0,P|291:246|324:224,1,80.9999975280763
236,148,60847,5,0,0:0:0:0:
228,204,60935,1,0,0:0:0:0:
176,228,61024,1,0,0:0:0:0:
120,216,61112,1,0,0:0:0:0:
96,164,61200,6,0,P|89:125|99:86,1,80.9999975280763
228,92,61377,2,0,P|235:138|223:174,1,80.9999975280763
176,280,61553,1,0,0:0:0:0:
216,244,61641,1,0,0:0:0:0:
272,244,61730,1,0,0:0:0:0:
300,292,61818,1,0,0:0:0:0:
280,348,61906,6,0,P|251:363|196:356,1,80.9999975280763
99,295,62083,6,0,P|127:279|183:283,1,80.9999975280763
288,240,62259,2,0,P|388:160|256:152,1,323.999990112305
164,93,62965,2,0,L|176:296,1,161.999995056153
360,136,63318,1,8,0:0:0:0:
436,104,63494,2,0,P|348:212|292:88,1,323.999990112305
48,92,64024,6,0,L|40:284,1,161.999995056153,8|0,0:0|0:0,0:0:0:0:
152,308,64289,1,0,0:0:0:0:
152,308,64377,2,0,L|145:146,1,161.999995056153,8|0,0:0|0:0,0:0:0:0:
244,76,64641,1,0,0:0:0:0:
244,76,64730,2,0,L|236:268,1,161.999995056153,8|0,0:0|0:0,0:0:0:0:
344,300,64994,1,0,0:0:0:0:
344,300,65083,6,0,L|336:108,1,161.999995056153,8|0,0:0|0:0,0:0:0:0:
456,352,65436,1,0,0:0:0:0:
396,116,65788,1,0,0:0:0:0:
316,344,65965,2,0,P|238:365|163:340,1,161.999995056153,8|0,0:0|0:0,0:0:0:0:
32,136,66318,2,0,P|116:152|92:344,1,323.999990112305,8|0,0:0|0:0,0:0:0:0:
332,296,66847,6,0,P|204:244|128:272,1,161.999995056153
2,186,67112,1,0,0:0:0:0:
2,186,67200,2,0,P|33:160|72:153,1,80.9999975280763
196,144,67377,2,0,P|235:148|268:170,1,80.9999975280763
324,280,67553,2,0,P|284:275|251:253,1,80.9999975280763
196,144,67730,2,0,P|189:104|203:66,1,80.9999975280763
320,28,67906,6,0,P|357:14|320:176,1,323.999990112305
136,148,68612,2,0,B|216:128|216:128|295:133,1,161.999995056153
380,220,68965,1,8,0:0:0:0:
368,340,69141,2,0,P|258:239|332:109,1,323.999990112305
512,72,69671,6,0,L|320:64,1,161.999995056153,8|0,0:0|0:0,0:0:0:0:
256,144,69936,1,0,0:0:0:0:
256,144,70024,2,0,L|418:151,1,161.999995056153,8|0,0:0|0:0,0:0:0:0:
492,244,70288,1,0,0:0:0:0:
492,244,70377,2,0,L|331:238,1,161.999995056153,8|0,0:0|0:0,0:0:0:0:
220,284,70641,1,0,0:0:0:0:
220,284,70730,6,0,L|58:290,1,161.999995056153,8|0,0:0|0:0,0:0:0:0:
300,320,71083,1,0,0:0:0:0:
300,320,71436,6,0,L|461:313,1,161.999995056153,8|0,0:0|0:0,0:0:0:0:
220,292,71789,1,0,0:0:0:0:
263,221,71965,2,0,P|136:273|232:372,1,323.999990112305,8|0,0:0|0:0,0:0:0:0:
32,300,72494,1,0,0:0:0:0:
280,288,72670,5,0,0:0:0:0:
280,288,72759,1,0,0:0:0:0:
280,288,72847,6,0,L|442:300,1,161.999995056153
404,168,73112,1,0,0:0:0:0:
404,169,73200,6,0,L|324:176,1,80.9999975280763
199,278,73377,2,0,L|280:288,1,80.9999975280763
92,308,73552,5,0,0:0:0:0:
40,268,73641,1,0,0:0:0:0:
20,206,73730,1,0,0:0:0:0:
41,143,73818,1,0,0:0:0:0:
94,107,73906,1,0,0:0:0:0:
159,108,73994,1,0,0:0:0:0:
211,147,74083,1,0,0:0:0:0:
230,209,74171,1,0,0:0:0:0:
210,270,74259,5,0,0:0:0:0:
235,329,74348,1,0,0:0:0:0:
295,354,74436,1,0,0:0:0:0:
355,330,74524,1,0,0:0:0:0:
379,270,74612,1,0,0:0:0:0:
355,210,74701,1,0,0:0:0:0:
303,170,74788,1,0,0:0:0:0:
283,108,74877,1,0,0:0:0:0:
304,45,74965,5,0,0:0:0:0:
357,9,75053,1,0,0:0:0:0:
422,10,75141,1,0,0:0:0:0:
474,49,75230,1,0,0:0:0:0:
493,111,75318,1,0,0:0:0:0:
473,175,75406,1,0,0:0:0:0:
420,211,75494,1,0,0:0:0:0:
355,210,75583,1,0,0:0:0:0:
303,171,75671,5,0,0:0:0:0:
243,146,75760,1,0,0:0:0:0:
183,171,75848,1,0,0:0:0:0:
158,231,75936,1,0,0:0:0:0:
183,290,76024,1,0,0:0:0:0:
243,315,76113,1,0,0:0:0:0:
303,291,76201,1,0,0:0:0:0:
356,268,76289,1,0,0:0:0:0:
412,284,76377,6,0,L|492:286,1,80.9999975280763
316,208,76553,2,0,P|314:168|333:134,1,80.9999975280763
502,31,76730,2,0,P|468:52|428:51,1,80.9999975280763
308,40,76906,2,0,P|267:39|233:60,1,80.9999975280763
202,262,77083,6,0,P|222:227|220:188,1,80.9999975280763
124,112,77259,2,0,L|43:109,1,80.9999975280763
100,220,77436,2,0,P|78:253|76:293,1,80.9999975280763
192,324,77612,2,0,L|272:324,1,80.9999975280763
464,271,77788,6,0,L|384:276,1,80.9999975280763
296,192,77965,2,0,P|284:140|296:104,1,80.9999975280763
404,152,78141,2,0,P|416:204|404:240,1,80.9999975280763
300,288,78318,2,0,L|219:291,1,80.9999975280763,0|0,3:0|3:0,3:0:0:0:
96,292,78494,6,0,P|176:248|96:252,1,242.999992584229
184,336,78847,2,0,B|256:352|256:352|364:344|364:344|432:352,1,242.999992584229
476,320,79200,6,0,L|488:220,1,80.9999975280763
410,55,79377,2,0,L|420:136,1,80.9999975280763
352,236,79553,5,0,0:0:0:0:
292,260,79641,1,0,0:0:0:0:
232,235,79730,1,0,0:0:0:0:
207,176,79818,1,0,0:0:0:0:
227,114,79906,1,0,0:0:0:0:
207,52,79995,1,0,0:0:0:0:
154,14,80083,1,0,0:0:0:0:
89,14,80171,1,0,0:0:0:0:
37,52,80259,5,0,0:0:0:0:
17,114,80348,1,0,0:0:0:0:
37,175,80436,1,0,0:0:0:0:
89,214,80524,1,0,0:0:0:0:
154,214,80612,1,0,0:0:0:0:
204,172,80700,1,0,0:0:0:0:
262,144,80788,1,0,0:0:0:0:
326,156,80876,1,0,0:0:0:0:
370,203,80964,5,0,0:0:0:0:
368,268,81053,1,0,0:0:0:0:
321,312,81141,1,0,0:0:0:0:
256,309,81229,1,0,0:0:0:0:
212,261,81318,1,0,0:0:0:0:
215,196,81407,1,0,0:0:0:0:
171,148,81495,1,0,0:0:0:0:
106,145,81583,1,0,0:0:0:0:
59,189,81671,5,0,0:0:0:0:
57,254,81760,1,0,0:0:0:0:
101,301,81848,1,0,0:0:0:0:
164,316,81936,1,0,0:0:0:0:
228,324,82024,6,0,L|320:340,1,80.9999975280763
489,304,82200,2,0,P|455:283|416:284,1,80.9999975280763
316,216,82377,2,0,P|296:181|298:141,1,80.9999975280763
380,52,82553,2,0,P|421:51|455:72,1,80.9999975280763
298,141,82730,6,0,L|217:136,1,80.9999975280763
45,85,82906,2,0,P|80:65|120:68,1,80.9999975280763
104,188,83083,2,0,L|94:268,1,80.9999975280763
220,152,83259,2,0,L|208:48,1,80.9999975280763
320,120,83435,6,0,P|326:159|314:197,1,80.9999975280763
232,288,83612,2,0,P|210:254|210:214,1,80.9999975280763
168,100,83789,2,0,L|87:104,1,80.9999975280763
276,44,83965,2,0,L|356:48,1,80.9999975280763
452,123,84141,2,0,P|474:91|475:51,1,80.9999975280763
344,184,84318,2,0,P|344:223|367:256,1,80.9999975280763
468,324,84494,2,0,L|372:340,1,80.9999975280763
196,274,84671,2,0,L|276:288,1,80.9999975280763
434,211,84847,5,0,0:0:0:0:
381,167,84935,1,0,0:0:0:0:
316,174,85024,1,0,0:0:0:0:
275,223,85112,1,0,0:0:0:0:
276,288,85200,1,0,0:0:0:0:
239,341,85289,1,0,0:0:0:0:
176,362,85377,1,0,0:0:0:0:
115,345,85465,1,0,0:0:0:0:
77,292,85553,5,0,0:0:0:0:
74,227,85642,1,0,0:0:0:0:
113,175,85730,1,0,0:0:0:0:
172,153,85818,1,0,0:0:0:0:
235,170,85906,1,0,0:0:0:0:
275,223,85994,1,0,0:0:0:0:
274,288,86082,1,0,0:0:0:0:
315,337,86170,1,0,0:0:0:0:
380,344,86259,5,0,0:0:0:0:
433,300,86347,1,0,0:0:0:0:
434,235,86435,1,0,0:0:0:0:
393,186,86523,1,0,0:0:0:0:
328,179,86612,1,0,0:0:0:0:
275,223,86700,1,0,0:0:0:0:
212,202,86788,1,0,0:0:0:0:
175,149,86877,1,0,0:0:0:0:
176,84,86965,5,0,0:0:0:0:
216,31,87053,1,0,0:0:0:0:
279,14,87141,1,0,0:0:0:0:
344,24,87230,1,0,0:0:0:0:
396,64,87318,1,0,0:0:0:0:
331,61,87406,1,0,0:0:0:0:
268,59,87494,1,0,0:0:0:0:
204,55,87583,1,0,0:0:0:0:
140,60,87671,6,0,L|61:74,1,80.9999975280763
244,140,87847,2,0,L|324:126,1,80.9999975280763
129,160,88024,2,0,P|152:193|153:233,1,80.9999975280763
21,365,88201,2,0,P|22:326|45:293,1,80.9999975280763
140,368,88377,6,0,L|221:373,1,80.9999975280763
409,312,88553,2,0,L|329:317,1,80.9999975280763
286,202,88730,2,0,P|286:163|265:129,1,80.9999975280763
182,219,88907,2,0,P|170:258|177:297,1,80.9999975280763
286,345,89083,6,0,L|277:265,1,80.9999975280763
402,148,89259,2,0,L|393:229,1,80.9999975280763
376,348,89436,2,0,P|416:351|451:331,1,80.9999975280763
279,280,89612,2,0,L|199:276,1,80.9999975280763
444,164,89789,6,0,P|364:208|444:204,1,242.999992584229
356,120,90142,2,0,B|284:104|284:104|176:112|176:112|108:104,1,242.999992584229
68,64,90495,6,0,L|77:144,1,80.9999975280763
115,345,90671,2,0,L|124:264,1,80.9999975280763
144,136,90847,5,0,0:0:0:0:
189,90,90936,1,0,0:0:0:0:
253,107,91024,1,0,0:0:0:0:
269,169,91112,1,0,0:0:0:0:
223,215,91201,1,0,0:0:0:0:
198,275,91290,1,0,0:0:0:0:
223,335,91378,1,0,0:0:0:0:
283,360,91466,1,0,0:0:0:0:
342,335,91554,5,0,0:0:0:0:
367,275,91642,1,0,0:0:0:0:
342,215,91730,1,0,0:0:0:0:
296,169,91819,1,0,0:0:0:0:
312,107,91907,1,0,0:0:0:0:
376,90,91995,1,0,0:0:0:0:
421,136,92083,1,0,0:0:0:0:
401,198,92171,1,0,0:0:0:0:
348,236,92259,5,0,0:0:0:0:
283,236,92347,1,0,0:0:0:0:
231,197,92436,1,0,0:0:0:0:
172,180,92524,1,0,0:0:0:0:
126,226,92613,1,0,0:0:0:0:
142,288,92701,1,0,0:0:0:0:
206,305,92789,1,0,0:0:0:0:
251,259,92877,1,0,0:0:0:0:
231,197,92965,5,0,0:0:0:0:
185,151,93054,1,0,0:0:0:0:
201,89,93142,1,0,0:0:0:0:
265,72,93230,1,0,0:0:0:0:
312,120,93318,6,0,P|330:169|330:206,1,80.9999975280763
200,340,93494,2,0,P|203:300|220:264,1,80.9999975280763
340,296,93671,2,0,L|436:304,1,80.9999975280763
480,196,93847,2,0,L|399:202,1,80.9999975280763
312,120,94024,6,0,P|303:78|320:40,1,80.9999975280763
416,116,94200,2,0,P|430:153|420:192,1,80.9999975280763
392,312,94377,2,0,L|471:325,1,80.9999975280763
280,264,94553,2,0,L|200:277,1,80.9999975280763
96,340,94730,6,0,P|105:301|91:263,1,80.9999975280763
172,95,94906,2,0,P|158:133|168:172,1,80.9999975280763
224,280,95083,2,0,L|320:268,1,80.9999975280763
492,226,95259,2,0,L|412:216,1,80.9999975280763
348,320,95436,5,0,0:0:0:0:
271,291,95524,1,0,0:0:0:0:
231,221,95612,1,0,0:0:0:0:
245,142,95700,1,0,0:0:0:0:
307,90,95789,1,0,0:0:0:0:
388,90,95877,1,0,0:0:0:0:
450,141,95965,1,0,0:0:0:0:
465,221,96053,1,0,0:0:0:0:
423,296,96141,6,0,L|192:288,1,161.999995056153
28,224,96494,2,0,L|160:216,1,80.9999975280763
332,124,96759,1,0,0:0:0:0:
332,124,96847,6,0,L|170:118,1,161.999995056153
400,36,97200,2,0,L|480:31,1,80.9999975280763
352,240,97465,1,0,0:0:0:0:
352,240,97553,6,0,P|300:136|376:88,1,161.999995056153
400,36,97906,2,0,L|480:31,1,80.9999975280763
412,140,98171,1,0,0:0:0:0:
412,140,98259,2,0,L|331:135,1,80.9999975280763
143,80,98436,2,0,L|224:76,1,80.9999975280763
392,156,98612,2,0,L|311:151,1,80.9999975280763
123,96,98789,2,0,L|203:91,1,80.9999975280763
376,176,98965,2,0,L|200:176,1,161.999995056153
0,232,99318,2,0,L|132:224,1,80.9999975280763
304,324,99583,1,0,0:0:0:0:
304,324,99671,6,0,L|142:318,1,161.999995056153
0,232,100024,2,0,L|80:227,1,80.9999975280763
316,164,100289,1,0,0:0:0:0:
316,164,100377,6,0,L|200:160,1,80.9999975280763
312,68,100553,5,0,0:0:0:0:
365,24,100641,1,0,0:0:0:0:
430,31,100730,1,0,0:0:0:0:
471,80,100818,1,0,0:0:0:0:
470,145,100906,1,0,0:0:0:0:
424,192,100994,1,0,0:0:0:0:
385,244,101083,5,0,0:0:0:0:
388,309,101172,1,0,0:0:0:0:
438,352,101259,1,0,0:0:0:0:
500,330,101347,1,0,0:0:0:0:
510,265,101435,1,0,0:0:0:0:
461,223,101524,1,0,0:0:0:0:
397,223,101612,1,0,0:0:0:0:
348,267,101701,1,0,0:0:0:0:
340,332,101789,6,0,L|109:324,1,161.999995056153
0,244,102142,2,0,L|80:240,1,80.9999975280763
310,134,102407,1,0,0:0:0:0:
310,134,102495,6,0,L|148:128,1,161.999995056153
0,244,102847,2,0,L|80:240,1,80.9999975280763
208,268,103113,1,0,0:0:0:0:
208,268,103201,6,0,P|156:164|232:116,1,161.999995056153
312,68,103553,2,0,L|392:73,1,80.9999975280763
312,172,103818,5,0,0:0:0:0:
312,172,103906,2,0,L|232:167,1,80.9999975280763
104,164,104083,1,0,0:0:0:0:
111,99,104172,1,0,0:0:0:0:
160,58,104260,1,0,0:0:0:0:
225,59,104348,1,0,0:0:0:0:
272,105,104436,1,0,0:0:0:0:
284,168,104525,5,0,0:0:0:0:
348,176,104614,2,0,B|468:168|468:168|427:177,1,161.999995056153
216,168,104965,2,0,L|136:176,1,80.9999975280763
240,252,105230,1,0,0:0:0:0:
240,252,105318,2,0,P|304:184|272:104,1,161.999995056153
176,64,105671,2,0,L|80:52,1,80.9999975280763
196,220,105936,1,0,0:0:0:0:
196,220,106024,6,0,L|312:224,1,80.9999975280763
200,316,106200,5,0,0:0:0:0:
147,360,106288,1,0,0:0:0:0:
82,353,106377,1,0,0:0:0:0:
41,304,106465,1,0,0:0:0:0:
42,239,106553,1,0,0:0:0:0:
88,192,106641,1,0,0:0:0:0:
127,140,106730,5,0,0:0:0:0:
124,75,106819,1,0,0:0:0:0:
74,32,106906,1,0,0:0:0:0:
12,54,106994,1,0,0:0:0:0:
2,119,107082,1,0,0:0:0:0:
51,161,107171,1,0,0:0:0:0:
115,161,107259,1,0,0:0:0:0:
164,117,107348,1,0,0:0:0:0:
172,52,107436,6,0,L|403:60,1,161.999995056153
484,164,107789,2,0,L|404:168,1,80.9999975280763
308,256,108054,1,0,0:0:0:0:
308,256,108142,6,0,L|470:262,1,161.999995056153
492,136,108494,2,0,L|412:140,1,80.9999975280763
277,128,108760,1,0,0:0:0:0:
277,128,108848,6,0,P|321:240|253:272,1,161.999995056153
185,292,109200,2,0,L|105:287,1,80.9999975280763
184,184,109465,1,0,0:0:0:0:
184,184,109553,2,0,L|265:189,1,80.9999975280763
453,244,109730,2,0,L|372:248,1,80.9999975280763
204,168,109906,2,0,L|285:173,1,80.9999975280763
473,228,110083,2,0,L|393:233,1,80.9999975280763
220,148,110259,2,0,L|396:148,1,161.999995056153
473,228,110612,2,0,L|341:236,1,80.9999975280763
169,136,110877,1,0,0:0:0:0:
169,136,110965,6,0,L|331:142,1,161.999995056153
473,228,111318,2,0,L|393:233,1,80.9999975280763
196,232,111583,1,0,0:0:0:0:
196,232,111671,6,0,L|312:236,1,80.9999975280763
212,120,111847,5,0,0:0:0:0:
159,76,111935,1,0,0:0:0:0:
94,83,112024,1,0,0:0:0:0:
53,132,112112,1,0,0:0:0:0:
54,197,112200,1,0,0:0:0:0:
100,244,112288,1,0,0:0:0:0:
156,276,112377,5,0,0:0:0:0:
153,341,112466,1,0,0:0:0:0:
103,384,112553,1,0,0:0:0:0:
41,362,112641,1,0,0:0:0:0:
31,297,112729,1,0,0:0:0:0:
80,255,112818,1,0,0:0:0:0:
144,255,112906,1,0,0:0:0:0:
193,299,112995,1,0,0:0:0:0:
204,352,113083,6,0,L|435:344,1,161.999995056153
504,231,113436,2,0,L|424:228,1,80.9999975280763
200,139,113701,1,0,0:0:0:0:
200,139,113789,6,0,L|362:145,1,161.999995056153
504,231,114141,2,0,L|424:228,1,80.9999975280763
296,228,114406,1,0,0:0:0:0:
296,228,114494,2,0,P|312:316|252:368,1,161.999995056153
136,344,114847,2,0,L|56:330,1,80.9999975280763
216,241,115112,1,0,0:0:0:0:
216,241,115200,2,0,L|295:227,1,80.9999975280763
424,188,115375,1,0,0:0:0:0:
417,123,115464,1,0,0:0:0:0:
368,82,115552,1,0,0:0:0:0:
303,83,115640,1,0,0:0:0:0:
252,124,115728,1,0,0:0:0:0:
188,124,115817,5,0,0:0:0:0:
148,72,115906,2,0,B|28:64|28:64|116:84,1,161.999995056153
308,124,116259,2,0,L|408:136,1,80.9999975280763
320,32,116523,1,0,0:0:0:0:
320,32,116611,2,0,P|226:34|192:114,1,161.999995056153
212,208,116877,2,0,L|224:310,1,80.9999975280763
328,85,117229,1,0,0:0:0:0:
328,85,117318,2,0,L|337:4,1,80.9999975280763
408,100,117493,5,0,0:0:0:0:
425,166,117581,1,0,0:0:0:0:
392,222,117670,1,0,0:0:0:0:
330,238,117758,1,0,0:0:0:0:
271,210,117846,1,0,0:0:0:0:
249,149,117934,1,0,0:0:0:0:
217,91,118023,5,0,0:0:0:0:
157,66,118112,1,0,0:0:0:0:
98,93,118199,1,0,0:0:0:0:
91,159,118287,1,0,0:0:0:0:
146,196,118375,1,0,0:0:0:0:
205,169,118464,1,0,0:0:0:0:
232,111,118552,1,0,0:0:0:0:
212,48,118641,1,0,0:0:0:0:
152,24,118730,6,0,P|56:40|32:240,1,323.999990112305
152,24,119436,6,0,P|56:40|0:128,1,161.999995056153
24,232,119789,1,0,0:0:0:0:
232,144,119965,2,0,P|296:208|136:280,1,290
128,192,120494,1,0,0:0:0:0:
184,96,120671,5,0,0:0:0:0:
184,96,120759,1,0,0:0:0:0:
184,96,120847,2,0,P|272:96|352:64,1,145
392,88,121112,1,0,0:0:0:0:
408,144,121200,2,0,P|384:232|424:328,1,145
352,328,121465,1,0,0:0:0:0:
320,280,121553,6,0,B|224:176|136:344|32:184,2,290
408,216,122436,5,0,0:0:0:0:
392,104,122612,1,0,0:0:0:0:
280,96,122789,2,0,P|264:232|176:112,1,362.5
176,48,123318,1,0,0:0:0:0:
280,112,123494,6,0,L|280:200,1,72.5
408,208,123671,2,0,L|408:312,1,72.5
400,328,123847,1,0,0:0:0:0:
368,352,123936,1,0,0:0:0:0:
328,352,124024,1,0,0:0:0:0:
296,336,124112,1,0,0:0:0:0:
264,312,124200,1,0,0:0:0:0:
248,272,124289,1,0,0:0:0:0:
232,232,124377,6,0,P|120:160|232:176,2,362.5
344,304,125259,1,0,0:0:0:0:
400,96,125436,1,0,0:0:0:0:
232,232,125612,1,0,0:0:0:0:
72,200,125965,5,0,0:0:0:0:
272,48,126141,1,0,0:0:0:0:
426,72,126318,1,0,0:0:0:0:
426,72,126406,1,0,0:0:0:0:
426,72,126494,2,0,P|338:72|258:40,1,145
218,64,126759,1,0,0:0:0:0:
202,120,126847,2,0,P|226:208|186:304,1,145
258,304,127112,1,0,0:0:0:0:
314,288,127200,2,0,B|386:224|450:223|450:223|424:160|456:40,1,290
160,232,127906,5,0,0:0:0:0:
264,192,128083,1,0,0:0:0:0:
368,232,128259,1,0,0:0:0:0:
408,128,128436,2,0,P|416:48|288:136,1,290
264,240,128965,1,0,0:0:0:0:
400,280,129141,5,0,0:0:0:0:
400,280,129230,1,0,0:0:0:0:
400,280,129318,1,0,0:0:0:0:
224,120,129494,1,0,0:0:0:0:
224,120,129583,1,0,0:0:0:0:
224,120,129671,1,0,0:0:0:0:
236,44,129847,2,0,L|144:52,1,80.9999975280763
209,156,139024,6,0,P|190:233|200:312,1,145
320,64,139377,1,0,0:0:0:0:
208,224,139553,1,0,0:0:0:0:
370,197,139730,2,0,P|378:133|314:61,1,145
176,200,140083,1,0,0:0:0:0:
370,197,140259,1,0,0:0:0:0:
176,200,140436,2,0,P|200:272|336:296,1,217.5
296,184,140789,1,0,0:0:0:0:
408,128,140965,6,0,P|440:224|384:288,2,145
384,96,141406,1,0,0:0:0:0:
352,72,141494,1,0,0:0:0:0:
312,64,141583,1,0,0:0:0:0:
272,72,141671,1,0,0:0:0:0:
248,104,141759,1,0,0:0:0:0:
240,144,141847,1,0,0:0:0:0:
256,184,141936,1,0,0:0:0:0:
272,224,142024,1,0,0:0:0:0:
272,264,142112,1,0,0:0:0:0:
248,296,142200,5,0,0:0:0:0:
200,320,142289,1,0,0:0:0:0:
144,304,142377,1,0,0:0:0:0:
112,256,142465,1,0,0:0:0:0:
104,200,142553,1,0,0:0:0:0:
112,144,142641,1,0,0:0:0:0:
152,104,142730,1,0,0:0:0:0:
200,80,142818,1,0,0:0:0:0:
256,72,142906,5,0,0:0:0:0:
328,88,142994,1,0,0:0:0:0:
368,152,143083,1,0,0:0:0:0:
368,224,143171,1,0,0:0:0:0:
328,280,143259,1,0,0:0:0:0:
264,304,143347,1,0,0:0:0:0:
192,312,143436,1,0,0:0:0:0:
120,296,143524,1,0,0:0:0:0:
72,240,143612,1,0,0:0:0:0:
48,168,143700,1,0,0:0:0:0:
72,96,143789,1,0,0:0:0:0:
128,48,143877,1,0,0:0:0:0:
208,24,143965,1,0,0:0:0:0:
280,56,144053,1,0,0:0:0:0:
280,56,144141,6,0,P|290:135|282:214,1,145
184,112,144494,1,0,0:0:0:0:
328,184,144671,1,0,0:0:0:0:
168,208,144847,2,0,P|216:272|304:288,1,145
304,144,145200,1,0,0:0:0:0:
408,240,145377,1,0,0:0:0:0:
376,80,145553,6,0,P|256:80|216:104,1,145
329,200,145906,1,0,0:0:0:0:
176,240,146083,1,0,0:0:0:0:
312,288,146259,2,0,P|376:320|304:240,1,362.5
296,184,146965,1,0,0:0:0:0:
336,152,147053,1,0,0:0:0:0:
384,160,147141,1,0,0:0:0:0:
424,184,147230,1,0,0:0:0:0:
456,224,147318,5,0,0:0:0:0:
449,288,147406,1,0,0:0:0:0:
416,328,147494,1,0,0:0:0:0:
368,336,147583,1,0,0:0:0:0:
320,320,147671,1,0,0:0:0:0:
288,288,147759,1,0,0:0:0:0:
272,240,147847,1,0,0:0:0:0:
248,200,147936,1,0,0:0:0:0:
200,192,148024,5,0,0:0:0:0:
152,208,148112,1,0,0:0:0:0:
136,256,148200,1,0,0:0:0:0:
136,304,148289,1,0,0:0:0:0:
160,344,148377,1,0,0:0:0:0:
208,360,148465,1,0,0:0:0:0:
256,360,148553,1,0,0:0:0:0:
296,336,148641,1,0,0:0:0:0:
320,296,148730,5,0,0:0:0:0:
328,248,148818,1,0,0:0:0:0:
320,200,148906,1,0,0:0:0:0:
288,160,148994,1,0,0:0:0:0:
240,144,149083,1,0,0:0:0:0:
200,168,149171,1,0,0:0:0:0:
176,208,149259,1,0,0:0:0:0:
128,216,149347,1,0,0:0:0:0:
88,192,149436,1,0,0:0:0:0:
64,152,149524,5,0,0:0:0:0:
56,104,149612,1,0,0:0:0:0:
80,64,149700,1,0,0:0:0:0:
128,64,149789,6,0,B|176:48|176:48|240:72|240:72|344:48,2,217.5
64,160,150318,1,0,0:0:0:0:
128,264,150494,6,0,B|176:280|176:280|240:256|240:256|344:280,2,217.5
168,136,151024,1,0,0:0:0:0:
88,216,151200,6,0,P|153:186|209:202,1,72.5
244,72,151377,2,0,P|264:101|272:136,1,72.5
416,164,151553,2,0,P|387:185|352:194,1,72.5
156,224,151730,2,0,P|134:191|127:152,1,72.5
312,124,151906,2,0,P|381:143|414:191,1,72.5
199,259,152083,2,0,P|130:242|97:193,1,72.5
323,248,152259,2,0,P|319:287|299:322,1,72.5
188,135,152436,2,0,P|192:96|212:61,1,72.5
136,176,163906,5,0,0:0:0:0:
200,288,165318,1,0,0:0:0:0:
264,176,166730,1,0,0:0:0:0:
352,272,168141,1,0,0:0:0:0:
272,96,169553,2,0,P|168:244|292:136,1,540
200,152,172377,2,0,B|296:32|448:120|448:120|376:164|376:164|368:288|368:288|344:220,1,540
132,224,175200,2,0,L|224:220,1,67.5
268,148,175553,2,0,L|200:145,1,67.5
100,152,175906,1,0,0:0:0:0:
200,168,176083,1,0,0:0:0:0:
100,188,176259,1,0,0:0:0:0:
200,196,176436,1,0,0:0:0:0:
296,160,176612,2,0,L|388:164,1,67.5
432,236,176965,2,0,L|364:238,1,67.5
264,232,177318,1,0,0:0:0:0:
364,216,177495,1,0,0:0:0:0:
264,196,177671,1,0,0:0:0:0:
364,188,177848,1,0,0:0:0:0:
280,240,178024,2,0,L|276:148,1,67.5
204,104,178377,2,0,L|201:171,1,67.5
208,272,178730,1,0,0:0:0:0:
224,172,178907,1,0,0:0:0:0:
244,272,179083,1,0,0:0:0:0:
252,172,179260,1,0,0:0:0:0:
300,84,179436,2,0,L|304:176,1,67.5
376,220,179789,2,0,L|378:152,1,67.5
372,52,180142,1,0,0:0:0:0:
356,152,180319,1,0,0:0:0:0:
336,52,180495,1,0,0:0:0:0:
328,152,180672,1,0,0:0:0:0:
240,196,180847,2,0,L|236:104,1,67.5
164,60,181200,2,0,L|161:127,1,67.5
168,228,181553,1,0,0:0:0:0:
184,128,181730,1,0,0:0:0:0:
204,228,181906,1,0,0:0:0:0:
212,128,182083,1,0,0:0:0:0:
172,72,200612,6,0,L|432:112,1,236.25
456,120,201318,2,0,L|76:136,1,354.375013518334
0,124,202024,2,0,L|528:328,1,540
208,40,203083,1,0,0:0:0:0:
100,108,203436,2,0,P|176:168|328:84,1,270
200,56,204141,2,0,P|168:132|296:264,1,270
158,94,229024,5,0,0:0:0:0:
232,184,237494,5,0,0:0:0:0:
296,304,270936,6,0,P|272:248|272:216,1,72.5
124,184,293789,6,0,B|248:200|248:200|332:200|416:168|416:168|464:264|328:236|328:236,1,435
224,232,295200,6,0,B|223:215|224:344|320:300|320:300|356:200|220:148|220:148|288:128|256:64,1,435
232,16,296612,2,0,P|180:79|292:15,1,435
264,96,298024,2,0,B|240:168|256:200|256:200|172:260|256:368|344:312|344:312|308:288|304:260|304:260|356:260,1,435
384,192,299436,2,0,B|312:188|120:320|120:320|32:216|152:248,1,435
376,116,300847,2,0,P|240:216|432:244,1,435
392,204,302259,2,0,P|492:256|364:220,1,435
416,276,303671,2,0,B|336:332|284:276|284:276|312:140|312:140|244:88|172:160,1,435
20,108,305083,2,0,B|256:-4|232:256|112:226|112:226|272:324|272:324|356:-8|420:226,1,870
288,344,306494,2,0,P|480:224|208:292,1,870
412,176,307906,2,0,P|367:269|346:106,1,435
348,260,309318,2,0,B|279:306|243:217|177:243|129:327|129:327|126:243|96:221|96:221|170:174|151:236,1,435
224,156,310730,2,0,P|226:259|134:123,1,435
153,207,312141,2,0,P|185:44|262:192,1,435
192,132,313553,2,0,B|225:158|231:203|231:203|308:136|416:212|384:340|284:348|216:312|224:252,1,435,0|0,3:0|3:0,3:0:0:0:
192,132,314965,2,0,B|152:99|120:155|120:155|152:212|230:198|271:26|373:28|385:151|428:114|428:114,1,435
276,200,316377,2,0,B|301:186|353:242|353:242|381:230|381:186|381:186|441:226|557:178|505:34|429:56,1,435
420,120,317789,2,0,B|395:134|343:78|343:78|315:90|315:134|315:134|255:94|139:142|191:286|267:264,1,435
272,196,319200,2,0,P|319:358|172:274,1,435
155,76,320612,2,0,B|172:120|124:132|136:168|168:184|128:240|152:252|304:316|164:232|152:148|176:136|248:60|364:128|324:228,1,435
272,240,322024,2,0,B|312:344|480:296|444:168|392:56|272:44,1,435
152,48,323436,2,0,P|140:220|84:96,1,435
164,140,324847,6,0,B|240:240|376:168|360:24|224:16|224:16|280:308|280:308|260:360|188:344|172:264|240:232|384:272|384:272|440:280|432:200,1,1046.25
220,244,349171,5,0,0:0:0:0:
248,248,349296,1,0,0:0:0:0:
248,248,349421,1,0,0:0:0:0:
152,84,349671,5,0,0:0:0:0:
192,56,349733,1,0,0:0:0:0:
240,48,349796,1,0,0:0:0:0:
280,72,349858,1,0,0:0:0:0:
308,112,349921,2,0,L|312:201,1,67.5,0|0,3:3|3:0,3:0:0:0:
204,272,350046,2,0,L|199:182,1,67.5,0|0,3:3|3:0,3:0:0:0:
224,116,350171,1,0,0:0:0:0:
252,152,350233,1,0,0:0:0:0:
296,168,350296,1,0,0:0:0:0:
340,152,350358,1,0,0:0:0:0:
368,116,350421,1,0,0:0:0:0:
376,68,350483,1,0,0:0:0:0:
352,28,350546,1,0,0:0:0:0:
308,8,350608,1,0,0:0:0:0:
276,44,350671,2,0,L|267:141,1,67.5
316,218,350796,1,0,0:0:0:0:
340,256,350858,1,0,0:0:0:0:
348,304,350921,1,0,0:0:0:0:
328,348,350983,1,0,0:0:0:0:
296,384,351046,1,0,0:0:0:0:
248,376,351108,1,0,0:0:0:0:
224,336,351171,2,0,L|232:269,1,67.5,0|0,3:3|3:0,3:0:0:0:
200,180,351296,1,0,0:0:0:0:
172,144,351358,1,0,0:0:0:0:
124,136,351421,1,0,0:0:0:0:
76,140,351483,1,0,0:0:0:0:
40,172,351546,1,0,0:0:0:0:
20,212,351608,1,0,0:0:0:0:
24,260,351671,1,0,0:0:0:0:
24,260,351796,1,0,0:0:0:0:
212,336,351921,1,0,0:0:0:0:
312,132,352171,1,0,0:0:0:0:
312,132,352296,1,0,0:0:0:0:
312,132,352421,1,0,0:0:0:0:
72,120,352671,1,0,0:0:0:0:
320,232,352796,1,0,0:0:0:0:
344,48,353171,1,0,0:0:0:0:
216,328,353296,1,0,0:0:0:0:
136,84,353671,1,0,0:0:0:0:
136,84,353796,1,0,0:0:0:0:
216,328,353921,1,0,0:0:0:0:
244,104,354046,1,0,0:0:0:0:
136,368,354171,1,0,0:0:0:0:
172,128,354296,1,0,0:0:0:0:
280,340,354671,1,0,0:0:0:0:
280,340,354796,1,0,0:0:0:0:
136,48,355171,1,0,0:0:0:0:
136,48,355296,1,0,0:0:0:0:
256,296,355671,1,0,0:0:0:0:
192,92,355796,1,0,0:0:0:0:
184,352,355921,1,0,0:0:0:0:
272,84,356171,1,0,0:0:0:0:
324,344,356296,1,0,0:0:0:0:
200,184,356421,1,0,0:0:0:0:
432,68,356671,1,0,0:0:0:0:
432,68,356796,1,0,0:0:0:0:
248,248,357171,1,0,0:0:0:0:
248,248,357296,1,0,0:0:0:0:
224,28,357671,6,0,P|168:208|264:92,1,507.5
168,108,358171,6,0,P|353:118|185:197,1,507.5
264,144,358671,6,0,P|208:324|312:204,1,507.5
216,232,359171,6,0,P|393:177|262:309,1,507.5
368,128,363032,1,0,0:0:0:0:
136,272,363209,1,0,0:0:0:0:
280,24,363385,1,0,0:0:0:0:
320,288,363562,5,0,0:0:0:0:
160,112,363738,1,0,0:0:0:0:
400,112,363915,1,0,0:0:0:0:
272,264,364091,1,0,0:0:0:0:
144,80,364268,1,0,0:0:0:0:
136,288,364444,1,0,0:0:0:0:
384,184,364621,1,0,0:0:0:0:
248,152,364974,1,0,0:0:0:0:
56,112,367091,2,0,L|144:112,1,80
456,176,367268,2,0,L|368:176,1,80
112,64,367444,2,0,L|184:112,1,80
416,248,367621,2,0,L|344:208,1,80
200,56,367797,2,0,L|224:136,1,80
336,224,367974,2,0,L|288:136,1,80
336,224,368150,6,0,P|395:122|387:74,2,160
160,168,368680,2,0,P|128:232|128:320,1,160
272,216,369032,2,0,P|312:128|304:56,2,160
192,304,369562,2,0,P|96:288|48:240,1,160
216,200,369915,2,0,P|288:192|368:232,2,160
128,296,370444,2,0,P|104:248|112:136,1,160
240,64,370797,2,0,P|248:128|208:216,1,160
192,176,371062,5,0,0:0:0:0:
144,176,371150,1,0,0:0:0:0:
104,192,371238,1,0,0:0:0:0:
80,232,371327,1,0,0:0:0:0:
88,280,371415,1,0,0:0:0:0:
128,304,371503,1,0,0:0:0:0:
176,296,371591,5,0,0:0:0:0:
208,264,371680,1,0,0:0:0:0:
256,280,371768,1,0,0:0:0:0:
296,304,371856,1,0,0:0:0:0:
328,336,371944,1,0,0:0:0:0:
368,320,372032,1,0,0:0:0:0:
424,296,372121,6,0,L|352:224,1,80
168,32,372297,2,0,L|232:96,1,80
480,184,372474,2,0,L|376:168,1,80
112,144,372650,2,0,L|216:160,1,80
456,48,372827,6,0,L|384:112,1,80
144,280,373003,2,0,L|216:224,1,80
352,8,373180,2,0,L|320:96,1,80
256,344,373356,2,0,L|288:256,1,80
184,16,373532,2,0,L|224:88,1,80
408,336,373709,2,0,L|368:264,1,80
176,176,373974,6,0,P|216:128|320:104,1,160
408,120,374327,1,0,0:0:0:0:
232,256,374503,1,0,0:0:0:0:
416,200,374680,2,0,P|320:208|256:176,1,160
280,64,375032,1,0,0:0:0:0:
200,256,375209,1,0,0:0:0:0:
344,128,375385,2,0,P|400:160|464:240,1,160
336,312,375738,1,0,0:0:0:0:
336,312,375915,2,0,P|440:287|448:88,1,320
312,40,376621,5,0,0:0:0:0:
264,48,376709,1,0,0:0:0:0:
216,64,376797,1,0,0:0:0:0:
176,96,376885,1,0,0:0:0:0:
152,136,376974,1,0,0:0:0:0:
152,184,377062,1,0,0:0:0:0:
184,216,377150,1,0,0:0:0:0:
224,240,377238,1,0,0:0:0:0:
280,240,377327,5,0,0:0:0:0:
328,208,377415,1,0,0:0:0:0:
352,160,377503,1,0,0:0:0:0:
344,104,377591,1,0,0:0:0:0:
344,48,377680,1,0,0:0:0:0:
392,16,377768,1,0,0:0:0:0:
448,16,377856,1,0,0:0:0:0:
472,64,377944,1,0,0:0:0:0:
456,128,378032,5,0,0:0:0:0:
488,184,378121,1,0,0:0:0:0:
456,240,378209,1,0,0:0:0:0:
464,304,378297,1,0,0:0:0:0:
400,312,378385,1,0,0:0:0:0:
344,344,378474,1,0,0:0:0:0:
296,328,378562,1,0,0:0:0:0:
232,336,378650,1,0,0:0:0:0:
208,280,378738,5,0,0:0:0:0:
152,256,378827,1,0,0:0:0:0:
152,192,378915,1,0,0:0:0:0:
96,152,379003,1,0,0:0:0:0:
120,96,379091,1,0,0:0:0:0:
184,88,379180,1,0,0:0:0:0:
224,40,379268,1,0,0:0:0:0:
368,160,379444,5,0,0:0:0:0:
112,96,379621,5,0,0:0:0:0:
208,288,379797,1,0,0:0:0:0:
240,56,379974,1,0,0:0:0:0:
112,272,380150,1,0,0:0:0:0:
360,224,380327,1,0,0:0:0:0:
88,208,380503,5,0,0:0:0:0:
368,88,380680,1,0,0:0:0:0:
104,72,380856,1,0,0:0:0:0:
368,280,381032,1,0,0:0:0:0:
96,264,381209,1,0,0:0:0:0:
360,152,381385,1,0,0:0:0:0:
200,248,381562,5,0,0:0:0:0:
160,232,381650,1,0,0:0:0:0:
136,192,381738,1,0,0:0:0:0:
120,152,381827,1,0,0:0:0:0:
128,112,381915,1,0,0:0:0:0:
144,72,382003,1,0,0:0:0:0:
168,40,382091,1,0,0:0:0:0:
208,32,382180,1,0,0:0:0:0:
248,48,382268,2,0,B|144:168|144:328|264:368|416:344|488:192|336:128|224:216,1,640
