osu file format v14

[General]
AudioFilename: Melt and Join.mp3
AudioLeadIn: 0
PreviewTime: 148560
Countdown: 1
SampleSet: None
StackLeniency: 0.7
Mode: 0
LetterboxInBreaks: 1
WidescreenStoryboard: 0

[Editor]
Bookmarks: 22180,30527,38875,55549,59723,68071,76418,84766,93114,97288,101462,109832,116810,134810,149810,165810,173810,181810,183810,186876,191876,199876,207876,215876,225876,233876,241876,249876,265388
DistanceSpacing: 1
BeatDivisor: 8
GridSize: 4
TimelineZoom: 1

[Metadata]
Title:Melt and Join
TitleUnicode:Melt and Join
Artist:Xe
ArtistUnicode:Xe
Creator:Zare
Version:Old Version
Source:Touhou
Tags:Breakcore Glitch Remix Nuclear Fusion Stream Zarerion
BeatmapID:1246540
BeatmapSetID:588836

[Difficulty]
HPDrainRate:7
CircleSize:4
OverallDifficulty:8
ApproachRate:9
SliderMultiplier:1.9
SliderTickRate:2

[Events]
//Background and Video events
0,0,"bg.jpg",0,0
//Break Periods
2,42184,46601
2,93314,96688
2,110010,116210
2,119260,273231
//Storyboard Layer 0 (Background)
//Storyboard Layer 1 (Fail)
//Storyboard Layer 2 (Pass)
//Storyboard Layer 3 (Foreground)
//Storyboard Sound Samples

[TimingPoints]
264,259.74025974026,4,1,0,30,1,0
264,-125,4,2,0,30,0,0
4419,260.869565217391,4,1,0,30,1,0
4419,-125,4,1,0,30,0,0
21114,285.714285714286,4,1,0,30,1,0
21256,315.789473684211,4,1,0,30,1,0
21413,352.941176470588,4,1,0,30,1,0
21589,400,4,1,0,30,1,0
21789,461.538461538462,4,1,0,30,1,0
22019,545.454545454546,4,1,0,30,1,0
22158,260.869565217391,4,1,0,30,1,0
22158,-125,4,1,0,30,0,0
24244,-166.666666666667,4,1,0,30,0,0
24766,-125,4,1,0,30,0,0
28418,-166.666666666667,4,1,0,30,0,0
28940,-125,4,1,0,30,0,0
30505,-100,4,1,0,30,0,1
32592,-166.666666666667,4,1,0,30,0,1
32984,-100,4,1,0,30,0,1
36766,-166.666666666667,4,1,0,30,0,1
37157,-125,4,1,0,30,0,1
38853,-100,4,1,0,30,0,0
47201,-166.666666666667,4,1,0,30,0,0
53462,-125,4,1,0,30,0,0
54505,-100,4,1,0,30,0,0
55549,-166.666666666667,4,1,0,30,0,0
59723,-100,4,1,0,30,0,0
72244,-166.666666666667,4,1,0,30,0,0
76418,-125,4,1,0,30,0,0
89984,-100,4,1,0,30,0,0
97288,-166.666666666667,4,1,0,30,0,0
101462,-125,4,1,0,30,0,1
109810,250,4,1,0,30,1,0
109810,-100,4,1,0,30,0,0
118310,-200,4,1,0,30,0,0
118810,-142.857142857143,4,1,0,30,0,0
149810,-100,4,1,0,30,0,1
165747,-100,4,1,0,30,0,0
165810,-100,4,1,0,30,0,1
165872,-100,4,1,0,30,0,0
166060,-100,4,1,0,30,0,1
166122,-100,4,1,0,30,0,0
167810,-100,4,1,0,30,0,1
167872,-100,4,1,0,30,0,0
168060,-100,4,1,0,30,0,1
168122,-100,4,1,0,30,0,0
169810,-100,4,1,0,30,0,1
169872,-100,4,1,0,30,0,0
170060,-100,4,1,0,30,0,1
170122,-100,4,1,0,30,0,0
170810,-100,4,1,0,30,0,1
170872,-100,4,1,0,30,0,0
171060,-100,4,1,0,30,0,1
171122,-100,4,1,0,30,0,0
171810,-100,4,1,0,30,0,1
171872,-100,4,1,0,30,0,0
172060,-100,4,1,0,30,0,1
172122,-100,4,1,0,30,0,0
172310,-100,4,1,0,30,0,1
172372,-100,4,1,0,30,0,0
172560,-100,4,1,0,30,0,1
172622,-100,4,1,0,30,0,0
173810,-100,4,1,0,30,0,1
173872,-100,4,1,0,30,0,0
174060,-100,4,1,0,30,0,1
181810,-100,4,1,0,30,0,0
185810,266.666666666667,4,1,0,30,1,0
186876,250,4,1,0,30,1,0
233876,-100,4,1,0,30,0,1
235876,-100,4,1,0,30,0,0
236126,-100,4,1,0,30,0,1
236376,-100,4,1,0,30,0,0
236501,-100,4,1,0,30,0,1
236563,-100,4,1,0,30,0,0
236626,-100,4,1,0,30,0,1
241813,-100,4,1,0,30,0,0
241876,-100,4,1,0,30,0,1
249876,-100,4,1,0,30,0,0
260876,244.897959183673,4,1,0,30,1,0
262835,255.31914893617,4,1,0,30,1,0
265388,500,4,1,0,30,1,0
267388,521.739130434783,4,1,0,30,1,0
268431,600,4,1,0,30,1,0
278556,-100,4,2,0,5,0,0

[Colours]
Combo1 : 98,198,83
Combo2 : 249,150,77
Combo3 : 239,69,69
Combo4 : 64,147,191

[HitObjects]
296,33,264,6,0,P|294:73|305:117,1,76
269,176,523,1,0,0:0:0:0:
201,210,653,2,0,L|178:291,2,76
174,60,1043,2,0,P|141:39|102:27,1,76
38,64,1302,5,0,0:0:0:0:
38,64,1432,1,0,0:0:0:0:
87,121,1562,2,0,L|92:206,1,76
117,212,1757,1,0,0:0:0:0:
135,236,1822,1,0,0:0:0:0:
117,309,1952,1,0,0:0:0:0:
190,287,2082,2,0,P|230:295|267:295,1,76
337,162,2341,6,0,L|330:81,2,76
398,207,2731,1,0,0:0:0:0:
328,236,2861,2,0,P|311:258|303:268,7,38
304,265,3380,6,0,P|265:266|232:253,1,76
165,291,3640,1,0,0:0:0:0:
231,252,3770,2,0,P|226:208|219:177,1,76
146,160,4030,1,0,0:0:0:0:
163,87,4160,1,0,0:0:0:0:
236,104,4289,1,0,0:0:0:0:
418,51,4419,5,0,0:0:0:0:
465,110,4549,1,0,0:0:0:0:
465,110,4614,1,0,0:0:0:0:
465,110,4679,2,0,P|450:157|441:183,1,76
368,203,4940,2,0,L|348:226,7,19
355,217,5201,2,0,P|310:222|280:229,1,76
253,244,5397,1,0,0:0:0:0:
233,267,5462,5,0,0:0:0:0:
126,306,5592,1,0,0:0:0:0:
100,290,5657,1,0,0:0:0:0:
78,269,5722,1,0,0:0:0:0:
61,243,5787,1,0,0:0:0:0:
50,215,5852,1,0,0:0:0:0:
46,185,5918,1,0,0:0:0:0:
52,154,5984,2,0,P|50:133|46:115,3,38
46,116,6245,2,0,P|74:89|100:62,1,76
126,48,6440,1,0,0:0:0:0:
155,42,6505,5,0,0:0:0:0:
176,49,6570,1,0,0:0:0:0:
196,61,6635,1,0,0:0:0:0:
214,74,6700,1,0,0:0:0:0:
232,88,6765,1,0,0:0:0:0:
243,109,6832,1,0,0:0:0:0:
242,131,6897,1,0,0:0:0:0:
243,154,6962,1,0,0:0:0:0:
247,177,7027,1,0,0:0:0:0:
252,199,7092,1,0,0:0:0:0:
259,220,7158,1,0,0:0:0:0:
268,242,7223,1,0,0:0:0:0:
278,262,7288,2,0,L|294:279,7,19
291,275,7549,5,0,0:0:0:0:
365,288,7679,1,0,0:0:0:0:
432,251,7810,2,0,P|437:226|441:169,1,76
477,108,8071,1,0,0:0:0:0:
454,87,8136,1,0,0:0:0:0:
428,72,8201,1,0,0:0:0:0:
399,63,8266,1,0,0:0:0:0:
369,61,8331,1,0,0:0:0:0:
339,66,8397,1,0,0:0:0:0:
311,77,8462,1,0,0:0:0:0:
285,93,8527,1,0,0:0:0:0:
264,114,8592,6,0,P|227:115|188:106,1,76
161,92,8788,1,0,0:0:0:0:
137,73,8853,1,0,0:0:0:0:
44,140,8984,2,0,P|45:119|43:102,1,38
22,213,9114,1,0,0:0:0:0:
14,241,9179,1,0,0:0:0:0:
25,270,9245,1,0,0:0:0:0:
45,291,9310,1,0,0:0:0:0:
73,302,9375,1,0,0:0:0:0:
148,311,9505,2,0,P|164:321|179:334,1,38
253,352,9636,6,0,P|288:336|319:309,1,76
347,311,9832,1,0,0:0:0:0:
375,300,9897,1,0,0:0:0:0:
400,284,9962,1,0,0:0:0:0:
420,261,10027,1,0,0:0:0:0:
435,234,10092,1,0,0:0:0:0:
441,203,10158,2,0,L|430:166,3,38
430,166,10418,2,0,P|427:144|427:119,1,38
360,63,10549,2,0,P|356:92|355:101,1,38
287,134,10679,6,0,L|209:150,1,76
188,130,10875,1,0,0:0:0:0:
158,123,10940,1,0,0:0:0:0:
89,157,11071,1,0,0:0:0:0:
212,149,11201,1,0,0:0:0:0:
56,225,11332,1,0,0:0:0:0:
158,123,11462,1,0,0:0:0:0:
203,260,11592,1,0,0:0:0:0:
56,225,11723,6,0,L|20:157,1,76
30,310,11984,2,0,P|61:335|96:348,1,76
168,330,12245,1,0,0:0:0:0:
243,334,12375,1,0,0:0:0:0:
272,341,12440,1,0,0:0:0:0:
299,354,12505,2,0,P|317:342|329:325,1,38
394,293,12636,2,0,P|396:270|394:247,1,38
445,198,12766,6,0,P|432:162|412:124,1,76
307,91,13027,2,0,L|313:15,1,76
245,136,13288,2,0,L|221:159,3,19
155,154,13418,2,0,L|137:180,3,19
88,222,13549,2,0,P|74:264|67:299,1,76
77,323,13745,1,0,0:0:0:0:
100,342,13810,5,0,0:0:0:0:
251,355,13940,2,0,L|239:320,1,38
324,329,14071,2,0,L|348:362,1,38
383,281,14201,2,0,L|360:252,1,38
454,255,14332,2,0,P|476:214|482:184,1,76
459,165,14527,1,0,0:0:0:0:
435,145,14592,1,0,0:0:0:0:
411,124,14658,1,0,0:0:0:0:
387,104,14723,1,0,0:0:0:0:
364,84,14788,1,0,0:0:0:0:
341,64,14853,5,0,0:0:0:0:
228,82,14984,2,0,P|215:68|205:53,2,38
188,189,15245,2,0,P|197:203|210:224,2,38
95,124,15505,2,0,L|82:44,2,76
80,151,15832,1,0,0:0:0:0:
73,180,15897,5,0,0:0:0:0:
73,210,15962,1,0,0:0:0:0:
80,239,16027,1,0,0:0:0:0:
95,265,16092,1,0,0:0:0:0:
117,285,16158,1,0,0:0:0:0:
201,361,16288,1,0,0:0:0:0:
307,321,16418,1,0,0:0:0:0:
307,321,16484,1,0,0:0:0:0:
307,321,16549,1,0,0:0:0:0:
418,299,16679,1,0,0:0:0:0:
447,289,16745,1,0,0:0:0:0:
469,268,16810,1,0,0:0:0:0:
486,243,16875,1,0,0:0:0:0:
491,213,16940,5,0,0:0:0:0:
508,99,17071,1,0,0:0:0:0:
396,77,17202,1,0,0:0:0:0:
378,190,17332,1,0,0:0:0:0:
287,121,17462,2,0,L|259:118,7,19
268,118,17723,2,0,P|230:132|194:141,1,76
165,136,17918,1,0,0:0:0:0:
134,139,17984,5,0,0:0:0:0:
100,206,18114,1,0,0:0:0:0:
90,234,18179,1,0,0:0:0:0:
92,264,18245,2,0,L|96:306,3,38
95,301,18505,2,0,P|128:318|170:329,1,76
234,294,18766,1,0,0:0:0:0:
310,296,18897,1,0,0:0:0:0:
367,345,19027,5,0,0:0:0:0:
234,294,19158,1,0,0:0:0:0:
345,205,19288,2,0,L|343:120,1,76
245,12,19549,2,0,P|208:21|174:38,1,76
130,100,19810,1,0,0:0:0:0:
130,100,19875,1,0,0:0:0:0:
130,100,19940,1,0,0:0:0:0:
130,100,20005,1,0,0:0:0:0:
130,100,20071,5,0,0:0:0:0:
124,122,20136,1,0,0:0:0:0:
121,144,20201,1,0,0:0:0:0:
121,166,20266,1,0,0:0:0:0:
123,188,20332,1,0,0:0:0:0:
127,210,20397,1,0,0:0:0:0:
134,231,20462,1,0,0:0:0:0:
143,251,20527,1,0,0:0:0:0:
156,269,20592,1,0,0:0:0:0:
224,302,20723,1,0,0:0:0:0:
298,287,20853,1,0,0:0:0:0:
330,266,20984,1,0,0:0:0:0:
342,248,21114,6,0,P|371:202|405:172,1,95
384,91,21413,2,0,P|334:89|290:71,1,95
221,113,21789,2,0,P|251:158|263:200,1,95
194,240,22158,6,0,L|208:322,1,76
54,308,22418,2,0,B|43:268|43:268|43:232,1,76
50,157,22679,1,0,0:0:0:0:
157,77,22809,1,0,0:0:0:0:
172,208,22940,1,0,0:0:0:0:
280,130,23071,1,0,0:0:0:0:
412,266,23201,6,0,P|408:309|403:351,1,76
256,362,23462,1,0,0:0:0:0:
328,336,23592,1,0,0:0:0:0:
189,324,23723,2,0,P|166:291|139:258,1,76
161,113,23984,1,0,0:0:0:0:
163,189,24114,1,0,0:0:0:0:
306,141,24244,6,0,B|336:143|362:132|362:132|383:115|412:106,2,113.999996520996
250,87,24897,1,0,0:0:0:0:
227,66,24962,1,0,0:0:0:0:
197,58,25027,2,0,B|159:59|159:59|112:77,1,76
76,258,25288,6,0,P|61:299|47:330,2,76
212,189,25679,2,0,P|247:178|290:170,1,76
418,142,25940,1,0,0:0:0:0:
345,123,26071,1,0,0:0:0:0:
449,210,26201,1,0,0:0:0:0:
368,338,26331,6,0,P|332:322|295:303,1,76
230,169,26592,2,0,P|195:213|170:233,1,76
154,297,26853,1,0,0:0:0:0:
35,201,26984,2,0,B|34:163|34:163|43:120,1,76
28,51,27244,1,0,0:0:0:0:
178,57,27375,6,0,P|139:61|104:52,1,76
246,90,27636,1,0,0:0:0:0:
317,63,27766,2,0,P|355:66|392:74,1,76
435,181,28027,1,0,0:0:0:0:
435,181,28092,1,0,0:0:0:0:
435,181,28157,1,0,0:0:0:0:
355,263,28288,1,0,0:0:0:0:
241,263,28418,6,0,B|219:238|225:211|225:211|214:179|190:166,2,113.999996520996
227,338,29071,1,0,0:0:0:0:
227,338,29136,1,0,0:0:0:0:
227,338,29201,1,0,0:0:0:0:
151,345,29331,1,0,0:0:0:0:
87,302,29462,6,0,B|66:268|66:268|59:231,1,76
148,32,29723,1,0,0:0:0:0:
94,164,29853,1,0,0:0:0:0:
145,108,29984,2,0,L|170:113,7,19
221,159,30244,2,0,L|239:155,7,19
297,206,30505,6,0,L|350:288,1,95
385,294,30701,1,0,0:0:0:0:
421,303,30766,2,0,B|459:273|459:273|485:235,1,95
485,234,30962,1,0,0:0:0:0:
485,234,31027,1,0,0:0:0:0:
470,46,31157,2,0,P|422:27|379:26,1,95
200,58,31418,1,0,0:0:0:0:
295,72,31549,6,0,L|306:177,1,95
154,283,31810,1,0,0:0:0:0:
329,356,31940,1,0,0:0:0:0:
329,356,32005,1,0,0:0:0:0:
329,356,32071,1,0,0:0:0:0:
321,318,32136,1,0,0:0:0:0:
301,285,32201,1,0,0:0:0:0:
270,262,32266,1,0,0:0:0:0:
236,244,32331,1,0,0:0:0:0:
222,207,32397,1,0,0:0:0:0:
223,169,32462,1,0,0:0:0:0:
234,132,32527,1,0,0:0:0:0:
257,101,32592,6,0,L|327:87,1,56.9999982604981
435,121,32853,2,0,L|380:133,1,56.9999982604981,0|0,0:0|0:0,0:0:0:0:
380,133,33114,1,0,0:0:0:0:
302,186,33244,1,0,0:0:0:0:
397,43,33375,1,0,0:0:0:0:
472,193,33505,1,0,0:0:0:0:
386,234,33636,6,0,P|357:278|337:316,1,95
197,282,33897,2,0,L|170:382,2,95
337,315,34288,1,0,0:0:0:0:
197,282,34418,1,0,0:0:0:0:
161,193,34549,1,0,0:0:0:0:
283,245,34679,5,0,0:0:0:0:
164,98,34810,1,0,0:0:0:0:
164,98,34875,1,0,0:0:0:0:
164,98,34940,1,0,0:0:0:0:
352,70,35071,1,0,0:0:0:0:
267,141,35201,1,0,0:0:0:0:
267,141,35266,1,0,0:0:0:0:
267,141,35331,2,0,L|225:173,1,47.5
157,175,35462,2,0,L|138:223,1,47.5
85,267,35592,1,0,0:0:0:0:
86,304,35657,1,0,0:0:0:0:
98,340,35723,5,0,0:0:0:0:
281,359,35853,2,0,P|241:358|188:368,1,95
368,320,36114,1,0,0:0:0:0:
433,251,36244,1,0,0:0:0:0:
281,359,36375,1,0,0:0:0:0:
265,176,36505,2,0,L|254:155,7,23.75
253,154,36766,6,0,L|240:100,1,56.9999982604981
135,53,37027,2,0,B|108:67|108:67|90:86,1,56.9999982604981
41,226,37288,1,0,0:0:0:0:
82,162,37418,1,0,0:0:0:0:
77,294,37549,2,0,L|101:368,1,76
176,234,37810,6,0,P|178:189|186:155,1,76
168,84,38071,1,0,0:0:0:0:
184,158,38201,2,0,L|262:140,1,76
391,193,38462,1,0,0:0:0:0:
334,144,38592,2,0,B|348:108|348:108|354:66,1,76
275,15,38853,5,4,0:0:0:0:
256,192,38984,12,0,41984,0:0:0:0:
108,124,47201,6,0,L|133:238,1,113.999996520996
132,235,47723,1,0,0:0:0:0:
193,286,47853,1,0,0:0:0:0:
271,288,48114,1,0,0:0:0:0:
290,277,48179,1,0,0:0:0:0:
312,275,48244,6,0,P|351:259|399:204,1,113.999996520996
349,141,48636,2,0,L|383:33,1,113.999996520996
383,32,49027,1,0,0:0:0:0:
228,71,49288,6,0,P|208:125|214:186,1,113.999996520996
284,214,49679,1,0,0:0:0:0:
328,280,49810,1,0,0:0:0:0:
300,354,49940,2,0,P|305:372|312:387,2,28.4999991302491
220,341,50201,1,0,0:0:0:0:
177,274,50331,6,0,L|62:295,1,113.999996520996
169,195,50723,2,0,P|186:168|194:137,1,56.9999982604981
166,68,50984,1,0,0:0:0:0:
243,86,51114,1,0,0:0:0:0:
320,68,51244,1,0,0:0:0:0:
320,68,51310,1,0,0:0:0:0:
320,68,51375,5,0,0:0:0:0:
388,109,51636,2,0,P|396:142|401:233,1,113.999996520996
401,221,52027,2,0,B|374:232|374:232|352:250,1,56.9999982604981
294,304,52288,1,0,0:0:0:0:
294,304,52353,1,0,0:0:0:0:
294,304,52418,6,0,P|259:295|237:285,1,56.9999982604981
182,230,52679,2,0,L|122:257,2,56.9999982604981
182,230,53071,1,0,0:0:0:0:
183,150,53201,2,0,P|211:142|235:129,1,56.9999982604981
312,55,53462,6,0,P|331:51|349:53,1,38
312,55,53592,2,0,P|273:56|238:42,1,76
134,44,53853,2,0,P|146:40|165:23,1,38
134,44,53984,2,0,P|126:93|109:121,1,76
61,171,54244,1,0,0:0:0:0:
73,199,54310,1,0,0:0:0:0:
78,228,54375,1,0,0:0:0:0:
99,300,54505,6,0,L|197:324,1,95
413,300,54766,2,0,L|315:324,1,95
256,251,55027,1,0,0:0:0:0:
252,224,55092,1,0,0:0:0:0:
260,196,55157,1,0,0:0:0:0:
252,168,55223,1,0,0:0:0:0:
260,140,55288,1,0,0:0:0:0:
252,112,55353,1,0,0:0:0:0:
260,84,55418,1,0,0:0:0:0:
252,56,55484,1,0,0:0:0:0:
256,28,55549,6,0,L|372:12,2,113.999996520996
110,69,56201,1,0,0:0:0:0:
175,23,56331,1,0,0:0:0:0:
111,149,56462,1,0,0:0:0:0:
169,202,56592,6,0,L|227:308,2,113.999996520996
185,208,57179,1,0,0:0:0:0:
201,210,57244,1,0,0:0:0:0:
218,211,57310,1,0,0:0:0:0:
235,210,57375,1,0,0:0:0:0:
252,208,57440,1,0,0:0:0:0:
268,205,57505,1,0,0:0:0:0:
284,201,57571,1,0,0:0:0:0:
299,194,57636,5,0,0:0:0:0:
304,166,57701,1,0,0:0:0:0:
307,137,57766,1,0,0:0:0:0:
311,108,57831,1,0,0:0:0:0:
315,79,57897,1,0,0:0:0:0:
335,59,57962,1,0,0:0:0:0:
361,49,58027,1,0,0:0:0:0:
389,48,58092,1,0,0:0:0:0:
416,53,58157,1,0,0:0:0:0:
442,65,58223,1,0,0:0:0:0:
461,86,58288,1,0,0:0:0:0:
475,110,58353,1,0,0:0:0:0:
479,138,58418,1,0,0:0:0:0:
472,165,58484,1,0,0:0:0:0:
457,189,58549,1,0,0:0:0:0:
448,216,58614,1,0,0:0:0:0:
449,244,58679,5,0,0:0:0:0:
406,312,58810,2,0,P|378:309|348:313,1,56.9999982604981
243,319,59071,2,0,L|271:303,1,28.4999991302491
166,321,59201,2,0,L|109:311,1,56.9999982604981
39,187,59462,1,0,0:0:0:0:
130,78,59592,1,0,0:0:0:0:
269,113,59723,6,0,P|296:116|324:112,1,47.5
380,156,59853,1,0,0:0:0:0:
157,241,59984,2,0,P|109:245|73:273,2,95
150,336,60375,1,0,0:0:0:0:
150,336,60440,1,0,0:0:0:0:
150,336,60505,2,0,L|241:362,1,95
275,345,60701,1,0,0:0:0:0:
309,328,60766,5,0,0:0:0:0:
451,347,60897,1,0,0:0:0:0:
397,216,61027,1,0,0:0:0:0:
309,328,61157,2,0,P|263:332|213:315,1,95
217,175,61418,1,0,0:0:0:0:
201,139,61484,1,0,0:0:0:0:
170,117,61549,1,0,0:0:0:0:
132,116,61614,1,0,0:0:0:0:
96,129,61679,1,0,0:0:0:0:
66,152,61744,1,0,0:0:0:0:
49,186,61810,6,0,L|41:284,1,95
110,311,62005,2,0,L|113:358,1,47.5
170,265,62136,2,0,L|184:220,1,47.5
240,293,62266,2,0,L|248:344,1,47.5
438,197,62462,1,0,0:0:0:0:
393,62,62592,2,0,L|388:32,3,23.75
312,26,62723,2,0,L|284:5,3,23.75
218,29,62853,6,0,P|196:39|176:56,2,47.5
158,127,63049,2,0,L|108:134,2,47.5
195,134,63244,1,0,0:0:0:0:
230,149,63310,1,0,0:0:0:0:
259,172,63375,1,0,0:0:0:0:
281,202,63440,1,0,0:0:0:0:
298,235,63505,1,0,0:0:0:0:
302,273,63571,1,0,0:0:0:0:
298,310,63636,2,0,P|297:327|296:339,7,23.75
296,333,63897,6,0,L|208:368,1,95
67,283,64157,2,0,L|159:309,1,95
159,309,64353,1,0,0:0:0:0:
159,309,64418,1,0,0:0:0:0:
317,130,64549,2,0,P|353:127|412:133,1,95
481,258,64810,1,0,0:0:0:0:
481,258,64875,1,0,0:0:0:0:
481,258,64940,6,0,B|441:287|441:287|415:326,1,95
290,258,65201,2,0,L|247:171,1,95
169,262,65462,2,0,L|143:169,1,95
120,153,65657,1,0,0:0:0:0:
104,128,65723,1,0,0:0:0:0:
100,99,65788,1,0,0:0:0:0:
108,71,65853,1,0,0:0:0:0:
127,50,65918,1,0,0:0:0:0:
154,41,65984,6,0,B|201:26|201:26|239:-3,1,95
337,99,66244,2,0,L|315:198,1,95
435,177,66505,2,0,L|386:267,1,95
303,342,66766,2,0,L|252:258,1,95
255,232,66962,1,0,0:0:0:0:
246,205,67027,5,0,0:0:0:0:
223,187,67092,1,0,0:0:0:0:
196,175,67157,1,0,0:0:0:0:
167,171,67223,1,0,0:0:0:0:
148,149,67288,1,0,0:0:0:0:
142,121,67353,1,0,0:0:0:0:
148,93,67418,1,0,0:0:0:0:
164,69,67484,1,0,0:0:0:0:
188,53,67549,2,0,P|199:46|211:41,7,23.75
276,63,67810,2,0,P|288:57|299:49,7,23.75
361,89,68071,6,0,P|377:93|392:109,12,31.6666666666667
393,238,69114,6,0,P|414:208|421:168,10,71.25
326,171,70157,5,0,0:0:0:0:
326,171,70255,6,0,P|288:167|241:175,1,71.25
171,217,70418,1,0,0:0:0:0:
171,217,70484,2,0,P|164:169|176:121,1,95,0|0,0:0|0:0,0:0:0:0:
174,124,70679,1,0,0:0:0:0:
49,28,70810,5,0,0:0:0:0:
49,28,70875,2,0,L|142:52,3,95
330,18,71397,5,0,0:0:0:0:
330,18,71462,1,0,0:0:0:0:
426,181,71723,5,0,0:0:0:0:
286,310,71984,1,0,0:0:0:0:
286,310,72049,1,0,0:0:0:0:
286,310,72114,1,0,0:0:0:0:
79,215,72244,6,0,B|86:155|111:104|111:104|166:72|230:75,1,227.999993041992
217,74,72897,2,0,P|228:75|241:72,11,14.2499995651245
217,74,73288,2,0,P|241:97|265:107,1,56.9999982604981
353,123,73549,1,0,0:0:0:0:
351,119,73614,1,0,0:0:0:0:
349,115,73679,1,0,0:0:0:0:
418,24,73810,1,0,0:0:0:0:
483,117,73940,1,0,0:0:0:0:
487,130,74005,1,0,0:0:0:0:
491,143,74071,1,0,0:0:0:0:
483,170,74136,1,0,0:0:0:0:
475,197,74201,1,0,0:0:0:0:
467,224,74266,1,0,0:0:0:0:
459,251,74331,6,0,P|405:269|341:333,1,142.499995651245
259,343,74723,2,0,B|215:282|215:282|135:248,1,142.499995651245
76,293,75114,2,0,L|35:180,1,113.999996520996
38,180,75440,1,0,0:0:0:0:
39,174,75505,5,0,0:0:0:0:
85,108,75636,2,0,P|114:106|150:95,1,56.9999982604981
180,99,75831,1,0,0:0:0:0:
215,119,75897,1,0,0:0:0:0:
328,102,76027,1,0,0:0:0:0:
328,102,76092,1,0,0:0:0:0:
328,102,76157,2,0,P|332:137|332:160,1,56.9999982604981
256,234,76418,6,0,P|263:296|320:366,1,152
327,257,76810,2,0,P|276:307|204:292,1,152
44,179,77201,1,0,0:0:0:0:
149,199,77331,1,0,0:0:0:0:
344,156,77462,1,0,0:0:0:0:
239,142,77592,1,0,0:0:0:0:
236,131,77657,1,0,0:0:0:0:
233,119,77723,1,0,0:0:0:0:
179,27,77853,2,0,P|250:0|323:27,1,152
355,11,78179,1,0,0:0:0:0:
347,48,78244,1,0,0:0:0:0:
339,85,78310,1,0,0:0:0:0:
331,122,78375,1,0,0:0:0:0:
323,159,78440,1,0,0:0:0:0:
316,195,78505,6,0,P|371:205|416:240,1,114
377,244,78766,5,0,0:0:0:0:
374,258,78831,1,0,0:0:0:0:
374,273,78897,1,0,0:0:0:0:
377,287,78962,1,0,0:0:0:0:
382,301,79027,1,0,0:0:0:0:
281,354,79157,1,0,0:0:0:0:
180,316,79288,2,0,L|166:296,4,19
96,280,79418,2,0,L|91:247,2,19
58,183,79516,5,0,0:0:0:0:
58,183,79614,2,0,P|85:156|105:124,1,76
82,75,79810,2,0,L|158:76,1,76
172,71,80005,1,0,0:0:0:0:
186,67,80071,2,0,P|208:98|218:135,1,76
172,230,80331,2,0,L|191:238,7,19
189,237,80592,2,0,P|226:244|263:236,1,76
297,218,80788,1,0,0:0:0:0:
334,218,80853,5,0,0:0:0:0:
439,236,80984,2,0,P|450:249|461:272,2,38
486,92,81244,1,0,0:0:0:0:
336,124,81375,1,0,0:0:0:0:
439,236,81505,1,0,0:0:0:0:
426,244,81571,1,0,0:0:0:0:
417,256,81636,5,0,0:0:0:0:
356,343,81766,1,0,0:0:0:0:
262,290,81897,2,0,P|224:292|186:299,2,76
280,265,82223,1,0,0:0:0:0:
288,235,82288,1,0,0:0:0:0:
285,204,82353,1,0,0:0:0:0:
270,177,82418,1,0,0:0:0:0:
270,161,82484,1,0,0:0:0:0:
270,145,82549,1,0,0:0:0:0:
271,129,82614,1,0,0:0:0:0:
272,113,82679,6,0,L|286:76,2,38
166,73,82940,2,0,P|173:36|184:0,1,76
79,149,83201,2,0,L|85:228,1,76
152,316,83462,1,0,0:0:0:0:
259,348,83592,2,0,P|297:353|335:349,2,76
338,264,83984,2,0,L|268:231,1,76
312,126,84244,2,0,L|223:147,1,76
216,135,84440,1,0,0:0:0:0:
193,131,84505,2,0,L|146:127,3,38
133,136,84766,5,0,0:0:0:0:
116,151,84831,1,0,0:0:0:0:
102,169,84897,1,0,0:0:0:0:
95,190,84962,1,0,0:0:0:0:
93,212,85027,1,0,0:0:0:0:
96,234,85092,1,0,0:0:0:0:
107,253,85157,1,0,0:0:0:0:
124,267,85223,1,0,0:0:0:0:
144,276,85288,1,0,0:0:0:0:
166,280,85353,1,0,0:0:0:0:
188,277,85418,1,0,0:0:0:0:
209,269,85484,1,0,0:0:0:0:
230,263,85549,1,0,0:0:0:0:
252,262,85614,1,0,0:0:0:0:
273,264,85679,2,0,P|291:273|307:282,1,38
378,254,85810,6,0,P|386:236|391:218,5,38
457,180,86201,1,0,0:0:0:0:
457,157,86266,1,0,0:0:0:0:
448,135,86331,1,0,0:0:0:0:
432,117,86397,1,0,0:0:0:0:
411,107,86462,1,0,0:0:0:0:
388,105,86527,1,0,0:0:0:0:
365,101,86592,1,0,0:0:0:0:
343,94,86657,1,0,0:0:0:0:
321,85,86723,1,0,0:0:0:0:
302,71,86788,1,0,0:0:0:0:
284,53,86853,6,0,P|277:36|273:18,3,38
215,75,87114,1,0,0:0:0:0:
207,83,87179,1,0,0:0:0:0:
199,91,87244,2,0,P|179:102|163:107,1,38
100,149,87375,2,0,L|60:156,1,38
34,226,87505,1,0,0:0:0:0:
37,237,87571,1,0,0:0:0:0:
40,247,87636,2,0,L|45:280,7,19,0|0|0|0|0|0|0|0,0:0|0:0|0:0|0:0|0:0|0:0|0:0|0:0,0:0:0:0:
42,265,87897,6,0,P|61:263|80:263,1,38,0|0,0:0|0:0,0:0:0:0:
125,325,88027,1,0,0:0:0:0:
145,334,88092,1,0,0:0:0:0:
167,338,88157,1,0,0:0:0:0:
190,338,88223,1,0,0:0:0:0:
212,333,88288,1,0,0:0:0:0:
232,322,88353,1,0,0:0:0:0:
249,307,88418,1,0,0:0:0:0:
272,305,88484,1,0,0:0:0:0:
294,304,88549,2,0,P|314:299|332:291,3,38
402,232,88810,2,0,P|384:226|366:224,1,38
323,161,88940,5,0,0:0:0:0:
306,145,89005,1,0,0:0:0:0:
294,125,89071,1,0,0:0:0:0:
290,102,89136,1,0,0:0:0:0:
291,79,89201,2,0,L|256:60,1,38
183,78,89331,2,0,L|167:43,1,38
143,143,89462,1,0,0:0:0:0:
130,162,89527,1,0,0:0:0:0:
123,183,89592,1,0,0:0:0:0:
118,205,89657,1,0,0:0:0:0:
118,228,89723,2,0,L|105:266,1,38
151,324,89853,2,0,L|130:360,1,38
221,290,89984,6,0,P|241:276|277:266,1,47.5
385,233,90114,2,0,P|363:226|342:216,1,47.5
222,140,90244,2,0,P|245:147|266:159,1,47.5
402,117,90375,2,0,P|379:125|356:125,1,47.5
295,52,90505,2,0,P|276:36|255:26,1,47.5
159,23,90636,1,0,0:0:0:0:
132,32,90701,1,0,0:0:0:0:
108,47,90766,1,0,0:0:0:0:
105,50,90831,1,0,0:0:0:0:
102,53,90897,1,0,0:0:0:0:
99,56,90962,1,0,0:0:0:0:
96,59,91027,5,0,0:0:0:0:
64,148,91288,5,0,0:0:0:0:
85,240,91418,1,0,0:0:0:0:
256,322,91679,1,0,0:0:0:0:
161,304,91810,1,0,0:0:0:0:
351,304,92071,1,0,0:0:0:0:
256,322,92201,1,0,0:0:0:0:
427,240,92331,1,0,0:0:0:0:
85,240,92462,1,0,0:0:0:0:
448,148,92592,1,0,0:0:0:0:
449,119,92657,1,0,0:0:0:0:
444,90,92723,1,0,0:0:0:0:
432,63,92788,1,0,0:0:0:0:
412,42,92853,1,0,0:0:0:0:
388,26,92918,1,0,0:0:0:0:
360,17,92984,1,0,0:0:0:0:
331,18,93049,1,0,0:0:0:0:
304,28,93114,5,0,0:0:0:0:
256,192,97288,6,0,P|310:209|376:195,2,113.999996520996
209,133,98071,1,0,0:0:0:0:
67,115,98201,1,0,0:0:0:0:
140,104,98331,2,0,L|155:49,1,56.9999982604981
147,178,98592,2,0,L|129:240,1,56.9999982604981
89,294,98853,2,0,P|123:307|197:266,1,113.999996520996
261,254,99244,1,0,0:0:0:0:
434,251,99375,6,0,L|326:218,1,113.999996520996
319,143,99897,1,0,0:0:0:0:
253,108,100157,1,0,0:0:0:0:
245,34,100287,1,0,0:0:0:0:
195,156,100418,1,0,0:0:0:0:
253,108,100549,1,0,0:0:0:0:
196,231,100679,1,0,0:0:0:0:
195,156,100810,1,0,0:0:0:0:
132,271,100940,5,0,0:0:0:0:
135,307,101005,1,0,0:0:0:0:
132,344,101071,1,0,0:0:0:0:
168,340,101136,1,0,0:0:0:0:
204,336,101201,1,0,0:0:0:0:
240,336,101266,1,0,0:0:0:0:
276,338,101331,1,0,0:0:0:0:
313,343,101397,1,0,0:0:0:0:
348,353,101462,6,0,P|421:368|487:334,1,152
463,137,101984,1,0,0:0:0:0:
463,137,102114,2,0,P|389:121|323:155,1,152
201,142,102505,2,0,L|190:247,1,76
51,250,102766,1,0,0:0:0:0:
137,300,102897,1,0,0:0:0:0:
98,161,103027,1,0,0:0:0:0:
236,291,103157,1,0,0:0:0:0:
258,297,103223,1,0,0:0:0:0:
280,299,103288,1,0,0:0:0:0:
302,293,103353,1,0,0:0:0:0:
321,281,103418,1,0,0:0:0:0:
336,264,103484,1,0,0:0:0:0:
344,243,103549,6,0,L|335:166,1,76
342,146,103744,1,0,0:0:0:0:
342,146,103810,2,0,P|379:135|415:113,1,76
420,95,104005,1,0,0:0:0:0:
420,95,104071,1,0,0:0:0:0:
254,111,104201,1,0,0:0:0:0:
233,120,104266,1,0,0:0:0:0:
210,122,104331,2,0,P|194:122|179:119,3,19
120,155,104462,2,0,L|91:149,3,19
32,184,104592,6,0,P|23:223|30:268,1,76
107,315,104853,1,0,0:0:0:0:
136,310,104918,1,0,0:0:0:0:
166,313,104984,1,0,0:0:0:0:
194,323,105049,1,0,0:0:0:0:
219,338,105114,1,0,0:0:0:0:
365,298,105244,1,0,0:0:0:0:
255,191,105375,2,0,L|221:182,7,19
255,191,105636,6,0,L|310:183,1,38
359,221,105766,2,0,L|364:258,1,38
422,177,105897,2,0,L|421:139,1,38
489,210,106027,2,0,L|492:248,1,38
502,322,106157,2,0,L|347:348,1,152
142,303,106549,1,0,0:0:0:0:
216,228,106679,6,0,L|232:113,1,114
231,115,106940,2,0,P|225:104|215:91,7,19
231,115,107201,1,0,0:0:0:0:
261,122,107266,1,0,0:0:0:0:
291,119,107331,1,0,0:0:0:0:
318,105,107397,1,0,0:0:0:0:
337,81,107462,2,0,L|372:80,7,19
421,120,107723,5,0,0:0:0:0:
484,195,107853,1,0,0:0:0:0:
407,258,107984,1,0,0:0:0:0:
345,182,108114,1,0,0:0:0:0:
257,228,108244,6,0,L|234:232,1,19
144,238,108375,2,0,L|163:240,1,19
219,312,108505,2,0,L|196:316,1,19
106,322,108636,2,0,L|124:323,1,19
57,249,108766,2,0,L|30:240,7,19
56,170,109027,2,0,L|38:163,7,19
119,128,109288,2,0,L|137:121,7,19
120,49,109549,2,0,L|137:42,7,19
206,87,109810,5,0,0:0:0:0:
297,64,116810,6,0,L|396:85,1,95
276,92,117185,2,0,L|375:113,1,95
255,117,117560,2,0,L|354:138,1,95
234,141,117935,2,0,L|333:162,1,95
213,169,118310,2,0,L|312:190,1,95
425,247,118810,6,0,P|411:287|324:321,1,132.999995941162
256,192,273831,12,0,278556,0:0:0:0:
