osu file format v14

[General]
AudioFilename: Melt and Join.mp3
AudioLeadIn: 0
PreviewTime: 148560
Countdown: 1
SampleSet: Normal
StackLeniency: 0.2
Mode: 0
LetterboxInBreaks: 1
WidescreenStoryboard: 1

[Editor]
Bookmarks: 22180,24342,28679,30527,38875,48179,48636,55549,59723,68071,76418,84766,93114,97288,101462,109832,116810,134810,149810,165810,173810,181810,183810,186876,191876,199876,207876,215876,225876,233876,241876,249876,265388
DistanceSpacing: 1.2
BeatDivisor: 8
GridSize: 4
TimelineZoom: 1.500001

[Metadata]
Title:Melt and Join
TitleUnicode:Melt and Join
Artist:Xe
ArtistUnicode:Xe
Creator:Zare
Version:Nuke
Source:Touhou
Tags:Breakcore Glitch Remix Nuclear Fusion Stream Zarerion
BeatmapID:1246539
BeatmapSetID:588836

[Difficulty]
HPDrainRate:7
CircleSize:4
OverallDifficulty:9
ApproachRate:9.5
SliderMultiplier:1.8
SliderTickRate:2

[Events]
//Background and Video events
0,0,"bg.jpg",0,0
//Break Periods
//Storyboard Layer 0 (Background)
//Storyboard Layer 1 (Fail)
//Storyboard Layer 2 (Pass)
//Storyboard Layer 3 (Foreground)
//Storyboard Layer 4 (Overlay)
//Storyboard Sound Samples

[TimingPoints]
264,259.74025974026,4,1,0,30,1,0
264,-125,4,2,0,30,0,0
4419,260.869565217391,4,1,0,30,1,0
4419,-125,4,1,0,30,0,0
12766,-100,4,1,0,30,0,0
21114,285.714285714286,4,1,0,30,1,0
21185,-100,4,1,0,5,0,0
21256,315.789473684211,4,1,0,30,1,0
21334,-100,4,1,0,5,0,0
21413,352.941176470588,4,1,0,30,1,0
21501,-100,4,1,0,5,0,0
21589,400,4,1,0,30,1,0
21689,-100,4,1,0,5,0,0
21789,461.538461538462,4,1,0,30,1,0
21904,-100,4,1,0,5,0,0
22019,545.454545454546,4,1,0,30,1,0
22158,260.869565217391,4,1,0,30,1,0
22158,-125,4,1,0,30,0,0
24766,-125,4,1,0,30,0,0
30505,-100,4,1,0,30,0,1
32984,-100,4,1,0,30,0,1
36766,-100,4,1,0,30,0,0
38853,-125,4,1,0,30,0,0
47201,-125,4,1,0,30,0,0
53462,-125,4,1,0,30,0,0
54505,-100,4,1,0,30,0,0
55549,-166.666666666667,4,1,0,30,0,0
59723,-55.5555555555556,4,1,0,30,0,1
62853,-100,4,1,0,30,0,1
68071,-100,4,2,0,30,0,0
68071,-100,4,1,0,15,0,0
72244,-125,4,1,0,30,0,0
73288,-100,4,1,0,30,0,0
76418,-100,4,1,0,30,0,0
89984,-100,4,1,0,30,0,0
97288,-166.666666666667,4,1,0,30,0,0
101462,-125,4,1,0,30,0,1
109810,250,4,1,0,30,1,0
109810,-100,4,1,0,30,0,0
118310,-200,4,1,0,30,0,0
118810,-142.857142857143,4,1,0,30,0,0
149810,-100,4,1,0,30,0,1
165747,-100,4,1,0,30,0,0
165810,-50,4,1,0,30,0,1
165872,-100,4,1,0,30,0,0
166060,-50,4,1,0,30,0,1
166122,-100,4,1,0,30,0,0
167810,-100,4,1,0,30,0,1
167872,-100,4,1,0,30,0,0
168060,-100,4,1,0,30,0,1
168122,-100,4,1,0,30,0,0
169810,-100,4,1,0,30,0,1
169872,-100,4,1,0,30,0,0
170060,-100,4,1,0,30,0,1
170122,-100,4,1,0,30,0,0
170810,-100,4,1,0,30,0,1
170872,-100,4,1,0,30,0,0
171060,-100,4,1,0,30,0,1
171122,-100,4,1,0,30,0,0
171810,-100,4,1,0,30,0,1
171872,-100,4,1,0,30,0,0
172060,-100,4,1,0,30,0,1
172122,-100,4,1,0,30,0,0
172310,-100,4,1,0,30,0,1
172372,-100,4,1,0,30,0,0
172560,-100,4,1,0,30,0,1
172622,-100,4,1,0,30,0,0
173810,-100,4,1,0,30,0,1
173872,-100,4,1,0,30,0,0
174060,-100,4,1,0,30,0,1
181810,-100,4,1,0,30,0,0
185810,266.666666666667,4,1,0,30,1,0
186876,250,4,1,0,30,1,0
233876,-100,4,1,0,30,0,1
235876,-100,4,1,0,30,0,0
236126,-100,4,1,0,30,0,1
236376,-100,4,1,0,30,0,0
236501,-100,4,1,0,30,0,1
236563,-100,4,1,0,30,0,0
236626,-100,4,1,0,30,0,1
241813,-100,4,1,0,30,0,0
241876,-100,4,1,0,30,0,1
249876,-100,4,1,0,30,0,0
260876,244.897959183673,4,1,0,30,1,0
262835,255.31914893617,4,1,0,30,1,0
265388,500,4,1,0,30,1,0
267388,521.739130434783,4,1,0,30,1,0
268431,600,4,1,0,30,1,0
278556,-100,4,2,0,5,0,0

[Colours]
Combo1 : 98,198,83
Combo2 : 249,150,77
Combo3 : 239,69,69
Combo4 : 64,147,191

[HitObjects]
184,110,264,6,0,L|168:30,2,72
157,199,653,1,0,0:0:0:0:
258,302,783,2,0,L|244:232,1,72
272,141,1043,1,0,0:0:0:0:
367,157,1173,1,0,0:0:0:0:
458,173,1302,5,0,0:0:0:0:
458,173,1432,1,0,0:0:0:0:
398,245,1562,1,0,0:0:0:0:
426,85,1692,1,0,0:0:0:0:
429,56,1757,1,0,0:0:0:0:
433,27,1822,2,0,L|352:18,1,72
121,36,2082,2,0,L|193:44,1,72
283,71,2341,5,0,0:0:0:0:
347,139,2471,1,0,0:0:0:0:
279,203,2601,1,0,0:0:0:0:
215,135,2731,1,0,0:0:0:0:
280,217,2861,1,0,0:0:0:0:
281,231,2926,1,0,0:0:0:0:
282,245,2991,1,0,0:0:0:0:
284,259,3056,1,0,0:0:0:0:
286,273,3121,1,0,0:0:0:0:
288,287,3186,1,0,0:0:0:0:
290,301,3251,1,0,0:0:0:0:
291,315,3315,1,0,0:0:0:0:
293,329,3380,6,0,L|221:318,1,72
164,241,3640,1,0,0:0:0:0:
2,256,3770,2,0,L|74:267,1,72
139,332,4030,1,0,0:0:0:0:
164,241,4160,1,0,0:0:0:0:
189,151,4289,1,0,0:0:0:0:
304,37,4419,5,0,0:0:0:0:
279,128,4549,1,0,0:0:0:0:
299,148,4614,1,0,0:0:0:0:
319,168,4679,1,0,0:0:0:0:
411,149,4810,1,0,0:0:0:0:
382,237,4940,1,0,0:0:0:0:
378,265,5005,1,0,0:0:0:0:
374,293,5071,1,0,0:0:0:0:
370,321,5136,1,0,0:0:0:0:
366,349,5201,6,0,L|295:355,1,72
215,303,5397,1,0,0:0:0:0:
194,282,5462,2,0,L|158:285,1,36
70,254,5592,1,0,0:0:0:0:
73,225,5658,1,0,0:0:0:0:
76,196,5723,1,0,0:0:0:0:
60,163,5788,1,0,0:0:0:0:
61,127,5853,1,0,0:0:0:0:
77,96,5918,1,0,0:0:0:0:
106,74,5984,2,0,L|157:70,1,36
292,16,6114,2,0,L|256:19,1,36
227,108,6245,5,0,0:0:0:0:
233,143,6310,1,0,0:0:0:0:
239,178,6375,1,0,0:0:0:0:
245,213,6440,1,0,0:0:0:0:
251,248,6505,1,0,0:0:0:0:
279,224,6571,1,0,0:0:0:0:
307,201,6636,1,0,0:0:0:0:
334,178,6701,1,0,0:0:0:0:
361,155,6766,1,0,0:0:0:0:
326,145,6832,1,0,0:0:0:0:
293,133,6897,1,0,0:0:0:0:
260,120,6962,1,0,0:0:0:0:
227,108,7027,6,0,L|190:111,1,36
0,69,7158,2,0,L|36:67,1,36
100,135,7288,2,0,L|97:152,7,18
90,188,7549,5,0,0:0:0:0:
80,280,7679,1,0,0:0:0:0:
251,357,7810,1,0,0:0:0:0:
261,265,7940,1,0,0:0:0:0:
261,265,8071,2,0,L|253:225,3,36
234,137,8332,1,0,0:0:0:0:
239,101,8397,1,0,0:0:0:0:
244,65,8462,2,0,L|241:29,1,36
409,4,8592,6,0,L|407:40,1,36
344,195,8723,1,0,0:0:0:0:
348,230,8788,1,0,0:0:0:0:
352,265,8853,2,0,L|361:308,1,36
203,350,8984,1,0,0:0:0:0:
199,315,9049,1,0,0:0:0:0:
195,280,9114,1,0,0:0:0:0:
165,299,9179,1,0,0:0:0:0:
131,313,9245,1,0,0:0:0:0:
95,312,9310,1,0,0:0:0:0:
64,292,9375,2,0,L|55:249,1,36
191,245,9505,1,0,0:0:0:0:
186,208,9571,1,0,0:0:0:0:
181,172,9636,5,0,0:0:0:0:
213,15,9766,1,0,0:0:0:0:
218,52,9832,1,0,0:0:0:0:
223,88,9897,1,0,0:0:0:0:
249,64,9962,1,0,0:0:0:0:
285,53,10027,1,0,0:0:0:0:
320,54,10092,1,0,0:0:0:0:
354,66,10158,2,0,L|393:52,3,36
465,107,10418,1,0,0:0:0:0:
460,143,10484,1,0,0:0:0:0:
454,178,10549,1,0,0:0:0:0:
449,213,10614,1,0,0:0:0:0:
444,248,10679,6,0,L|449:302,1,36
337,374,10810,2,0,L|283:379,1,36
221,263,10940,2,0,L|217:227,1,36
322,151,11071,2,0,L|357:147,1,36
447,283,11201,1,0,0:0:0:0:
301,377,11332,1,0,0:0:0:0:
217,227,11462,1,0,0:0:0:0:
357,147,11592,1,0,0:0:0:0:
271,356,11723,2,0,L|217:361,1,36
158,305,11853,1,0,0:0:0:0:
122,311,11918,1,0,0:0:0:0:
86,317,11984,2,0,L|50:314,1,36
17,178,12114,2,0,L|53:181,1,36
118,54,12245,1,0,0:0:0:0:
153,59,12310,1,0,0:0:0:0:
188,64,12375,1,0,0:0:0:0:
196,83,12440,1,0,0:0:0:0:
205,102,12505,1,0,0:0:0:0:
240,107,12570,1,0,0:0:0:0:
275,112,12635,1,0,0:0:0:0:
310,117,12701,1,0,0:0:0:0:
345,123,12766,6,0,B|387:107|387:107|431:114,1,90
509,278,13027,2,0,B|466:293|466:293|422:286,1,90
246,244,13288,1,0,0:0:0:0:
213,258,13353,1,0,0:0:0:0:
177,262,13418,1,0,0:0:0:0:
141,253,13484,1,0,0:0:0:0:
113,230,13549,2,0,L|119:177,1,45
172,13,13679,1,0,0:0:0:0:
178,48,13744,1,0,0:0:0:0:
185,83,13810,6,0,L|235:87,1,45
302,140,13940,1,0,0:0:0:0:
338,113,14005,1,0,0:0:0:0:
382,108,14070,1,0,0:0:0:0:
423,123,14135,1,0,0:0:0:0:
452,157,14200,1,0,0:0:0:0:
462,201,14266,1,0,0:0:0:0:
456,237,14332,2,0,L|464:289,1,45
393,337,14462,1,0,0:0:0:0:
357,342,14527,1,0,0:0:0:0:
321,347,14592,1,0,0:0:0:0:
284,352,14658,1,0,0:0:0:0:
248,357,14723,1,0,0:0:0:0:
212,362,14788,1,0,0:0:0:0:
176,368,14853,5,0,0:0:0:0:
27,265,14984,1,0,0:0:0:0:
62,272,15049,1,0,0:0:0:0:
97,279,15114,2,0,L|142:268,1,45
243,188,15245,2,0,L|200:199,1,45
113,176,15375,1,0,0:0:0:0:
307,125,15505,1,0,0:0:0:0:
52,122,15636,2,0,L|60:84,3,22.5
56,99,15766,2,0,L|59:53,1,45
149,48,15897,1,0,0:0:0:0:
174,22,15962,1,0,0:0:0:0:
208,13,16027,1,0,0:0:0:0:
243,18,16092,1,0,0:0:0:0:
271,41,16158,6,0,L|264:91,1,45
401,130,16288,2,0,L|408:80,1,45
252,165,16418,1,0,0:0:0:0:
421,4,16549,1,0,0:0:0:0:
333,177,16679,2,0,L|336:228,1,45
300,353,16810,2,0,L|297:302,1,45
40,307,16940,5,0,0:0:0:0:
55,217,17071,1,0,0:0:0:0:
70,128,17201,1,0,0:0:0:0:
86,39,17332,1,0,0:0:0:0:
157,93,17462,1,0,0:0:0:0:
191,82,17527,1,0,0:0:0:0:
226,82,17592,1,0,0:0:0:0:
260,92,17658,1,0,0:0:0:0:
288,114,17723,2,0,L|334:115,1,45
415,78,17853,1,0,0:0:0:0:
439,104,17918,1,0,0:0:0:0:
463,130,17984,2,0,L|462:182,1,45
381,215,18114,5,0,0:0:0:0:
391,258,18179,1,0,0:0:0:0:
384,302,18244,1,0,0:0:0:0:
359,339,18309,1,0,0:0:0:0:
322,364,18374,1,0,0:0:0:0:
278,371,18440,1,0,0:0:0:0:
234,361,18505,2,0,L|212:364,7,22.5
193,351,18766,2,0,L|170:346,1,22.5
183,325,18831,2,0,L|160:320,1,22.5
173,299,18897,2,0,L|150:294,1,22.5
163,273,18962,2,0,L|140:268,1,22.5
153,247,19027,6,0,B|165:204|165:204|152:160,1,90
307,4,19288,2,0,B|295:47|295:47|307:90,1,90
143,134,19549,1,0,0:0:0:0:
317,116,19679,1,0,0:0:0:0:
63,91,19810,1,0,0:0:0:0:
65,126,19875,1,0,0:0:0:0:
57,161,19940,1,0,0:0:0:0:
39,192,20005,1,0,0:0:0:0:
12,215,20070,5,0,0:0:0:0:
53,235,20136,1,0,0:0:0:0:
93,253,20201,1,0,0:0:0:0:
133,271,20266,1,0,0:0:0:0:
148,313,20332,1,0,0:0:0:0:
178,280,20397,1,0,0:0:0:0:
219,262,20462,1,0,0:0:0:0:
263,262,20527,1,0,0:0:0:0:
304,280,20592,6,0,L|349:281,1,45
337,248,20723,2,0,L|381:249,1,45
369,215,20853,2,0,L|413:216,1,45
401,182,20984,2,0,L|445:183,1,45
433,149,21114,6,0,L|477:150,1,45
454,21,21256,6,0,L|405:46,1,45
413,57,21413,6,0,L|360:73,1,45
369,86,21589,6,0,L|314:92,1,45
322,106,21789,6,0,L|267:103,1,45
270,117,22019,6,0,L|216:104,1,45
161,38,22158,5,0,0:0:0:0:
133,127,22288,1,0,0:0:0:0:
112,285,22418,2,0,B|117:249|117:249|106:216,1,72
161,38,22679,1,0,0:0:0:0:
191,275,22810,2,0,B|186:311|186:311|197:344,1,72
403,277,23071,1,0,0:0:0:0:
258,220,23201,2,0,L|253:147,1,72
443,43,23462,1,0,0:0:0:0:
243,120,23592,2,0,B|205:123|205:123|172:113,1,72
26,17,23853,1,0,0:0:0:0:
231,198,23984,2,0,B|269:195|269:195|302:205,1,72
428,29,24244,6,0,L|419:100,1,72
311,368,24505,2,0,L|319:296,1,72
391,235,24766,1,0,0:0:0:0:
336,158,24897,1,0,0:0:0:0:
471,79,25027,2,0,L|400:90,1,72
124,97,25288,6,0,P|188:126|256:107,1,144
468,167,25679,2,0,P|403:138|335:157,1,144
194,22,26071,1,0,0:0:0:0:
110,64,26201,1,0,0:0:0:0:
187,115,26331,2,0,L|193:186,1,72
165,354,26592,6,0,L|158:282,1,72
43,129,26853,1,0,0:0:0:0:
170,255,26984,2,0,B|203:242|203:242|239:247,1,72
470,208,27244,1,0,0:0:0:0:
262,264,27375,2,0,L|333:254,1,72
437,354,27636,1,0,0:0:0:0:
425,137,27766,2,0,B|430:102|430:102|423:65,1,72
285,110,28027,1,0,0:0:0:0:
146,73,28157,2,0,B|141:108|141:108|148:145,1,72
400,222,28418,6,0,L|328:218,1,72
74,242,28679,2,0,L|145:245,1,72
329,219,28940,1,0,0:0:0:0:
146,246,29071,1,0,0:0:0:0:
301,136,29201,1,0,0:0:0:0:
173,328,29332,1,0,0:0:0:0:
234,81,29462,6,0,P|295:49|361:73,1,144
303,270,29853,1,0,0:0:0:0:
301,136,29984,2,0,L|296:169,15,18
311,166,30505,6,0,L|222:177,1,90
47,124,30766,2,0,L|92:133,1,45
264,89,30897,1,0,0:0:0:0:
260,62,30962,1,0,0:0:0:0:
257,35,31027,1,0,0:0:0:0:
70,38,31157,2,0,L|47:124,1,90
34,323,31418,1,0,0:0:0:0:
47,125,31549,6,0,B|57:169|57:169|41:210,1,90
139,361,31810,1,0,0:0:0:0:
130,109,31940,2,0,B|120:65|120:65,1,45
208,40,32071,1,0,0:0:0:0:
241,53,32136,1,0,0:0:0:0:
276,51,32201,1,0,0:0:0:0:
307,34,32266,1,0,0:0:0:0:
328,5,32331,1,0,0:0:0:0:
322,50,32397,1,0,0:0:0:0:
317,94,32462,1,0,0:0:0:0:
312,138,32527,1,0,0:0:0:0:
307,182,32592,6,0,B|302:231|302:231|314:269,1,90
55,354,32853,2,0,B|60:305|60:305|48:267,1,90
289,348,33114,1,0,0:0:0:0:
80,184,33244,1,0,0:0:0:0:
266,161,33375,1,0,0:0:0:0:
102,370,33505,1,0,0:0:0:0:
197,118,33636,6,0,P|186:73|190:30,1,90
413,61,33897,1,0,0:0:0:0:
266,161,34027,1,0,0:0:0:0:
259,196,34092,1,0,0:0:0:0:
252,231,34157,1,0,0:0:0:0:
130,291,34288,1,0,0:0:0:0:
309,295,34418,1,0,0:0:0:0:
110,320,34549,1,0,0:0:0:0:
186,138,34679,5,0,0:0:0:0:
281,189,34810,1,0,0:0:0:0:
315,179,34875,1,0,0:0:0:0:
349,170,34940,1,0,0:0:0:0:
437,52,35071,1,0,0:0:0:0:
403,62,35136,1,0,0:0:0:0:
369,71,35201,1,0,0:0:0:0:
236,65,35331,2,0,L|280:54,1,45
142,46,35462,2,0,L|75:28,2,67.5
178,130,35723,6,0,B|169:177|169:177|176:218,1,90
279,366,35984,2,0,L|329:373,1,45
432,316,36114,2,0,L|388:310,1,45
213,283,36244,2,0,L|303:280,1,90
464,199,36505,2,0,L|459:161,1,22.5
471,163,36571,2,0,L|466:125,1,22.5
478,127,36636,2,0,L|473:89,1,22.5
485,91,36701,2,0,L|480:53,1,22.5
492,55,36766,6,0,B|429:40|429:40|404:47,1,90
149,107,37027,2,0,B|212:122|212:122|237:115,1,90
429,122,37288,1,0,0:0:0:0:
211,37,37418,1,0,0:0:0:0:
492,55,37549,1,0,0:0:0:0:
149,107,37679,1,0,0:0:0:0:
505,172,37810,6,0,P|470:213|479:333,1,180
206,349,38201,1,0,0:0:0:0:
308,156,38331,1,0,0:0:0:0:
96,260,38462,1,0,0:0:0:0:
327,289,38592,1,0,0:0:0:0:
175,132,38723,1,0,0:0:0:0:
233,355,38853,6,0,P|198:351|162:356,1,72
0,249,39114,2,0,P|35:253|71:248,1,72
285,287,39375,1,0,0:0:0:0:
97,235,39505,2,0,B|168:239|168:239|234:209,1,144
295,0,39897,6,0,P|269:66|291:133,1,144
367,322,40288,2,0,L|374:251,1,72
372,68,40549,1,0,0:0:0:0:
285,287,40679,2,0,L|292:216,1,72
62,98,40940,6,0,B|110:106|110:106|130:95,1,72
440,65,41201,2,0,B|392:57|392:57|371:68,1,72
162,6,41462,1,0,0:0:0:0:
222,77,41592,1,0,0:0:0:0:
130,95,41723,2,0,P|125:131|127:167,1,72
94,329,41984,6,0,B|108:297|108:297|108:259,1,72
301,110,42244,1,0,0:0:0:0:
180,373,42375,2,0,B|180:335|180:335|194:303,1,72
395,286,42636,1,0,0:0:0:0:
192,213,42766,1,0,0:0:0:0:
408,195,42897,1,0,0:0:0:0:
216,292,43027,6,0,L|133:284,1,72
11,174,43288,2,0,P|45:184|80:179,1,72
44,2,43549,1,0,0:0:0:0:
106,167,43679,2,0,B|151:160|151:160|199:184|199:184|242:173,1,144
460,156,44071,6,0,P|390:154|335:198,1,144
134,253,44462,1,0,0:0:0:0:
422,247,44592,2,0,L|428:325,1,72
213,354,44853,2,0,P|224:321|219:286,1,72
303,68,45114,6,0,L|381:60,2,48
221,119,45375,2,0,L|143:127,2,48
307,163,45636,1,0,0:0:0:0:
261,225,45723,1,0,0:0:0:0:
293,295,45810,1,0,0:0:0:0:
369,303,45897,1,0,0:0:0:0:
414,241,45984,1,0,0:0:0:0:
383,171,46071,1,0,0:0:0:0:
337,231,46157,6,0,L|289:224,2,48
218,190,46418,2,0,L|171:197,2,48
116,252,46679,1,0,0:0:0:0:
123,136,46810,1,0,0:0:0:0:
45,292,46940,1,0,0:0:0:0:
53,93,47071,1,0,0:0:0:0:
112,334,47201,6,0,P|139:330|189:343,1,72
399,350,47462,2,0,L|326:339,1,72
126,257,47723,1,0,0:0:0:0:
413,266,47853,2,0,P|412:233|405:194,1,72
181,196,48114,1,0,0:0:0:0:
185,180,48179,1,0,0:0:0:0:
189,164,48244,6,0,L|201:85,1,72
415,66,48505,1,0,0:0:0:0:
128,34,48636,2,0,L|117:105,1,72
390,212,48897,1,0,0:0:0:0:
103,180,49028,2,0,L|92:251,1,72
319,359,49288,6,0,L|317:283,1,72
134,112,49549,1,0,0:0:0:0:
351,207,49679,1,0,0:0:0:0:
132,202,49810,1,8,0:2:0:0:
352,116,49940,1,8,0:2:0:0:
56,153,50071,1,8,0:2:0:0:
429,164,50201,1,8,0:2:0:0:
450,158,50266,1,0,0:0:0:0:
470,151,50331,6,0,P|472:116|469:80,1,72
182,46,50592,1,0,0:0:0:0:
398,32,50723,1,0,0:0:0:0:
120,103,50853,1,0,0:0:0:0:
332,145,50984,1,0,0:0:0:0:
45,138,51114,1,0,0:0:0:0:
207,280,51245,1,0,0:0:0:0:
209,301,51310,1,0,0:0:0:0:
211,322,51375,6,0,P|246:327|282:325,1,72
488,124,51636,2,0,L|408:125,1,72
355,371,51897,1,0,0:0:0:0:
332,145,52027,1,0,0:0:0:0:
456,246,52157,1,0,0:0:0:0:
230,269,52287,1,0,0:0:0:0:
208,271,52353,1,0,0:0:0:0:
186,272,52418,6,0,P|164:238|142:213,1,72
432,199,52679,1,0,0:0:0:0:
143,214,52810,2,0,L|147:142,1,72
435,114,53071,1,0,0:0:0:0:
148,142,53201,2,0,P|142:106|144:70,1,72
360,68,53462,5,0,0:0:0:0:
360,68,53527,1,0,0:0:0:0:
360,68,53592,1,0,0:0:0:0:
310,344,53853,5,0,0:0:0:0:
310,344,53918,1,0,0:0:0:0:
310,344,53983,1,0,0:0:0:0:
96,163,54245,5,0,0:0:0:0:
96,163,54310,1,0,0:0:0:0:
96,163,54375,1,0,0:0:0:0:
408,136,54505,5,0,0:0:0:0:
226,350,54636,1,0,0:0:0:0:
131,86,54766,1,0,0:0:0:0:
408,136,54897,1,0,0:0:0:0:
256,192,55027,5,0,0:0:0:0:
239,213,55092,1,0,0:0:0:0:
222,234,55157,1,0,0:0:0:0:
205,255,55223,1,0,0:0:0:0:
188,276,55288,1,0,0:0:0:0:
171,297,55353,1,0,0:0:0:0:
154,318,55418,1,0,0:0:0:0:
137,339,55484,1,0,0:0:0:0:
121,360,55549,5,0,0:0:0:0:
94,363,55614,1,0,0:0:0:0:
67,365,55679,1,0,0:0:0:0:
40,361,55744,1,0,0:0:0:0:
15,349,55810,2,0,L|17:318,7,26.9999991760254
10,242,56331,1,0,0:0:0:0:
227,230,56462,1,0,0:0:0:0:
225,216,56527,1,0,0:0:0:0:
224,202,56592,5,0,0:0:0:0:
102,22,56723,1,0,0:0:0:0:
316,1,56853,6,0,L|351:-1,1,26.9999991760254
409,82,56984,2,0,L|368:84,1,26.9999991760254
320,167,57114,2,0,L|360:163,3,26.9999991760254
402,231,57375,1,0,0:0:0:0:
399,257,57440,1,0,0:0:0:0:
396,283,57505,1,0,0:0:0:0:
392,310,57571,1,0,0:0:0:0:
389,336,57636,5,0,0:0:0:0:
362,331,57701,1,0,0:0:0:0:
335,330,57766,1,0,0:0:0:0:
308,333,57831,1,0,0:0:0:0:
281,338,57897,1,0,0:0:0:0:
254,344,57962,1,0,0:0:0:0:
227,348,58027,1,0,0:0:0:0:
200,348,58092,1,0,0:0:0:0:
173,345,58157,1,0,0:0:0:0:
146,340,58223,1,0,0:0:0:0:
121,329,58288,1,0,0:0:0:0:
97,315,58353,1,0,0:0:0:0:
78,295,58418,6,0,L|76:272,3,13.4999995880127
119,211,58549,2,0,L|118:189,3,13.4999995880127
52,152,58679,1,0,0:0:0:0:
270,185,58810,1,0,0:0:0:0:
273,158,58875,1,0,0:0:0:0:
276,131,58940,1,0,0:0:0:0:
391,16,59071,1,0,0:0:0:0:
388,43,59136,1,0,0:0:0:0:
385,70,59201,1,0,0:0:0:0:
181,85,59331,1,0,0:0:0:0:
479,115,59462,1,0,0:0:0:0:
208,13,59592,1,0,0:0:0:0:
452,187,59723,6,0,B|447:221|439:240|439:240|458:233|458:233|446:283|454:320,1,161.999995056153
58,320,59984,2,0,B|66:283|54:233|54:233|73:240|73:240|64:221|60:187,1,161.999995056153
450,54,60375,2,0,B|445:88|437:107|437:107|456:100|456:100|444:150|452:187,1,161.999995056153
256,360,60636,1,0,0:0:0:0:
60,187,60766,6,0,B|68:150|56:100|56:100|75:107|75:107|66:88|62:54,1,161.999995056153
383,16,61027,1,0,0:0:0:0:
146,61,61157,2,0,P|226:67|307:59,1,161.999995056153
468,185,61418,1,0,0:0:0:0:
445,193,61484,1,0,0:0:0:0:
421,198,61549,1,0,0:0:0:0:
396,198,61614,1,0,0:0:0:0:
371,196,61679,1,0,0:0:0:0:
347,190,61744,1,0,0:0:0:0:
324,180,61810,6,0,B|335:261|335:261|334:341,1,161.999995056153
57,336,62071,1,0,0:0:0:0:
52,312,62136,1,0,0:0:0:0:
47,288,62201,1,0,0:0:0:0:
56,265,62266,1,0,0:0:0:0:
66,242,62331,1,0,0:0:0:0:
42,32,62462,1,0,0:0:0:0:
94,169,62592,2,0,L|141:173,3,40.4999987640381
198,133,62723,2,0,L|245:137,3,40.4999987640381
305,102,62853,5,0,0:0:0:0:
332,108,62918,1,0,0:0:0:0:
358,113,62984,1,0,0:0:0:0:
384,118,63049,1,0,0:0:0:0:
410,123,63114,2,0,L|454:118,3,45
303,177,63375,1,0,0:0:0:0:
330,183,63440,1,0,0:0:0:0:
356,188,63506,1,0,0:0:0:0:
382,193,63571,1,0,0:0:0:0:
408,198,63636,2,0,L|452:193,3,45
446,353,63897,5,0,0:0:0:0:
132,347,64027,1,0,0:0:0:0:
134,329,64092,1,0,0:0:0:0:
136,311,64157,1,0,0:0:0:0:
42,157,64288,1,0,0:0:0:0:
40,175,64353,1,0,0:0:0:0:
38,193,64418,1,0,0:0:0:0:
231,308,64549,2,0,L|324:298,1,90
438,122,64810,1,0,0:0:0:0:
420,124,64875,1,0,0:0:0:0:
402,126,64940,5,0,0:0:0:0:
132,93,65071,1,0,0:0:0:0:
379,202,65201,1,0,0:0:0:0:
111,172,65331,1,0,0:0:0:0:
93,174,65396,1,0,0:0:0:0:
75,176,65462,1,0,0:0:0:0:
280,342,65592,1,0,0:0:0:0:
211,87,65723,1,0,0:0:0:0:
117,332,65853,1,0,0:0:0:0:
337,189,65984,6,0,B|332:155|332:155|334:128|330:99,1,90
125,3,66244,2,0,B|130:37|130:37|128:64|131:92,1,90
343,22,66505,1,0,0:0:0:0:
118,169,66636,1,0,0:0:0:0:
403,74,66766,1,0,0:0:0:0:
58,117,66897,1,0,0:0:0:0:
352,140,67027,5,0,0:0:0:0:
355,166,67092,1,0,0:0:0:0:
358,192,67157,1,0,0:0:0:0:
361,219,67223,1,0,0:0:0:0:
364,245,67288,1,0,0:0:0:0:
367,271,67353,1,0,0:0:0:0:
370,297,67418,1,0,0:0:0:0:
374,323,67484,1,0,0:0:0:0:
378,349,67549,5,0,0:0:0:0:
344,336,67614,1,0,0:0:0:0:
309,327,67679,1,0,0:0:0:0:
273,321,67744,1,0,0:0:0:0:
237,319,67809,1,0,0:0:0:0:
201,320,67875,1,0,0:0:0:0:
166,324,67940,1,0,0:0:0:0:
131,331,68005,1,0,0:0:0:0:
97,345,68071,6,0,L|67:342,5,30
33,263,68331,6,0,L|62:265,5,30
94,180,68592,6,0,L|96:150,2,30
175,106,68722,2,0,L|172:135,2,30
241,193,68852,2,0,L|243:163,2,30
323,119,68982,2,0,L|320:148,2,30
374,210,69114,6,0,L|399:212,40,15
419,213,70005,2,0,L|421:247,1,30
445,266,70071,2,0,L|447:300,1,30
372,334,70157,2,0,L|339:334,1,30
259,337,70244,6,0,P|209:327|167:337,1,90
19,287,70484,2,0,P|69:297|111:287,1,90
127,86,70679,1,0,0:0:0:0:
194,263,70810,1,0,0:0:0:0:
237,33,70918,2,0,L|236:102,1,60
315,180,71027,2,0,L|315:103,1,75
394,21,71157,2,0,L|396:162,1,120
471,185,71375,5,0,0:0:0:0:
470,203,71440,1,0,0:0:0:0:
469,220,71505,1,0,0:0:0:0:
468,238,71571,1,0,0:0:0:0:
467,255,71636,1,0,0:0:0:0:
386,381,71723,2,0,L|384:240,1,120
318,207,71984,1,0,0:0:0:0:
318,189,72049,1,0,0:0:0:0:
319,171,72114,1,0,0:0:0:0:
121,48,72244,6,0,B|124:105|92:148|92:148|150:146|150:146|110:187|122:261,1,288
83,333,73027,2,0,L|85:362,7,18
160,303,73288,6,0,P|183:300|205:302,1,45
328,333,73418,2,0,P|305:335|283:333,1,45
276,251,73549,1,0,0:0:0:0:
272,215,73614,1,0,0:0:0:0:
268,179,73679,2,0,L|270:135,1,45
329,28,73810,2,0,L|327:72,1,45
398,120,73940,2,0,L|397:169,1,45
463,224,74071,1,0,0:0:0:0:
474,241,74136,2,0,L|463:311,1,45
355,364,74266,1,0,0:0:0:0:
344,347,74331,6,0,B|363:235|363:235|303:277,1,180
168,37,74723,2,0,B|149:149|149:149|209:107,1,180
203,337,75114,2,0,L|206:242,1,90
309,47,75375,2,0,L|307:91,1,45
256,192,75505,1,0,0:0:0:0:
390,24,75636,1,0,0:0:0:0:
308,257,75766,1,0,0:0:0:0:
305,293,75831,1,0,0:0:0:0:
303,329,75897,1,0,0:0:0:0:
125,344,76027,1,0,0:0:0:0:
383,312,76157,1,0,0:0:0:0:
79,270,76288,1,0,0:0:0:0:
264,28,76418,6,0,L|251:137,1,90
440,164,76679,1,0,0:0:0:0:
187,168,76810,2,0,P|183:212|191:256,1,90
426,310,77071,1,0,0:0:0:0:
181,339,77201,1,0,0:0:0:0:
400,235,77331,1,0,0:0:0:0:
116,287,77462,5,0,0:0:0:0:
37,268,77592,1,0,0:0:0:0:
35,241,77657,1,0,0:0:0:0:
34,213,77723,1,0,0:0:0:0:
88,21,77853,2,0,P|79:65|85:110,1,90
116,287,78114,1,0,0:0:0:0:
151,283,78179,1,0,0:0:0:0:
186,279,78244,1,0,0:0:0:0:
222,275,78310,1,0,0:0:0:0:
257,271,78375,1,0,0:0:0:0:
292,266,78440,1,0,0:0:0:0:
327,261,78505,5,0,0:0:0:0:
438,337,78636,1,0,0:0:0:0:
419,306,78701,1,0,0:0:0:0:
408,272,78766,1,0,0:0:0:0:
407,236,78831,1,0,0:0:0:0:
415,201,78896,1,0,0:0:0:0:
432,169,78962,1,0,0:0:0:0:
456,142,79027,1,0,0:0:0:0:
263,66,79157,1,0,0:0:0:0:
487,68,79288,2,0,L|485:42,3,22.5
410,36,79418,2,0,L|412:62,3,22.5
340,18,79549,5,0,0:0:0:0:
340,18,79614,1,0,0:0:0:0:
190,27,79744,1,0,0:0:0:0:
190,27,79810,2,0,L|155:25,3,22.5
55,54,79940,1,0,0:0:0:0:
55,54,80005,1,0,0:0:0:0:
55,54,80071,2,0,L|107:57,1,45
159,132,80201,2,0,L|107:129,1,45
35,178,80331,2,0,L|70:180,7,22.5
135,210,80592,5,0,0:0:0:0:
