osu file format v14

[General]
AudioFilename: sakurayozora.mp3
AudioLeadIn: 0
PreviewTime: 6721
Countdown: 0
SampleSet: Soft
StackLeniency: 0.7
Mode: 3
LetterboxInBreaks: 0
SpecialStyle: 0
WidescreenStoryboard: 1

[Editor]
DistanceSpacing: 0.9
BeatDivisor: 4
GridSize: 8
TimelineZoom: 1.1

[Metadata]
Title:Sakurayozora
TitleUnicode:サクラヨゾラ
Artist:Xceon feat. Mayumi Morinaga
ArtistUnicode:Xceon feat. Mayumi Morinaga
Creator:pporse
Version:Hard
Source:REFLEC BEAT groovin'!!
Tags:Dai. ExUsagi Starving Trancer moimoi HYPER J-POP 罪と罰 Tsumi to batsu Crime and Punishment
BeatmapID:672718
BeatmapSetID:299920

[Difficulty]
HPDrainRate:7.5
CircleSize:7
OverallDifficulty:7.5
ApproachRate:5
SliderMultiplier:1.4
SliderTickRate:1

[Events]
//Background and Video events
0,0,"BG.jpg",0,0
//Break Periods
//Storyboard Layer 0 (Background)
//Storyboard Layer 1 (Fail)
//Storyboard Layer 2 (Pass)
//Storyboard Layer 3 (Foreground)
//Storyboard Sound Samples

[TimingPoints]
1120,379.746835443038,4,2,1,30,1,0
96816,-142.857142857143,4,2,1,30,0,0
97006,-76.9230769230769,4,2,1,30,0,0
97195,-100,4,2,1,30,0,1
121120,-100,4,2,1,30,0,0

[HitObjects]
182,192,1120,5,0,0:0:0:70:D5S_s.wav
36,192,1120,1,0,0:0:0:70:D6S_s.wav
402,192,1309,1,0,0:0:0:70:C5S_s.wav
329,192,1404,1,0,0:0:0:70:D5S_s.wav
402,192,1594,1,0,0:0:0:70:F5S_s.wav
475,192,1784,1,0,0:0:0:70:G5S_s.wav
329,192,2259,1,0,0:0:0:70:D5S_s.wav
402,192,2449,1,0,0:0:0:70:F5S_s.wav
109,192,2638,1,0,0:0:0:70:D5S_s.wav
182,192,2638,1,0,0:0:0:70:C6S_s.wav
402,192,2828,1,0,0:0:0:70:C5S_s.wav
329,192,2923,1,0,0:0:0:70:D5S_s.wav
402,192,3113,1,0,0:0:0:70:F5S_s.wav
475,192,3303,1,0,0:0:0:70:G5S_s.wav
329,192,3778,1,0,0:0:0:70:D5S_s.wav
402,192,3968,1,0,0:0:0:70:F5S_s.wav
109,192,4157,1,0,0:0:0:70:D5S_s.wav
256,192,4157,1,0,0:0:0:70:F6S_s.wav
402,192,4347,1,0,0:0:0:70:C5S_s.wav
329,192,4442,1,0,0:0:0:70:D5S_s.wav
402,192,4632,1,0,0:0:0:70:F5S_s.wav
475,192,4822,1,0,0:0:0:70:G5S_s.wav
329,192,5297,1,0,0:0:0:70:C5S_s.wav
402,192,5487,1,0,0:0:0:70:F5S_s.wav
329,192,5676,1,8,0:0:0:0:
182,192,5676,1,0,0:0:0:70:D5S.wav
36,192,5676,128,0,6816:0:0:0:70:LR_SDVX_Effect.wav
256,192,6056,1,8,0:0:0:0:
402,192,6246,1,0,0:0:0:0:
256,192,6436,1,8,0:0:0:0:
402,192,6626,1,0,0:0:0:0:
329,192,6816,1,2,0:0:0:0:
182,192,6816,1,2,0:0:0:0:
109,192,7006,1,2,0:0:0:0:
402,192,7006,1,2,0:0:0:0:
182,192,7195,128,2,7575:0:0:0:0:
329,192,7195,128,2,7575:0:0:0:0:
182,192,7765,1,2,0:0:0:0:
329,192,7765,1,2,0:0:0:0:
475,192,7955,1,2,0:0:0:0:
329,192,7955,1,2,0:0:0:0:
109,192,8145,1,2,0:0:0:0:
402,192,8145,1,2,0:0:0:0:
182,192,8240,1,2,0:0:0:0:
329,192,8240,1,2,0:0:0:0:
256,192,8525,1,2,0:0:0:0:
402,192,8525,1,2,0:0:0:0:
329,192,8714,128,2,9094:0:0:0:0:
475,192,8714,128,2,9094:0:0:0:0:
36,192,9284,1,2,0:0:0:0:
182,192,9284,1,2,0:0:0:0:
109,192,9474,1,2,0:0:0:0:
256,192,9474,1,2,0:0:0:0:
329,192,9664,1,2,0:0:0:0:
475,192,9664,1,2,0:0:0:0:
256,192,9854,1,2,0:0:0:0:
402,192,9854,1,2,0:0:0:0:
329,192,10044,1,2,0:0:0:0:
182,192,10044,1,2,0:0:0:0:
109,192,10233,128,2,10613:0:0:0:0:
402,192,10233,128,2,10613:0:0:0:0:
109,192,10803,1,2,0:0:0:0:
402,192,10803,1,2,0:0:0:0:
109,192,10993,128,2,11373:0:0:0:0:
402,192,10993,128,2,11373:0:0:0:0:
36,192,11373,1,2,0:0:0:0:
475,192,11373,1,2,0:0:0:0:
109,192,11563,1,2,0:0:0:0:
402,192,11563,1,2,0:0:0:0:
182,192,11752,128,2,12132:0:0:0:0:
329,192,11752,128,2,12132:0:0:0:0:
182,192,12322,1,2,0:0:0:0:
329,192,12322,1,2,0:0:0:0:
475,192,12512,1,2,0:0:0:0:
329,192,12512,1,2,0:0:0:0:
329,192,12702,1,2,0:0:0:0:
475,192,12702,1,2,0:0:0:0:
402,192,12892,1,2,0:0:0:0:
256,192,12892,1,2,0:0:0:0:
182,192,13082,1,2,0:0:0:0:
329,192,13082,1,2,0:0:0:0:
109,192,13271,128,2,13651:0:0:0:0:
402,192,13271,128,2,13651:0:0:0:0:
109,192,13841,1,2,0:0:0:0:
402,192,13841,1,2,0:0:0:0:
475,192,14031,1,2,0:0:0:0:
329,192,14031,1,2,0:0:0:0:
109,192,14221,1,2,0:0:0:0:
402,192,14221,1,2,0:0:0:0:
182,192,14316,1,2,0:0:0:0:
329,192,14316,1,2,0:0:0:0:
109,192,14601,1,2,0:0:0:0:
402,192,14601,1,2,0:0:0:0:
36,192,14790,128,2,15170:0:0:0:0:
475,192,14790,128,2,15170:0:0:0:0:
182,192,15360,1,2,0:0:0:0:
109,192,15360,1,2,0:0:0:0:
329,192,15550,1,2,0:0:0:0:
256,192,15550,1,2,0:0:0:0:
475,192,15740,1,2,0:0:0:0:
402,192,15740,1,2,0:0:0:0:
256,192,15930,1,2,0:0:0:0:
182,192,15930,1,2,0:0:0:0:
329,192,16120,1,2,0:0:0:0:
402,192,16120,1,2,0:0:0:0:
109,192,16309,1,8,0:0:0:0:
256,192,16309,1,0,0:0:0:0:
109,192,16499,1,8,0:0:0:0:
256,192,16499,1,0,0:0:0:0:
329,192,16689,1,0,0:0:0:0:
475,192,16689,1,8,0:0:0:0:
329,192,16879,1,0,0:0:0:0:
475,192,16879,1,8,0:0:0:0:
182,192,17069,1,0,0:0:0:0:
36,192,17069,1,8,0:0:0:0:
182,192,17259,1,0,0:0:0:0:
36,192,17259,1,8,0:0:0:0:
256,192,17449,1,0,0:0:0:0:
402,192,17449,1,8,0:0:0:0:
256,192,17638,1,0,0:0:0:0:
402,192,17638,1,8,0:0:0:0:
36,192,17828,1,8,0:0:0:0:
109,192,17876,1,8,0:0:0:0:
182,192,17923,1,8,0:0:0:0:
329,192,18018,1,8,0:0:0:0:
182,192,18113,1,8,0:0:0:0:
329,192,18208,1,8,0:0:0:0:
329,192,18398,1,8,0:0:0:0:
182,192,18493,1,8,0:0:0:0:
402,192,18588,1,8,0:0:0:0:
109,192,18683,1,8,0:0:0:0:
329,192,18778,1,8,0:0:0:0:
182,192,18873,1,8,0:0:0:0:
402,192,18968,1,8,0:0:0:0:
109,192,19063,1,8,0:0:0:0:
329,192,19157,1,8,0:0:0:0:
182,192,19252,1,8,0:0:0:0:
329,192,19347,128,2,19632:0:0:0:0:
475,192,19347,128,8,19632:0:0:0:0:
182,192,19727,1,0,0:0:0:0:
329,192,19727,1,2,0:0:0:0:
182,192,19917,1,8,0:0:0:0:
329,192,19917,1,2,0:0:0:0:
109,192,20107,1,0,0:0:0:0:
402,192,20107,1,2,0:0:0:0:
256,192,20202,1,2,0:0:0:0:
109,192,20297,1,8,0:0:0:0:
402,192,20297,1,2,0:0:0:0:
182,192,20487,1,0,0:0:0:0:
329,192,20487,1,2,0:0:0:0:
182,192,20676,1,8,0:0:0:0:
329,192,20676,1,2,0:0:0:0:
36,192,20866,128,8,21151:0:0:0:0:
182,192,20866,128,2,21151:0:0:0:0:
329,192,21246,1,0,0:0:0:0:
182,192,21246,1,2,0:0:0:0:
329,192,21436,1,8,0:0:0:0:
182,192,21436,1,2,0:0:0:0:
109,192,21626,1,2,0:0:0:0:
402,192,21626,1,0,0:0:0:0:
256,192,21721,1,2,0:0:0:0:
109,192,21816,1,2,0:0:0:0:
402,192,21816,1,8,0:0:0:0:
182,192,22006,1,2,0:0:0:0:
329,192,22006,1,0,0:0:0:0:
182,192,22195,1,2,0:0:0:0:
329,192,22195,1,8,0:0:0:0:
109,192,22385,1,2,0:0:0:0:
256,192,22385,1,4,0:0:0:0:
402,192,22385,1,8,0:0:0:0:
109,192,22575,1,2,0:0:0:0:
402,192,22575,1,0,0:0:0:0:
109,192,22765,128,2,23050:0:0:0:0:
402,192,22765,128,8,23050:0:0:0:0:
182,192,23145,1,2,0:0:0:0:
402,192,23145,1,8,0:0:0:0:
256,192,23335,1,0,0:0:0:0:
109,192,23525,1,2,0:0:0:0:
329,192,23525,1,8,0:0:0:0:
182,192,23714,1,2,0:0:0:0:
109,192,23809,1,2,0:0:0:0:
36,192,23904,1,2,0:0:0:0:
256,192,23904,1,8,0:0:0:0:
402,192,23904,1,4,0:0:0:0:
182,192,24094,1,2,0:0:0:0:
329,192,24094,1,0,0:0:0:0:
329,192,24284,128,0,24569:0:0:0:0:
109,192,24284,128,2,24569:0:0:0:0:
402,192,24284,128,8,24569:0:0:0:0:
402,192,24664,1,8,0:0:0:0:
109,192,24664,1,0,0:0:0:0:
256,192,24664,1,4,0:0:0:0:
329,192,24854,1,2,0:0:0:0:
182,192,24854,1,8,0:0:0:0:
109,192,25044,128,4,25328:0:0:0:0:
182,192,25044,128,8,25328:0:0:0:0:
402,192,25044,128,2,25328:0:0:0:0:
36,192,25423,1,4,0:0:0:0:
182,192,25423,1,2,0:0:0:0:
329,192,25423,1,0,0:0:0:0:
475,192,25423,1,8,0:0:0:0:
256,192,25613,1,0,0:0:0:0:
402,192,25803,1,2,0:0:0:0:
329,192,25803,1,8,0:0:0:0:
256,192,25993,1,0,0:0:0:0:
182,192,26183,1,8,0:0:0:0:
109,192,26183,1,2,0:0:0:0:
256,192,26373,1,0,0:0:0:0:
329,192,26563,1,2,0:0:0:0:
475,192,26563,1,8,0:0:0:0:
256,192,26752,1,0,0:0:0:0:
182,192,26942,1,8,0:0:0:0:
36,192,26942,128,2,27322:0:0:0:0:
256,192,27132,1,0,0:0:0:0:
329,192,27322,1,8,0:0:0:0:
402,192,27512,1,0,0:0:0:0:
109,192,27512,1,2,0:0:0:0:
182,192,27702,1,8,0:0:0:0:
329,192,27702,1,2,0:0:0:0:
475,192,27892,1,2,0:0:0:0:
402,192,27892,1,0,0:0:0:0:
256,192,28082,1,2,0:0:0:0:
329,192,28082,1,8,0:0:0:0:
182,192,28271,1,2,0:0:0:0:
36,192,28271,1,0,0:0:0:0:
402,192,28461,1,2,0:0:0:0:
256,192,28461,1,8,0:0:0:0:
109,192,28651,1,0,0:0:0:0:
329,192,28841,1,2,0:0:0:0:
256,192,28841,1,8,0:0:0:0:
109,192,29031,1,0,0:0:0:0:
329,192,29221,1,2,0:0:0:0:
256,192,29221,1,8,0:0:0:0:
109,192,29411,1,0,0:0:0:0:
329,192,29601,1,8,0:0:0:0:
402,192,29601,1,2,0:0:0:0:
109,192,29790,1,0,0:0:0:0:
402,192,29980,1,2,0:0:0:0:
256,192,29980,1,8,0:0:0:0:
329,192,30170,1,0,0:0:0:0:
475,192,30360,1,8,0:0:0:0:
256,192,30550,1,0,0:0:0:0:
109,192,30550,1,2,0:0:0:0:
402,192,30740,1,2,0:0:0:0:
329,192,30740,1,8,0:0:0:0:
256,192,30930,1,0,0:0:0:0:
182,192,31120,1,8,0:0:0:0:
36,192,31120,1,2,0:0:0:0:
182,192,31309,1,8,0:0:0:0:
109,192,31499,1,8,0:0:0:0:
329,192,31499,1,4,0:0:0:0:
475,192,31499,128,2,31879:0:0:0:0:
256,192,31689,1,0,0:0:0:0:
329,192,31879,128,2,32069:0:0:0:0:
402,192,32069,128,2,32259:0:0:0:0:
182,192,32259,1,0,0:0:0:0:
36,192,32259,128,2,32638:0:0:0:0:
256,192,32449,1,0,0:0:0:0:
182,192,32638,128,2,32828:0:0:0:0:
109,192,32828,128,2,33018:0:0:0:0:
475,192,33018,1,0,0:0:0:0:
329,192,33018,128,2,33398:0:0:0:0:
182,192,33208,1,0,0:0:0:0:
402,192,33398,128,2,33588:0:0:0:0:
329,192,33588,128,2,33778:0:0:0:0:
36,192,33778,1,0,0:0:0:0:
182,192,33778,128,2,34157:0:0:0:0:
402,192,33968,1,0,0:0:0:0:
109,192,34157,128,2,34347:0:0:0:0:
182,192,34347,128,2,34537:0:0:0:0:
36,192,34537,1,8,0:0:0:0:
475,192,34537,1,4,0:0:0:0:
329,192,34537,1,2,0:0:0:0:
182,192,34727,1,0,0:0:0:0:
329,192,34917,1,8,0:0:0:0:
475,192,34917,1,2,0:0:0:0:
182,192,35107,1,0,0:0:0:0:
36,192,35297,1,8,0:0:0:0:
402,192,35297,1,2,0:0:0:0:
182,192,35487,1,0,0:0:0:0:
475,192,35676,1,2,0:0:0:0:
329,192,35676,1,8,0:0:0:0:
182,192,35866,1,0,0:0:0:0:
36,192,36056,1,8,0:0:0:0:
329,192,36056,1,2,0:0:0:0:
475,192,36056,1,4,0:0:0:0:
182,192,36246,1,0,0:0:0:0:
329,192,36436,1,8,0:0:0:0:
182,192,36626,1,2,0:0:0:0:
256,192,36721,1,2,0:0:0:0:
329,192,36816,1,2,0:0:0:0:
402,192,37006,1,2,0:0:0:0:
329,192,37101,1,2,0:0:0:0:
475,192,37195,1,2,0:0:0:0:
402,192,37290,1,2,0:0:0:0:
329,192,37385,1,2,0:0:0:0:
256,192,37480,1,2,0:0:0:0:
182,192,37575,1,0,0:0:0:0:
36,192,37575,1,2,0:0:0:0:
402,192,37575,1,4,0:0:0:0:
109,192,37860,1,2,0:0:0:0:
256,192,37860,1,0,0:0:0:0:
182,192,38145,1,2,0:0:0:0:
329,192,38145,1,0,0:0:0:0:
109,192,38335,1,2,0:0:0:0:
256,192,38335,1,2,0:0:0:0:
36,192,38335,1,0,0:0:0:0:
329,192,38620,1,2,0:0:0:0:
182,192,38620,1,2,0:0:0:0:
475,192,38620,1,0,0:0:0:0:
402,192,38904,1,2,0:0:0:0:
36,192,38904,1,0,0:0:0:0:
256,192,38904,1,2,0:0:0:0:
475,192,39094,128,2,40233:0:0:0:0:
109,192,39094,1,8,0:0:0:0:
402,192,39474,128,2,40233:0:0:0:0:
182,192,39474,1,8,0:0:0:0:
329,192,39854,128,2,40233:0:0:0:0:
109,192,39854,1,8,0:0:0:0:
182,192,40233,1,0,1:0:0:0:
36,192,40233,1,8,0:0:0:0:
475,192,40613,1,0,0:0:0:0:
256,192,40613,1,4,0:0:0:0:
36,192,40613,1,2,0:0:0:0:
109,192,40898,1,2,0:0:0:0:
402,192,40898,1,0,0:0:0:0:
329,192,41183,1,0,0:0:0:0:
182,192,41183,1,2,0:0:0:0:
329,192,41373,1,0,0:0:0:0:
36,192,41373,1,2,0:0:0:0:
182,192,41373,1,2,0:0:0:0:
256,192,41657,1,2,0:0:0:0:
402,192,41657,1,0,0:0:0:0:
109,192,41657,1,2,0:0:0:0:
475,192,41942,1,0,0:0:0:0:
182,192,41942,1,2,0:0:0:0:
329,192,41942,1,2,0:0:0:0:
36,192,42132,128,2,43271:0:0:0:0:
402,192,42132,1,8,0:0:0:0:
329,192,42512,1,8,0:0:0:0:
109,192,42512,128,2,43271:0:0:0:0:
402,192,42892,1,8,0:0:0:0:
182,192,42892,128,2,43271:0:0:0:0:
329,192,43271,1,0,1:0:0:0:
475,192,43271,1,8,0:0:0:0:
36,192,43651,1,4,0:0:0:0:
402,192,43651,1,8,0:0:0:0:
256,192,43651,1,2,0:0:0:0:
329,192,43936,1,2,0:0:0:0:
402,192,44221,128,2,44506:0:0:0:0:
182,192,44411,1,0,0:0:0:0:
109,192,44411,1,0,0:0:0:0:
182,192,44695,1,0,0:0:0:0:
36,192,44695,1,0,0:0:0:0:
475,192,44790,128,2,45170:0:0:0:0:
36,192,44980,1,0,0:0:0:0:
109,192,44980,1,0,0:0:0:0:
256,192,45170,128,2,45550:0:0:0:0:
182,192,45550,128,2,45930:0:0:0:0:
109,192,45930,128,2,46309:0:0:0:0:
475,192,45930,1,0,0:0:0:0:
402,192,45930,1,0,0:0:0:0:
402,192,46214,1,0,0:0:0:0:
329,192,46214,1,0,0:0:0:0:
36,192,46309,128,2,46689:0:0:0:0:
329,192,46499,1,0,0:0:0:0:
256,192,46499,1,0,0:0:0:0:
402,192,46689,1,0,0:0:0:0:
475,192,46689,1,0,0:0:0:0:
182,192,46689,128,2,47069:0:0:0:0:
402,192,47449,1,0,0:0:0:0:
475,192,47449,1,0,0:0:0:0:
36,192,47449,128,2,47733:0:0:0:0:
329,192,47733,1,0,0:0:0:0:
402,192,47733,1,0,0:0:0:0:
109,192,47733,128,2,48018:0:0:0:0:
329,192,48018,1,0,0:0:0:0:
475,192,48018,1,0,0:0:0:0:
182,192,48018,128,2,48208:0:0:0:0:
256,192,48208,128,2,48778:0:0:0:0:
402,192,48208,1,4,0:0:0:0:
475,192,48208,1,8,0:0:0:0:
329,192,48778,1,2,0:0:0:0:
402,192,48873,1,2,0:0:0:0:
475,192,48968,128,2,49727:0:0:0:0:
36,192,48968,1,4,0:0:0:0:
182,192,48968,1,8,0:0:0:0:
329,192,49063,1,8,0:0:0:0:
182,192,49157,1,8,0:0:0:0:
329,192,49252,1,8,0:0:0:0:
182,192,49347,1,8,0:0:0:0:
36,192,49347,1,4,0:0:0:0:
329,192,49442,1,8,0:0:0:0:
182,192,49537,1,8,0:0:0:0:
329,192,49632,1,8,0:0:0:0:
36,192,49727,1,0,0:0:0:0:
256,192,49727,1,4,0:0:0:0:
109,192,49822,1,0,0:0:0:0:
182,192,49917,1,0,0:0:0:0:
256,192,50012,1,0,0:0:0:0:
109,192,50107,1,0,0:0:0:0:
182,192,50202,1,0,0:0:0:0:
256,192,50297,1,0,0:0:0:0:
329,192,50392,1,0,0:0:0:0:
182,192,50487,1,0,0:0:0:0:
256,192,50582,1,0,0:0:0:0:
329,192,50676,1,0,0:0:0:0:
402,192,50771,1,0,0:0:0:0:
256,192,50866,1,0,0:0:0:0:
329,192,50961,1,0,0:0:0:0:
402,192,51056,1,0,0:0:0:0:
475,192,51151,1,0,0:0:0:0:
182,192,51246,128,2,51626:0:0:0:0:
329,192,51246,128,2,51626:0:0:0:0:
36,192,51246,1,4,0:0:0:0:
329,192,51816,1,2,0:0:0:0:
182,192,51816,1,2,0:0:0:0:
329,192,52006,1,2,0:0:0:0:
475,192,52006,1,2,0:0:0:0:
109,192,52195,1,2,0:0:0:0:
402,192,52195,1,2,0:0:0:0:
329,192,52290,1,2,0:0:0:0:
182,192,52290,1,2,0:0:0:0:
256,192,52575,1,2,0:0:0:0:
402,192,52575,1,2,0:0:0:0:
475,192,52765,128,2,53145:0:0:0:0:
329,192,52765,128,2,53145:0:0:0:0:
182,192,53335,1,2,0:0:0:0:
36,192,53335,1,2,0:0:0:0:
109,192,53525,1,2,0:0:0:0:
256,192,53525,1,2,0:0:0:0:
329,192,53714,1,2,0:0:0:0:
475,192,53714,1,2,0:0:0:0:
402,192,53904,1,2,0:0:0:0:
256,192,53904,1,2,0:0:0:0:
182,192,54094,1,2,0:0:0:0:
329,192,54094,1,2,0:0:0:0:
402,192,54284,128,2,54664:0:0:0:0:
109,192,54284,128,2,54664:0:0:0:0:
402,192,54854,1,2,0:0:0:0:
109,192,54854,1,2,0:0:0:0:
109,192,55044,1,2,0:0:0:0:
402,192,55044,1,2,0:0:0:0:
475,192,55233,1,2,0:0:0:0:
36,192,55233,1,2,0:0:0:0:
402,192,55423,1,2,0:0:0:0:
109,192,55423,1,2,0:0:0:0:
329,192,55613,1,2,0:0:0:0:
182,192,55613,1,2,0:0:0:0:
256,192,55803,128,2,56183:0:0:0:0:
109,192,55803,128,2,56183:0:0:0:0:
182,192,56373,1,2,0:0:0:0:
329,192,56373,1,2,0:0:0:0:
329,192,56563,1,2,0:0:0:0:
475,192,56563,1,2,0:0:0:0:
475,192,56752,1,2,0:0:0:0:
329,192,56752,1,2,0:0:0:0:
256,192,56942,1,2,0:0:0:0:
402,192,56942,1,2,0:0:0:0:
182,192,57132,1,2,0:0:0:0:
329,192,57132,1,2,0:0:0:0:
109,192,57322,128,2,57702:0:0:0:0:
402,192,57322,128,2,57702:0:0:0:0:
256,192,57322,1,4,0:0:0:0:
402,192,57892,1,2,0:0:0:0:
109,192,57892,1,2,0:0:0:0:
475,192,58082,1,2,0:0:0:0:
329,192,58082,1,2,0:0:0:0:
109,192,58271,1,2,0:0:0:0:
402,192,58271,1,2,0:0:0:0:
329,192,58461,1,2,0:0:0:0:
182,192,58461,1,2,0:0:0:0:
109,192,58651,1,2,0:0:0:0:
402,192,58651,1,2,0:0:0:0:
475,192,58841,128,2,59221:0:0:0:0:
36,192,58841,128,2,59221:0:0:0:0:
182,192,59411,1,2,0:0:0:0:
109,192,59411,1,2,0:0:0:0:
256,192,59601,1,2,0:0:0:0:
329,192,59601,1,2,0:0:0:0:
402,192,59790,1,2,0:0:0:0:
475,192,59790,1,2,0:0:0:0:
36,192,59980,1,2,0:0:0:0:
329,192,59980,1,2,0:0:0:0:
256,192,60170,1,2,0:0:0:0:
109,192,60170,1,2,0:0:0:0:
475,192,60360,1,8,0:0:0:0:
182,192,60360,1,0,0:0:0:0:
402,192,60550,1,8,0:0:0:0:
329,192,60550,1,0,0:0:0:0:
475,192,60740,1,8,0:0:0:0:
182,192,60740,1,0,0:0:0:0:
256,192,60930,1,0,0:0:0:0:
402,192,60930,1,8,0:0:0:0:
329,192,61120,1,0,0:0:0:0:
36,192,61120,1,8,0:0:0:0:
182,192,61309,1,0,0:0:0:0:
109,192,61309,1,8,0:0:0:0:
36,192,61499,1,8,0:0:0:0:
329,192,61499,1,0,0:0:0:0:
256,192,61689,1,0,0:0:0:0:
109,192,61689,1,8,0:0:0:0:
475,192,61879,1,8,0:0:0:0:
402,192,61926,1,8,0:0:0:0:
329,192,61974,1,8,0:0:0:0:
182,192,62069,1,8,0:0:0:0:
329,192,62164,1,8,0:0:0:0:
182,192,62259,1,8,0:0:0:0:
182,192,62449,1,8,0:0:0:0:
329,192,62544,1,8,0:0:0:0:
109,192,62638,1,8,0:0:0:0:
402,192,62733,1,8,0:0:0:0:
182,192,62828,1,8,0:0:0:0:
329,192,62923,1,8,0:0:0:0:
109,192,63018,1,8,0:0:0:0:
402,192,63113,1,8,0:0:0:0:
182,192,63208,1,8,0:0:0:0:
329,192,63303,1,8,0:0:0:0:
36,192,63398,1,8,0:0:0:0:
475,192,63398,1,4,0:0:0:0:
182,192,63398,128,2,63778:0:0:0:0:
402,192,63588,1,0,0:0:0:0:
36,192,63778,1,8,0:0:0:0:
329,192,63778,1,0,0:0:0:0:
256,192,63968,1,2,0:0:0:0:
36,192,64157,1,8,0:0:0:0:
402,192,64157,1,2,0:0:0:0:
329,192,64347,1,2,0:0:0:0:
182,192,64442,1,2,0:0:0:0:
36,192,64537,1,8,0:0:0:0:
256,192,64727,1,2,0:0:0:0:
475,192,64917,1,8,0:0:0:0:
109,192,64917,1,0,0:0:0:0:
329,192,64917,128,2,65297:0:0:0:0:
36,192,65107,1,0,0:0:0:0:
475,192,65297,1,8,0:0:0:0:
182,192,65297,1,0,0:0:0:0:
109,192,65487,1,2,0:0:0:0:
475,192,65676,1,8,0:0:0:0:
182,192,65676,1,2,0:0:0:0:
329,192,65866,1,2,0:0:0:0:
475,192,66056,1,8,0:0:0:0:
256,192,66056,1,2,0:0:0:0:
182,192,66246,1,2,0:0:0:0:
36,192,66436,1,8,0:0:0:0:
256,192,66436,128,0,66816:0:0:0:0:
402,192,66436,128,2,66816:0:0:0:0:
109,192,66626,1,0,0:0:0:0:
36,192,66816,1,8,0:0:0:0:
329,192,66816,128,0,67195:0:0:0:0:
182,192,67006,1,2,0:0:0:0:
36,192,67195,1,8,0:0:0:0:
256,192,67195,128,0,67575:0:0:0:0:
475,192,67195,128,2,67575:0:0:0:0:
109,192,67385,1,0,0:0:0:0:
36,192,67575,1,8,0:0:0:0:
182,192,67575,128,0,67955:0:0:0:0:
402,192,67575,1,2,0:0:0:0:
329,192,67765,1,2,0:0:0:0:
475,192,67955,1,8,0:0:0:0:
256,192,67955,1,0,0:0:0:0:
109,192,67955,128,2,68335:0:0:0:0:
36,192,67955,128,0,69474:0:0:0:0:
329,192,68145,1,0,0:0:0:0:
475,192,68335,1,8,0:0:0:0:
256,192,68335,1,0,0:0:0:0:
182,192,68525,1,2,0:0:0:0:
475,192,68714,1,8,0:0:0:0:
329,192,68714,1,2,0:0:0:0:
109,192,68714,1,0,0:0:0:0:
475,192,68904,1,8,0:0:0:0:
329,192,68904,1,2,0:0:0:0:
475,192,69094,1,8,0:0:0:0:
256,192,69094,1,2,0:0:0:0:
109,192,69094,1,0,0:0:0:0:
182,192,69284,1,2,0:0:0:0:
329,192,69284,1,0,0:0:0:0:
109,192,69474,1,8,0:0:0:0:
475,192,69474,1,4,0:0:0:0:
256,192,69474,128,2,69854:0:0:0:0:
402,192,69474,128,2,69854:0:0:0:0:
109,192,69854,1,8,0:0:0:0:
36,192,70044,1,2,0:0:0:0:
182,192,70044,1,2,0:0:0:0:
475,192,70233,1,2,0:0:0:0:
329,192,70233,1,2,0:0:0:0:
109,192,70423,1,2,0:0:0:0:
402,192,70423,1,2,0:0:0:0:
329,192,70613,1,2,0:0:0:0:
182,192,70613,1,2,0:0:0:0:
256,192,70803,1,2,0:0:0:0:
402,192,70803,1,2,0:0:0:0:
36,192,70993,1,8,0:0:0:0:
329,192,70993,128,2,71373:0:0:0:0:
475,192,70993,128,2,71373:0:0:0:0:
36,192,71373,1,8,0:0:0:0:
109,192,71563,1,2,0:0:0:0:
256,192,71563,1,2,0:0:0:0:
475,192,71752,128,0,72512:0:0:0:0:
329,192,71752,1,2,0:0:0:0:
402,192,71752,1,2,0:0:0:0:
182,192,71942,1,2,0:0:0:0:
109,192,71942,1,2,0:0:0:0:
256,192,72132,1,2,0:0:0:0:
329,192,72132,1,2,0:0:0:0:
36,192,72322,1,2,0:0:0:0:
109,192,72322,1,2,0:0:0:0:
36,192,72512,1,8,0:0:0:0:
182,192,72512,128,2,72892:0:0:0:0:
402,192,72512,128,2,72892:0:0:0:0:
329,192,72702,1,8,0:0:0:0:
36,192,72892,1,8,0:0:0:0:
402,192,73082,1,2,0:0:0:0:
182,192,73082,1,2,0:0:0:0:
182,192,73271,1,2,0:0:0:0:
402,192,73271,1,2,0:0:0:0:
109,192,73461,1,2,0:0:0:0:
329,192,73461,1,2,0:0:0:0:
182,192,73651,1,2,0:0:0:0:
256,192,73651,1,2,0:0:0:0:
475,192,73841,1,2,0:0:0:0:
402,192,73841,1,2,0:0:0:0:
109,192,74031,128,2,75550:0:0:0:0:
36,192,74031,128,2,75550:0:0:0:0:
329,192,74031,1,8,0:0:0:0:
402,192,74078,1,8,0:0:0:0:
475,192,74126,1,8,0:0:0:0:
329,192,74221,1,8,0:0:0:0:
475,192,74316,1,8,0:0:0:0:
329,192,74411,1,8,0:0:0:0:
475,192,74601,1,8,0:0:0:0:
329,192,74695,1,8,0:0:0:0:
475,192,74790,1,8,0:0:0:0:
402,192,74885,1,8,0:0:0:0:
475,192,74980,1,8,0:0:0:0:
329,192,75075,1,8,0:0:0:0:
475,192,75170,1,8,0:0:0:0:
402,192,75265,1,8,0:0:0:0:
475,192,75360,1,8,0:0:0:0:
329,192,75455,1,8,0:0:0:0:
256,192,75550,1,8,0:0:0:0:
402,192,75550,1,4,0:0:0:0:
329,192,75740,1,0,0:0:0:0:
256,192,75835,1,0,0:0:0:0:
182,192,75930,1,0,0:0:0:0:
256,192,76120,1,8,0:0:0:0:
402,192,76120,1,0,0:0:0:0:
329,192,76309,1,0,0:0:0:0:
182,192,76404,1,0,0:0:0:0:
329,192,76499,1,0,0:0:0:0:
182,192,76689,1,8,0:0:0:0:
36,192,76689,1,8,0:0:0:0:
256,192,76879,1,0,0:0:0:0:
402,192,76879,1,0,0:0:0:0:
329,192,77069,1,8,0:0:0:0:
475,192,77069,1,0,0:0:0:0:
402,192,77259,1,0,0:0:0:0:
329,192,77354,1,0,0:0:0:0:
256,192,77449,1,0,0:0:0:0:
329,192,77638,1,8,0:0:0:0:
475,192,77638,1,0,0:0:0:0:
256,192,77828,1,0,0:0:0:0:
402,192,77923,1,0,0:0:0:0:
256,192,78018,1,8,0:0:0:0:
329,192,78208,1,0,0:0:0:0:
475,192,78208,1,0,0:0:0:0:
109,192,78398,1,0,0:0:0:0:
182,192,78398,1,0,0:0:0:0:
475,192,78588,1,4,0:0:0:0:
36,192,78588,1,4,0:0:0:0:
256,192,78588,1,0,0:0:0:0:
109,192,78778,1,0,0:0:0:0:
402,192,78778,1,0,0:0:0:0:
256,192,78873,1,0,0:0:0:0:
109,192,78968,1,0,0:0:0:0:
402,192,78968,1,0,0:0:0:0:
36,192,79157,1,0,0:0:0:0:
256,192,79157,1,0,0:0:0:0:
475,192,79157,1,0,0:0:0:0:
109,192,79347,1,0,0:0:0:0:
402,192,79347,1,0,0:0:0:0:
329,192,79442,1,0,0:0:0:0:
182,192,79442,1,0,0:0:0:0:
402,192,79537,1,0,0:0:0:0:
109,192,79537,1,0,0:0:0:0:
329,192,79727,1,0,0:0:0:0:
475,192,79727,1,0,0:0:0:0:
182,192,79917,1,0,0:0:0:0:
36,192,79917,1,0,0:0:0:0:
36,192,80107,1,0,0:0:0:0:
475,192,80107,1,0,0:0:0:0:
256,192,80107,1,0,0:0:0:0:
109,192,80297,1,0,0:0:0:0:
402,192,80297,1,0,0:0:0:0:
256,192,80392,1,0,0:0:0:0:
109,192,80487,1,0,0:0:0:0:
402,192,80487,1,0,0:0:0:0:
256,192,80676,1,0,0:0:0:0:
36,192,80676,1,0,0:0:0:0:
475,192,80676,1,0,0:0:0:0:
182,192,80866,1,0,0:0:0:0:
329,192,80866,1,0,0:0:0:0:
36,192,80961,1,0,0:0:0:0:
475,192,80961,1,0,0:0:0:0:
182,192,81056,1,0,0:0:0:0:
329,192,81056,1,0,0:0:0:0:
36,192,81246,1,0,0:0:0:0:
475,192,81246,1,0,0:0:0:0:
256,192,81246,1,0,0:0:0:0:
182,192,81436,1,0,0:0:0:0:
329,192,81436,1,0,0:0:0:0:
36,192,81626,128,2,82195:0:0:0:0:
182,192,81911,128,2,82195:0:0:0:0:
402,192,82195,1,2,0:0:0:0:
329,192,82195,1,2,0:0:0:0:
475,192,82385,128,2,82955:0:0:0:0:
329,192,82670,128,2,82955:0:0:0:0:
182,192,82955,1,2,0:0:0:0:
109,192,82955,1,2,0:0:0:0:
36,192,83145,1,0,0:0:0:0:
109,192,83240,1,0,0:0:0:0:
182,192,83335,1,0,0:0:0:0:
256,192,83430,1,0,0:0:0:0:
109,192,83525,1,0,0:0:0:0:
182,192,83620,1,0,0:0:0:0:
256,192,83714,1,0,0:0:0:0:
329,192,83809,1,0,0:0:0:0:
475,192,83904,1,0,0:0:0:0:
402,192,83999,1,0,0:0:0:0:
329,192,84094,1,0,0:0:0:0:
256,192,84189,1,0,0:0:0:0:
402,192,84284,1,0,0:0:0:0:
329,192,84379,1,0,0:0:0:0:
256,192,84474,1,0,0:0:0:0:
182,192,84569,1,0,0:0:0:0:
36,192,84664,1,2,0:0:0:0:
475,192,84664,1,2,0:0:0:0:
109,192,84949,1,2,0:0:0:0:
402,192,84949,1,2,0:0:0:0:
182,192,85233,1,2,0:0:0:0:
329,192,85233,1,2,0:0:0:0:
36,192,85423,1,2,0:0:0:0:
256,192,85423,1,2,0:0:0:0:
109,192,85708,1,2,0:0:0:0:
329,192,85708,1,2,0:0:0:0:
182,192,85993,1,2,0:0:0:0:
402,192,85993,1,2,0:0:0:0:
475,192,86183,1,0,0:0:0:0:
329,192,86278,1,0,0:0:0:0:
182,192,86373,1,0,0:0:0:0:
329,192,86468,1,0,0:0:0:0:
36,192,86563,1,0,0:0:0:0:
182,192,86657,1,0,0:0:0:0:
329,192,86752,1,0,0:0:0:0:
182,192,86847,1,0,0:0:0:0:
402,192,86942,1,0,0:0:0:0:
256,192,87037,1,0,0:0:0:0:
109,192,87132,1,0,0:0:0:0:
256,192,87227,1,0,0:0:0:0:
475,192,87322,1,0,0:0:0:0:
329,192,87417,1,0,0:0:0:0:
182,192,87512,1,0,0:0:0:0:
329,192,87607,1,0,0:0:0:0:
36,192,87702,1,8,0:0:0:0:
109,192,87702,1,4,0:0:0:0:
475,192,87702,1,0,0:0:0:0:
329,192,87892,1,2,0:0:0:0:
36,192,88082,1,8,0:0:0:0:
256,192,88271,1,2,0:0:0:0:
36,192,88461,1,8,0:0:0:0:
475,192,88461,1,0,0:0:0:0:
402,192,88461,1,0,0:0:0:0:
182,192,88651,1,2,0:0:0:0:
329,192,88746,1,0,0:0:0:0:
402,192,88746,1,0,0:0:0:0:
36,192,88841,1,8,0:0:0:0:
256,192,89031,1,0,0:0:0:0:
329,192,89031,1,0,0:0:0:0:
182,192,89031,1,2,0:0:0:0:
36,192,89221,1,0,0:0:0:0:
475,192,89221,1,8,0:0:0:0:
182,192,89411,1,2,0:0:0:0:
475,192,89601,1,8,0:0:0:0:
256,192,89790,1,2,0:0:0:0:
475,192,89980,1,8,0:0:0:0:
109,192,89980,1,0,0:0:0:0:
36,192,89980,1,0,0:0:0:0:
329,192,90170,1,2,0:0:0:0:
182,192,90265,1,0,0:0:0:0:
109,192,90265,1,0,0:0:0:0:
475,192,90360,1,8,0:0:0:0:
329,192,90550,1,2,0:0:0:0:
182,192,90550,1,0,0:0:0:0:
256,192,90550,1,0,0:0:0:0:
36,192,90740,1,4,0:0:0:0:
475,192,90740,1,4,0:0:0:0:
109,192,90740,128,0,91120:0:0:0:0:
402,192,90740,128,0,91120:0:0:0:0:
256,192,90740,1,8,0:0:0:0:
256,192,91120,1,8,0:0:0:0:
182,192,91499,1,0,0:0:0:0:
329,192,91499,1,0,0:0:0:0:
109,192,91784,1,0,0:0:0:0:
402,192,91784,1,0,0:0:0:0:
329,192,92069,1,0,0:0:0:0:
182,192,92069,1,0,0:0:0:0:
36,192,92259,1,4,0:0:0:0:
475,192,92259,1,4,0:0:0:0:
109,192,92259,128,0,92638:0:0:0:0:
402,192,92259,128,0,92638:0:0:0:0:
256,192,92259,1,8,0:0:0:0:
256,192,92638,1,8,0:0:0:0:
256,192,93018,1,8,0:0:0:0:
36,192,93018,1,4,0:0:0:0:
109,192,93018,1,0,0:0:0:0:
402,192,93018,1,0,0:0:0:0:
475,192,93018,1,4,0:0:0:0:
36,192,93398,1,4,0:0:0:0:
109,192,93398,1,0,0:0:0:0:
402,192,93398,1,0,0:0:0:0:
475,192,93398,1,4,0:0:0:0:
256,192,93398,1,8,0:0:0:0:
182,192,93588,1,0,0:0:0:0:
329,192,93588,1,0,0:0:0:0:
36,192,93778,1,4,0:0:0:0:
475,192,93778,1,8,0:0:0:0:
256,192,93778,1,4,0:0:0:0:
402,192,93873,1,8,0:0:0:0:
329,192,93968,1,8,0:0:0:0:
256,192,94063,1,8,0:0:0:0:
402,192,94157,1,8,0:0:0:0:
329,192,94252,1,8,0:0:0:0:
256,192,94347,1,8,0:0:0:0:
182,192,94442,1,8,0:0:0:0:
329,192,94537,1,8,0:0:0:0:
256,192,94632,1,8,0:0:0:0:
182,192,94727,1,8,0:0:0:0:
109,192,94822,1,8,0:0:0:0:
256,192,94917,1,8,0:0:0:0:
182,192,95012,1,8,0:0:0:0:
109,192,95107,1,8,0:0:0:0:
36,192,95202,1,8,0:0:0:0:
182,192,95297,1,0,0:0:0:0:
329,192,95392,1,0,0:0:0:0:
182,192,95487,1,0,0:0:0:0:
256,192,95582,1,0,0:0:0:0:
109,192,95676,1,0,0:0:0:0:
182,192,95771,1,0,0:0:0:0:
256,192,95866,1,0,0:0:0:0:
329,192,95961,1,0,0:0:0:0:
182,192,96056,1,2,0:0:0:0:
36,192,96056,1,2,0:0:0:0:
256,192,96151,1,0,0:0:0:0:
329,192,96246,1,0,0:0:0:0:
402,192,96341,1,0,0:0:0:0:
256,192,96436,1,2,0:0:0:0:
109,192,96436,1,2,0:0:0:0:
329,192,96531,1,0,0:0:0:0:
402,192,96626,1,0,0:0:0:0:
475,192,96721,1,0,0:0:0:0:
182,192,96816,1,2,0:0:0:0:
329,192,96816,1,2,0:0:0:0:
36,192,97195,1,4,0:0:0:0:
109,192,97195,1,0,0:0:0:0:
402,192,97195,1,0,0:0:0:0:
475,192,97195,1,4,0:0:0:0:
256,192,97195,1,8,0:0:0:0:
329,192,97385,1,2,0:0:0:0:
182,192,97385,1,2,0:0:0:0:
475,192,97575,1,2,0:0:0:0:
329,192,97575,1,2,0:0:0:0:
36,192,97575,1,8,0:0:0:0:
109,192,97765,1,2,0:0:0:0:
402,192,97765,1,2,0:0:0:0:
329,192,97860,1,2,0:0:0:0:
182,192,97860,1,2,0:0:0:0:
36,192,97955,1,8,0:0:0:0:
256,192,98145,1,2,0:0:0:0:
402,192,98145,1,2,0:0:0:0:
475,192,98335,128,2,98714:0:0:0:0:
329,192,98335,128,2,98714:0:0:0:0:
109,192,98335,1,8,0:0:0:0:
109,192,98714,1,8,0:0:0:0:
36,192,98904,1,2,0:0:0:0:
182,192,98904,1,2,0:0:0:0:
256,192,99094,1,2,0:0:0:0:
109,192,99094,1,8,0:0:0:0:
402,192,99094,1,2,0:0:0:0:
475,192,99284,1,2,0:0:0:0:
329,192,99284,1,2,0:0:0:0:
402,192,99474,1,2,0:0:0:0:
256,192,99474,1,2,0:0:0:0:
109,192,99474,1,8,0:0:0:0:
182,192,99664,1,2,0:0:0:0:
329,192,99664,1,2,0:0:0:0:
402,192,99854,128,2,100233:0:0:0:0:
109,192,99854,128,2,100233:0:0:0:0:
256,192,99854,1,8,0:0:0:0:
256,192,100233,1,8,0:0:0:0:
402,192,100423,1,2,0:0:0:0:
109,192,100423,1,2,0:0:0:0:
109,192,100613,1,2,0:0:0:0:
402,192,100613,1,2,0:0:0:0:
256,192,100613,1,8,0:0:0:0:
36,192,100803,1,2,0:0:0:0:
475,192,100803,1,2,0:0:0:0:
109,192,100993,1,2,0:0:0:0:
402,192,100993,1,2,0:0:0:0:
256,192,100993,1,8,0:0:0:0:
182,192,101183,1,2,0:0:0:0:
329,192,101183,1,2,0:0:0:0:
109,192,101373,128,2,101752:0:0:0:0:
256,192,101373,128,2,101752:0:0:0:0:
402,192,101373,1,8,0:0:0:0:
402,192,101752,1,8,0:0:0:0:
182,192,101942,1,2,0:0:0:0:
329,192,101942,1,2,0:0:0:0:
475,192,102132,1,2,0:0:0:0:
329,192,102132,1,2,0:0:0:0:
36,192,102132,1,8,0:0:0:0:
475,192,102322,1,2,0:0:0:0:
329,192,102322,1,2,0:0:0:0:
36,192,102322,1,8,0:0:0:0:
402,192,102512,1,2,0:0:0:0:
256,192,102512,1,2,0:0:0:0:
36,192,102512,1,8,0:0:0:0:
182,192,102702,1,2,0:0:0:0:
329,192,102702,1,2,0:0:0:0:
109,192,102892,128,2,103271:0:0:0:0:
402,192,102892,128,2,103271:0:0:0:0:
36,192,102892,1,4,0:0:0:0:
475,192,102892,1,4,0:0:0:0:
256,192,102892,1,8,0:0:0:0:
256,192,103271,1,8,0:0:0:0:
402,192,103461,1,2,0:0:0:0:
109,192,103461,1,2,0:0:0:0:
475,192,103651,1,2,0:0:0:0:
329,192,103651,1,2,0:0:0:0:
256,192,103651,1,8,0:0:0:0:
402,192,103841,1,2,0:0:0:0:
109,192,103841,1,2,0:0:0:0:
329,192,104031,1,2,0:0:0:0:
36,192,104031,1,8,0:0:0:0:
182,192,104031,1,2,0:0:0:0:
109,192,104221,1,2,0:0:0:0:
402,192,104221,1,2,0:0:0:0:
475,192,104411,128,2,104790:0:0:0:0:
36,192,104411,128,2,104790:0:0:0:0:
329,192,104411,1,8,0:0:0:0:
329,192,104790,1,8,0:0:0:0:
182,192,104980,1,2,0:0:0:0:
109,192,104980,1,2,0:0:0:0:
329,192,105170,1,2,0:0:0:0:
256,192,105170,1,2,0:0:0:0:
36,192,105170,1,8,0:0:0:0:
402,192,105360,1,2,0:0:0:0:
475,192,105360,1,2,0:0:0:0:
182,192,105550,1,2,0:0:0:0:
256,192,105550,1,2,0:0:0:0:
36,192,105550,1,8,0:0:0:0:
329,192,105740,1,2,0:0:0:0:
402,192,105740,1,2,0:0:0:0:
256,192,105930,1,0,0:0:0:0:
109,192,105930,1,8,0:0:0:0:
109,192,106120,1,8,0:0:0:0:
256,192,106120,1,0,0:0:0:0:
475,192,106309,1,8,0:0:0:0:
329,192,106309,1,0,0:0:0:0:
329,192,106499,1,0,0:0:0:0:
475,192,106499,1,8,0:0:0:0:
36,192,106689,1,8,0:0:0:0:
182,192,106689,1,0,0:0:0:0:
36,192,106879,1,8,0:0:0:0:
182,192,106879,1,0,0:0:0:0:
402,192,107069,1,8,0:0:0:0:
256,192,107069,1,0,0:0:0:0:
256,192,107259,1,0,0:0:0:0:
402,192,107259,1,8,0:0:0:0:
36,192,107449,1,8,0:0:0:0:
109,192,107496,1,8,0:0:0:0:
182,192,107544,1,8,0:0:0:0:
329,192,107638,1,8,0:0:0:0:
182,192,107733,1,8,0:0:0:0:
329,192,107828,1,8,0:0:0:0:
329,192,108018,1,8,0:0:0:0:
182,192,108113,1,8,0:0:0:0:
402,192,108208,1,8,0:0:0:0:
109,192,108303,1,8,0:0:0:0:
329,192,108398,1,8,0:0:0:0:
182,192,108493,1,8,0:0:0:0:
402,192,108588,1,8,0:0:0:0:
109,192,108683,1,8,0:0:0:0:
329,192,108778,1,8,0:0:0:0:
182,192,108873,1,8,0:0:0:0:
475,192,108968,1,4,0:0:0:0:
402,192,108968,1,4,0:0:0:0:
36,192,108968,1,8,0:0:0:0:
256,192,108968,1,2,0:0:0:0:
109,192,109347,1,8,1:0:0:0:
256,192,109537,1,2,0:0:0:0:
402,192,109727,1,2,0:0:0:0:
182,192,109917,1,2,0:0:0:0:
329,192,110012,1,2,0:0:0:0:
109,192,110107,1,8,1:0:0:0:
256,192,110297,1,2,0:0:0:0:
36,192,110487,1,4,0:0:0:0:
475,192,110487,1,8,0:0:0:0:
329,192,110487,1,0,0:0:0:0:
109,192,110487,1,4,0:0:0:0:
402,192,110866,1,8,1:0:0:0:
182,192,111056,1,2,0:0:0:0:
329,192,111246,1,2,0:0:0:0:
402,192,111436,1,2,0:0:0:0:
329,192,111626,1,2,0:0:0:0:
109,192,111626,1,8,1:0:0:0:
256,192,111816,1,2,0:0:0:0:
402,192,112006,1,4,0:0:0:0:
475,192,112006,1,4,0:0:0:0:
36,192,112006,1,8,0:0:0:0:
182,192,112006,1,2,0:0:0:0:
109,192,112385,1,8,1:0:0:0:
256,192,112575,1,2,0:0:0:0:
36,192,112765,1,4,0:0:0:0:
109,192,112765,1,4,0:0:0:0:
475,192,112765,1,8,0:0:0:0:
329,192,112765,1,2,0:0:0:0:
256,192,112955,1,2,0:0:0:0:
182,192,113145,1,2,0:0:0:0:
402,192,113145,1,8,1:0:0:0:
109,192,113335,1,2,0:0:0:0:
36,192,113525,1,4,0:0:0:0:
182,192,113525,1,0,0:0:0:0:
329,192,113525,1,8,0:0:0:0:
475,192,113525,1,4,0:0:0:0:
402,192,113904,1,0,0:0:0:0:
109,192,113904,1,8,1:0:0:0:
256,192,114094,1,0,0:0:0:0:
402,192,114284,1,8,0:0:0:0:
109,192,114284,1,0,0:0:0:0:
36,192,114474,1,0,0:0:0:0:
475,192,114474,1,8,0:0:0:0:
109,192,114521,1,0,0:0:0:0:
402,192,114521,1,8,0:0:0:0:
182,192,114569,1,0,0:0:0:0:
329,192,114569,1,8,0:0:0:0:
36,192,114664,1,0,0:0:0:0:
475,192,114664,1,8,0:0:0:0:
109,192,114854,1,0,0:0:0:0:
402,192,114854,1,8,0:0:0:0:
475,192,115044,1,4,0:0:0:0:
36,192,115044,1,8,0:0:0:0:
182,192,115044,128,2,115423:0:0:0:0:
402,192,115233,1,0,0:0:0:0:
329,192,115423,1,0,0:0:0:0:
36,192,115423,1,8,0:0:0:0:
256,192,115613,1,2,0:0:0:0:
402,192,115803,1,2,0:0:0:0:
36,192,115803,1,8,0:0:0:0:
329,192,115993,1,2,0:0:0:0:
182,192,116088,1,2,0:0:0:0:
36,192,116183,1,8,0:0:0:0:
256,192,116373,1,2,0:0:0:0:
475,192,116563,1,8,0:0:0:0:
329,192,116563,128,2,116942:0:0:0:0:
109,192,116563,1,0,0:0:0:0:
36,192,116752,1,0,0:0:0:0:
475,192,116942,1,8,0:0:0:0:
182,192,116942,1,0,0:0:0:0:
109,192,117132,1,2,0:0:0:0:
475,192,117322,1,8,0:0:0:0:
182,192,117322,1,2,0:0:0:0:
329,192,117512,1,2,0:0:0:0:
475,192,117702,1,8,0:0:0:0:
256,192,117702,1,2,0:0:0:0:
182,192,117892,1,2,0:0:0:0:
36,192,118082,1,8,0:0:0:0:
329,192,118082,1,0,0:0:0:0:
36,192,118271,1,8,0:0:0:0:
182,192,118271,1,8,0:0:0:0:
182,192,118461,1,8,0:0:0:0:
329,192,118461,1,0,0:0:0:0:
36,192,118651,1,8,0:0:0:0:
182,192,118651,1,8,0:0:0:0:
475,192,118841,1,8,0:0:0:0:
329,192,118841,1,0,0:0:0:0:
329,192,119031,1,8,0:0:0:0:
182,192,119031,1,8,0:0:0:0:
475,192,119221,1,8,0:0:0:0:
182,192,119221,1,0,0:0:0:0:
329,192,119411,1,8,0:0:0:0:
475,192,119411,1,8,0:0:0:0:
475,192,119601,1,8,0:0:0:0:
402,192,119648,1,8,0:0:0:0:
329,192,119695,1,8,0:0:0:0:
182,192,119790,1,8,0:0:0:0:
329,192,119885,1,8,0:0:0:0:
182,192,119980,1,8,0:0:0:0:
182,192,120170,1,8,0:0:0:0:
329,192,120265,1,8,0:0:0:0:
109,192,120360,1,8,0:0:0:0:
402,192,120455,1,8,0:0:0:0:
182,192,120550,1,8,0:0:0:0:
329,192,120645,1,8,0:0:0:0:
109,192,120740,1,8,0:0:0:0:
402,192,120835,1,8,0:0:0:0:
182,192,120930,1,8,0:0:0:0:
329,192,121025,1,8,0:0:0:0:
182,192,121120,5,0,0:0:0:0:
36,192,121120,1,4,0:0:0:0:
256,192,121309,1,0,0:0:0:0:
329,192,121499,1,0,0:0:0:0:
402,192,121689,1,0,0:0:0:0:
256,192,121879,1,0,0:0:0:0:
402,192,122069,1,0,0:0:0:0:
182,192,122259,1,0,0:0:0:0:
402,192,122449,1,0,0:0:0:0:
109,192,122638,1,0,0:0:0:0:
36,192,122638,1,0,0:0:0:0:
182,192,122828,1,0,0:0:0:0:
256,192,123018,1,0,0:0:0:0:
475,192,123208,1,0,0:0:0:0:
256,192,123398,1,0,0:0:0:0:
402,192,123588,1,0,0:0:0:0:
256,192,123778,1,0,0:0:0:0:
329,192,123968,1,0,0:0:0:0:
182,192,124157,1,0,0:0:0:0:
36,192,124157,1,0,0:0:0:0:
256,192,124347,1,0,0:0:0:0:
329,192,124537,1,0,0:0:0:0:
402,192,124727,1,0,0:0:0:0:
402,192,125297,1,0,0:0:0:0:
256,192,125582,1,0,0:0:0:0:
329,192,125676,1,0,0:0:0:0:
109,192,125676,1,0,0:0:0:0:
475,192,125771,128,0,127195:0:0:0:0:
