osu file format v14

[General]
AudioFilename: The Story of Eternity.mp3
AudioLeadIn: 0
PreviewTime: 51565
Countdown: 0
SampleSet: Soft
StackLeniency: 0.7
Mode: 0
LetterboxInBreaks: 1
WidescreenStoryboard: 0

[Editor]
Bookmarks: 8662,11990,14496,16996,18662,29496,31996,48662,50329,51996,63662,65329,76996,78662,80329,86996,100329,114496,116996,120329,146996,148662,150329,151996,165329,175323,178662,193656,195329,196996,198662,200329,206996,216996,217412,243662,256156,260329
DistanceSpacing: 0.9
BeatDivisor: 4
GridSize: 4
TimelineZoom: 2.2

[Metadata]
Title:Ikuseisou no Monogatari ~The Story of Eternity~
TitleUnicode:幾星霜の物語 ~The Story of Eternity~
Artist:Xceon feat. Mayumi Morinaga
ArtistUnicode:Xceon feat. Mayumi Morinaga
Creator:Seikatu
Version:Normal
Source:
Tags:ayataka starving trancer iceon yusuke ceo senya moimoi ticclick kyubey
BeatmapID:921673
BeatmapSetID:306782

[Difficulty]
HPDrainRate:3
CircleSize:3.5
OverallDifficulty:3
ApproachRate:4
SliderMultiplier:0.8
SliderTickRate:1

[Events]
//Background and Video events
0,0,"bg000234.jpg",0,0
//Break Periods
2,80515,85662
2,200515,205662
//Storyboard Layer 0 (Background)
//Storyboard Layer 1 (Fail)
//Storyboard Layer 2 (Pass)
//Storyboard Layer 3 (Foreground)
//Storyboard Sound Samples

[TimingPoints]
1982,416.666666666667,4,2,0,35,1,0
8648,-100,4,2,0,45,0,0
31148,-100,4,2,0,55,0,0
48648,-100,4,2,0,35,0,0
50315,-100,4,2,0,45,0,0
51148,-100,4,2,0,35,0,0
51982,-100,4,2,0,60,0,1
78648,-100,4,2,0,35,0,0
86148,-100,4,2,0,45,0,0
100315,-100,4,2,0,55,0,0
116982,-100,4,2,0,35,0,0
118648,-100,4,2,0,45,0,0
119273,-100,4,2,0,35,0,0
120315,-100,4,2,0,60,0,1
146982,-100,4,2,0,35,0,0
148648,-100,4,2,0,55,0,0
151982,-100,4,2,0,45,0,0
178648,-100,4,2,0,55,0,0
195315,-100,4,2,0,35,0,0
196982,-100,4,2,0,45,0,0
200315,-100,4,2,0,35,0,0
206982,-100,4,2,0,45,0,0
216982,-100,4,2,0,35,0,0
217398,-100,4,2,0,60,0,1
243648,-100,4,2,0,35,0,0
256357,-100,4,2,0,5,0,0
259482,-100,4,2,0,10,0,0
259586,-100,4,2,0,15,0,0
259690,-100,4,2,0,20,0,0
259794,-100,4,2,0,25,0,0
259898,-100,4,2,0,30,0,0
260002,-100,4,2,0,35,0,0
260107,-100,4,2,0,45,0,0
260211,-100,4,2,0,55,0,0
260315,-100,4,2,0,15,0,0

[Colours]
Combo1 : 120,217,254
Combo2 : 155,255,155
Combo3 : 255,138,208
Combo4 : 200,122,241

[HitObjects]
213,334,1982,6,0,P|181:288|176:225,1,120,2|0,0:0|0:0,0:0:0:0:
188,191,2815,2,0,L|308:197,1,120,2|0,0:0|0:0,0:0:0:0:
335,174,3648,2,0,P|340:134|329:88,1,80,2|2,0:0|0:0,0:0:0:0:
276,26,4482,1,2,0:0:0:0:
197,64,4898,1,0,0:0:0:0:
112,40,5315,6,0,P|78:87|69:148,1,120,2|0,0:0|0:0,0:0:0:0:
78,182,6148,2,0,L|158:178,1,80,2|0,0:0|0:0,0:0:0:0:
246,174,6982,2,0,P|262:217|265:259,2,80,2|2|2,0:0|0:0|0:0,0:0:0:0:
285,95,8232,1,2,0:0:0:0:
250,14,8648,6,0,L|372:10,1,120,4|0,1:1|0:0,0:0:0:0:
406,10,9482,2,0,P|431:55|438:84,1,80,0|0,0:0|1:0,0:0:0:0:
438,118,10107,1,0,0:0:0:0:
413,144,10315,2,0,P|390:193|388:228,1,80,4|0,1:1|0:0,0:0:0:0:
405,304,11148,1,4,1:1:0:0:
335,357,11565,2,0,L|286:355,1,40,4|0,1:1|0:0,0:0:0:0:
270,328,11982,6,0,P|293:279|295:244,1,80,4|0,1:1|0:0,0:0:0:0:
306,158,12815,2,0,L|183:164,1,120,4|0,1:1|0:0,0:0:0:0:
167,194,13648,2,0,P|163:229|185:278,1,80,4|0,1:1|0:0,0:0:0:0:
98,323,14482,6,0,P|69:250|77:170,1,160,4|4,1:1|1:1,0:0:0:0:
125,96,15732,1,0,1:0:0:0:
205,131,16148,2,0,L|289:125,1,80,4|0,1:1|1:0,0:0:0:0:
372,116,16982,5,4,1:0:0:0:
372,116,18648,6,0,P|389:149|391:234,1,120,4|0,0:1|0:0,0:0:0:0:
379,264,19482,2,0,L|288:258,1,80,0|0,0:0|1:0,0:0:0:0:
227,309,20315,2,0,P|190:289|152:286,1,80,0|0,0:0|1:0,0:0:0:0:
67,309,21148,1,0,0:0:0:0:
28,229,21565,1,0,1:0:0:0:
86,163,21982,6,0,L|78:82,1,80,0|0,0:0|1:0,0:0:0:0:
140,21,22815,2,0,P|179:16|230:24,1,80,0|0,0:0|1:0,0:0:0:0:
294,67,23648,2,0,P|299:129|283:191,1,120,0|0,0:0|0:0,0:0:0:0:
266,215,24482,1,0,0:0:0:0:
183,185,24898,2,0,L|136:183,1,40,0|0,1:0|0:0,0:0:0:0:
116,207,25315,6,0,P|107:270|130:319,1,120,4|0,0:1|0:0,0:0:0:0:
160,339,26148,2,0,L|250:330,1,80,0|0,0:0|1:0,0:0:0:0:
303,269,26982,2,0,P|343:264|387:277,1,80,0|0,0:0|1:0,0:0:0:0:
458,233,27815,2,0,P|440:169|405:129,1,120,0|0,0:0|0:0,0:0:0:0:
373,113,28648,6,0,L|292:119,1,80,0|0,0:0|1:0,0:0:0:0:
214,158,29482,1,0,0:0:0:0:
131,128,29898,1,0,1:0:0:0:
62,183,30315,2,0,P|45:225|43:261,1,80,0|0,0:0|1:0,0:0:0:0:
103,323,31148,2,0,L|94:371,2,40,0|0|0,1:0|1:0|1:0,0:0:0:0:
186,295,31982,6,0,P|227:293|265:273,1,80,4|0,1:1|1:0,0:0:0:0:
320,210,32815,2,0,L|310:90,1,120,0|0,0:0|0:0,0:0:0:0:
328,59,33648,2,0,P|367:49|410:50,1,80,4|0,0:2|1:0,0:0:0:0:
491,71,34482,1,4,0:2:0:0:
435,139,34898,1,0,1:0:0:0:
476,216,35315,6,0,L|469:310,1,80,4|0,0:1|1:0,0:0:0:0:
389,331,36148,2,0,P|338:343|269:320,1,120,0|0,0:0|0:0,0:0:0:0:
251,296,36982,2,0,L|260:213,1,80,4|0,0:2|1:0,0:0:0:0:
201,150,37815,1,4,0:2:0:0:
138,211,38232,1,0,1:0:0:0:
56,179,38648,6,0,P|43:140|45:91,1,80,4|0,0:1|1:0,0:0:0:0:
76,19,39482,2,0,L|195:22,1,120,0|0,0:0|0:0,0:0:0:0:
231,23,40315,2,0,P|244:62|242:111,1,80,0|0,0:0|1:0,0:0:0:0:
206,180,41148,1,0,0:0:0:0:
179,264,41565,1,0,1:0:0:0:
233,334,41982,6,0,L|398:327,1,160,0|0,0:0|0:0,0:0:0:0:
452,262,43232,1,0,1:0:0:0:
475,177,43648,2,0,P|463:127|441:95,1,80,0|0,0:0|1:0,0:0:0:0:
372,56,44482,1,0,0:0:0:0:
291,90,44898,2,0,L|242:84,1,40,0|0,1:0|1:0,0:0:0:0:
219,67,45315,6,0,P|188:141|189:228,1,160,4|0,0:2|0:0,0:0:0:0:
234,293,46565,1,0,1:0:0:0:
162,344,46982,2,0,P|89:349|41:326,1,120,4|0,0:2|0:0,0:0:0:0:
21,305,47815,2,0,L|28:224,1,80,4|0,1:2|1:0,0:0:0:0:
39,138,48648,5,2,0:0:0:0:
39,138,50315,2,0,P|79:120|175:122,1,120,4|0,1:2|1:0,0:0:0:0:
186,131,51148,2,0,L|181:210,1,80,0|0,1:0|1:0,0:0:0:0:
218,290,51982,6,0,P|276:291|332:266,1,120,4|2,0:1|0:0,0:0:0:0:
357,241,52815,2,0,P|378:205|387:166,1,80,2|0,0:0|1:0,0:0:0:0:
374,80,53648,1,2,0:0:0:0:
293,43,54065,1,0,1:0:0:0:
216,87,54482,1,2,0:0:0:0:
142,39,54898,2,0,L|97:35,1,40,0|0,1:0|0:0,0:0:0:0:
66,33,55315,6,0,P|49:92|57:149,1,120,2|2,0:0|0:0,0:0:0:0:
76,179,56148,2,0,L|158:173,1,80,2|0,0:0|1:0,0:0:0:0:
215,237,56982,1,2,0:0:0:0:
300,259,57398,1,0,1:0:0:0:
382,227,57815,2,0,P|404:177|403:150,1,80,2|0,0:0|1:0,0:0:0:0:
393,117,58440,1,0,1:0:0:0:
369,89,58648,6,0,L|247:84,1,120,4|2,0:1|0:0,0:0:0:0:
213,80,59482,2,0,P|202:128|209:166,1,80,2|0,0:0|1:0,0:0:0:0:
255,230,60315,1,2,0:0:0:0:
283,313,60732,1,0,1:0:0:0:
227,380,61148,2,0,L|145:375,1,80,2|0,0:0|1:0,0:0:0:0:
124,346,61773,1,0,0:0:0:0:
105,314,61982,6,0,P|107:273|95:234,1,80,4|0,0:1|1:0,0:0:0:0:
32,175,62815,2,0,P|62:122|114:91,1,120,2|2,0:0|0:0,0:0:0:0:
146,84,63648,1,4,0:2:0:0:
232,101,64065,1,4,1:2:0:0:
309,59,64482,2,0,L|305:12,2,40,4|0|0,1:2|1:0|1:0,0:0:0:0:
396,72,65315,6,0,P|429:145|428:198,1,120,4|2,1:1|0:0,0:0:0:0:
455,209,66148,2,0,P|440:243|409:275,1,80,2|0,0:0|1:0,0:0:0:0:
330,309,66982,1,2,0:0:0:0:
255,262,67398,1,0,1:0:0:0:
183,313,67815,1,2,0:0:0:0:
108,266,68232,2,0,L|64:272,1,40,0|0,1:0|0:0,0:0:0:0:
33,279,68648,6,0,P|21:232|31:161,1,120,2|2,0:0|0:0,0:0:0:0:
47,129,69482,2,0,L|127:137,1,80,2|0,0:0|1:0,0:0:0:0:
213,148,70315,1,2,0:0:0:0:
298,125,70732,1,0,1:0:0:0:
380,154,71148,2,0,P|398:111|397:60,1,80,2|0,0:0|1:0,0:0:0:0:
394,42,71773,1,0,1:0:0:0:
371,14,71982,6,0,L|248:19,1,120,4|2,0:1|0:0,0:0:0:0:
220,37,72815,2,0,P|221:81|237:121,1,80,2|0,0:0|1:0,0:0:0:0:
292,179,73648,1,2,0:0:0:0:
314,264,74065,1,0,1:0:0:0:
262,335,74482,2,0,L|167:336,1,80,2|0,0:0|1:0,0:0:0:0:
148,323,75107,1,0,0:0:0:0:
115,307,75315,6,0,P|102:271|103:223,1,80,4|0,0:1|1:0,0:0:0:0:
130,146,76148,2,0,L|254:154,1,120,4|2,0:1|0:0,0:0:0:0:
285,159,76982,1,4,1:2:0:0:
342,92,77398,1,0,0:0:0:0:
269,41,77815,2,0,L|265:2,2,40,4|0|0,1:2|1:0|1:0,0:0:0:0:
256,192,78648,12,2,80315,0:0:0:0:
119,112,86982,6,0,L|245:105,1,120,4|0,0:1|0:0,0:0:0:0:
274,103,87815,2,0,P|287:141|283:187,1,80,0|0,0:0|1:0,0:0:0:0:
208,223,88648,2,0,P|195:261|199:307,1,80,0|0,0:0|1:0,0:0:0:0:
248,371,89482,1,0,0:0:0:0:
325,329,89898,1,0,1:0:0:0:
411,345,90315,6,0,P|424:307|420:261,1,80,0|0,0:0|1:0,0:0:0:0:
475,197,91148,2,0,P|463:158|434:123,1,80,0|0,0:0|1:0,0:0:0:0:
356,96,91982,2,0,L|235:102,1,120,0|0,0:0|0:0,0:0:0:0:
205,121,92815,1,0,0:0:0:0:
246,198,93232,2,0,L|250:239,1,40,0|0,1:0|0:0,0:0:0:0:
277,260,93648,6,0,P|287:323|248:366,1,120,4|0,0:1|0:0,0:0:0:0:
219,377,94482,2,0,L|140:372,1,80,0|0,0:0|1:0,0:0:0:0:
65,324,95315,2,0,P|52:283|54:241,1,80,0|0,0:0|1:0,0:0:0:0:
86,165,96148,2,0,L|209:173,1,120,0|0,0:0|0:0,0:0:0:0:
235,151,96982,6,0,L|228:66,1,80,0|0,0:0|1:0,0:0:0:0:
302,23,97815,1,0,0:0:0:0:
380,62,98232,1,0,1:0:0:0:
467,54,98648,2,0,P|477:100|473:136,1,80,0|0,0:0|1:0,0:0:0:0:
412,196,99482,2,0,L|418:244,2,40,0|0|0,1:0|1:0|1:0,0:0:0:0:
338,147,100315,6,0,P|298:138|248:143,1,80,4|0,1:1|1:0,0:0:0:0:
189,193,101148,2,0,L|198:317,1,120,0|0,0:0|0:0,0:0:0:0:
197,348,101982,2,0,P|157:368|115:367,1,80,4|0,0:2|1:0,0:0:0:0:
46,324,102815,1,4,0:2:0:0:
92,249,103232,1,0,1:0:0:0:
37,179,103648,6,0,L|31:98,1,80,4|0,0:1|1:0,0:0:0:0:
72,21,104482,2,0,P|148:16|196:37,1,120,0|0,0:0|0:0,0:0:0:0:
223,28,105315,2,0,P|242:64|247:107,1,80,4|0,0:2|1:0,0:0:0:0:
217,185,106148,1,4,0:2:0:0:
284,241,106565,2,0,L|327:237,1,40,0|0,1:0|0:0,0:0:0:0:
337,203,106982,6,0,L|426:209,1,80,4|0,0:1|1:0,0:0:0:0:
443,124,107815,2,0,L|320:116,1,120,0|0,0:0|0:0,0:0:0:0:
289,129,108648,2,0,P|274:87|274:52,1,80,0|0,0:0|1:0,0:0:0:0:
202,0,109482,1,0,0:0:0:0:
132,53,109898,1,0,1:0:0:0:
43,52,110315,6,0,P|34:111|67:207,1,160,4|0,0:2|0:0,0:0:0:0:
137,254,111565,1,0,1:0:0:0:
182,178,111982,2,0,P|217:165|267:165,1,80,0|0,0:0|1:0,0:0:0:0:
335,208,112815,1,0,0:0:0:0:
411,251,113232,2,0,L|454:247,1,40,0|0,1:0|1:0,0:0:0:0:
476,221,113648,6,0,L|482:62,1,160,4|0,0:2|0:0,0:0:0:0:
412,7,114898,1,0,1:0:0:0:
351,70,115315,2,0,P|313:82|232:72,1,120,4|0,0:2|0:0,0:0:0:0:
201,59,116148,2,0,P|160:55|117:69,1,80,0|0,1:0|1:0,0:0:0:0:
60,127,116982,5,2,0:0:0:0:
60,127,118648,2,0,L|66:247,1,120,4|0,1:2|1:0,0:0:0:0:
92,270,119482,2,0,P|130:282|174:279,1,80,0|0,1:0|1:0,0:0:0:0:
242,330,120315,6,0,P|305:315|346:281,1,120,4|2,1:1|0:0,0:0:0:0:
363,248,121148,2,0,L|357:166,1,80,2|0,0:0|1:0,0:0:0:0:
349,80,121982,1,2,0:0:0:0:
266,48,122398,1,0,1:0:0:0:
179,63,122815,1,2,0:0:0:0:
121,129,123232,2,0,L|75:125,1,40,0|0,1:0|0:0,0:0:0:0:
49,143,123648,6,0,P|35:200|61:266,1,120,2|2,0:0|0:0,0:0:0:0:
79,282,124482,2,0,L|159:275,1,80,2|0,0:0|1:0,0:0:0:0:
246,264,125315,1,2,0:0:0:0:
323,306,125732,1,0,1:0:0:0:
399,262,126148,2,0,P|411:223|405:182,1,80,2|0,0:0|1:0,0:0:0:0:
388,153,126773,1,0,0:0:0:0:
357,133,126982,6,0,L|237:129,1,120,4|2,0:1|0:0,0:0:0:0:
202,118,127815,2,0,P|183:160|183:200,1,80,2|0,0:0|1:0,0:0:0:0:
238,260,128648,1,2,0:0:0:0:
207,342,129065,1,0,1:0:0:0:
123,369,129482,2,0,L|34:364,1,80,2|0,0:0|1:0,0:0:0:0:
16,340,130107,1,0,0:0:0:0:
7,305,130315,6,0,P|13:256|32:220,1,80,4|0,0:1|1:0,0:0:0:0:
2,143,131148,2,0,P|62:105|127:100,1,120,2|2,0:0|0:0,0:0:0:0:
145,103,131982,1,4,0:2:0:0:
231,118,132398,1,4,1:2:0:0:
296,59,132815,2,0,L|293:20,2,40,4|0|0,1:2|1:0|1:0,0:0:0:0:
376,95,133648,6,0,P|384:138|363:216,1,120,4|2,1:1|0:0,0:0:0:0:
337,233,134482,2,0,L|256:229,1,80,2|0,0:0|1:0,0:0:0:0:
176,265,135315,1,2,0:0:0:0:
93,235,135732,1,0,1:0:0:0:
66,151,136148,1,2,0:0:0:0:
103,71,136565,2,0,L|146:73,1,40,0|0,1:0|0:0,0:0:0:0:
170,49,136982,6,0,L|293:55,1,120,2|2,0:0|0:0,0:0:0:0:
324,44,137815,2,0,P|344:93|345:126,1,80,2|0,0:0|1:0,0:0:0:0:
312,201,138648,1,2,0:0:0:0:
345,282,139065,1,0,1:0:0:0:
291,352,139482,2,0,L|210:353,1,80,2|0,0:0|1:0,0:0:0:0:
177,340,140107,1,0,1:0:0:0:
143,326,140315,6,0,P|124:268|146:211,1,120,4|2,0:1|0:0,0:0:0:0:
179,211,141148,2,0,P|196:176|197:136,1,80,2|0,0:0|1:0,0:0:0:0:
157,56,141982,1,2,0:0:0:0:
72,32,142398,1,0,1:0:0:0:
5,89,142815,2,0,L|10:171,1,80,2|0,0:0|1:0,0:0:0:0:
42,184,143440,1,0,0:0:0:0:
74,199,143648,6,0,P|66:250|79:286,1,80,4|0,0:1|1:0,0:0:0:0:
141,333,144482,2,0,L|263:324,1,120,4|2,0:1|0:0,0:0:0:0:
286,298,145315,1,4,1:2:0:0:
356,350,145732,1,0,0:0:0:0:
435,312,146148,2,0,L|478:315,2,40,4|0|0,1:2|0:0|1:0,0:0:0:0:
367,255,146982,5,4,1:2:0:0:
367,255,148648,6,0,P|384:176|373:132,1,120,4|4,1:1|1:1,0:0:0:0:
352,110,149482,2,0,L|269:106,1,80,4|0,1:1|1:0,0:0:0:0:
195,62,150315,1,4,1:1:0:0:
130,122,150732,1,0,1:0:0:0:
44,142,151148,2,0,L|0:146,2,40,4|0|0,1:1|1:0|1:0,0:0:0:0:
105,205,151982,6,0,P|109:243|99:285,1,80,4|0,1:1|1:0,0:0:0:0:
109,318,152607,1,2,0:0:0:0:
120,352,152815,2,0,L|208:344,1,80,2|0,0:0|1:0,0:0:0:0:
265,286,153648,2,0,P|305:297|384:280,1,120,2|2,0:0|0:0,0:0:0:0:
408,258,154482,2,0,L|400:178,1,80,2|0,0:0|1:0,0:0:0:0:
430,95,155315,5,2,0:0:0:0:
362,38,155732,1,0,1:0:0:0:
287,85,156148,2,0,P|249:91|207:80,1,80,0|0,0:0|1:0,0:0:0:0:
174,91,156773,1,2,0:0:0:0:
139,102,156982,2,0,L|130:187,1,80,2|0,0:0|1:0,0:0:0:0:
121,269,157815,1,2,0:0:0:0:
203,238,158232,1,0,1:0:0:0:
271,293,158648,6,0,P|308:302|351:296,1,80,4|0,0:1|1:0,0:0:0:0:
379,277,159273,1,0,0:0:0:0:
405,252,159482,2,0,L|400:169,1,80,2|0,0:0|1:0,0:0:0:0:
415,85,160315,2,0,P|374:72|291:76,1,120,2|0,0:0|0:0,0:0:0:0:
265,91,161148,2,0,L|269:170,1,80,2|0,0:0|1:0,0:0:0:0:
258,258,161982,5,4,0:2:0:0:
182,303,162398,1,0,1:0:0:0:
95,285,162815,2,0,P|65:255|58:168,1,120,2|0,0:0|0:0,0:0:0:0:
64,146,163648,2,0,L|145:151,1,80,4|0,1:2|1:0,0:0:0:0:
217,102,164482,1,4,1:2:0:0:
290,150,164898,2,0,L|332:147,1,40,0|0,1:0|1:0,0:0:0:0:
362,131,165315,6,0,P|378:183|372:254,1,120,4|2,1:1|0:0,0:0:0:0:
354,278,166148,2,0,L|267:274,1,80,2|0,0:0|1:0,0:0:0:0:
190,303,166982,1,0,0:0:0:0:
107,272,167398,2,0,L|67:279,1,40,0|2,1:0|0:0,0:0:0:0:
32,288,167815,2,0,L|27:167,1,120,2|0,0:0|0:0,0:0:0:0:
9,136,168648,6,0,P|54:114|92:110,1,80,0|0,0:0|1:0,0:0:0:0:
133,37,169482,1,2,0:0:0:0:
217,61,169898,1,0,1:0:0:0:
300,31,170315,2,0,P|358:46|405:93,1,120,4|2,0:2|0:0,0:0:0:0:
415,119,171148,1,4,1:2:0:0:
371,195,171565,2,0,L|375:238,1,40,4|0,1:2|1:0,0:0:0:0:
359,267,171982,6,0,L|232:260,1,120,4|2,0:1|0:0,0:0:0:0:
203,260,172815,2,0,P|189:210|195:174,1,80,2|0,0:0|1:0,0:0:0:0:
266,134,173648,2,0,P|280:84|274:48,1,80,0|0,0:0|1:0,0:0:0:0:
206,3,174482,1,2,0:0:0:0:
129,45,174898,1,0,1:0:0:0:
41,39,175315,6,0,L|31:162,1,120,4|2,0:2|0:0,0:0:0:0:
11,188,176148,2,0,P|38:217|80:231,1,80,2|0,0:0|1:0,0:0:0:0:
162,240,176982,1,4,1:2:0:0:
244,209,177398,1,0,1:0:0:0:
316,258,177815,2,0,L|315:303,2,40,4|0|0,1:2|1:0|1:0,0:0:0:0:
397,224,178648,6,0,P|411:178|410:142,1,80,4|0,1:1|1:0,0:0:0:0:
326,119,179482,2,0,P|295:78|229:43,1,120,0|0,0:0|0:0,0:0:0:0:
205,63,180315,2,0,L|119:57,1,80,4|0,0:2|1:0,0:0:0:0:
45,94,181148,1,4,0:2:0:0:
8,174,181565,1,0,1:0:0:0:
26,260,181982,6,0,P|46:292|84:317,1,80,4|0,0:1|1:0,0:0:0:0:
160,278,182815,2,0,L|281:271,1,120,0|0,0:0|0:0,0:0:0:0:
315,277,183648,2,0,P|323:229|315:195,1,80,4|0,0:2|1:0,0:0:0:0:
240,153,184482,1,4,0:2:0:0:
176,92,184898,2,0,P|171:69|170:51,1,40,0|0,1:0|0:0,0:0:0:0:
182,18,185315,6,0,L|264:22,1,80,4|0,0:1|1:0,0:0:0:0:
337,66,186148,2,0,P|398:49|453:60,1,120,0|0,0:0|0:0,0:0:0:0:
483,77,186982,2,0,L|480:164,1,80,0|0,0:0|1:0,0:0:0:0:
405,203,187815,1,0,0:0:0:0:
442,282,188232,1,0,1:0:0:0:
382,346,188648,6,0,P|335:362|240:314,1,160,4|0,0:2|0:0,0:0:0:0:
236,227,189898,1,0,1:0:0:0:
156,265,190315,2,0,L|73:260,1,80,0|0,0:0|1:0,0:0:0:0:
4,208,191148,1,0,0:0:0:0:
63,143,191565,2,0,L|58:103,1,40,0|0,1:0|1:0,0:0:0:0:
36,74,191982,6,0,P|105:36|184:31,1,160,4|0,1:2|0:0,0:0:0:0:
270,51,193232,1,0,1:0:0:0:
354,28,193648,2,0,L|366:150,1,120,4|0,1:2|0:0,0:0:0:0:
370,183,194482,2,0,P|325:198|281:193,1,80,4|0,1:2|1:0,0:0:0:0:
209,168,195315,5,0,1:0:0:0:
209,168,196982,2,0,P|150:159|95:182,2,120,4|4|4,1:1|1:1|1:1,0:0:0:0:
256,192,198648,12,0,200315,0:0:0:0:
196,213,206982,6,0,P|257:224|310:200,1,120,4|0,0:1|0:0,0:0:0:0:
333,174,207815,2,0,L|325:95,1,80,0|0,0:0|1:0,0:0:0:0:
394,40,208648,1,0,0:0:0:0:
476,71,209065,1,0,1:0:0:0:
501,155,209482,2,0,P|489:205|469:236,1,80,0|0,0:0|1:0,0:0:0:0:
445,251,210107,1,0,0:0:0:0:
410,261,210315,6,0,P|376:250|328:252,1,80,4|0,0:1|1:0,0:0:0:0:
245,234,211148,2,0,P|194:272|135:276,1,120,4|0,0:1|0:0,0:0:0:0:
105,268,211982,2,0,L|109:189,1,80,4|0,1:1|1:0,0:0:0:0:
64,112,212815,1,0,1:0:0:0:
126,50,213232,1,0,1:0:0:0:
206,86,213648,6,0,P|246:86|287:69,1,80,4|0,1:1|0:0,0:0:0:0:
363,106,214482,2,0,P|412:103|474:141,1,120,4|0,1:2|0:0,0:0:0:0:
487,170,215315,1,4,1:2:0:0:
510,254,215732,1,0,1:0:0:0:
436,302,216148,2,0,L|441:346,2,40,0|0|0,1:0|1:0|1:0,0:0:0:0:
278,220,217398,6,0,P|227:222|186:243,1,80,4|2,1:1|0:0,0:0:0:0:
130,287,218232,1,0,1:0:0:0:
59,234,218648,2,0,P|46:187|52:150,1,80,2|0,0:0|1:0,0:0:0:0:
94,80,219482,1,2,0:0:0:0:
175,112,219898,2,0,L|222:108,1,40,0|0,1:0|0:0,0:0:0:0:
248,94,220315,6,0,P|259:149|245:215,1,120,2|2,0:0|0:0,0:0:0:0:
273,234,221148,2,0,P|254:271|254:313,1,80,2|0,0:0|1:0,0:0:0:0:
309,377,221982,1,2,0:0:0:0:
395,363,222398,1,0,1:0:0:0:
457,300,222815,2,0,P|475:259|474:209,1,80,2|0,0:0|1:0,0:0:0:0:
471,188,223440,1,0,0:0:0:0:
451,157,223648,6,0,L|330:152,1,120,4|2,0:1|0:0,0:0:0:0:
298,167,224482,2,0,P|280:115|281:84,1,80,2|0,0:0|1:0,0:0:0:0:
238,13,225315,1,2,0:0:0:0:
150,22,225732,1,0,1:0:0:0:
85,81,226148,2,0,L|92:161,1,80,2|0,0:0|1:0,0:0:0:0:
81,195,226773,1,0,0:0:0:0:
70,229,226982,6,0,P|115:241|167:238,1,80,4|0,0:1|1:0,0:0:0:0:
199,313,227815,2,0,P|256:291|290:234,1,120,2|2,0:0|0:0,0:0:0:0:
293,208,228648,1,4,1:2:0:0:
231,144,229065,1,0,1:0:0:0:
268,64,229482,2,0,L|263:21,2,40,4|4|4,1:2|1:2|1:2,0:0:0:0:
329,126,230315,6,0,L|453:119,1,120,4|2,1:1|0:0,0:0:0:0:
481,134,231148,2,0,P|493:176|488:218,1,80,2|0,0:0|1:0,0:0:0:0:
428,274,231982,1,2,0:0:0:0:
340,262,232398,1,0,1:0:0:0:
275,321,232815,1,2,0:0:0:0:
187,309,233232,2,0,L|182:263,1,40,0|0,1:0|0:0,0:0:0:0:
199,237,233648,6,0,P|144:223|131:163,1,120,2|2,0:0|0:0,0:0:0:0:
141,133,234482,2,0,L|224:127,1,80,2|0,0:0|1:0,0:0:0:0:
281,63,235315,1,2,0:0:0:0:
365,37,235732,1,0,1:0:0:0:
447,66,236148,2,0,P|470:103|475:146,1,80,2|0,0:0|1:0,0:0:0:0:
474,174,236773,1,0,1:0:0:0:
462,208,236982,6,0,L|334:205,1,120,4|2,1:1|0:0,0:0:0:0:
307,212,237815,2,0,P|286:247|282:290,1,80,2|0,0:0|1:0,0:0:0:0:
206,331,238648,1,2,0:0:0:0:
120,310,239065,1,0,1:0:0:0:
73,235,239482,2,0,P|65:191|77:151,1,80,2|0,0:0|1:0,0:0:0:0:
97,130,240107,1,0,0:0:0:0:
127,111,240315,6,0,P|134:75|127:26,1,80,4|0,0:1|1:0,0:0:0:0:
217,25,241148,2,0,P|278:21|335:62,1,120,4|2,0:1|0:0,0:0:0:0:
344,82,241982,1,4,1:2:0:0:
385,159,242398,1,0,0:0:0:0:
456,210,242815,2,0,L|496:206,2,40,4|0|0,1:2|0:0|1:0,0:0:0:0:
402,279,243648,6,0,P|365:266|283:278,1,120,2|0,0:0|0:0,0:0:0:0:
256,255,244482,2,0,P|218:269|137:241,1,120,2|0,0:0|0:0,0:0:0:0:
122,218,245315,2,0,L|127:135,1,80,2|2,0:0|0:0,0:0:0:0:
133,50,246148,1,2,0:0:0:0:
216,23,246565,1,0,0:0:0:0:
269,92,246982,6,0,P|322:120|385:115,1,120,2|0,0:0|0:0,0:0:0:0:
398,147,247815,2,0,P|439:132|481:138,1,80,2|2,0:0|0:0,0:0:0:0:
448,219,248648,2,0,L|457:308,2,80,2|2|2,0:0|0:0|0:0,0:0:0:0:
474,135,249898,1,0,0:0:0:0:
433,56,250315,6,0,P|373:41|313:51,1,120,2|0,0:0|0:0,0:0:0:0:
285,67,251148,2,0,L|278:188,1,120,2|0,0:0|0:0,0:0:0:0:
274,222,251982,2,0,P|225:245|188:247,1,80,2|2,0:0|0:0,0:0:0:0:
113,232,252815,1,2,0:0:0:0:
65,157,253232,1,0,0:0:0:0:
86,71,253648,6,0,L|176:67,1,80,2|2,0:0|0:0,0:0:0:0:
239,19,254482,2,0,P|277:43|311:109,1,120,0|2,0:0|0:0,0:0:0:0:
343,122,255315,2,0,P|310:173|313:249,1,120,2|2,0:0|0:0,0:0:0:0:
321,264,256148,1,2,0:0:0:0:
256,192,256357,12,0,260315,0:0:0:0:
