osu file format v14

[General]
AudioFilename: audio.mp3
AudioLeadIn: 0
PreviewTime: 1510
Countdown: 0
SampleSet: Normal
StackLeniency: 0.7
Mode: 1
LetterboxInBreaks: 0
WidescreenStoryboard: 0

[Editor]
Bookmarks: 260312
DistanceSpacing: 0.74
BeatDivisor: 8
GridSize: 4
TimelineZoom: 2

[Metadata]
Title:Ikuseisou no Monogatari ~The Story of Eternity~
TitleUnicode:幾星霜の物語 ~The Story of Eternity~
Artist:Xceon feat. Mayumi Morinaga
ArtistUnicode:Xceon feat. Mayumi Morinaga
Creator:Nao Tomori
Version:Nirvana
Source:
Tags:ayataka starving trancer iceon yusuke ceo senya moimoi 森永真由美 japanese pop jpop
BeatmapID:2641360
BeatmapSetID:1271034

[Difficulty]
HPDrainRate:5
CircleSize:5
OverallDifficulty:6
ApproachRate:5
SliderMultiplier:1.4
SliderTickRate:1

[Events]
//Background and Video events
0,0,"aya bg.jpg",0,0
//Break Periods
//Storyboard Layer 0 (Background)
//Storyboard Layer 1 (Fail)
//Storyboard Layer 2 (Pass)
//Storyboard Layer 3 (Foreground)
//Storyboard Layer 4 (Overlay)
//Storyboard Sound Samples

[TimingPoints]
-1349,416.666666666667,4,1,0,45,1,0
317,-133.333333333333,4,1,0,45,0,0
8338,-117.647058823529,4,1,0,55,0,0
8546,-100,4,1,0,65,0,0
18546,-100,4,1,0,55,0,0
48789,-105.263157894737,4,1,0,55,0,0
48998,-111.111111111111,4,1,0,55,0,0
49310,-117.647058823529,4,1,0,55,0,0
49657,-125,4,1,0,55,0,0
50005,-125,4,1,0,55,0,0
50456,-117.647058823529,4,1,0,55,0,0
51046,-100,4,1,0,65,0,0
51116,-100,4,1,0,65,0,0
51185,-99.667807198607,4,1,0,65,0,0
51255,-99.3378141310027,4,1,0,65,0,0
51324,-99.009900990099,4,1,0,65,0,0
51394,-98.5221674876847,4,1,0,65,0,0
51532,-98.0392156862745,4,1,0,65,0,0
51637,-97.5609756097561,4,1,0,65,0,0
51741,-97.0873786407767,4,1,0,65,0,0
51810,-96.774505724212,4,1,0,65,0,0
51880,-96.4636428530087,4,1,0,65,0,0
51984,-96.1538461538461,4,1,0,75,0,1
78546,-96.1538461538461,4,1,0,75,0,0
78651,-96.1538461538461,4,1,0,45,0,0
79067,-133.333333333333,4,1,0,45,0,0
85942,-100,4,1,0,45,0,0
86151,-100,4,1,0,65,0,0
117140,-105.263157894737,4,1,0,55,0,0
117349,-111.111111111111,4,1,0,55,0,0
117661,-117.647058823529,4,1,0,55,0,0
118008,-125,4,1,0,55,0,0
118356,-125,4,1,0,55,0,0
118807,-117.647058823529,4,1,0,55,0,0
119397,-100,4,1,0,65,0,0
119467,-100,4,1,0,65,0,0
119536,-99.667807198607,4,1,0,65,0,0
119606,-99.3378141310027,4,1,0,65,0,0
119675,-99.009900990099,4,1,0,65,0,0
119745,-98.5221674876847,4,1,0,65,0,0
119883,-98.0392156862745,4,1,0,65,0,0
119988,-97.5609756097561,4,1,0,65,0,0
120092,-97.0873786407767,4,1,0,65,0,0
120161,-96.774505724212,4,1,0,65,0,0
120231,-96.4636428530087,4,1,0,65,0,0
120317,-96.1538461538461,4,1,0,75,0,1
146984,-96.1538461538461,4,1,0,75,0,0
147713,-119.047619047619,4,1,0,45,0,0
148546,-83.3333333333333,4,1,0,75,0,0
149588,-100,4,1,0,75,0,0
178859,-100,4,1,0,65,0,0
200213,-133.333333333333,4,1,0,35,0,0
206463,-125,4,1,0,55,0,0
206880,-111.111111111111,4,1,0,65,0,0
213182,-108.695652173913,4,1,0,65,0,0
213286,-106.382978723404,4,1,0,65,0,0
213390,-104.166666666667,4,1,0,65,0,0
213494,-102.040816326531,4,1,0,65,0,0
213598,-100,4,1,0,65,0,0
213998,-111.111111111111,4,1,0,65,0,0
214206,-125,4,1,0,65,0,0
214553,-142.857142857143,4,1,0,65,0,0
215248,-100,4,1,0,65,0,0
217296,-90.9090909090909,4,1,0,80,0,0
217401,-90.9090909090909,4,1,0,80,0,1
243651,-90.9090909090909,4,1,0,80,0,0
244067,-133.333333333333,4,1,0,45,0,0
256255,-133.333333333333,4,1,0,25,0,0
256776,-153.846153846154,4,1,0,25,0,0
258546,-181.818181818182,4,1,0,15,0,0
260213,-222.222222222222,4,1,0,5,0,0

[HitObjects]
183,204,1567,5,0,0:0:0:0:
183,204,1775,1,0,0:0:0:0:
183,204,1984,1,8,0:0:0:0:
182,202,2609,1,0,0:0:0:0:
182,202,2817,1,8,0:0:0:0:
182,202,3442,1,0,0:0:0:0:
182,202,3650,1,8,0:0:0:0:
182,202,4067,1,8,0:0:0:0:
182,202,4484,1,8,0:0:0:0:
182,202,4900,1,0,0:0:0:0:
182,202,5109,1,0,0:0:0:0:
182,202,5317,1,8,0:0:0:0:
182,202,5942,1,0,0:0:0:0:
182,202,6150,1,8,0:0:0:0:
179,202,6567,1,8,0:0:0:0:
179,202,6984,1,0,0:0:0:0:
179,202,7400,1,8,0:0:0:0:
178,203,7817,1,8,0:0:0:0:
178,203,8234,1,0,0:0:0:0:
200,135,8442,1,8,0:0:0:0:
178,203,8651,1,4,0:0:0:0:
192,192,8859,1,8,0:0:0:0:
190,202,9276,1,0,0:0:0:0:
190,202,9484,1,8,0:0:0:0:
200,181,9692,1,0,0:0:0:0:
200,181,9796,1,0,0:0:0:0:
200,181,9901,1,8,0:0:0:0:
200,181,10005,1,0,0:0:0:0:
190,202,10109,1,0,0:0:0:0:
190,202,10317,1,12,0:0:0:0:
190,200,10734,1,8,0:0:0:0:
209,114,10942,1,8,0:0:0:0:
190,198,11151,1,4,0:0:0:0:
190,198,11567,1,0,0:0:0:0:
190,198,11671,1,0,0:0:0:0:
190,198,11776,1,0,0:0:0:0:
190,198,11880,1,0,0:0:0:0:
190,198,11984,1,12,0:0:0:0:
190,202,12401,1,8,0:0:0:0:
241,133,12609,1,0,0:0:0:0:
200,152,12817,1,12,0:0:0:0:
200,152,13026,1,8,0:0:0:0:
200,152,13130,1,0,0:0:0:0:
200,152,13338,1,0,0:0:0:0:
200,152,13442,1,8,0:0:0:0:
200,152,13651,1,4,0:0:0:0:
200,152,13963,1,4,0:0:0:0:
200,152,14276,1,4,0:0:0:0:
200,152,14484,1,4,0:0:0:0:
200,152,14692,1,8,0:0:0:0:
200,152,14796,1,0,0:0:0:0:
200,152,15005,1,0,0:0:0:0:
200,152,15109,1,8,0:0:0:0:
200,152,15213,1,8,0:0:0:0:
200,152,15317,1,4,0:0:0:0:
200,152,15526,1,8,0:0:0:0:
200,152,15630,1,0,0:0:0:0:
200,152,15734,1,0,0:0:0:0:
200,152,15838,1,8,0:0:0:0:
200,152,15942,1,0,0:0:0:0:
200,152,16046,1,0,0:0:0:0:
200,152,16151,1,8,0:0:0:0:
200,152,16255,1,8,0:0:0:0:
200,152,16359,1,8,0:0:0:0:
200,152,16463,1,8,0:0:0:0:
200,152,16567,1,0,0:0:0:0:
200,152,16671,1,0,0:0:0:0:
200,152,16776,1,0,0:0:0:0:
200,152,16880,1,0,0:0:0:0:
200,152,16984,1,8,0:0:0:0:
221,201,18651,1,0,0:0:0:0:
221,201,19067,1,8,0:0:0:0:
221,201,19276,1,8,0:0:0:0:
221,201,19380,1,8,0:0:0:0:
221,201,19484,1,0,0:0:0:0:
221,201,19796,1,0,0:0:0:0:
221,201,19901,1,0,0:0:0:0:
221,201,20109,1,8,0:0:0:0:
221,201,20317,1,0,0:0:0:0:
219,200,20630,1,0,0:0:0:0:
219,200,20734,1,8,0:0:0:0:
219,200,20942,1,8,0:0:0:0:
219,200,21151,1,0,0:0:0:0:
219,200,21567,1,8,0:0:0:0:
219,200,21984,1,0,0:0:0:0:
246,188,22296,1,8,0:0:0:0:
242,181,22401,1,0,0:0:0:0:
242,181,22609,1,0,0:0:0:0:
242,181,22817,1,8,0:0:0:0:
243,181,23234,1,8,0:0:0:0:
243,181,23442,1,0,0:0:0:0:
243,181,23546,1,8,0:0:0:0:
243,181,23651,1,0,0:0:0:0:
243,181,24067,1,0,0:0:0:0:
243,181,24276,1,8,0:0:0:0:
243,181,24484,1,0,0:0:0:0:
243,181,24588,1,0,0:0:0:0:
243,181,24692,1,0,0:0:0:0:
243,181,24796,1,0,0:0:0:0:
243,181,24901,1,8,0:0:0:0:
243,181,25109,1,0,0:0:0:0:
243,181,25213,1,0,0:0:0:0:
243,181,25317,1,12,0:0:0:0:
205,165,25734,1,0,0:0:0:0:
205,165,25942,1,8,0:0:0:0:
205,165,26151,1,0,0:0:0:0:
205,158,26463,1,0,0:0:0:0:
205,158,26567,1,8,0:0:0:0:
205,158,26776,1,8,0:0:0:0:
205,158,26984,1,0,0:0:0:0:
206,156,27296,1,8,0:0:0:0:
206,156,27401,1,0,0:0:0:0:
206,156,27609,1,8,0:0:0:0:
206,156,27817,1,0,0:0:0:0:
178,94,28026,1,8,0:0:0:0:
206,156,28234,1,0,0:0:0:0:
206,156,28338,1,8,0:0:0:0:
206,156,28442,1,0,0:0:0:0:
206,156,28546,1,0,0:0:0:0:
200,153,28651,1,8,0:0:0:0:
200,154,28963,1,0,0:0:0:0:
200,154,29067,1,0,0:0:0:0:
242,192,29276,1,8,0:0:0:0:
242,192,29484,1,0,0:0:0:0:
242,192,29588,1,0,0:0:0:0:
237,195,29692,1,0,0:0:0:0:
237,195,29796,1,0,0:0:0:0:
237,195,29901,1,8,0:0:0:0:
237,195,30109,1,0,0:0:0:0:
237,195,30213,1,8,0:0:0:0:
237,195,30317,1,0,0:0:0:0:
237,195,30630,1,8,0:0:0:0:
237,195,30734,1,0,0:0:0:0:
237,195,30942,1,0,0:0:0:0:
237,195,31046,1,8,0:0:0:0:
237,195,31151,1,0,0:0:0:0:
237,195,31255,1,0,0:0:0:0:
237,195,31359,1,8,0:0:0:0:
237,195,31463,1,8,0:0:0:0:
237,195,31567,1,0,0:0:0:0:
237,195,31671,1,0,0:0:0:0:
237,195,31776,1,0,0:0:0:0:
237,195,31880,1,0,0:0:0:0:
237,195,31984,1,12,0:0:0:0:
263,169,32401,1,8,0:0:0:0:
259,170,32817,1,0,0:0:0:0:
291,133,32921,1,0,0:0:0:0:
259,170,33026,1,0,0:0:0:0:
259,170,33130,1,0,0:0:0:0:
259,170,33234,1,8,0:0:0:0:
259,170,33442,1,0,0:0:0:0:
259,170,33651,1,12,0:0:0:0:
254,170,34067,1,0,0:0:0:0:
254,170,34276,1,0,0:0:0:0:
254,170,34484,1,12,0:0:0:0:
254,170,34692,1,8,0:0:0:0:
254,170,34901,1,0,0:0:0:0:
254,170,35005,1,0,0:0:0:0:
254,170,35109,1,0,0:0:0:0:
254,170,35213,1,0,0:0:0:0:
254,170,35317,1,12,0:0:0:0:
268,146,35734,1,8,0:0:0:0:
268,146,36151,1,0,0:0:0:0:
268,146,36359,1,0,0:0:0:0:
268,146,36567,1,8,0:0:0:0:
232,113,36671,1,8,0:0:0:0:
268,146,36776,1,8,0:0:0:0:
268,146,36880,1,8,0:0:0:0:
268,146,36984,1,4,0:0:0:0:
284,162,37296,1,0,0:0:0:0:
284,162,37401,1,8,0:0:0:0:
284,162,37609,1,8,0:0:0:0:
284,162,37817,1,4,0:0:0:0:
284,162,38026,1,0,0:0:0:0:
284,162,38130,1,8,0:0:0:0:
284,162,38234,1,0,0:0:0:0:
284,162,38442,1,0,0:0:0:0:
254,151,38651,1,12,0:0:0:0:
260,152,39067,1,8,0:0:0:0:
260,152,39276,1,0,0:0:0:0:
260,152,39380,1,8,0:0:0:0:
260,152,39484,1,0,0:0:0:0:
260,152,39692,1,0,0:0:0:0:
260,152,39901,1,8,0:0:0:0:
260,152,40109,1,8,0:0:0:0:
260,152,40213,1,8,0:0:0:0:
260,152,40317,1,0,0:0:0:0:
260,152,40630,1,8,0:0:0:0:
260,152,40734,1,0,0:0:0:0:
260,152,40942,1,0,0:0:0:0:
260,152,41151,1,8,0:0:0:0:
260,152,41359,1,0,0:0:0:0:
260,152,41567,1,8,0:0:0:0:
260,152,41776,1,8,0:0:0:0:
260,152,41984,1,0,0:0:0:0:
260,152,42401,1,8,0:0:0:0:
235,124,42609,1,0,0:0:0:0:
260,151,42817,1,0,0:0:0:0:
318,162,43026,1,8,0:0:0:0:
318,162,43130,1,0,0:0:0:0:
326,157,43234,1,8,0:0:0:0:
321,156,43442,1,0,0:0:0:0:
315,159,43651,1,8,0:0:0:0:
315,159,43963,1,0,0:0:0:0:
315,159,44067,1,8,0:0:0:0:
315,159,44276,1,8,0:0:0:0:
315,159,44484,1,0,0:0:0:0:
315,159,44796,1,0,0:0:0:0:
315,159,44901,1,8,0:0:0:0:
315,159,45109,1,0,0:0:0:0:
315,159,45317,1,12,0:0:0:0:
273,176,45734,1,8,0:0:0:0:
273,176,45942,1,0,0:0:0:0:
273,176,46046,1,8,0:0:0:0:
273,176,46151,1,0,0:0:0:0:
274,175,46463,1,0,0:0:0:0:
274,175,46567,1,8,0:0:0:0:
274,175,46776,1,8,0:0:0:0:
274,175,46984,1,0,0:0:0:0:
274,175,47088,1,0,0:0:0:0:
274,175,47192,1,0,0:0:0:0:
274,175,47296,1,0,0:0:0:0:
274,175,47401,1,0,0:0:0:0:
274,175,47505,1,0,0:0:0:0:
268,177,47609,1,8,0:0:0:0:
268,177,47713,1,0,0:0:0:0:
208,166,47817,1,8,0:0:0:0:
208,166,47921,1,8,0:0:0:0:
208,166,48026,1,0,0:0:0:0:
208,166,48130,1,0,0:0:0:0:
208,166,48234,1,8,0:0:0:0:
208,166,48338,1,8,0:0:0:0:
208,166,48442,1,8,0:0:0:0:
208,166,48546,1,8,0:0:0:0:
208,166,48651,1,0,0:0:0:0:
212,163,48963,1,0,0:0:0:0:
212,164,49276,1,0,0:0:0:0:
212,164,49588,1,0,0:0:0:0:
212,164,49901,1,0,0:0:0:0:
242,121,50317,1,12,0:0:0:0:
231,127,50526,1,0,0:0:0:0:
231,127,50630,1,0,0:0:0:0:
231,127,50734,1,8,0:0:0:0:
231,127,50838,1,0,0:0:0:0:
231,127,50942,1,8,0:0:0:0:
317,113,51151,1,0,0:0:0:0:
317,113,51220,1,0,0:0:0:0:
317,113,51289,1,0,0:0:0:0:
317,113,51359,1,8,0:0:0:0:
312,99,51463,1,8,0:0:0:0:
338,91,51567,1,0,0:0:0:0:
332,96,51671,1,8,0:0:0:0:
372,50,51776,1,0,0:0:0:0:
383,90,51845,1,0,0:0:0:0:
383,90,51914,1,0,0:0:0:0:
383,90,51984,1,12,0:0:0:0:
262,124,52401,1,8,0:0:0:0:
262,124,52609,1,0,0:0:0:0:
262,124,52713,1,0,0:0:0:0:
262,124,52817,1,8,0:0:0:0:
262,129,52921,1,8,0:0:0:0:
262,129,53026,1,0,0:0:0:0:
262,129,53234,1,8,0:0:0:0:
262,129,53442,1,0,0:0:0:0:
262,129,53546,1,8,0:0:0:0:
262,129,53651,1,0,0:0:0:0:
262,129,53859,1,0,0:0:0:0:
262,129,53963,1,0,0:0:0:0:
262,129,54067,1,8,0:0:0:0:
262,129,54276,1,0,0:0:0:0:
290,143,54484,1,8,0:0:0:0:
290,143,54588,1,0,0:0:0:0:
290,143,54796,1,0,0:0:0:0:
290,143,54901,1,8,0:0:0:0:
290,143,55109,1,0,0:0:0:0:
290,143,55213,1,0,0:0:0:0:
268,147,55317,1,8,0:0:0:0:
259,95,55526,1,0,0:0:0:0:
259,95,55734,1,8,0:0:0:0:
259,95,55942,1,0,0:0:0:0:
259,95,56046,1,0,0:0:0:0:
259,95,56151,1,8,0:0:0:0:
259,95,56255,1,0,0:0:0:0:
259,95,56359,1,0,0:0:0:0:
259,95,56567,1,8,0:0:0:0:
259,95,56776,1,8,0:0:0:0:
259,95,56880,1,8,0:0:0:0:
259,95,56984,1,0,0:0:0:0:
259,95,57192,1,0,0:0:0:0:
259,95,57401,1,8,0:0:0:0:
259,95,57505,1,0,0:0:0:0:
259,95,57713,1,0,0:0:0:0:
259,95,57817,1,8,0:0:0:0:
264,133,58026,1,8,0:0:0:0:
275,141,58130,1,8,0:0:0:0:
275,141,58234,1,0,0:0:0:0:
275,141,58442,1,0,0:0:0:0:
275,141,58651,1,12,0:0:0:0:
258,137,59067,1,0,0:0:0:0:
258,137,59276,1,8,0:0:0:0:
258,137,59380,1,0,0:0:0:0:
258,137,59484,1,8,0:0:0:0:
258,137,59588,1,8,0:0:0:0:
258,137,59692,1,0,0:0:0:0:
258,137,59901,1,0,0:0:0:0:
258,137,60109,1,0,0:0:0:0:
258,137,60213,1,0,0:0:0:0:
259,123,60317,1,8,0:0:0:0:
263,134,60526,1,0,0:0:0:0:
263,134,60630,1,8,0:0:0:0:
263,134,60734,1,0,0:0:0:0:
244,132,60942,1,0,0:0:0:0:
244,132,61151,1,8,0:0:0:0:
244,132,61255,1,0,0:0:0:0:
166,104,61359,1,0,0:0:0:0:
237,75,61463,1,8,0:0:0:0:
244,132,61567,1,0,0:0:0:0:
326,83,61776,1,0,0:0:0:0:
300,117,61984,1,12,0:0:0:0:
260,120,62401,1,8,0:0:0:0:
260,120,62609,1,0,0:0:0:0:
260,120,62713,1,0,0:0:0:0:
260,120,62817,1,8,0:0:0:0:
260,120,63026,1,8,0:0:0:0:
260,120,63130,1,0,0:0:0:0:
260,120,63338,1,0,0:0:0:0:
260,120,63442,1,8,0:0:0:0:
260,120,63546,1,8,0:0:0:0:
260,120,63651,1,4,0:0:0:0:
274,107,63859,1,0,0:0:0:0:
274,107,63963,1,8,0:0:0:0:
274,107,64067,1,0,0:0:0:0:
274,107,64171,1,0,0:0:0:0:
274,107,64276,1,8,0:0:0:0:
274,107,64380,1,0,0:0:0:0:
274,107,64484,1,8,0:0:0:0:
267,107,64588,1,8,0:0:0:0:
274,107,64692,1,8,0:0:0:0:
267,107,64796,1,8,0:0:0:0:
267,107,64901,1,0,0:0:0:0:
267,107,65005,1,0,0:0:0:0:
267,107,65109,1,0,0:0:0:0:
267,107,65213,1,0,0:0:0:0:
267,107,65317,1,12,0:0:0:0:
322,83,65734,1,8,0:0:0:0:
308,111,65942,1,0,0:0:0:0:
301,127,66151,1,8,0:0:0:0:
301,127,66359,1,0,0:0:0:0:
301,127,66463,1,0,0:0:0:0:
301,127,66567,1,0,0:0:0:0:
301,127,66776,1,0,0:0:0:0:
301,127,66984,1,8,0:0:0:0:
301,127,67192,1,0,0:0:0:0:
301,127,67401,1,8,0:0:0:0:
301,127,67505,1,0,0:0:0:0:
301,127,67713,1,0,0:0:0:0:
301,127,67817,1,8,0:0:0:0:
291,129,68026,1,0,0:0:0:0:
270,132,68130,1,8,0:0:0:0:
270,132,68234,1,0,0:0:0:0:
270,132,68442,1,0,0:0:0:0:
270,132,68651,1,8,0:0:0:0:
274,133,68859,1,0,0:0:0:0:
220,100,68963,1,0,0:0:0:0:
274,133,69067,1,8,0:0:0:0:
274,133,69276,1,8,0:0:0:0:
256,92,69484,1,0,0:0:0:0:
256,92,69588,1,0,0:0:0:0:
256,92,69692,1,8,0:0:0:0:
256,92,69796,1,8,0:0:0:0:
256,92,69901,1,0,0:0:0:0:
256,92,70109,1,8,0:0:0:0:
336,101,70317,1,0,0:0:0:0:
330,102,70526,1,0,0:0:0:0:
316,102,70734,1,8,0:0:0:0:
316,102,70838,1,0,0:0:0:0:
283,106,71046,1,0,0:0:0:0:
283,106,71151,1,8,0:0:0:0:
283,106,71359,1,0,0:0:0:0:
210,74,71463,1,0,0:0:0:0:
261,106,71567,1,0,0:0:0:0:
261,106,71776,1,0,0:0:0:0:
261,106,71984,1,12,0:0:0:0:
190,120,72401,1,0,0:0:0:0:
190,120,72609,1,8,0:0:0:0:
190,120,72713,1,0,0:0:0:0:
190,120,72817,1,8,0:0:0:0:
190,120,73026,1,0,0:0:0:0:
208,116,73130,1,0,0:0:0:0:
190,120,73234,1,0,0:0:0:0:
190,120,73442,1,8,0:0:0:0:
190,120,73651,1,8,0:0:0:0:
190,120,73755,1,8,0:0:0:0:
190,120,73859,1,0,0:0:0:0:
190,120,73963,1,0,0:0:0:0:
190,120,74067,1,8,0:0:0:0:
190,120,74276,1,0,0:0:0:0:
190,120,74484,1,8,0:0:0:0:
190,120,74588,1,0,0:0:0:0:
190,120,74796,1,8,0:0:0:0:
190,120,74901,1,0,0:0:0:0:
190,120,75109,1,0,0:0:0:0:
210,122,75317,1,12,0:0:0:0:
213,118,75734,1,8,0:0:0:0:
213,118,75942,1,8,0:0:0:0:
213,118,76151,1,4,0:0:0:0:
248,113,76359,1,8,0:0:0:0:
248,113,76463,1,0,0:0:0:0:
248,113,76671,1,0,0:0:0:0:
248,113,76776,1,8,0:0:0:0:
248,113,76880,1,8,0:0:0:0:
248,113,76984,1,4,0:0:0:0:
248,113,77192,1,0,0:0:0:0:
248,113,77296,1,8,0:0:0:0:
248,113,77401,1,8,0:0:0:0:
248,113,77505,1,0,0:0:0:0:
248,113,77609,1,8,0:0:0:0:
241,107,77713,1,8,0:0:0:0:
241,107,77817,1,0,0:0:0:0:
241,107,77921,1,0,0:0:0:0:
241,107,78026,1,8,0:0:0:0:
237,94,78130,1,8,0:0:0:0:
237,95,78234,1,0,0:0:0:0:
237,94,78338,1,0,0:0:0:0:
237,95,78442,1,0,0:0:0:0:
237,94,78546,1,0,0:0:0:0:
201,101,80317,1,0,0:0:0:0:
200,101,80734,1,8,0:0:0:0:
200,101,81151,1,0,0:0:0:0:
200,100,81567,1,8,0:0:0:0:
200,100,81984,1,0,0:0:0:0:
194,95,82401,1,8,0:0:0:0:
194,95,82609,1,0,0:0:0:0:
194,95,82817,1,0,0:0:0:0:
195,97,83234,1,8,0:0:0:0:
195,97,83651,1,0,0:0:0:0:
198,97,84276,1,8,0:0:0:0:
198,97,84380,1,0,0:0:0:0:
198,97,84484,1,8,0:0:0:0:
198,97,85317,1,8,0:0:0:0:
272,131,86151,1,8,0:0:0:0:
272,131,86220,1,8,0:0:0:0:
272,131,86289,1,8,0:0:0:0:
272,131,86359,1,8,0:0:0:0:
272,131,86428,1,8,0:0:0:0:
272,131,86498,1,8,0:0:0:0:
272,131,86567,1,0,0:0:0:0:
272,131,86671,1,0,0:0:0:0:
272,131,86776,1,0,0:0:0:0:
272,131,86880,1,0,0:0:0:0:
259,122,86984,1,12,0:0:0:0:
253,132,87401,1,0,0:0:0:0:
253,132,87609,1,8,0:0:0:0:
253,132,87817,1,0,0:0:0:0:
252,132,88130,1,0,0:0:0:0:
252,132,88234,1,8,0:0:0:0:
252,132,88442,1,8,0:0:0:0:
252,132,88651,1,0,0:0:0:0:
247,133,88963,1,0,0:0:0:0:
247,133,89067,1,0,0:0:0:0:
247,133,89276,1,8,0:0:0:0:
247,133,89484,1,0,0:0:0:0:
243,133,89901,1,0,0:0:0:0:
243,133,90109,1,8,0:0:0:0:
248,134,90317,1,0,0:0:0:0:
304,134,90630,1,8,0:0:0:0:
304,134,90734,1,0,0:0:0:0:
304,134,90942,1,8,0:0:0:0:
272,107,91046,1,8,0:0:0:0:
272,107,91151,1,0,0:0:0:0:
272,107,91359,1,0,0:0:0:0:
316,117,91567,1,8,0:0:0:0:
316,117,91776,1,8,0:0:0:0:
316,117,91984,1,0,0:0:0:0:
316,117,92401,1,0,0:0:0:0:
316,117,92609,1,8,0:0:0:0:
316,117,92713,1,8,0:0:0:0:
316,117,92817,1,0,0:0:0:0:
316,117,93026,1,0,0:0:0:0:
316,117,93234,1,0,0:0:0:0:
316,117,93338,1,8,0:0:0:0:
316,117,93442,1,0,0:0:0:0:
316,117,93546,1,0,0:0:0:0:
316,117,93651,1,12,0:0:0:0:
288,152,94067,1,0,0:0:0:0:
288,152,94276,1,8,0:0:0:0:
288,152,94484,1,0,0:0:0:0:
284,152,94796,1,0,0:0:0:0:
284,152,94901,1,8,0:0:0:0:
175,105,95109,1,8,0:0:0:0:
215,141,95317,1,0,0:0:0:0:
214,153,95630,1,8,0:0:0:0:
214,153,95734,1,0,0:0:0:0:
214,153,95942,1,8,0:0:0:0:
214,153,96151,1,0,0:0:0:0:
214,153,96359,1,0,0:0:0:0:
214,153,96567,1,8,0:0:0:0:
214,153,96671,1,8,0:0:0:0:
214,153,96776,1,8,0:0:0:0:
214,153,96880,1,8,0:0:0:0:
214,153,96984,1,0,0:0:0:0:
221,148,97296,1,0,0:0:0:0:
221,148,97401,1,8,0:0:0:0:
221,148,97609,1,0,0:0:0:0:
260,136,97817,1,0,0:0:0:0:
260,136,98026,1,8,0:0:0:0:
260,136,98234,1,0,0:0:0:0:
260,136,98338,1,8,0:0:0:0:
260,136,98442,1,8,0:0:0:0:
260,136,98546,1,8,0:0:0:0:
260,136,98651,1,0,0:0:0:0:
247,143,98963,1,0,0:0:0:0:
247,143,99067,1,8,0:0:0:0:
247,143,99276,1,8,0:0:0:0:
225,96,99380,1,8,0:0:0:0:
257,137,99484,1,0,0:0:0:0:
257,137,99588,1,8,0:0:0:0:
257,137,99692,1,0,0:0:0:0:
257,137,99796,1,0,0:0:0:0:
257,137,99901,1,8,0:0:0:0:
257,137,100005,1,8,0:0:0:0:
252,133,100109,1,8,0:0:0:0:
252,133,100213,1,8,0:0:0:0:
252,133,100317,1,4,0:0:0:0:
210,163,100734,1,8,0:0:0:0:
210,163,100942,1,8,0:0:0:0:
210,163,101151,1,0,0:0:0:0:
210,163,101359,1,0,0:0:0:0:
210,163,101463,1,8,0:0:0:0:
210,163,101567,1,0,0:0:0:0:
210,163,101776,1,0,0:0:0:0:
374,198,101984,1,12,0:0:0:0:
250,184,102401,1,0,0:0:0:0:
250,184,102609,1,8,0:0:0:0:
250,184,102817,1,4,0:0:0:0:
250,184,103026,1,8,0:0:0:0:
250,184,103234,1,0,0:0:0:0:
250,184,103338,1,0,0:0:0:0:
250,184,103442,1,0,0:0:0:0:
250,184,103546,1,0,0:0:0:0:
250,184,103651,1,12,0:0:0:0:
236,177,104067,1,0,0:0:0:0:
236,177,104276,1,0,0:0:0:0:
236,177,104380,1,0,0:0:0:0:
236,177,104484,1,8,0:0:0:0:
236,177,104692,1,0,0:0:0:0:
236,177,104901,1,8,0:0:0:0:
225,124,105005,1,8,0:0:0:0:
236,177,105109,1,8,0:0:0:0:
214,102,105213,1,8,0:0:0:0:
236,177,105317,1,4,0:0:0:0:
267,155,105630,1,8,0:0:0:0:
267,155,105734,1,0,0:0:0:0:
267,155,105942,1,0,0:0:0:0:
267,155,106151,1,12,0:0:0:0:
260,167,106359,1,0,0:0:0:0:
260,167,106463,1,0,0:0:0:0:
260,167,106567,1,8,0:0:0:0:
260,167,106776,1,8,0:0:0:0:
260,167,106984,1,4,0:0:0:0:
249,181,107401,1,8,0:0:0:0:
249,181,107609,1,0,0:0:0:0:
249,181,107817,1,8,0:0:0:0:
163,128,107921,1,8,0:0:0:0:
249,181,108026,1,0,0:0:0:0:
163,140,108130,1,0,0:0:0:0:
249,181,108234,1,8,0:0:0:0:
249,181,108442,1,8,0:0:0:0:
249,181,108546,1,8,0:0:0:0:
249,181,108651,1,0,0:0:0:0:
246,180,108963,1,8,0:0:0:0:
246,180,109067,1,0,0:0:0:0:
246,180,109276,1,8,0:0:0:0:
246,180,109484,1,0,0:0:0:0:
246,180,109588,1,0,0:0:0:0:
246,180,109692,1,0,0:0:0:0:
246,180,109796,1,0,0:0:0:0:
246,180,109901,1,8,0:0:0:0:
246,180,110109,1,0,0:0:0:0:
246,180,110317,1,12,0:0:0:0:
203,195,110734,1,0,0:0:0:0:
198,199,110942,1,8,0:0:0:0:
198,199,111151,1,0,0:0:0:0:
198,199,111255,1,0,0:0:0:0:
198,199,111359,1,8,0:0:0:0:
198,199,111463,1,8,0:0:0:0:
198,199,111567,1,0,0:0:0:0:
235,175,111776,1,0,0:0:0:0:
236,182,111984,1,8,0:0:0:0:
236,180,112296,1,8,0:0:0:0:
236,180,112401,1,0,0:0:0:0:
236,180,112609,1,0,0:0:0:0:
236,180,112817,1,8,0:0:0:0:
235,180,113130,1,0,0:0:0:0:
235,180,113234,1,8,0:0:0:0:
235,180,113442,1,8,0:0:0:0:
235,180,113651,1,4,0:0:0:0:
254,163,114067,1,0,0:0:0:0:
260,152,114276,1,0,0:0:0:0:
249,158,114380,1,0,0:0:0:0:
236,174,114484,1,8,0:0:0:0:
240,170,114796,1,8,0:0:0:0:
240,170,114901,1,0,0:0:0:0:
248,158,115109,1,0,0:0:0:0:
248,158,115317,1,8,0:0:0:0:
248,158,115421,1,8,0:0:0:0:
248,158,115526,1,8,0:0:0:0:
242,155,115630,1,8,0:0:0:0:
243,154,115734,1,0,0:0:0:0:
243,154,115942,1,8,0:0:0:0:
243,154,116046,1,8,0:0:0:0:
243,154,116151,1,0,0:0:0:0:
243,154,116359,1,8,0:0:0:0:
243,154,116463,1,0,0:0:0:0:
243,154,116567,1,8,0:0:0:0:
243,154,116671,1,8,0:0:0:0:
243,154,116776,1,0,0:0:0:0:
243,154,116880,1,0,0:0:0:0:
243,154,116984,1,8,0:0:0:0:
244,154,117296,1,8,0:0:0:0:
244,154,117609,1,0,0:0:0:0:
244,154,117921,1,0,0:0:0:0:
244,153,118234,1,0,0:0:0:0:
247,156,118651,1,12,0:0:0:0:
247,156,118859,1,0,0:0:0:0:
247,156,118963,1,8,0:0:0:0:
247,156,119067,1,8,0:0:0:0:
247,156,119171,1,0,0:0:0:0:
247,156,119276,1,8,0:0:0:0:
254,149,119484,1,0,0:0:0:0:
286,127,119553,1,0,0:0:0:0:
286,127,119623,1,0,0:0:0:0:
286,127,119692,1,8,0:0:0:0:
286,127,119796,1,8,0:0:0:0:
289,122,119901,1,0,0:0:0:0:
299,124,120005,1,0,0:0:0:0:
305,127,120109,1,8,0:0:0:0:
289,132,120178,1,8,0:0:0:0:
294,132,120248,1,8,0:0:0:0:
294,131,120317,1,4,0:0:0:0:
226,124,120734,1,8,0:0:0:0:
226,124,120942,1,0,0:0:0:0:
226,124,121046,1,0,0:0:0:0:
226,124,121151,1,8,0:0:0:0:
210,128,121255,1,8,0:0:0:0:
210,124,121359,1,0,0:0:0:0:
210,124,121567,1,8,0:0:0:0:
210,124,121776,1,8,0:0:0:0:
210,124,121880,1,8,0:0:0:0:
210,124,121984,1,0,0:0:0:0:
210,124,122192,1,0,0:0:0:0:
219,98,122296,1,0,0:0:0:0:
210,124,122401,1,8,0:0:0:0:
219,98,122505,1,8,0:0:0:0:
210,124,122609,1,0,0:0:0:0:
210,124,122817,1,8,0:0:0:0:
210,124,122921,1,0,0:0:0:0:
265,140,123130,1,0,0:0:0:0:
265,140,123234,1,8,0:0:0:0:
265,140,123442,1,8,0:0:0:0:
265,140,123651,1,0,0:0:0:0:
183,159,123859,1,0,0:0:0:0:
183,159,123963,1,0,0:0:0:0:
173,159,124067,1,8,0:0:0:0:
173,159,124276,1,0,0:0:0:0:
173,159,124484,1,8,0:0:0:0:
173,159,124588,1,0,0:0:0:0:
173,159,124796,1,0,0:0:0:0:
173,159,124901,1,8,0:0:0:0:
173,159,125109,1,0,0:0:0:0:
173,159,125213,1,0,0:0:0:0:
173,159,125317,1,0,0:0:0:0:
173,159,125526,1,0,0:0:0:0:
173,159,125734,1,8,0:0:0:0:
173,159,125942,1,0,0:0:0:0:
173,159,126151,1,8,0:0:0:0:
173,159,126255,1,8,0:0:0:0:
173,159,126359,1,8,0:0:0:0:
173,159,126463,1,8,0:0:0:0:
173,159,126567,1,0,0:0:0:0:
173,159,126776,1,0,0:0:0:0:
214,142,126984,1,12,0:0:0:0:
217,211,127401,1,0,0:0:0:0:
217,211,127609,1,8,0:0:0:0:
217,211,127713,1,0,0:0:0:0:
217,211,127817,1,8,0:0:0:0:
217,211,128026,1,0,0:0:0:0:
217,211,128234,1,0,0:0:0:0:
217,211,128442,1,8,0:0:0:0:
217,211,128546,1,8,0:0:0:0:
217,211,128651,1,0,0:0:0:0:
217,211,128859,1,0,0:0:0:0:
217,211,129067,1,8,0:0:0:0:
217,211,129276,1,0,0:0:0:0:
217,211,129380,1,8,0:0:0:0:
217,211,129484,1,0,0:0:0:0:
217,211,129692,1,0,0:0:0:0:
217,211,129901,1,8,0:0:0:0:
217,211,130005,1,8,0:0:0:0:
217,211,130109,1,8,0:0:0:0:
217,211,130213,1,8,0:0:0:0:
217,211,130317,1,4,0:0:0:0:
179,139,130734,1,8,0:0:0:0:
179,139,130942,1,0,0:0:0:0:
223,117,131151,1,8,0:0:0:0:
214,120,131359,1,8,0:0:0:0:
214,120,131463,1,0,0:0:0:0:
213,124,131671,1,8,0:0:0:0:
214,118,131776,1,0,0:0:0:0:
214,118,131880,1,0,0:0:0:0:
208,124,131984,1,12,0:0:0:0:
208,124,132192,1,0,0:0:0:0:
208,124,132296,1,8,0:0:0:0:
215,113,132401,1,0,0:0:0:0:
215,113,132505,1,0,0:0:0:0:
215,113,132609,1,8,0:0:0:0:
215,113,132713,1,0,0:0:0:0:
215,113,132817,1,8,0:0:0:0:
215,113,132921,1,8,0:0:0:0:
215,113,133026,1,0,0:0:0:0:
215,113,133130,1,0,0:0:0:0:
215,113,133234,1,8,0:0:0:0:
215,113,133338,1,8,0:0:0:0:
215,113,133442,1,8,0:0:0:0:
215,113,133546,1,8,0:0:0:0:
215,113,133651,1,4,0:0:0:0:
258,161,134067,1,12,0:0:0:0:
269,161,134276,1,0,0:0:0:0:
269,161,134380,1,0,0:0:0:0:
269,161,134484,1,8,0:0:0:0:
269,161,134588,1,0,0:0:0:0:
269,161,134692,1,0,0:0:0:0:
275,161,134901,1,8,0:0:0:0:
275,161,135109,1,0,0:0:0:0:
275,161,135317,1,8,0:0:0:0:
275,161,135421,1,0,0:0:0:0:
275,161,135630,1,0,0:0:0:0:
275,161,135734,1,8,0:0:0:0:
275,161,135942,1,0,0:0:0:0:
275,161,136151,1,8,0:0:0:0:
275,161,136359,1,0,0:0:0:0:
275,161,136463,1,0,0:0:0:0:
275,161,136567,1,0,0:0:0:0:
275,161,136776,1,0,0:0:0:0:
300,143,136984,1,8,0:0:0:0:
300,143,137192,1,8,0:0:0:0:
300,143,137296,1,8,0:0:0:0:
300,143,137401,1,0,0:0:0:0:
300,143,137609,1,0,0:0:0:0:
300,143,137713,1,0,0:0:0:0:
300,143,137817,1,8,0:0:0:0:
219,98,137921,1,8,0:0:0:0:
317,143,138026,1,0,0:0:0:0:
315,136,138234,1,8,0:0:0:0:
315,136,138442,1,8,0:0:0:0:
315,136,138651,1,0,0:0:0:0:
315,136,138755,1,0,0:0:0:0:
315,136,138859,1,0,0:0:0:0:
315,136,138963,1,0,0:0:0:0:
315,136,139067,1,8,0:0:0:0:
315,136,139276,1,0,0:0:0:0:
315,136,139484,1,8,0:0:0:0:
328,110,139588,1,0,0:0:0:0:
324,117,139796,1,8,0:0:0:0:
243,96,139901,1,0,0:0:0:0:
247,99,140109,1,0,0:0:0:0:
247,99,140317,1,12,0:0:0:0:
201,131,140734,1,8,0:0:0:0:
201,110,140942,1,0,0:0:0:0:
201,110,141046,1,0,0:0:0:0:
201,110,141151,1,8,0:0:0:0:
201,110,141255,1,8,0:0:0:0:
201,110,141359,1,0,0:0:0:0:
201,110,141567,1,0,0:0:0:0:
201,110,141776,1,8,0:0:0:0:
201,110,141880,1,0,0:0:0:0:
201,110,141984,1,8,0:0:0:0:
201,110,142192,1,0,0:0:0:0:
201,110,142401,1,8,0:0:0:0:
201,110,142505,1,8,0:0:0:0:
201,110,142609,1,0,0:0:0:0:
201,110,142713,1,0,0:0:0:0:
201,110,142817,1,8,0:0:0:0:
201,110,143026,1,0,0:0:0:0:
201,110,143130,1,8,0:0:0:0:
201,110,143234,1,0,0:0:0:0:
201,110,143442,1,0,0:0:0:0:
201,110,143651,1,12,0:0:0:0:
201,109,144067,1,8,0:0:0:0:
201,109,144276,1,0,0:0:0:0:
201,109,144484,1,12,0:0:0:0:
201,109,144692,1,8,0:0:0:0:
201,109,144796,1,0,0:0:0:0:
201,109,145005,1,0,0:0:0:0:
201,109,145109,1,8,0:0:0:0:
201,109,145213,1,8,0:0:0:0:
201,109,145317,1,4,0:0:0:0:
200,114,145526,1,0,0:0:0:0:
200,114,145630,1,8,0:0:0:0:
200,114,145734,1,0,0:0:0:0:
200,114,145838,1,0,0:0:0:0:
200,114,145942,1,8,0:0:0:0:
200,114,146046,1,8,0:0:0:0:
200,114,146151,1,0,0:0:0:0:
200,114,146255,1,0,0:0:0:0:
200,114,146359,1,0,0:0:0:0:
200,114,146463,1,0,0:0:0:0:
200,114,146567,1,8,0:0:0:0:
200,114,146671,1,0,0:0:0:0:
200,114,146776,1,8,0:0:0:0:
200,114,146880,1,8,0:0:0:0:
200,114,146984,1,0,0:0:0:0:
256,187,147817,1,0,0:0:0:0:
256,187,148651,1,12,0:0:0:0:
256,187,148963,1,12,0:0:0:0:
256,187,149276,1,12,0:0:0:0:
256,187,149484,1,12,0:0:0:0:
256,187,149692,1,0,0:0:0:0:
256,187,149796,1,0,0:0:0:0:
256,187,149901,1,8,0:0:0:0:
256,187,150005,1,0,0:0:0:0:
256,187,150109,1,0,0:0:0:0:
256,187,150213,1,0,0:0:0:0:
256,187,150317,1,8,0:0:0:0:
256,187,150526,1,8,0:0:0:0:
256,187,150734,1,8,0:0:0:0:
256,187,150942,1,8,0:0:0:0:
256,187,151151,1,0,0:0:0:0:
256,187,151255,1,0,0:0:0:0:
256,187,151359,1,0,0:0:0:0:
256,187,151463,1,0,0:0:0:0:
258,176,151567,1,8,0:0:0:0:
254,174,151637,1,8,0:0:0:0:
253,172,151706,1,8,0:0:0:0:
253,172,151776,1,0,0:0:0:0:
264,183,151880,1,0,0:0:0:0:
263,172,151984,1,8,0:0:0:0:
233,128,152192,1,0,0:0:0:0:
248,194,152296,1,8,0:0:0:0:
248,194,152505,1,0,0:0:0:0:
248,194,152609,1,8,0:0:0:0:
219,192,152817,1,8,0:0:0:0:
219,192,153026,1,0,0:0:0:0:
219,192,153130,1,8,0:0:0:0:
215,146,153338,5,0,0:0:0:0:
215,146,153442,1,8,0:0:0:0:
223,102,153651,1,8,0:0:0:0:
223,102,153755,1,8,0:0:0:0:
223,102,153963,1,8,0:0:0:0:
223,102,154067,1,8,0:0:0:0:
224,116,154276,1,0,0:0:0:0:
219,150,154484,1,8,0:0:0:0:
219,150,154692,1,8,0:0:0:0:
219,150,154796,1,8,0:0:0:0:
219,150,154901,1,8,0:0:0:0:
219,150,155109,1,0,0:0:0:0:
258,146,155213,1,8,0:0:0:0:
217,155,155317,1,0,0:0:0:0:
217,155,155526,1,0,0:0:0:0:
217,155,155734,1,8,0:0:0:0:
269,151,155838,1,0,0:0:0:0:
269,151,156046,1,0,0:0:0:0:
269,151,156151,1,8,0:0:0:0:
269,151,156359,1,0,0:0:0:0:
269,151,156463,1,0,0:0:0:0:
269,151,156567,1,8,0:0:0:0:
269,151,156776,1,0,0:0:0:0:
269,151,156880,1,8,0:0:0:0:
236,145,156984,1,0,0:0:0:0:
236,147,157296,1,8,0:0:0:0:
236,147,157401,1,0,0:0:0:0:
236,147,157609,1,8,0:0:0:0:
205,131,157817,1,0,0:0:0:0:
205,131,157921,1,0,0:0:0:0:
205,131,158026,1,0,0:0:0:0:
205,131,158130,1,0,0:0:0:0:
205,131,158234,1,8,0:0:0:0:
205,131,158442,1,0,0:0:0:0:
205,131,158651,1,12,0:0:0:0:
252,145,158859,1,0,0:0:0:0:
265,112,158963,1,8,0:0:0:0:
265,112,159067,1,0,0:0:0:0:
195,91,159171,1,0,0:0:0:0:
265,112,159276,1,8,0:0:0:0:
265,112,159380,1,8,0:0:0:0:
266,128,159484,1,0,0:0:0:0:
263,135,159692,1,0,0:0:0:0:
263,135,159796,1,0,0:0:0:0:
263,135,159901,1,8,0:0:0:0:
263,135,160109,1,8,0:0:0:0:
260,141,160317,1,8,0:0:0:0:
260,141,160421,1,8,0:0:0:0:
260,141,160526,1,0,0:0:0:0:
260,141,160630,1,0,0:0:0:0:
280,120,160734,1,8,0:0:0:0:
278,144,160942,1,0,0:0:0:0:
174,58,161012,1,8,0:0:0:0:
278,144,161081,1,8,0:0:0:0:
290,116,161151,1,0,0:0:0:0:
290,116,161359,1,8,0:0:0:0:
280,128,161567,1,0,0:0:0:0:
280,128,161671,1,0,0:0:0:0:
280,128,161776,1,0,0:0:0:0:
280,128,161880,1,0,0:0:0:0:
280,128,161984,1,12,0:0:0:0:
257,113,162296,1,0,0:0:0:0:
257,113,162401,1,0,0:0:0:0:
252,115,162609,1,8,0:0:0:0:
252,115,162817,1,0,0:0:0:0:
252,115,163026,1,8,0:0:0:0:
252,115,163130,1,8,0:0:0:0:
252,115,163234,1,8,0:0:0:0:
224,132,163442,1,8,0:0:0:0:
224,132,163651,1,4,0:0:0:0:
198,140,163859,1,0,0:0:0:0:
198,140,163963,1,0,0:0:0:0:
198,140,164067,1,8,0:0:0:0:
198,140,164171,1,0,0:0:0:0:
198,140,164276,1,8,0:0:0:0:
198,140,164380,1,8,0:0:0:0:
198,140,164484,1,0,0:0:0:0:
198,140,164588,1,0,0:0:0:0:
199,134,164692,1,0,0:0:0:0:
199,134,164796,1,0,0:0:0:0:
199,134,164901,1,8,0:0:0:0:
199,134,165005,1,8,0:0:0:0:
199,134,165109,1,8,0:0:0:0:
199,134,165213,1,8,0:0:0:0:
199,134,165317,1,4,0:0:0:0:
220,152,165526,1,0,0:0:0:0:
211,150,165630,1,8,0:0:0:0:
213,145,165734,1,8,0:0:0:0:
213,142,165838,1,8,0:0:0:0:
213,145,165942,1,0,0:0:0:0:
216,108,166151,1,8,0:0:0:0:
258,136,166220,1,8,0:0:0:0:
258,136,166289,1,8,0:0:0:0:
258,136,166359,1,0,0:0:0:0:
280,147,166463,1,0,0:0:0:0:
280,146,166567,1,8,0:0:0:0:
280,147,166671,1,8,0:0:0:0:
280,146,166776,1,8,0:0:0:0:
280,147,166880,1,8,0:0:0:0:
287,108,166984,1,0,0:0:0:0:
287,108,167192,1,8,0:0:0:0:
287,108,167296,1,0,0:0:0:0:
287,108,167401,1,8,0:0:0:0:
287,108,167609,1,0,0:0:0:0:
287,108,167713,1,8,0:0:0:0:
287,108,167817,1,8,0:0:0:0:
275,123,168026,1,0,0:0:0:0:
264,124,168234,1,8,0:0:0:0:
264,124,168442,1,8,0:0:0:0:
264,118,168651,1,0,0:0:0:0:
298,134,168755,1,0,0:0:0:0:
298,134,168859,1,8,0:0:0:0:
289,129,168963,1,8,0:0:0:0:
247,126,169067,1,0,0:0:0:0:
247,126,169171,1,8,0:0:0:0:
247,126,169276,1,8,0:0:0:0:
247,126,169380,1,8,0:0:0:0:
247,126,169484,1,0,0:0:0:0:
247,126,169692,1,8,0:0:0:0:
216,121,169796,1,8,0:0:0:0:
216,121,169901,1,0,0:0:0:0:
216,121,170005,1,0,0:0:0:0:
216,121,170109,1,0,0:0:0:0:
216,121,170213,1,0,0:0:0:0:
216,121,170317,1,8,0:0:0:0:
225,119,170421,1,0,0:0:0:0:
216,121,170526,1,8,0:0:0:0:
216,121,170630,1,8,0:0:0:0:
216,121,170734,1,0,0:0:0:0:
216,121,170838,1,0,0:0:0:0:
216,121,170942,1,8,0:0:0:0:
216,121,171046,1,8,0:0:0:0:
216,121,171151,1,0,0:0:0:0:
216,121,171359,1,0,0:0:0:0:
216,121,171428,1,8,0:0:0:0:
228,148,171498,1,8,0:0:0:0:
216,121,171567,1,0,0:0:0:0:
216,121,171776,1,0,0:0:0:0:
216,121,171880,1,0,0:0:0:0:
216,121,171984,1,8,0:0:0:0:
216,121,172088,1,8,0:0:0:0:
216,121,172192,1,0,0:0:0:0:
216,121,172401,1,8,0:0:0:0:
216,121,172505,1,8,0:0:0:0:
216,121,172609,1,0,0:0:0:0:
248,79,172817,1,8,0:0:0:0:
248,79,172921,1,8,0:0:0:0:
248,79,173026,1,0,0:0:0:0:
290,84,173095,1,0,0:0:0:0:
233,77,173164,1,0,0:0:0:0:
233,77,173234,1,8,0:0:0:0:
267,110,173442,1,0,0:0:0:0:
267,110,173546,1,0,0:0:0:0:
267,110,173651,1,8,0:0:0:0:
253,108,173755,1,0,0:0:0:0:
267,110,173859,1,8,0:0:0:0:
249,120,174067,1,0,0:0:0:0:
249,120,174276,1,8,0:0:0:0:
249,120,174380,1,8,0:0:0:0:
249,120,174484,1,0,0:0:0:0:
249,120,174588,1,8,0:0:0:0:
249,120,174692,1,0,0:0:0:0:
249,120,174796,1,8,0:0:0:0:
249,120,174901,1,0,0:0:0:0:
249,120,175005,1,0,0:0:0:0:
249,120,175109,1,8,0:0:0:0:
249,120,175213,1,8,0:0:0:0:
258,123,175317,1,0,0:0:0:0:
229,122,175526,1,0,0:0:0:0:
229,122,175630,1,0,0:0:0:0:
229,122,175734,1,8,0:0:0:0:
229,122,175942,1,0,0:0:0:0:
229,122,176046,1,8,0:0:0:0:
229,122,176151,1,8,0:0:0:0:
224,126,176255,1,8,0:0:0:0:
224,126,176359,1,0,0:0:0:0:
224,126,176567,1,8,0:0:0:0:
224,126,176671,1,0,0:0:0:0:
224,126,176776,1,8,0:0:0:0:
224,126,176880,1,8,0:0:0:0:
224,126,176984,1,0,0:0:0:0:
224,126,177088,1,8,0:0:0:0:
230,113,177192,1,0,0:0:0:0:
230,112,177296,1,0,0:0:0:0:
230,113,177401,1,8,0:0:0:0:
230,113,177609,1,8,0:0:0:0:
230,113,177713,1,8,0:0:0:0:
230,113,177817,1,0,0:0:0:0:
230,113,177921,1,8,0:0:0:0:
230,113,178026,1,0,0:0:0:0:
230,113,178130,1,0,0:0:0:0:
230,113,178234,1,8,0:0:0:0:
230,113,178338,1,8,0:0:0:0:
230,113,178442,1,8,0:0:0:0:
230,113,178546,1,8,0:0:0:0:
230,113,178651,1,4,0:0:0:0:
219,129,179067,1,8,0:0:0:0:
219,129,179276,1,0,0:0:0:0:
219,129,179380,1,0,0:0:0:0:
219,129,179484,1,8,0:0:0:0:
219,129,179692,1,0,0:0:0:0:
219,129,179901,1,8,0:0:0:0:
219,129,180109,1,8,0:0:0:0:
219,129,180317,1,4,0:0:0:0:
264,138,180734,1,8,0:0:0:0:
264,138,180942,1,0,0:0:0:0:
264,138,181151,1,12,0:0:0:0:
264,138,181359,1,0,0:0:0:0:
204,125,181463,1,0,0:0:0:0:
264,138,181567,1,8,0:0:0:0:
264,138,181776,1,8,0:0:0:0:
264,138,181984,1,4,0:0:0:0:
245,143,182401,1,8,0:0:0:0:
245,143,182609,1,0,0:0:0:0:
245,143,182817,1,8,0:0:0:0:
237,127,182921,1,8,0:0:0:0:
237,127,183026,1,0,0:0:0:0:
237,127,183130,1,0,0:0:0:0:
237,127,183234,1,8,0:0:0:0:
241,124,183442,1,0,0:0:0:0:
237,129,183651,1,12,0:0:0:0:
237,130,183963,1,8,0:0:0:0:
237,130,184067,1,0,0:0:0:0:
237,130,184276,1,0,0:0:0:0:
237,130,184484,1,12,0:0:0:0:
254,166,184796,1,8,0:0:0:0:
254,166,184901,1,0,0:0:0:0:
254,166,185109,1,0,0:0:0:0:
254,166,185317,1,12,0:0:0:0:
247,138,185734,1,0,0:0:0:0:
247,138,185942,1,0,0:0:0:0:
247,138,186046,1,0,0:0:0:0:
249,144,186151,1,8,0:0:0:0:
247,153,186359,1,8,0:0:0:0:
240,150,186567,1,0,0:0:0:0:
240,150,186671,1,0,0:0:0:0:
240,150,186776,1,8,0:0:0:0:
240,150,186880,1,8,0:0:0:0:
240,150,186984,1,0,0:0:0:0:
249,150,187296,1,0,0:0:0:0:
249,150,187401,1,8,0:0:0:0:
249,150,187609,1,8,0:0:0:0:
249,150,187817,1,0,0:0:0:0:
249,150,187921,1,0,0:0:0:0:
249,150,188026,1,0,0:0:0:0:
249,150,188130,1,0,0:0:0:0:
249,150,188234,1,8,0:0:0:0:
249,150,188338,1,8,0:0:0:0:
249,150,188442,1,8,0:0:0:0:
249,150,188546,1,8,0:0:0:0:
249,150,188651,1,0,0:0:0:0:
249,147,189067,1,8,0:0:0:0:
247,124,189276,1,0,0:0:0:0:
247,128,189484,1,0,0:0:0:0:
239,149,189692,1,8,0:0:0:0:
239,149,189796,1,0,0:0:0:0:
239,149,189901,1,8,0:0:0:0:
239,149,190109,1,0,0:0:0:0:
239,149,190317,1,8,0:0:0:0:
239,145,190630,1,8,0:0:0:0:
239,145,190734,1,0,0:0:0:0:
239,145,190942,1,8,0:0:0:0:
239,145,191151,1,0,0:0:0:0:
239,145,191255,1,8,0:0:0:0:
239,145,191463,1,8,0:0:0:0:
251,142,191567,1,0,0:0:0:0:
261,147,191776,1,0,0:0:0:0:
261,147,191984,1,12,0:0:0:0:
233,123,192401,1,0,0:0:0:0:
239,149,192609,1,8,0:0:0:0:
239,161,192817,1,0,0:0:0:0:
239,161,193130,1,8,0:0:0:0:
260,150,193234,5,0,0:0:0:0:
259,155,193442,1,0,0:0:0:0:
278,132,193651,1,8,0:0:0:0:
273,128,193755,1,8,0:0:0:0:
269,127,193859,1,0,0:0:0:0:
266,127,193963,1,0,0:0:0:0:
264,131,194067,1,8,0:0:0:0:
275,104,194276,1,8,0:0:0:0:
275,104,194380,1,8,0:0:0:0:
275,104,194484,1,0,0:0:0:0:
275,104,194588,1,8,0:0:0:0:
275,104,194692,1,0,0:0:0:0:
275,104,194796,1,0,0:0:0:0:
275,104,194901,1,8,0:0:0:0:
263,136,195005,1,8,0:0:0:0:
263,136,195109,1,0,0:0:0:0:
263,136,195213,1,0,0:0:0:0:
263,136,195317,1,12,0:0:0:0:
262,126,195630,1,0,0:0:0:0:
262,126,195734,1,8,0:0:0:0:
262,126,195942,1,0,0:0:0:0:
262,126,196255,1,0,0:0:0:0:
262,126,196359,1,0,0:0:0:0:
262,126,196567,1,8,0:0:0:0:
262,126,196776,1,0,0:0:0:0:
262,126,196984,1,12,0:0:0:0:
262,121,197296,1,12,0:0:0:0:
262,121,197609,1,12,0:0:0:0:
262,121,197921,1,12,0:0:0:0:
275,102,198234,1,8,0:0:0:0:
274,95,198303,1,8,0:0:0:0:
275,95,198373,1,8,0:0:0:0:
275,95,198442,1,8,0:0:0:0:
274,95,198512,1,8,0:0:0:0:
275,95,198581,1,8,0:0:0:0:
237,138,200317,1,0,0:0:0:0:
262,150,201151,1,8,0:0:0:0:
262,150,201984,1,8,0:0:0:0:
262,150,202401,1,8,0:0:0:0:
262,150,202817,1,0,0:0:0:0:
262,150,203651,1,0,0:0:0:0:
262,150,204484,1,8,0:0:0:0:
256,126,204901,1,0,0:0:0:0:
262,150,205317,1,8,0:0:0:0:
262,150,205734,1,8,0:0:0:0:
262,150,206151,1,0,0:0:0:0:
273,165,206567,5,0,0:0:0:0:
157,185,206776,1,0,0:0:0:0:
273,165,206984,1,12,0:0:0:0:
324,123,207192,1,0,0:0:0:0:
333,176,207609,1,0,0:0:0:0:
333,176,207817,1,8,0:0:0:0:
263,153,208026,1,0,0:0:0:0:
332,174,208442,1,0,0:0:0:0:
332,174,208651,1,8,0:0:0:0:
331,174,209067,1,8,0:0:0:0:
331,174,209276,1,0,0:0:0:0:
331,174,209484,1,8,0:0:0:0:
252,125,209901,5,0,0:0:0:0:
252,125,210109,1,0,0:0:0:0:
252,125,210317,1,12,0:0:0:0:
252,125,211151,1,12,0:0:0:0:
252,125,211984,1,12,0:0:0:0:
252,125,212192,1,0,0:0:0:0:
252,125,212401,1,0,0:0:0:0:
252,125,212609,1,0,0:0:0:0:
252,125,212817,1,0,0:0:0:0:
252,125,213026,1,0,0:0:0:0:
252,125,213234,1,0,0:0:0:0:
215,131,213338,1,0,0:0:0:0:
215,131,213442,1,0,0:0:0:0:
215,131,213546,1,0,0:0:0:0:
215,131,213651,1,12,0:0:0:0:
214,128,214067,1,8,0:0:0:0:
214,128,214484,1,12,0:0:0:0:
247,172,214901,1,8,0:0:0:0:
246,165,215317,1,8,0:0:0:0:
258,163,215387,1,8,0:0:0:0:
257,163,215456,1,8,0:0:0:0:
257,163,215526,1,8,0:0:0:0:
258,163,215595,1,8,0:0:0:0:
257,163,215664,1,8,0:0:0:0:
260,165,215734,1,0,0:0:0:0:
260,165,215838,1,0,0:0:0:0:
260,165,215942,1,0,0:0:0:0:
260,165,216046,1,0,0:0:0:0:
272,164,216151,1,8,0:0:0:0:
270,160,216220,1,8,0:0:0:0:
272,164,216289,1,8,0:0:0:0:
272,164,216359,1,0,0:0:0:0:
284,154,216463,1,0,0:0:0:0:
281,160,216567,1,8,0:0:0:0:
248,110,216637,1,8,0:0:0:0:
281,160,216706,1,8,0:0:0:0:
272,149,216776,1,0,0:0:0:0:
272,149,216880,1,0,0:0:0:0:
240,182,217401,1,12,0:0:0:0:
247,155,217609,1,0,0:0:0:0:
247,155,217713,1,0,0:0:0:0:
247,155,217817,1,8,0:0:0:0:
247,155,218026,1,0,0:0:0:0:
247,155,218234,1,8,0:0:0:0:
247,155,218338,1,8,0:0:0:0:
247,155,218442,1,0,0:0:0:0:
247,155,218546,1,0,0:0:0:0:
260,150,218651,1,8,0:0:0:0:
292,187,218859,1,0,0:0:0:0:
292,187,219067,1,8,0:0:0:0:
292,187,219171,1,0,0:0:0:0:
292,187,219380,1,0,0:0:0:0:
287,184,219484,1,8,0:0:0:0:
287,184,219588,1,8,0:0:0:0:
287,184,219692,1,0,0:0:0:0:
287,184,219901,1,0,0:0:0:0:
287,184,220005,1,0,0:0:0:0:
287,184,220109,1,0,0:0:0:0:
281,196,220213,1,0,0:0:0:0:
306,168,220317,1,8,0:0:0:0:
320,197,220526,1,0,0:0:0:0:
314,199,220630,1,8,0:0:0:0:
314,199,220734,1,0,0:0:0:0:
299,184,220942,1,0,0:0:0:0:
299,184,221151,1,8,0:0:0:0:
287,199,221359,1,0,0:0:0:0:
287,199,221567,1,8,0:0:0:0:
287,199,221671,1,8,0:0:0:0:
287,199,221776,1,8,0:0:0:0:
287,199,221880,1,8,0:0:0:0:
287,199,221984,1,0,0:0:0:0:
287,199,222192,1,0,0:0:0:0:
287,199,222401,1,8,0:0:0:0:
287,199,222505,1,0,0:0:0:0:
287,199,222713,1,8,0:0:0:0:
287,199,222817,1,0,0:0:0:0:
247,155,222921,1,0,0:0:0:0:
287,199,223026,1,8,0:0:0:0:
252,165,223234,1,0,0:0:0:0:
252,170,223442,1,0,0:0:0:0:
265,162,223651,1,12,0:0:0:0:
311,173,223859,1,0,0:0:0:0:
311,173,223963,1,0,0:0:0:0:
311,173,224067,1,0,0:0:0:0:
311,173,224276,1,8,0:0:0:0:
311,173,224380,1,0,0:0:0:0:
311,173,224484,1,8,0:0:0:0:
311,173,224692,1,0,0:0:0:0:
309,156,224901,1,8,0:0:0:0:
309,156,225005,1,8,0:0:0:0:
309,156,225109,1,0,0:0:0:0:
309,156,225213,1,0,0:0:0:0:
309,156,225317,1,8,0:0:0:0:
309,168,225526,1,0,0:0:0:0:
309,168,225734,1,0,0:0:0:0:
212,70,225838,1,8,0:0:0:0:
309,168,225942,1,0,0:0:0:0:
309,168,226046,1,0,0:0:0:0:
309,168,226151,1,8,0:0:0:0:
306,136,226359,1,0,0:0:0:0:
306,136,226567,1,8,0:0:0:0:
306,136,226671,1,8,0:0:0:0:
306,136,226776,1,8,0:0:0:0:
306,136,226880,1,8,0:0:0:0:
306,136,226984,1,4,0:0:0:0:
320,161,227192,1,0,0:0:0:0:
259,131,227296,1,0,0:0:0:0:
320,161,227401,1,8,0:0:0:0:
216,116,227505,1,0,0:0:0:0:
221,99,227609,1,0,0:0:0:0:
221,99,227817,1,8,0:0:0:0:
221,99,228026,1,8,0:0:0:0:
221,99,228130,1,0,0:0:0:0:
270,117,228338,1,0,0:0:0:0:
270,117,228442,1,8,0:0:0:0:
270,117,228546,1,8,0:0:0:0:
270,117,228651,1,4,0:0:0:0:
270,117,228859,1,0,0:0:0:0:
270,117,228963,1,8,0:0:0:0:
270,117,229067,1,0,0:0:0:0:
270,117,229171,1,0,0:0:0:0:
260,111,229276,1,8,0:0:0:0:
260,113,229380,1,0,0:0:0:0:
260,111,229484,1,8,0:0:0:0:
260,113,229588,1,8,0:0:0:0:
260,111,229692,1,0,0:0:0:0:
260,113,229796,1,0,0:0:0:0:
260,111,229901,1,8,0:0:0:0:
248,110,230005,1,8,0:0:0:0:
248,110,230109,1,8,0:0:0:0:
248,110,230213,1,8,0:0:0:0:
265,131,230317,1,4,0:0:0:0:
310,156,230526,1,0,0:0:0:0:
309,145,230630,1,8,0:0:0:0:
303,135,230734,1,0,0:0:0:0:
303,135,230942,1,0,0:0:0:0:
299,139,231046,1,0,0:0:0:0:
303,135,231151,1,8,0:0:0:0:
304,138,231255,1,8,0:0:0:0:
303,135,231359,1,0,0:0:0:0:
313,120,231567,1,0,0:0:0:0:
313,120,231776,1,8,0:0:0:0:
313,120,231880,1,0,0:0:0:0:
313,120,231984,1,8,0:0:0:0:
313,120,232192,1,0,0:0:0:0:
313,120,232401,1,8,0:0:0:0:
313,120,232505,1,8,0:0:0:0:
313,120,232609,1,0,0:0:0:0:
313,120,232713,1,0,0:0:0:0:
313,120,232817,1,8,0:0:0:0:
304,120,233026,1,0,0:0:0:0:
304,120,233130,1,8,0:0:0:0:
304,120,233234,1,0,0:0:0:0:
304,120,233442,1,0,0:0:0:0:
304,120,233651,1,8,0:0:0:0:
304,120,233755,1,0,0:0:0:0:
304,120,233963,1,0,0:0:0:0:
304,120,234067,1,8,0:0:0:0:
276,114,234276,1,0,0:0:0:0:
332,107,234484,1,8,0:0:0:0:
332,107,234588,1,8,0:0:0:0:
332,107,234692,1,0,0:0:0:0:
332,107,234796,1,0,0:0:0:0:
323,112,234901,1,8,0:0:0:0:
302,102,235109,1,8,0:0:0:0:
304,110,235317,1,0,0:0:0:0:
304,110,235421,1,8,0:0:0:0:
296,107,235630,1,0,0:0:0:0:
296,107,235734,1,8,0:0:0:0:
296,107,235942,1,8,0:0:0:0:
278,97,236046,1,0,0:0:0:0:
278,97,236151,1,0,0:0:0:0:
278,97,236255,1,8,0:0:0:0:
295,102,236463,1,8,0:0:0:0:
295,102,236567,1,0,0:0:0:0:
295,102,236776,1,0,0:0:0:0:
295,102,236984,1,12,0:0:0:0:
279,100,237192,1,0,0:0:0:0:
279,100,237296,1,8,0:0:0:0:
279,100,237401,1,0,0:0:0:0:
280,142,237609,1,0,0:0:0:0:
280,142,237713,1,0,0:0:0:0:
280,142,237817,1,8,0:0:0:0:
280,142,238026,1,0,0:0:0:0:
273,138,238234,1,8,0:0:0:0:
274,138,238338,1,8,0:0:0:0:
273,138,238442,1,0,0:0:0:0:
274,138,238546,1,0,0:0:0:0:
292,126,238651,1,8,0:0:0:0:
292,126,238859,1,0,0:0:0:0:
292,126,239067,1,8,0:0:0:0:
278,112,239171,1,0,0:0:0:0:
274,107,239380,1,0,0:0:0:0:
273,106,239484,1,8,0:0:0:0:
273,106,239692,1,0,0:0:0:0:
273,106,239901,1,0,0:0:0:0:
273,106,240005,1,8,0:0:0:0:
273,106,240109,1,8,0:0:0:0:
273,106,240213,1,8,0:0:0:0:
265,98,240317,1,4,0:0:0:0:
337,125,240526,1,0,0:0:0:0:
337,125,240734,1,8,0:0:0:0:
337,125,240942,1,0,0:0:0:0:
337,125,241151,1,12,0:0:0:0:
284,91,241359,1,8,0:0:0:0:
284,91,241463,1,0,0:0:0:0:
284,91,241671,1,0,0:0:0:0:
284,91,241776,1,8,0:0:0:0:
284,91,241880,1,8,0:0:0:0:
284,91,241984,1,4,0:0:0:0:
284,91,242192,1,0,0:0:0:0:
284,91,242296,1,8,0:0:0:0:
284,91,242401,1,0,0:0:0:0:
284,91,242505,1,0,0:0:0:0:
284,91,242609,1,8,0:0:0:0:
284,91,242713,1,0,0:0:0:0:
284,91,242817,1,8,0:0:0:0:
284,91,242921,1,8,0:0:0:0:
284,91,243026,1,0,0:0:0:0:
284,91,243130,1,0,0:0:0:0:
284,91,243234,1,8,0:0:0:0:
284,91,243338,1,0,0:0:0:0:
284,91,243442,1,8,0:0:0:0:
284,91,243546,1,8,0:0:0:0:
247,75,243651,1,0,0:0:0:0:
247,110,244276,1,0,0:0:0:0:
297,138,244484,1,8,0:0:0:0:
226,116,245109,1,0,0:0:0:0:
298,138,245317,1,8,0:0:0:0:
193,142,245734,1,8,0:0:0:0:
293,135,246151,1,8,0:0:0:0:
292,134,246567,1,0,0:0:0:0:
299,123,246776,1,0,0:0:0:0:
299,123,246984,1,8,0:0:0:0:
299,121,247609,1,0,0:0:0:0:
299,121,247817,1,8,0:0:0:0:
299,121,248234,1,8,0:0:0:0:
299,121,248651,1,0,0:0:0:0:
299,121,249067,1,8,0:0:0:0:
299,121,249484,1,8,0:0:0:0:
299,120,249901,1,0,0:0:0:0:
299,120,250109,1,0,0:0:0:0:
299,120,250317,1,8,0:0:0:0:
299,120,250942,1,0,0:0:0:0:
299,120,251151,1,8,0:0:0:0:
299,120,251776,1,0,0:0:0:0:
299,120,251984,1,8,0:0:0:0:
299,120,252401,1,8,0:0:0:0:
299,120,252817,1,8,0:0:0:0:
299,120,253234,1,0,0:0:0:0:
299,120,253442,1,0,0:0:0:0:
299,120,253651,1,8,0:0:0:0:
299,119,254067,1,8,0:0:0:0:
299,119,254484,1,8,0:0:0:0:
299,119,254692,1,8,0:0:0:0:
299,119,254796,1,0,0:0:0:0:
292,123,255109,1,0,0:0:0:0:
262,108,255317,1,8,0:0:0:0:
247,106,255630,1,8,0:0:0:0:
247,106,255942,1,8,0:0:0:0:
247,106,256151,1,0,0:0:0:0:
256,192,256359,12,0,260317,0:0:0:0:
