osu file format v14

[General]
AudioFilename: The Story of Eternity.mp3
AudioLeadIn: 0
PreviewTime: 51565
Countdown: 0
SampleSet: Soft
StackLeniency: 0.7
Mode: 0
LetterboxInBreaks: 1
WidescreenStoryboard: 1

[Editor]
Bookmarks: 1990,18656,31990,51990,80323,100323,120323,151990,165323,178656,200323,216990,230323
DistanceSpacing: 1.3
BeatDivisor: 4
GridSize: 4
TimelineZoom: 1.5

[Metadata]
Title:Ikuseisou no Monogatari ~The Story of Eternity~
TitleUnicode:幾星霜の物語 ~The Story of Eternity~
Artist:Xceon feat. Mayumi Morinaga
ArtistUnicode:Xceon feat. Mayumi Morinaga
Creator:Seikatu
Version:Collab Hard
Source:
Tags:ayataka starving trancer iceon yusuke ceo senya moimoi ticclick kyubey
BeatmapID:943221
BeatmapSetID:306782

[Difficulty]
HPDrainRate:4
CircleSize:3.8
OverallDifficulty:5.5
ApproachRate:6.6
SliderMultiplier:1.1
SliderTickRate:1

[Events]
//Background and Video events
0,0,"bg000234.jpg",0,0
//Break Periods
2,80515,85323
2,200515,206022
//Storyboard Layer 0 (Background)
Sprite,Background,Centre,"sb\seikatu.png",320,240 M,0,0,,0,0,144,394 S,0,0,,0.5 F,0,1990,2390,0,1 F,0,18256,18656,1,0 F,0,31990,32390,0,1 F,0,51590,51990,1,0 F,0,86990,87390,0,1 F,0,99923,100323,1,0 F,0,120323,120723,0,1 F,0,151590,151990,1,0 F,0,165323,165723,0,1 F,0,178256,178656,1,0 F,0,206990,207390,0,1 F,0,216590,216990,1,0 F,0,230323,230723,0,1 F,0,259923,260323,1,0
Sprite,Background,Centre,"sb\kyubey.png",320,240 M,0,0,,0,0,506,394 S,0,0,,0.5 F,0,18656,19056,0,1 F,0,31590,31990,1,0 F,0,51990,52390,0,1 F,0,79923,80323,1,0 F,0,100323,100723,0,1 F,0,119923,120323,1,0 F,0,151990,152390,0,1 F,0,164923,165323,1,0 F,0,178656,179056,0,1 F,0,199923,200323,1,0 F,0,216990,217390,0,1 F,0,229923,230323,1,0
//Storyboard Layer 1 (Fail)
//Storyboard Layer 2 (Pass)
//Storyboard Layer 3 (Foreground)
//Storyboard Sound Samples

[TimingPoints]
1982,416.666666666667,4,2,0,35,1,0
8232,-86.9565217391304,4,2,0,45,0,0
18648,-100,4,2,0,45,0,0
31982,-86.9565217391304,4,2,0,55,0,0
48648,-100,4,2,0,35,0,0
50315,-100,4,2,0,45,0,0
51148,-100,4,2,0,35,0,0
51565,-100,4,2,0,50,0,0
51982,-80,4,2,0,60,0,1
78648,-100,4,2,0,35,0,0
86148,-100,4,2,0,45,0,0
100315,-86.9565217391304,4,2,0,55,0,0
104898,-86.9565217391304,4,2,0,50,0,0
105107,-86.9565217391304,4,2,0,55,0,0
116982,-100,4,2,0,35,0,0
118648,-100,4,2,0,45,0,0
119482,-100,4,2,0,35,0,0
119898,-100,4,2,0,50,0,0
120315,-80,4,2,0,60,0,1
146982,-100,4,2,0,35,0,0
148648,-100,4,2,0,55,0,0
151982,-100,4,2,0,45,0,0
178648,-86.9565217391304,4,2,0,55,0,0
195315,-100,4,2,0,35,0,0
196982,-100,4,2,0,45,0,0
200315,-100,4,2,0,35,0,0
206982,-100,4,2,0,45,0,0
216982,-111.111111111111,4,2,0,35,0,0
217398,-80,4,2,0,60,0,1
243648,-100,4,2,0,35,0,0
256252,-100,4,2,0,5,0,0
259482,-100,4,2,0,10,0,0
259586,-100,4,2,0,15,0,0
259690,-100,4,2,0,20,0,0
259794,-100,4,2,0,25,0,0
259898,-100,4,2,0,30,0,0
260002,-100,4,2,0,35,0,0
260107,-100,4,2,0,45,0,0
260211,-100,4,2,0,55,0,0
260315,-100,4,2,0,15,0,0

[Colours]
Combo1 : 120,217,254
Combo2 : 155,255,155
Combo3 : 255,138,208
Combo4 : 200,122,241

[HitObjects]
84,112,1565,6,0,L|144:108,1,55,0|0,0:0|0:0,0:0:0:0:
198,68,1982,2,0,P|240:79|248:187,1,165,2|0,0:0|0:0,0:0:0:0:
198,232,2815,2,0,P|184:266|185:299,1,55,2|0,0:0|0:0,0:0:0:0:
226,340,3232,2,0,P|250:333|287:334,1,55,0|0,0:0|0:0,0:0:0:0:
340,294,3648,6,0,P|378:323|442:330,2,110,2|2|2,0:0|0:0|0:0,0:0:0:0:
394,160,4898,2,0,P|407:128|408:100,1,55,0|0,0:0|0:0,0:0:0:0:
359,55,5315,6,0,P|279:41|223:100,1,165,2|0,0:0|0:0,0:0:0:0:
155,116,6148,2,0,P|163:149|160:178,1,55,2|0,0:0|0:0,0:0:0:0:
213,220,6565,2,0,P|200:253|197:282,1,55,0|0,0:0|0:0,0:0:0:0:
197,344,6982,5,2,0:0:0:0:
287,282,7398,1,2,0:0:0:0:
386,329,7815,1,2,0:0:0:0:
482,279,8232,6,0,P|486:243|481:209,1,63.250001206398,2|0,0:0|0:0,0:0:0:0:
432,156,8648,6,0,P|373:167|326:121,1,126.500002412796,4|0,1:1|0:0,0:0:0:0:
310,47,9273,1,0,0:0:0:0:
237,78,9482,2,0,P|173:86|115:64,1,126.500002412796,0|0,0:0|1:0,0:0:0:0:
40,89,10107,1,0,0:0:0:0:
68,162,10315,6,0,P|68:195|57:234,1,63.250001206398,4|0,1:1|0:0,0:0:0:0:
122,274,10732,2,0,P|126:309|143:341,1,63.250001206398,0|0,0:0|0:0,0:0:0:0:
213,311,11148,2,0,L|340:302,1,126.500002412796,4|4,1:1|1:1,0:0:0:0:
412,331,11773,1,0,0:0:0:0:
465,272,11982,6,0,P|473:232|442:149,1,126.500002412796,4|0,1:1|0:0,0:0:0:0:
374,118,12607,1,0,0:0:0:0:
330,51,12815,2,0,P|293:54|259:69,1,63.250001206398,4|0,1:1|0:0,0:0:0:0:
231,50,13127,2,0,P|200:77|197:136,1,94.8750018095971,0|0,0:0|0:0,0:0:0:0:
145,190,13648,6,0,L|48:203,2,94.8750018095971,4|4|4,1:1|1:1|1:1,0:0:0:0:
223,202,14482,2,0,P|256:229|209:349,1,189.750003619194,4|0,1:1|0:0,0:0:0:0:
150,301,15315,2,0,P|114:283|46:283,1,94.8750018095971,4|0,1:1|0:0,0:0:0:0:
24,261,15732,2,0,P|13:222|17:193,1,63.250001206398,0|0,1:0|1:0,0:0:0:0:
46,127,16148,1,4,1:1:0:0:
121,101,16357,1,4,1:1:0:0:
183,52,16565,2,0,L|178:15,4,31.625000603199,0|0|0|0|4,1:0|1:0|1:0|1:0|1:0,0:0:0:0:
428,184,18648,6,0,P|376:168|312:200,1,110,4|0,0:1|1:0,0:0:0:0:
288,248,19273,1,0,0:0:0:0:
216,252,19482,2,0,P|171:238|128:200,2,82.5,0|0|0,0:0|0:0|0:0,0:0:0:0:
256,312,20315,2,0,P|215:334|157:337,2,82.5,0|0|0,0:0|0:0|0:0,0:0:0:0:
324,332,21148,2,0,P|396:304|492:340,1,165,0|0,0:0|0:0,0:0:0:0:
448,264,21982,6,0,L|440:180,2,82.5,0|0|0,0:0|0:0|0:0,0:0:0:0:
376,252,22815,2,0,L|366:140,1,110,0|0,0:0|1:0,0:0:0:0:
464,48,23648,2,0,P|400:100|316:72,1,165,0|0,0:0|0:0,0:0:0:0:
272,32,24482,2,0,P|228:20|160:40,1,110,0|0,0:0|1:0,0:0:0:0:
104,72,25107,1,0,0:0:0:0:
104,72,25211,1,0,0:0:0:0:
104,72,25315,6,0,P|120:116|104:184,1,110,4|0,0:1|1:0,0:0:0:0:
173,207,25940,1,0,0:0:0:0:
244,196,26148,2,0,L|232:112,2,82.5,0|0|0,0:0|0:0|0:0,0:0:0:0:
312,220,26982,2,0,L|300:301,2,82.5,0|0|0,0:0|0:0|0:0,0:0:0:0:
384,212,27815,2,0,P|440:224|496:200,1,110,0|0,0:0|1:0,0:0:0:0:
508,276,28440,1,0,0:0:0:0:
480,340,28648,6,0,P|440:336|380:344,1,82.5,0|0,0:0|0:0,0:0:0:0:
368,356,29065,2,0,P|335:357|304:352,1,55,0|0,1:0|0:0,0:0:0:0:
244,340,29482,2,0,P|212:296|240:236,1,110,0|0,0:0|1:0,0:0:0:0:
289,210,30107,1,0,0:0:0:0:
350,173,30315,6,0,P|358:129|330:81,1,82.5
308,87,30732,2,0,L|240:103,1,55,0|0,1:0|0:0,0:0:0:0:
180,96,31148,1,0,1:0:0:0:
180,96,31252,1,0,0:0:0:0:
180,96,31357,1,0,1:0:0:0:
144,168,31565,2,0,L|156:208,2,27.5,0|0|0,1:0|1:0|1:0,0:0:0:0:
75,131,31982,6,0,P|46:189|52:253,2,126.500002412796,4|0|0,1:1|1:0|0:0,0:0:0:0:
144,168,33023,1,0,0:0:0:0:
184,100,33232,2,0,L|260:94,1,63.250001206398,4|0,1:2|0:0,0:0:0:0:
321,69,33648,6,0,P|362:93|388:170,1,126.500002412796,4|0,0:2|1:0,0:0:0:0:
352,235,34273,1,0,0:0:0:0:
275,214,34482,2,0,P|243:214|214:223,1,63.250001206398,4|0,0:2|0:0,0:0:0:0:
138,196,34898,2,0,P|115:218|101:245,1,63.250001206398,0|0,1:0|0:0,0:0:0:0:
131,318,35315,6,0,P|188:345|252:337,2,126.500002412796,4|0|0,0:1|1:0|0:0,0:0:0:0:
100,245,36357,1,0,0:0:0:0:
25,220,36565,2,0,L|19:153,1,63.250001206398,4|0,1:2|0:0,0:0:0:0:
47,82,36982,6,0,P|76:64|116:57,1,63.250001206398,4|0,0:2|0:0,0:0:0:0:
129,26,37294,2,0,P|166:39|210:79,1,94.8750018095971
257,137,37815,2,0,L|249:178,2,31.625000603199,4|0|0,0:2|0:0|0:0,0:0:0:0:
316,84,38232,1,0,1:0:0:0:
392,103,38440,1,0,0:0:0:0:
468,81,38648,6,0,P|486:123|487:206,2,126.500002412796,4|0|0,0:1|1:0|0:0,0:0:0:0:
392,103,39690,1,0,0:0:0:0:
316,84,39898,2,0,L|250:81,1,63.250001206398,0|0,1:0|0:0,0:0:0:0:
177,105,40315,6,0,P|157:144|155:197,1,94.8750018095971,0|0,0:0|0:0,0:0:0:0:
171,230,40732,2,0,L|237:227,1,63.250001206398,0|0,1:0|0:0,0:0:0:0:
310,208,41148,2,0,P|345:233|372:319,1,126.500002412796,0|0,0:0|1:0,0:0:0:0:
326,373,41773,1,0,0:0:0:0:
253,341,41982,6,0,L|190:337,1,63.250001206398,0|0,0:0|0:0,0:0:0:0:
117,304,42398,1,0,1:0:0:0:
38,315,42607,1,0,0:0:0:0:
3,243,42815,1,0,0:0:0:0:
60,188,43023,2,0,P|52:157|50:124,2,63.250001206398,0|0|0,0:0|1:0|0:0,0:0:0:0:
129,225,43648,6,0,P|160:195|206:169,2,94.8750018095971,0|0|0,0:0|0:0|0:0,0:0:0:0:
117,304,44482,2,0,P|162:317|196:351,1,94.8750018095971,0|0,0:0|1:0,0:0:0:0:
231,334,44898,2,0,P|266:341|302:335,1,63.250001206398,0|0,1:0|1:0,0:0:0:0:
368,314,45315,6,0,P|386:266|385:187,1,126.500002412796,4|0,0:2|1:0,0:0:0:0:
348,121,45940,1,0,0:0:0:0:
304,55,46148,2,0,L|202:50,1,94.8750018095971,0|0,0:0|0:0,0:0:0:0:
173,67,46565,2,0,P|163:100|170:141,1,63.250001206398,0|0,1:0|0:0,0:0:0:0:
214,190,46982,6,0,P|221:232|161:278,1,126.500002412796,4|0,0:2|1:0,0:0:0:0:
84,253,47607,1,0,0:0:0:0:
37,189,47815,2,0,L|3:191,2,31.625000603199,4|0|4,1:2|0:0|1:2,0:0:0:0:
79,122,48232,1,0,1:0:0:0:
79,122,48336,1,0,1:0:0:0:
79,122,48440,1,0,1:0:0:0:
157,120,48648,6,0,P|198:101|235:100,4,82.5,2|2|2|2|2,0:0|0:0|0:0|0:0|0:0,0:0:0:0:
141,262,50315,2,0,P|177:292|232:295,1,82.5,4|0,1:2|0:0,0:0:0:0:
238,276,50732,2,0,P|269:272|296:260,1,55,0|0,1:0|1:0,0:0:0:0:
332,205,51148,2,0,L|326:169,2,27.5,0|0|0,1:0|1:0|1:0,0:0:0:0:
397,234,51565,2,0,P|433:237|462:229,1,55,0|0,1:0|1:0,0:0:0:0:
508,164,51982,6,0,P|520:112|460:64,1,137.5,4|4,0:1|1:2,0:0:0:0:
376,32,52607,1,2,0:0:0:0:
304,84,52815,2,0,P|244:96|172:64,1,137.5,2|0,0:0|1:0,0:0:0:0:
104,16,53440,1,0,0:0:0:0:
100,104,53648,6,0,P|116:148|104:216,1,103.125,2|0,0:0|0:0,0:0:0:0:
80,236,54065,2,0,P|73:286|89:335,1,103.125,0|0,1:0|0:0,0:0:0:0:
128,356,54482,1,2,0:0:0:0:
304,320,54898,1,0,1:0:0:0:
392,344,55107,1,0,0:0:0:0:
472,304,55315,6,0,P|492:240|464:156,1,137.5,2|0,0:0|1:0,0:0:0:0:
396,132,55940,1,2,0:0:0:0:
384,44,56148,1,2,0:0:0:0:
332,216,56565,1,0,1:0:0:0:
208,88,56982,6,0,P|204:56|216:20,1,68.75,2|0,0:0|0:0,0:0:0:0:
292,68,57398,2,0,P|296:100|284:136,1,68.75,0|0,1:0|0:0,0:0:0:0:
208,176,57815,2,0,P|152:164|60:188,1,137.5,2|0,0:0|1:0,0:0:0:0:
40,264,58440,1,0,1:0:0:0:
84,340,58648,6,0,L|224:328,1,137.5,4|0,0:1|1:0,0:0:0:0:
284,264,59273,1,2,0:0:0:0:
212,212,59482,2,0,P|196:144|220:72,1,137.5,2|0,0:0|1:0,0:0:0:0:
300,48,60107,1,0,0:0:0:0:
380,88,60315,6,0,P|386:133|362:201,1,103.125,2|0,0:0|0:0,0:0:0:0:
348,228,60732,2,0,L|468:216,1,103.125,0|0,1:0|0:0,0:0:0:0:
492,236,61148,1,2,0:0:0:0:
356,352,61565,2,0,L|280:344,1,68.75,0|0,1:0|0:0,0:0:0:0:
200,364,61982,6,0,P|248:336|256:244,1,137.5,4|0,0:1|1:0,0:0:0:0:
100,192,62815,2,0,P|91:158|99:125,1,68.75,2|0,0:0|0:0,0:0:0:0:
136,104,63127,2,0,P|152:64|132:0,1,103.125,2|2,0:0|0:0,0:0:0:0:
228,12,63648,6,0,L|336:28,2,103.125,4|0|4,0:2|0:0|0:2,0:0:0:0:
232,104,64482,2,0,L|212:136,2,34.375,4|0|0,1:2|0:0|1:0,0:0:0:0:
328,120,64898,1,0,1:0:0:0:
328,120,65002,1,0,1:0:0:0:
328,120,65107,1,0,1:0:0:0:
304,208,65315,6,0,P|368:228|432:192,1,137.5,4|4,1:1|1:2,0:0:0:0:
484,268,65940,1,2,0:0:0:0:
472,356,66148,2,0,L|328:332,1,137.5,2|0,0:0|1:0,0:0:0:0:
248,356,66773,1,0,0:0:0:0:
172,308,66982,6,0,P|128:300|68:320,1,103.125,2|0,0:0|0:0,0:0:0:0:
40,284,67398,2,0,P|60:232|44:176,1,103.125,0|0,1:0|0:0,0:0:0:0:
24,152,67815,1,2,0:0:0:0:
140,16,68232,1,0,1:0:0:0:
168,100,68440,1,0,0:0:0:0:
196,184,68648,6,0,P|248:200|328:176,1,137.5,2|0,0:0|1:0,0:0:0:0:
380,108,69273,1,2,0:0:0:0:
468,100,69482,2,0,P|496:160|464:248,1,137.5,2|0,0:0|1:0,0:0:0:0:
308,268,70315,2,0,L|240:254,1,68.75,2|0,0:0|0:0,0:0:0:0:
252,344,70732,2,0,L|332:360,1,68.75,0|0,1:0|0:0,0:0:0:0:
404,332,71148,2,0,P|420:268|390:184,1,137.5,2|0,0:0|1:0,0:0:0:0:
352,124,71773,1,0,1:0:0:0:
424,72,71982,6,0,P|372:88|280:48,1,137.5,4|0,0:1|1:0,0:0:0:0:
208,36,72607,1,2,0:0:0:0:
124,64,72815,2,0,B|96:132|123:165|152:200|124:272,1,206.25,2|0,0:0|0:0,0:0:0:0:
72,336,73648,6,0,P|136:316|196:336,1,103.125,2|0,0:0|0:0,0:0:0:0:
212,344,74065,2,0,P|262:349|310:330,1,103.125,0|0,1:0|0:0,0:0:0:0:
336,292,74482,1,2,0:0:0:0:
500,360,74898,6,0,L|488:292,1,68.75,0|0,1:0|0:0,0:0:0:0:
428,228,75315,2,0,P|408:164|440:92,1,137.5,4|0,0:1|1:0,0:0:0:0:
272,24,76148,2,0,L|200:32,1,68.75,4|0,0:1|0:0,0:0:0:0:
184,72,76461,2,0,L|77:86,1,103.125,2|2,0:0|0:0,0:0:0:0:
56,172,76982,6,0,P|64:228|48:296,2,103.125,4|4|4,1:2|1:2|1:2,0:0:0:0:
144,180,77815,1,4,1:2:0:0:
144,180,77919,1,0,1:0:0:0:
144,180,78023,1,0,1:0:0:0:
212,124,78232,2,0,L|200:68,3,34.375,0|0|0|0,1:0|1:0|1:0|1:0,0:0:0:0:
256,192,78648,12,2,80315,0:0:0:0:
147,147,86982,6,0,P|184:117|248:103,1,110,4|0,0:1|1:0,0:0:0:0:
313,119,87607,1,0,0:0:0:0:
367,164,87815,2,0,P|407:152|449:154,2,82.5,0|0|0,0:0|0:0|0:0,0:0:0:0:
331,226,88648,2,0,L|325:320,1,82.5,0|0,0:0|0:0,0:0:0:0:
302,336,89065,2,0,P|262:346|236:342,1,55,0|0,1:0|0:0,0:0:0:0:
189,304,89482,2,0,P|156:279|81:275,1,110,0|0,0:0|1:0,0:0:0:0:
48,213,90107,1,0,0:0:0:0:
71,145,90315,6,0,P|53:104|49:65,2,82.5,0|0|0,0:0|0:0|0:0,0:0:0:0:
135,175,91148,2,0,L|244:165,1,110,0|0,0:0|1:0,0:0:0:0:
303,124,91773,1,0,0:0:0:0:
373,134,91982,2,0,P|418:182|394:271,1,165,0|0,0:0|0:0,0:0:0:0:
329,301,92815,2,0,L|263:295,1,55,0|0,0:0|0:0,0:0:0:0:
210,329,93232,1,0,1:0:0:0:
151,288,93440,1,0,0:0:0:0:
151,288,93544,1,0,0:0:0:0:
151,288,93648,6,0,P|155:252|127:167,1,110,4|0,0:1|1:0,0:0:0:0:
191,135,94273,1,0,0:0:0:0:
235,78,94482,2,0,P|229:44|241:-1,2,82.5,0|0|0,0:0|0:0|0:0,0:0:0:0:
294,116,95315,2,0,L|385:112,1,82.5,0|0,0:0|0:0,0:0:0:0:
407,130,95732,2,0,P|414:159|411:189,1,55,0|0,1:0|0:0,0:0:0:0:
372,243,96148,2,0,P|324:256|278:221,1,110,0|0,0:0|1:0,0:0:0:0:
208,237,96773,1,0,0:0:0:0:
149,195,96982,6,0,L|63:187,2,82.5,0|0|0,0:0|0:0|0:0,0:0:0:0:
208,237,97815,2,0,P|214:273|195:324,1,82.5,0|0,0:0|0:0,0:0:0:0:
172,339,98232,2,0,L|104:346,1,55,0|0,1:0|0:0,0:0:0:0:
56,307,98648,2,0,P|43:275|43:239,1,55,0|0,0:0|0:0,0:0:0:0:
66,187,99065,2,0,P|71:146|97:110,1,82.5,0|0,1:0|1:0,0:0:0:0:
129,118,99482,2,0,L|186:114,1,55,0|0,1:0|1:0,0:0:0:0:
234,63,99898,2,0,L|270:67,3,27.5,0|0|0|0,1:0|1:0|1:0|1:0,0:0:0:0:
284,100,100315,6,0,P|336:120|408:96,1,126.500002412796,4|0,1:1|1:0,0:0:0:0:
488,240,101148,2,0,L|460:376,1,126.500002412796,0|4,0:0|1:2,0:0:0:0:
388,328,101773,1,0,0:0:0:0:
308,352,101982,6,0,P|248:376|180:336,1,126.500002412796,4|0,0:2|1:0,0:0:0:0:
152,284,102607,1,0,0:0:0:0:
216,236,102815,2,0,P|236:261|252:296,1,63.250001206398,4|0,0:2|0:0,0:0:0:0:
332,272,103232,2,0,P|337:304|335:341,1,63.250001206398,0|0,1:0|0:0,0:0:0:0:
420,344,103648,5,4,0:1:0:0:
476,188,104065,1,0,1:0:0:0:
376,56,104482,2,0,P|320:72|240:44,1,126.500002412796,0|4,0:0|1:2,0:0:0:0:
192,4,105107,1,0,0:0:0:0:
184,84,105315,6,0,L|200:184,2,94.8750018095971,4|0|0,0:2|0:0|0:0,0:0:0:0:
112,128,106148,2,0,L|135:261,1,126.500002412796,4|0,0:2|1:0,0:0:0:0:
92,324,106773,1,0,0:0:0:0:
164,360,106982,6,0,P|220:340|304:372,1,126.500002412796,4|0,0:1|1:0,0:0:0:0:
448,352,107815,2,0,P|468:288|448:224,1,126.500002412796,0|0,0:0|1:0,0:0:0:0:
380,196,108440,1,0,0:0:0:0:
307,234,108648,6,0,P|299:194|323:134,1,94.8750018095971,0|0,0:0|0:0,0:0:0:0:
340,112,109065,2,0,P|348:76|340:40,1,63.250001206398,0|0,1:0|0:0,0:0:0:0:
264,76,109482,2,0,P|239:85|148:52,1,126.500002412796,0|0,0:0|1:0,0:0:0:0:
64,196,110315,6,0,L|200:184,1,126.500002412796,4|0,0:2|1:0,0:0:0:0:
236,252,110940,1,0,0:0:0:0:
196,324,111148,1,0,0:0:0:0:
268,364,111357,2,0,L|336:376,2,63.250001206398,0|0|0,0:0|1:0|0:0,0:0:0:0:
196,324,111982,6,0,P|144:316|104:328,1,94.8750018095971,0|0,0:0|0:0,0:0:0:0:
64,340,112398,2,0,L|40:272,1,63.250001206398,0|0,1:0|0:0,0:0:0:0:
80,208,112815,2,0,P|136:194|197:199,1,94.8750018095971,0|0,0:0|1:0,0:0:0:0:
212,208,113232,2,0,P|248:212|296:196,1,63.250001206398,0|0,1:0|1:0,0:0:0:0:
356,200,113648,6,0,P|408:224|476:184,1,126.500002412796,4|0,0:2|1:0,0:0:0:0:
500,120,114273,1,0,0:0:0:0:
448,56,114482,2,0,L|352:76,1,94.8750018095971,0|0,0:0|0:0,0:0:0:0:
324,100,114898,2,0,P|290:100|252:88,1,63.250001206398,0|0,1:0|0:0,0:0:0:0:
196,44,115315,6,0,P|151:34|100:88,1,126.500002412796,4|0,0:2|1:0,0:0:0:0:
128,168,115940,1,0,0:0:0:0:
112,248,116148,2,0,L|96:288,2,31.625000603199,0|0|0,1:0|0:0|1:0,0:0:0:0:
192,228,116565,1,0,1:0:0:0:
192,228,116669,1,0,1:0:0:0:
192,228,116773,1,0,1:0:0:0:
256,280,116982,6,0,P|297:292|344:288,4,82.5,2|2|2|2|2,0:0|0:0|0:0|0:0|0:0,0:0:0:0:
216,144,118648,2,0,P|248:140|296:152,1,82.5,4|0,1:2|0:0,0:0:0:0:
320,176,119065,2,0,P|347:180|380:180,1,55,0|0,1:0|1:0,0:0:0:0:
440,148,119482,2,0,L|452:104,2,27.5,0|0|0,1:0|1:0|1:0,0:0:0:0:
436,220,119898,2,0,P|432:246|436:288,1,55,0|0,1:0|1:0,0:0:0:0:
370,338,120315,6,0,P|308:324|228:329,1,137.5,4|4,1:1|1:2,0:0:0:0:
157,281,120940,1,2,0:0:0:0:
68,290,121148,2,0,P|43:229|49:155,1,137.5,2|0,0:0|1:0,0:0:0:0:
104,89,121773,1,0,0:0:0:0:
183,130,121982,6,0,L|255:123,1,68.75,2|0,0:0|0:0,0:0:0:0:
319,65,122398,2,0,P|377:63|425:92,1,103.125,0|0,1:0|0:0,0:0:0:0:
460,81,122815,2,0,P|448:115|456:160,1,68.75,2|0,0:0|0:0,0:0:0:0:
386,209,123232,1,0,1:0:0:0:
410,294,123440,1,0,0:0:0:0:
360,368,123648,6,0,P|292:373|257:317,1,137.5,2|0,0:0|1:0,0:0:0:0:
181,272,124273,1,2,0:0:0:0:
259,229,124482,2,0,P|269:172|256:129,1,103.125,2|0,0:0|0:0,0:0:0:0:
211,132,124898,2,0,L|143:127,1,68.75,0|0,1:0|0:0,0:0:0:0:
59,161,125315,6,0,P|33:188|20:221,1,68.75,2|0,0:0|0:0,0:0:0:0:
40,303,125732,2,0,L|149:294,1,103.125,0|0,1:0|0:0,0:0:0:0:
181,272,126148,2,0,P|187:309|206:346,1,68.75,2|0,0:0|0:0,0:0:0:0:
287,315,126565,1,0,1:0:0:0:
374,333,126773,1,0,0:0:0:0:
457,300,126982,6,0,P|469:245|449:164,1,137.5,4|0,0:1|1:0,0:0:0:0:
389,101,127607,1,2,0:0:0:0:
331,169,127815,2,0,L|193:165,1,137.5,2|0,0:0|1:0,0:0:0:0:
109,133,128440,1,0,0:0:0:0:
157,58,128648,6,0,P|190:56|226:40,1,68.75,2|0,0:0|0:0,0:0:0:0:
305,7,129065,2,0,P|356:21|394:62,1,103.125,0|0,1:0|0:0,0:0:0:0:
389,101,129482,2,0,L|469:98,1,68.75,2|0,0:0|0:0,0:0:0:0:
505,173,129898,1,0,1:0:0:0:
452,245,130107,1,0,0:0:0:0:
434,332,130315,6,0,L|331:337,1,103.125,4|0,0:1|0:0,0:0:0:0:
286,327,130732,2,0,P|271:288|273:249,1,68.75,0|2,1:0|0:0,0:0:0:0:
214,192,131148,2,0,P|230:155|231:123,1,68.75,2|0,0:0|0:0,0:0:0:0:
258,91,131461,2,0,P|202:98|150:69,1,103.125,2|2,0:0|0:0,0:0:0:0:
78,114,131982,6,0,P|62:70|11:35,2,103.125,4|0|4,0:2|0:0|0:2,0:0:0:0:
42,195,132815,2,0,L|-2:206,2,34.375,4|0|0,1:2|0:0|1:0,0:0:0:0:
126,225,133232,1,0,1:0:0:0:
126,225,133336,1,0,1:0:0:0:
126,225,133440,1,0,1:0:0:0:
169,302,133648,6,0,L|309:306,1,137.5,4|4,1:1|1:2,0:0:0:0:
385,349,134273,1,2,0:0:0:0:
447,285,134482,2,0,P|459:234|430:154,1,137.5,2|0,0:0|1:0,0:0:0:0:
352,113,135107,1,0,0:0:0:0:
304,37,135315,6,0,P|266:44|229:39,1,68.75,2|0,0:0|0:0,0:0:0:0:
184,113,135732,2,0,P|138:140|116:191,1,103.125,0|0,1:0|0:0,0:0:0:0:
115,228,136148,2,0,L|188:223,1,68.75,2|0,0:0|0:0,0:0:0:0:
257,172,136565,1,0,1:0:0:0:
344,189,136773,1,0,0:0:0:0:
376,272,136982,6,0,P|369:317|292:367,1,137.5,2|0,0:0|1:0,0:0:0:0:
221,319,137607,1,2,0:0:0:0:
142,361,137815,2,0,L|36:354,1,103.125,2|0,0:0|0:0,0:0:0:0:
10,319,138232,2,0,P|15:283|35:248,1,68.75,0|0,1:0|0:0,0:0:0:0:
115,228,138648,6,0,P|117:189|106:151,1,68.75,2|0,0:0|0:0,0:0:0:0:
174,98,139065,2,0,P|178:60|245:37,1,103.125,0|0,1:0|0:0,0:0:0:0:
268,59,139482,2,0,L|339:55,1,68.75,2|0,0:0|0:0,0:0:0:0:
423,76,139898,1,0,1:0:0:0:
406,164,140107,1,0,1:0:0:0:
440,246,140315,6,0,P|381:267|304:253,1,137.5,4|0,0:1|1:0,0:0:0:0:
240,313,140940,1,2,0:0:0:0:
222,225,141148,2,0,P|151:228|93:267,1,137.5,2|0,0:0|1:0,0:0:0:0:
13,229,141773,1,0,0:0:0:0:
44,144,141982,6,0,L|35:75,1,68.75,2|0,0:0|0:0,0:0:0:0:
115,37,142398,2,0,P|167:21|222:34,1,103.125,0|0,1:0|0:0,0:0:0:0:
259,27,142815,2,0,P|280:58|288:102,1,68.75,2|0,0:0|0:0,0:0:0:0:
270,176,143232,1,0,1:0:0:0:
212,244,143440,1,0,0:0:0:0:
273,309,143648,6,0,L|383:305,1,103.125,4|0,0:1|0:0,0:0:0:0:
418,319,144065,2,0,P|433:281|430:243,1,68.75,0|2,1:0|0:0,0:0:0:0:
482,179,144482,2,0,L|472:108,1,68.75,4|0,0:1|0:0,0:0:0:0:
482,67,144794,2,0,P|441:54|378:66,1,103.125,2|2,0:0|0:0,0:0:0:0:
294,77,145315,6,0,L|184:68,2,103.125,4|4|4,1:2|1:2|1:2,0:0:0:0:
353,143,146148,2,0,L|395:147,2,34.375,4|0|0,1:2|0:0|0:0,0:0:0:0:
273,183,146565,2,0,P|252:221|249:257,1,68.75,0|0,1:0|1:0,0:0:0:0:
263,334,146982,6,0,P|213:342|154:326,1,110,4|0,1:2|0:0,0:0:0:0:
54,226,147815,2,0,P|70:195|95:176,1,55,2|0,0:0|0:0,0:0:0:0:
72,148,148127,2,0,P|122:126|167:124,1,82.5,2|0,0:0|0:0,0:0:0:0:
210,85,148648,2,0,P|231:117|274:134,2,82.5,4|4|4,1:1|1:1|1:1,0:0:0:0:
278,61,149482,5,4,1:1:0:0:
256,192,149586,12,4,151982,1:1:0:0:
408,248,152815,6,0,P|368:256|300:236,1,110,2|0,0:0|1:0,0:0:0:0:
196,140,153648,2,0,P|163:162|112:176,1,82.5,2|0,0:0|0:0,0:0:0:0:
104,204,154065,2,0,P|73:204|36:196,1,55,0|2,1:0|0:0,0:0:0:0:
56,128,154482,2,0,P|63:88|52:44,2,82.5,2|0|0,0:0|0:0|0:0,0:0:0:0:
49,200,155315,6,0,P|40:243|129:312,1,165,2|0,0:0|0:0,0:0:0:0:
192,292,156148,2,0,P|222:283|288:288,1,82.5,0|0,0:0|0:0,0:0:0:0:
308,284,156565,2,0,P|339:280|383:294,1,55,0|2,1:0|0:0,0:0:0:0:
424,320,156982,2,0,P|436:276|404:228,1,82.5,2|0,0:0|0:0,0:0:0:0:
396,220,157398,2,0,P|393:194|396:160,1,55,0|2,1:0|0:0,0:0:0:0:
448,116,157815,2,0,P|396:124|336:104,1,110,2|0,0:0|1:0,0:0:0:0:
200,96,158648,6,0,L|180:40,2,55,4|0|0,0:1|0:0|1:0,0:0:0:0:
136,128,159273,1,0,0:0:0:0:
72,96,159482,2,0,L|52:40,2,55,2|0|0,0:0|0:0|1:0,0:0:0:0:
8,132,160107,1,2,0:0:0:0:
68,168,160315,2,0,P|76:208|64:272,1,82.5,2|0,0:0|0:0,0:0:0:0:
60,284,160732,2,0,L|128:276,1,55,0|0,1:0|0:0,0:0:0:0:
184,304,161148,2,0,L|272:312,2,82.5,2|0|0,0:0|0:0|0:0,0:0:0:0:
114,277,161982,6,0,P|96:228|122:181,1,110,4|0,0:2|1:0,0:0:0:0:
195,192,162607,1,2,0:0:0:0:
268,184,162815,2,0,L|380:164,1,110,2|0,0:0|1:0,0:0:0:0:
444,136,163440,1,0,0:0:0:0:
504,176,163648,2,0,P|508:203|508:256,1,55,4|0,1:2|0:0,0:0:0:0:
508,304,164065,2,0,P|488:324|446:355,1,55,0|2,1:0|0:0,0:0:0:0:
400,320,164482,2,0,L|388:284,2,27.5,4|0|0,1:2|0:0|1:0,0:0:0:0:
333,345,164898,1,0,1:0:0:0:
333,345,165002,1,0,1:0:0:0:
333,345,165107,1,0,1:0:0:0:
271,384,165315,6,0,L|189:378,1,82.5,4|0,1:1|0:0,0:0:0:0:
169,347,165732,2,0,P|168:323|180:291,1,55,0|2,1:0|0:0,0:0:0:0:
132,238,166148,2,0,P|138:194|108:133,1,110,2|0,0:0|1:0,0:0:0:0:
141,69,166773,1,0,0:0:0:0:
206,98,166982,2,0,L|266:92,1,55,0|0,0:0|0:0,0:0:0:0:
314,45,167398,2,0,P|371:47|397:64,1,82.5,0|0,1:0|0:0,0:0:0:0:
427,62,167815,2,0,L|424:125,1,55,2|0,0:0|0:0,0:0:0:0:
470,171,168232,1,0,1:0:0:0:
500,235,168440,1,0,0:0:0:0:
453,288,168648,6,0,P|417:291|348:264,1,110,0|0,0:0|1:0,0:0:0:0:
286,299,169273,1,2,0:0:0:0:
226,259,169482,2,0,P|185:254|132:296,1,110,2|0,0:0|1:0,0:0:0:0:
65,319,170107,1,0,0:0:0:0:
11,271,170315,2,0,L|15:213,1,55,4|0,0:2|0:0,0:0:0:0:
71,171,170732,2,0,L|64:112,1,55,0|2,1:0|0:0,0:0:0:0:
101,55,171148,2,0,P|140:34|185:33,1,82.5,4|0,1:2|1:0,0:0:0:0:
207,11,171565,2,0,P|245:32|259:50,1,55,4|0,1:2|1:0,0:0:0:0:
228,108,171982,6,0,P|216:148|228:204,1,82.5,4|0,0:1|0:0,0:0:0:0:
239,218,172398,2,0,L|302:213,1,55,0|2,1:0|0:0,0:0:0:0:
353,253,172815,2,0,L|463:243,1,110,2|0,0:0|1:0,0:0:0:0:
504,184,173440,1,0,0:0:0:0:
508,112,173648,2,0,P|486:72|425:51,1,110,0|0,0:0|1:0,0:0:0:0:
362,80,174273,1,2,0:0:0:0:
303,38,174482,2,0,L|216:34,1,82.5,2|0,0:0|0:0,0:0:0:0:
189,17,174898,2,0,P|166:55|161:77,1,55,0|0,1:0|0:0,0:0:0:0:
104,106,175315,6,0,P|114:162|109:200,1,82.5,4|0,0:2|0:0,0:0:0:0:
95,219,175732,2,0,L|157:215,1,55,0|2,1:0|0:0,0:0:0:0:
216,241,176148,2,0,P|243:194|295:176,1,110,2|0,0:0|1:0,0:0:0:0:
363,189,176773,1,0,0:0:0:0:
365,260,176982,2,0,P|345:300|303:324,1,82.5,4|0,1:2|0:0,0:0:0:0:
294,350,177398,2,0,L|236:347,1,55,0|0,1:0|0:0,0:0:0:0:
181,304,177815,2,0,L|148:310,2,27.5,4|0|0,1:2|0:0|1:0,0:0:0:0:
216,241,178232,1,0,1:0:0:0:
216,241,178336,1,0,1:0:0:0:
216,241,178440,1,0,1:0:0:0:
284,192,178648,6,0,P|300:136|264:72,2,126.500002412796,4|0|0,1:1|1:0|0:0,0:0:0:0:
216,241,179690,1,0,0:0:0:0:
136,224,179898,2,0,P|103:231|76:252,1,63.250001206398,4|0,1:2|0:0,0:0:0:0:
16,300,180315,6,0,P|72:284|152:312,1,126.500002412796,4|0,0:2|1:0,0:0:0:0:
200,352,180940,1,0,0:0:0:0:
280,332,181148,2,0,P|290:304|292:268,1,63.250001206398,4|0,0:2|0:0,0:0:0:0:
368,240,181565,2,0,P|367:210|356:175,1,63.250001206398,0|0,1:0|0:0,0:0:0:0:
308,112,181982,5,4,0:1:0:0:
452,32,182398,1,0,1:0:0:0:
492,192,182815,2,0,P|468:232|376:236,1,126.500002412796,0|4,0:0|1:2,0:0:0:0:
324,204,183440,1,0,0:0:0:0:
240,204,183648,6,0,P|260:248|252:312,1,94.8750018095971,4|0,0:2|0:0,0:0:0:0:
244,332,184065,2,0,L|172:320,1,63.250001206398,0|0,1:0|0:0,0:0:0:0:
160,240,184482,2,0,P|156:168|204:120,1,126.500002412796,4|0,0:2|1:0,0:0:0:0:
268,112,185107,1,0,0:0:0:0:
212,52,185315,6,0,P|152:36|72:56,1,126.500002412796,4|0,0:1|1:0,0:0:0:0:
16,196,186148,2,0,L|36:336,1,126.500002412796,0|0,0:0|1:0,0:0:0:0:
112,348,186773,1,0,0:0:0:0:
188,320,186982,6,0,P|244:300|300:308,1,94.8750018095971,0|0,0:0|0:0,0:0:0:0:
320,312,187398,2,0,L|304:244,1,63.250001206398,0|0,1:0|0:0,0:0:0:0:
388,240,187815,2,0,L|419:368,1,126.500002412796,0|0,0:0|1:0,0:0:0:0:
480,208,188648,6,0,P|496:136|460:72,1,126.500002412796,4|0,0:2|1:0,0:0:0:0:
400,64,189273,1,0,0:0:0:0:
324,92,189482,1,0,0:0:0:0:
244,68,189690,2,0,L|228:-8,2,63.250001206398,0|0|0,0:0|1:0|0:0,0:0:0:0:
264,148,190315,6,0,P|280:200|264:252,1,94.8750018095971,0|0,0:0|0:0,0:0:0:0:
252,276,190732,2,0,P|248:308|256:344,1,63.250001206398,0|0,1:0|0:0,0:0:0:0:
328,304,191148,2,0,P|372:292|440:312,1,94.8750018095971,0|0,0:0|1:0,0:0:0:0:
456,316,191565,2,0,L|448:240,1,63.250001206398,0|0,1:0|1:0,0:0:0:0:
504,192,191982,6,0,P|456:200|408:144,1,126.500002412796,4|0,1:2|1:0,0:0:0:0:
336,108,192607,1,0,0:0:0:0:
264,144,192815,2,0,P|224:132|156:136,1,94.8750018095971,0|0,0:0|0:0,0:0:0:0:
136,112,193232,2,0,P|105:117|76:140,1,63.250001206398,0|0,1:0|0:0,0:0:0:0:
60,216,193648,6,0,P|76:260|48:332,1,126.500002412796,4|0,1:2|1:0,0:0:0:0:
128,360,194273,1,0,0:0:0:0:
204,328,194482,2,0,L|196:292,2,31.625000603199,4|0|0,1:2|0:0|1:0,0:0:0:0:
284,364,194898,1,0,1:0:0:0:
284,364,195002,1,0,1:0:0:0:
284,364,195107,1,0,1:0:0:0:
352,324,195315,6,0,P|356:284|336:240,4,82.5,0|0|0|0|0,1:0|0:0|0:0|0:0|1:0,0:0:0:0:
436,208,196982,2,0,P|420:170|424:129,4,82.5,4|4|4|4|4,1:1|1:1|1:1|1:1|1:1,0:0:0:0:
256,192,198648,12,0,200315,0:0:0:0:
114,106,206982,6,0,P|163:84|220:84,1,110,4|0,0:1|1:0,0:0:0:0:
286,59,207607,1,0,0:0:0:0:
339,105,207815,2,0,P|333:146|283:190,1,110,0|0,0:0|1:0,0:0:0:0:
211,193,208440,1,0,0:0:0:0:
155,238,208648,6,0,P|147:265|149:298,1,55,0|0,0:0|0:0,0:0:0:0:
216,310,209065,2,0,P|220:337|235:366,1,55,0|0,1:0|0:0,0:0:0:0:
301,344,209482,2,0,L|419:338,1,110,0|0,0:0|1:0,0:0:0:0:
459,285,210107,1,0,0:0:0:0:
410,232,210315,6,0,P|409:177|444:132,1,110,4|0,0:1|1:0,0:0:0:0:
438,62,210940,1,0,0:0:0:0:
372,34,211148,2,0,L|306:29,1,55,4|0,0:1|0:0,0:0:0:0:
284,44,211461,2,0,L|196:37,1,82.5,0|0,0:0|0:0,0:0:0:0:
132,57,211982,6,0,P|108:80|93:111,1,55,4|0,1:1|1:0,0:0:0:0:
47,149,212398,2,0,P|58:180|56:216,1,55,0|0,1:0|1:0,0:0:0:0:
103,257,212815,1,0,1:0:0:0:
171,237,213023,1,0,1:0:0:0:
238,261,213232,2,0,L|234:299,2,27.5,0|0|0,1:0|1:0|1:0,0:0:0:0:
306,241,213648,6,0,P|323:206|307:133,1,110,4|0,1:1|0:0,0:0:0:0:
297,67,214273,1,0,0:0:0:0:
349,18,214482,2,0,L|412:14,1,55,4|0,1:2|0:0,0:0:0:0:
471,36,214898,2,0,L|501:39,2,27.5,0|0|0,0:0|0:0|0:0,0:0:0:0:
420,87,215315,6,0,P|403:122|419:195,1,110,4|0,1:2|1:0,0:0:0:0:
474,230,215940,1,0,1:0:0:0:
445,295,216148,2,0,P|397:321|360:322,1,82.5,0|0,1:0|1:0,0:0:0:0:
341,300,216565,2,0,L|280:296,1,55,0|0,1:0|1:0,0:0:0:0:
224,248,216982,6,0,L|248:360,1,98.9999969787599,0|4,0:0|1:1,0:0:0:0:
156,328,217607,5,2,0:0:0:0:
80,280,217815,2,0,P|56:220|84:156,1,137.5,2|0,0:0|1:0,0:0:0:0:
156,100,218440,1,0,0:0:0:0:
232,148,218648,6,0,P|284:160|336:136,1,103.125,2|0,0:0|0:0,0:0:0:0:
352,104,219065,2,0,P|399:86|448:98,1,103.125,0|0,1:0|0:0,0:0:0:0:
488,124,219482,1,2,0:0:0:0:
500,300,219898,1,0,1:0:0:0:
416,272,220107,1,0,0:0:0:0:
332,300,220315,6,0,P|284:280|192:312,1,137.5,2|0,0:0|1:0,0:0:0:0:
124,344,220940,1,2,0:0:0:0:
56,288,221148,1,2,0:0:0:0:
28,112,221565,1,0,1:0:0:0:
196,176,221982,6,0,P|197:205|212:248,1,68.75,2|0,0:0|0:0,0:0:0:0:
284,192,222398,2,0,P|282:162|268:120,1,68.75,0|0,1:0|0:0,0:0:0:0:
188,88,222815,2,0,P|120:104|44:88,1,137.5,2|0,0:0|1:0,0:0:0:0:
8,172,223440,1,0,0:0:0:0:
76,228,223648,6,0,P|140:212|204:256,1,137.5,4|0,0:1|1:0,0:0:0:0:
256,176,224273,1,2,0:0:0:0:
313,247,224482,2,0,P|370:212|436:228,1,137.5,2|0,0:0|1:0,0:0:0:0:
384,300,225107,1,0,0:0:0:0:
300,328,225315,6,0,P|244:320|184:328,1,103.125,2|0,0:0|0:0,0:0:0:0:
152,332,225732,2,0,P|116:292|136:240,1,103.125,0|0,1:0|0:0,0:0:0:0:
164,224,226148,1,2,0:0:0:0:
328,148,226565,2,0,L|340:228,1,68.75,0|0,1:0|0:0,0:0:0:0:
400,280,226982,6,0,P|348:264|264:280,1,137.5,4|0,0:1|1:0,0:0:0:0:
104,204,227815,2,0,P|141:209|184:200,1,68.75,2|0,0:0|0:0,0:0:0:0:
196,168,228127,2,0,P|244:156|308:176,1,103.125,2|2,0:0|0:0,0:0:0:0:
372,120,228648,6,0,L|348:16,2,103.125,4|0|0,1:2|0:0|0:0,0:0:0:0:
376,208,229482,2,0,L|408:228,2,34.375,4|0|4,1:2|0:0|1:2,0:0:0:0:
300,256,229898,1,4,1:2:0:0:
300,256,230002,1,0,1:0:0:0:
300,256,230107,1,0,1:0:0:0:
227,308,230315,6,0,P|161:312|107:267,1,137.5,4|4,1:1|1:2,0:0:0:0:
99,179,230940,1,2,0:0:0:0:
188,179,231148,2,0,P|206:143|200:37,1,137.5,2|0,0:0|1:0,0:0:0:0:
282,4,231773,1,0,0:0:0:0:
353,58,231982,6,0,L|423:52,1,68.75,2|0,0:0|0:0,0:0:0:0:
497,98,232398,2,0,P|504:149|480:201,1,103.125,0|0,1:0|0:0,0:0:0:0:
439,199,232815,2,0,L|363:193,1,68.75,2|0,0:0|0:0,0:0:0:0:
300,249,233232,1,0,1:0:0:0:
211,237,233440,1,0,0:0:0:0:
124,260,233648,6,0,P|104:207|126:126,1,137.5,2|0,0:0|1:0,0:0:0:0:
195,78,234273,1,2,0:0:0:0:
241,154,234482,2,0,P|287:163|345:145,1,103.125,2|0,0:0|0:0,0:0:0:0:
377,123,234898,2,0,L|379:192,1,68.75,0|0,1:0|0:0,0:0:0:0:
450,245,235315,6,0,P|485:214|496:184,1,68.75,2|0,0:0|0:0,0:0:0:0:
493,104,235732,2,0,P|474:52|425:17,1,103.125,0|0,1:0|0:0,0:0:0:0:
396,37,236148,2,0,L|321:30,1,68.75,2|0,0:0|0:0,0:0:0:0:
254,82,236565,1,0,1:0:0:0:
170,49,236773,1,0,1:0:0:0:
86,82,236982,6,0,P|59:136|67:212,1,137.5,4|0,1:1|1:0,0:0:0:0:
154,193,237607,1,2,0:0:0:0:
217,255,237815,2,0,P|282:232|354:246,1,137.5,2|0,0:0|1:0,0:0:0:0:
421,295,238440,1,0,0:0:0:0:
482,230,238648,6,0,P|482:188|471:159,1,68.75,2|0,0:0|0:0,0:0:0:0:
479,73,239065,2,0,P|421:72|382:47,1,103.125,0|0,1:0|0:0,0:0:0:0:
340,59,239482,2,0,P|297:49|264:54,1,68.75,2|0,0:0|0:0,0:0:0:0:
189,20,239898,1,0,1:0:0:0:
129,87,240107,1,0,0:0:0:0:
41,102,240315,6,0,L|34:209,1,103.125,4|0,0:1|0:0,0:0:0:0:
59,242,240732,2,0,P|109:240|133:227,1,68.75,0|2,1:0|0:0,0:0:0:0:
207,265,241148,2,0,P|246:264|277:278,1,68.75,4|0,0:1|0:0,0:0:0:0:
311,252,241461,2,0,P|360:260|407:235,1,103.125,2|2,0:0|0:0,0:0:0:0:
430,149,241982,6,0,P|443:112|494:73,2,103.125,4|4|4,1:2|1:2|1:2,0:0:0:0:
343,171,242815,2,0,L|304:167,2,34.375,4|0|0,1:2|0:0|0:0,0:0:0:0:
405,236,243232,2,0,P|407:276|397:305,1,68.75,0|0,1:0|1:0,0:0:0:0:
322,348,243648,6,0,P|253:316|160:325,1,165,2|0,0:0|0:0,0:0:0:0:
97,300,244482,2,0,P|86:277|81:233,1,55,2|0,0:0|0:0,0:0:0:0:
24,204,244898,2,0,P|28:178|49:139,1,55,0|0,0:0|0:0,0:0:0:0:
108,173,245315,6,0,L|221:180,2,110,2|2|2,0:0|0:0|0:0,0:0:0:0:
104,30,246565,2,0,P|132:26|159:13,1,55,0|0,0:0|0:0,0:0:0:0:
228,15,246982,6,0,P|304:45|348:119,1,165,2|0,0:0|0:0,0:0:0:0:
412,141,247815,2,0,L|408:199,1,55,2|0,0:0|0:0,0:0:0:0:
352,241,248232,2,0,L|356:299,1,55,2|0,0:0|0:0,0:0:0:0:
314,354,248648,6,0,P|261:370|203:359,2,110,2|2|2,0:0|0:0|0:0,0:0:0:0:
382,374,249690,1,0,0:0:0:0:
426,317,249898,2,0,P|446:304|484:295,1,55,0|0,0:0|0:0,0:0:0:0:
511,233,250315,6,0,P|458:181|371:173,1,165,2|0,0:0|0:0,0:0:0:0:
324,118,251148,2,0,L|268:123,1,55,2|0,0:0|0:0,0:0:0:0:
208,85,251565,2,0,P|178:89|151:103,1,55,0|0,0:0|0:0,0:0:0:0:
85,83,251982,6,0,P|58:120|42:189,2,110,2|2|2,0:0|0:0|0:0,0:0:0:0:
155,99,253023,1,0,0:0:0:0:
196,40,253232,2,0,L|269:32,1,55,0|0,0:0|0:0,0:0:0:0:
313,67,253648,6,0,P|369:73|418:113,1,110,2|2,0:0|0:0,0:0:0:0:
362,238,254482,2,0,P|333:239|305:232,1,55,0|0,0:0|0:0,0:0:0:0:
273,241,254794,2,0,P|239:216|220:166,1,82.5,2|2,0:0|0:0,0:0:0:0:
162,139,255315,6,0,P|173:101|164:53,2,82.5,2|2|2,0:0|0:0|0:0,0:0:0:0:
110,188,256148,1,2,0:0:0:0:
256,192,256252,12,0,260315,0:0:0:0:
