osu file format v14

[General]
AudioFilename: audio.mp3
AudioLeadIn: 0
PreviewTime: 0
Countdown: 0
SampleSet: None
StackLeniency: 0.2
Mode: 0
LetterboxInBreaks: 0
WidescreenStoryboard: 1

[Editor]
Bookmarks: 148,22148,44148,60148,76148,86148,104148,112148,128148,144148,160148,163148
DistanceSpacing: 1.1
BeatDivisor: 4
GridSize: 16
TimelineZoom: 1.9

[Metadata]
Title:March Of The Ants
TitleUnicode:March Of The Ants
Artist:XavlegbmaofffassssitimiwoamndutroabcwapwaeiippohfffX
ArtistUnicode:XavlegbmaofffassssitimiwoamndutroabcwapwaeiippohfffX
Creator:OliBomby
Version:Rendezvous at cupboard A
Source:
Tags:death metal goregrind grindcore hardcore Durban
BeatmapID:1829061
BeatmapSetID:875219

[Difficulty]
HPDrainRate:3
CircleSize:4.4
OverallDifficulty:9
ApproachRate:9.7
SliderMultiplier:1.4
SliderTickRate:1

[Events]
//Background and Video events
0,0,"353279.jpg",0,0
//Break Periods
//Storyboard Layer 0 (Background)
//Storyboard Layer 1 (Fail)
//Storyboard Layer 2 (Pass)
//Storyboard Layer 3 (Foreground)
//Storyboard Sound Samples

[TimingPoints]
148,250,4,3,1,70,1,0
22148,-71.4285714285714,4,3,1,70,0,0
29898,-71.4285714285714,4,3,12,70,0,0
30023,-71.4285714285714,4,3,13,70,0,0
30148,-71.4285714285714,4,3,1,70,0,0
37898,-71.4285714285714,4,3,12,70,0,0
38023,-71.4285714285714,4,3,13,70,0,0
38148,-71.4285714285714,4,3,1,70,0,0
42648,-40,4,3,1,70,0,0
42835,-40,4,3,12,70,0,0
42898,-40,4,3,1,70,0,0
43023,-40,4,3,12,70,0,0
43148,-40,4,3,13,70,0,0
43398,-40,4,3,12,70,0,0
43523,-40,4,3,13,70,0,0
43648,-40,4,3,1,70,0,0
44148,-83.3333333333333,4,3,1,70,0,0
56523,-58.8235294117647,4,3,1,70,0,0
56898,-83.3333333333333,4,3,1,70,0,0
57273,-50,4,3,1,70,0,0
57648,-83.3333333333333,4,3,1,70,0,0
58148,-55.5555555555556,4,3,1,70,0,0
60148,-66.6666666666667,4,3,1,70,0,0
61898,-66.6666666666667,4,3,12,70,0,0
62023,-66.6666666666667,4,3,13,70,0,0
62148,-66.6666666666667,4,3,1,70,0,0
76148,-71.4285714285714,4,3,1,70,0,0
83898,-71.4285714285714,4,3,13,70,0,0
84148,-71.4285714285714,4,3,1,70,0,0
84335,-71.4285714285714,4,3,1,5,0,0
84398,-71.4285714285714,4,3,1,70,0,0
84585,-71.4285714285714,4,3,1,5,0,0
84648,-71.4285714285714,4,3,1,70,0,0
84898,-71.4285714285714,4,3,12,30,0,0
85023,-71.4285714285714,4,3,13,50,0,0
85148,-71.4285714285714,4,3,1,70,0,0
85648,-71.4285714285714,4,3,12,70,0,0
86148,-125,4,3,1,60,0,0
90148,-100,4,3,1,60,0,0
90585,-100,4,3,1,5,0,0
90648,-100,4,3,1,60,0,0
90898,-125,4,3,1,60,0,0
93148,-90.9090909090909,4,3,1,60,0,0
94148,-125,4,3,1,60,0,0
98148,-100,4,3,1,60,0,0
98585,-100,4,3,1,5,0,0
98648,-125,4,3,1,60,0,0
101148,-125,4,3,13,60,0,0
101398,-125,4,3,12,60,0,0
101648,-83.3333333333333,4,3,13,60,0,0
101898,-83.3333333333333,4,3,12,60,0,0
102710,-83.3333333333333,4,3,13,60,0,0
102773,-83.3333333333333,4,3,12,60,0,0
102835,-83.3333333333333,4,3,13,60,0,0
102898,-83.3333333333333,4,3,12,60,0,0
102960,-83.3333333333333,4,3,13,60,0,0
103023,-83.3333333333333,4,3,12,60,0,0
103085,-83.3333333333333,4,3,13,60,0,0
103648,-83.3333333333333,4,3,12,60,0,0
104148,-66.6666666666667,4,3,1,70,0,1
107398,-133.333333333333,4,3,1,70,0,1
107648,-66.6666666666667,4,3,1,70,0,1
107898,-133.333333333333,4,3,1,70,0,1
108148,-66.6666666666667,4,3,1,70,0,1
111398,-133.333333333333,4,3,1,70,0,1
111648,-66.6666666666667,4,3,1,70,0,1
111898,-133.333333333333,4,3,1,70,0,1
112148,-100,4,3,1,70,0,0
117148,-66.6666666666667,4,3,1,70,0,0
117585,-66.6666666666667,4,3,1,5,0,0
117648,-100,4,3,1,70,0,0
125148,-66.6666666666667,4,3,1,70,0,0
125585,-66.6666666666667,4,3,1,5,0,0
125648,-100,4,3,1,70,0,0
128148,-66.6666666666667,4,3,1,70,0,1
130148,-66.6666666666667,4,3,1,50,0,1
131648,-66.6666666666667,4,3,12,70,0,1
131898,-66.6666666666667,4,3,13,70,0,1
132148,-66.6666666666667,4,3,1,50,0,1
133148,-66.6666666666667,4,3,1,70,0,1
135398,-66.6666666666667,4,3,13,70,0,1
135648,-66.6666666666667,4,3,12,70,0,1
135898,-66.6666666666667,4,3,13,70,0,1
136148,-76.9230769230769,4,3,1,60,0,1
137148,-66.6666666666667,4,3,1,70,0,1
138148,-58.8235294117647,4,3,1,80,0,1
140148,-66.6666666666667,4,3,1,70,0,1
141148,-58.8235294117647,4,3,1,80,0,1
142148,-52.6315789473684,4,3,1,90,0,1
144148,-76.9230769230769,4,3,1,60,0,0
162148,-125,4,3,1,60,0,0
162648,-125,4,3,1,5,0,0

[HitObjects]
135,164,22148,5,6,0:3:0:0:
126,159,22273,1,0,1:3:0:0:
190,86,22398,1,2,1:3:0:0:
181,81,22523,1,0,1:3:0:0:
283,71,22648,1,2,1:3:0:0:
274,66,22773,1,0,1:3:0:0:
361,126,22898,1,2,1:3:0:0:
352,121,23023,1,0,1:3:0:0:
376,219,23148,1,2,1:3:0:0:
367,214,23273,1,0,1:3:0:0:
321,297,23398,1,2,1:3:0:0:
312,292,23523,1,0,1:3:0:0:
228,312,23648,1,2,1:3:0:0:
218,307,23773,1,0,1:3:0:0:
150,257,23898,1,2,1:3:0:0:
141,252,24023,1,0,1:3:0:0:
33,63,24148,6,0,L|-2:158,1,97.9999970092774,6|0,1:3|1:3,1:3:0:0:
99,337,24398,2,0,L|132:245,1,97.9999970092774,6|0,1:3|1:3,1:3:0:0:
41,69,24648,2,0,L|6:164,1,97.9999970092774,2|0,1:3|1:3,1:3:0:0:
107,343,24898,2,0,L|140:251,1,97.9999970092774,2|0,1:3|1:3,1:3:0:0:
50,75,25148,2,0,L|15:170,1,97.9999970092774,2|0,1:3|1:3,1:3:0:0:
116,349,25398,2,0,L|149:257,1,97.9999970092774,2|0,1:3|1:3,1:3:0:0:
479,63,25648,6,0,L|514:158,1,97.9999970092774,6|0,1:3|1:3,1:3:0:0:
413,337,25898,2,0,L|379:245,1,97.9999970092774,6|0,1:3|1:3,1:3:0:0:
471,69,26148,2,0,L|506:164,1,97.9999970092774,2|0,1:3|1:3,1:3:0:0:
405,343,26398,2,0,L|371:251,1,97.9999970092774,2|0,1:3|1:3,1:3:0:0:
462,75,26648,2,0,L|497:170,1,97.9999970092774,2|0,1:3|1:3,1:3:0:0:
396,349,26898,2,0,L|362:257,1,97.9999970092774,2|0,1:3|1:3,1:3:0:0:
176,98,27148,5,2,0:3:0:0:
336,98,27273,1,0,0:3:0:0:
176,178,27398,1,2,0:3:0:0:
336,178,27523,1,0,0:3:0:0:
202,255,27648,2,0,P|175:298|170:363,1,97.9999970092774,6|0,0:3|0:3,0:3:0:0:
310,255,27898,2,0,P|337:298|342:363,1,97.9999970092774,6|0,0:3|0:3,0:3:0:0:
88,281,28148,6,0,B|94:230|94:230|81:168,1,97.9999970092774,2|0,0:3|0:3,0:3:0:0:
50,0,28398,2,0,B|44:51|44:51|57:113,1,97.9999970092774,2|0,0:3|0:3,0:3:0:0:
364,127,28648,2,0,L|266:127,1,97.9999970092774,2|0,0:3|1:3,0:3:0:0:
146,53,28898,2,0,L|244:53,1,97.9999970092774,2|0,1:3|1:3,1:3:0:0:
427,184,29148,1,2,1:3:0:0:
462,0,29273,1,2,1:3:0:0:
508,238,29398,2,0,B|518:193|518:193|512:142,1,97.9999970092774,2|0,1:3|1:3,1:3:0:0:
380,380,29648,5,2,0:3:0:0:
345,196,29773,1,0,0:3:0:0:
337,358,29898,1,8,0:3:0:0:
387,217,30023,1,8,0:3:0:0:
207,305,30148,5,6,0:3:0:0:
208,315,30273,1,0,1:3:0:0:
298,279,30398,1,2,1:3:0:0:
300,290,30523,1,0,1:3:0:0:
345,196,30648,1,2,1:3:0:0:
346,208,30773,1,0,1:3:0:0:
319,105,30898,1,2,1:3:0:0:
321,115,31023,1,0,1:3:0:0:
237,58,31148,1,2,1:3:0:0:
239,70,31273,1,0,1:3:0:0:
145,84,31398,1,2,1:3:0:0:
147,95,31523,1,0,1:3:0:0:
98,166,31648,1,2,1:3:0:0:
101,178,31773,1,0,1:3:0:0:
124,258,31898,1,2,1:3:0:0:
126,269,32023,1,0,1:3:0:0:
44,92,32148,6,0,L|11:199,1,97.9999970092774,6|0,1:3|1:3,1:3:0:0:
164,377,32398,2,0,L|192:283,1,97.9999970092774,6|0,1:3|1:3,1:3:0:0:
56,96,32648,2,0,L|23:203,1,97.9999970092774,2|0,1:3|1:3,1:3:0:0:
176,381,32898,2,0,L|204:287,1,97.9999970092774,2|0,1:3|1:3,1:3:0:0:
69,99,33148,2,0,L|36:206,1,97.9999970092774,2|0,1:3|1:3,1:3:0:0:
189,384,33398,2,0,L|217:290,1,97.9999970092774,2|0,1:3|1:3,1:3:0:0:
468,92,33648,6,0,L|501:199,1,97.9999970092774,6|0,1:3|1:3,1:3:0:0:
348,377,33898,2,0,L|319:283,1,97.9999970092774,6|0,1:3|1:3,1:3:0:0:
456,96,34148,2,0,L|489:203,1,97.9999970092774,2|0,1:3|1:3,1:3:0:0:
336,381,34398,2,0,L|307:287,1,97.9999970092774,2|0,1:3|1:3,1:3:0:0:
443,99,34648,2,0,L|476:206,1,97.9999970092774,2|0,1:3|1:3,1:3:0:0:
323,384,34898,2,0,L|294:290,1,97.9999970092774,2|0,1:3|1:3,1:3:0:0:
175,64,35148,5,2,0:3:0:0:
335,64,35273,1,0,0:3:0:0:
175,144,35398,1,2,0:3:0:0:
335,144,35523,1,0,0:3:0:0:
201,221,35648,2,0,P|174:264|169:329,1,97.9999970092774,6|0,0:3|0:3,0:3:0:0:
309,221,35898,2,0,P|336:264|341:329,1,97.9999970092774,6|0,0:3|0:3,0:3:0:0:
83,213,36148,6,0,B|31:233|31:233|-2:263,1,97.9999970092774,2|0,0:3|0:3,0:3:0:0:
82,95,36398,2,0,B|134:75|134:75|167:45,1,97.9999970092774,2|0,0:3|0:3,0:3:0:0:
489,36,36648,2,0,L|365:17,1,97.9999970092774,2|0,0:3|1:3,0:3:0:0:
264,90,36898,2,0,L|387:108,1,97.9999970092774,2|0,1:3|1:3,1:3:0:0:
463,293,37148,1,2,1:3:0:0:
493,124,37273,1,2,1:3:0:0:
386,339,37398,2,0,B|372:294|372:294|386:245,1,97.9999970092774,2|0,1:3|1:3,1:3:0:0:
309,384,37648,5,2,0:3:0:0:
255,182,37773,1,0,0:3:0:0:
260,363,37898,1,8,0:3:0:0:
303,202,38023,1,8,0:3:0:0:
31,371,38148,6,0,L|41:254,1,97.9999970092774,4|0,0:3|2:3,0:3:0:0:
47,175,38398,1,0,0:3:0:0:
47,175,38460,1,0,0:3:0:0:
110,348,38648,6,0,L|120:231,1,97.9999970092774,0|0,0:3|2:3,0:3:0:0:
126,152,38898,1,0,0:3:0:0:
126,152,38960,1,0,0:3:0:0:
189,325,39148,6,0,L|199:208,1,97.9999970092774,0|0,0:3|2:3,0:3:0:0:
205,129,39398,1,0,0:3:0:0:
205,129,39460,1,0,0:3:0:0:
268,302,39648,6,0,L|278:185,1,97.9999970092774,0|0,0:3|2:3,0:3:0:0:
284,106,39898,5,4,0:3:0:0:
298,101,39960,1,0,0:3:0:0:
312,97,40023,1,0,0:3:0:0:
326,93,40085,1,0,0:3:0:0:
340,89,40148,6,0,L|329:205,1,97.9999970092774,4|0,0:3|2:3,0:3:0:0:
323,284,40398,1,0,0:3:0:0:
323,284,40460,1,0,0:3:0:0:
261,112,40648,6,0,L|250:228,1,97.9999970092774,0|0,0:3|2:3,0:3:0:0:
245,308,40898,1,0,0:3:0:0:
245,308,40960,1,0,0:3:0:0:
182,135,41148,6,0,L|171:251,1,97.9999970092774,0|0,0:3|2:3,0:3:0:0:
166,331,41398,1,0,0:3:0:0:
166,331,41460,1,0,0:3:0:0:
103,158,41648,6,0,L|92:274,1,97.9999970092774,0|0,0:3|2:3,0:3:0:0:
87,354,41898,5,0,0:3:0:0:
72,358,41960,1,0,0:3:0:0:
58,362,42023,1,0,0:3:0:0:
44,366,42085,1,0,0:3:0:0:
30,370,42148,5,4,0:3:0:0:
66,371,42210,1,0,0:3:0:0:
103,372,42273,1,0,0:3:0:0:
140,374,42335,1,0,0:3:0:0:
176,375,42398,5,8,0:3:0:0:
166,321,42460,1,8,0:3:0:0:
155,268,42523,1,8,0:3:0:0:
145,214,42585,1,8,0:3:0:0:
135,160,42648,6,0,L|241:170,1,87.5,8|0,0:3|0:3,0:3:0:0:
263,383,42773,2,0,L|176:375,1,87.5,8|8,0:3|0:3,0:3:0:0:
371,209,42898,5,0,0:3:0:0:
382,188,42960,1,0,0:3:0:0:
386,164,43023,1,8,0:3:0:0:
379,140,43085,1,8,0:3:0:0:
366,121,43148,1,8,0:3:0:0:
345,109,43210,1,8,0:3:0:0:
322,104,43273,5,0,0:3:0:0:
331,127,43335,1,0,0:3:0:0:
347,144,43398,1,8,0:3:0:0:
368,157,43460,1,8,0:3:0:0:
392,163,43523,1,8,0:3:0:0:
416,163,43585,1,8,0:3:0:0:
445,152,43648,5,8,0:3:0:0:
383,128,43710,1,8,0:3:0:0:
322,104,43773,1,8,0:3:0:0:
261,80,43835,1,8,0:3:0:0:
200,56,43898,5,2,0:3:0:0:
204,66,43960,1,0,0:3:0:0:
207,76,44023,1,0,0:3:0:0:
209,87,44085,1,0,0:3:0:0:
208,97,44148,6,0,P|172:53|160:9,1,83.9999974365235,6|0,0:3|0:3,0:3:0:0:
214,176,44398,1,0,0:3:0:0:
256,21,44523,1,0,0:3:0:0:
95,209,44648,2,0,P|131:165|143:121,1,83.9999974365235,14|0,0:3|0:3,0:3:0:0:
18,305,44898,6,0,L|134:316,1,83.9999974365235,2|0,0:3|0:3,0:3:0:0:
178,259,45148,1,4,0:3:0:0:
51,129,45273,1,0,0:3:0:0:
261,266,45398,2,0,L|177:258,1,83.9999974365235,2|0,0:3|0:3,0:3:0:0:
407,246,45648,6,0,B|391:285|391:285|399:346,1,83.9999974365235,14|0,3:3|3:3,3:3:0:0:
490,297,45898,1,0,3:3:0:0:
490,297,46023,1,0,3:3:0:0:
292,354,46148,5,6,0:3:0:0:
491,371,46273,1,2,0:3:0:0:
256,358,46398,1,2,0:3:0:0:
512,384,46523,1,2,0:3:0:0:
473,194,46648,6,0,P|467:120|479:80,1,83.9999974365235,14|0,0:3|0:3,0:3:0:0:
281,77,46898,1,2,0:3:0:0:
487,35,47023,1,2,0:3:0:0:
249,149,47148,2,0,L|166:108,1,83.9999974365235,6|0,0:3|0:3,0:3:0:0:
364,91,47398,1,2,0:3:0:0:
14,165,47523,5,2,0:3:0:0:
91,71,47648,1,10,0:3:0:0:
119,183,47773,1,2,0:3:0:0:
280,162,47898,1,2,0:3:0:0:
285,0,48023,1,2,0:3:0:0:
206,220,48148,6,0,L|198:341,1,83.9999974365235,6|0,0:3|0:3,0:3:0:0:
314,350,48398,1,0,0:3:0:0:
109,339,48523,1,0,0:3:0:0:
372,293,48648,2,0,L|377:209,1,83.9999974365235,14|0,0:3|0:3,0:3:0:0:
113,266,48898,6,0,L|118:182,1,83.9999974365235,2|0,0:3|0:3,0:3:0:0:
234,130,49148,1,4,0:3:0:0:
29,119,49273,1,0,0:3:0:0:
304,255,49398,2,0,L|296:376,1,83.9999974365235,2|0,0:3|0:3,0:3:0:0:
23,212,49648,6,0,L|15:333,1,83.9999974365235,14|0,0:3|0:3,0:3:0:0:
11,384,49898,1,0,0:3:0:0:
11,384,50023,1,0,0:3:0:0:
230,261,50148,6,0,P|175:248|123:256,1,83.9999974365235,6|0,0:3|0:3,0:3:0:0:
419,157,50398,2,0,P|364:170|312:162,1,83.9999974365235,2|0,0:3|0:3,0:3:0:0:
144,81,50648,2,0,L|153:199,1,83.9999974365235,14|0,0:3|0:3,0:3:0:0:
440,275,50898,2,0,P|372:262|327:270,1,83.9999974365235,2|0,0:3|0:3,0:3:0:0:
392,55,51148,2,0,P|433:55|474:66,1,83.9999974365235,6|0,0:3|0:3,0:3:0:0:
230,261,51398,2,0,L|239:379,1,83.9999974365235,2|0,0:3|0:3,0:3:0:0:
305,82,51648,5,14,0:3:0:0:
250,28,51773,1,2,0:3:0:0:
179,0,51898,1,2,0:3:0:0:
103,1,52023,1,2,0:3:0:0:
31,103,52148,6,0,L|21:12,1,83.9999974365235,6|0,0:3|0:3,0:3:0:0:
39,197,52398,1,0,0:3:0:0:
136,58,52523,2,0,L|146:142,1,83.9999974365235,2|12,0:3|0:3,0:3:0:0:
162,238,52773,1,0,0:3:0:0:
263,169,52898,6,0,L|253:78,1,83.9999974365235,2|0,0:3|0:3,0:3:0:0:
277,271,53148,1,4,0:3:0:0:
371,123,53273,2,0,L|380:206,1,83.9999974365235,2|0,0:3|0:3,0:3:0:0:
392,302,53523,1,0,0:3:0:0:
479,103,53648,6,0,P|440:48|399:27,1,83.9999974365235,10|0,0:3|0:3,0:3:0:0:
316,7,53898,1,0,0:3:0:0:
316,7,54023,1,0,0:3:0:0:
502,180,54148,6,0,P|507:227|498:281,1,83.9999974365235,6|0,0:3|0:3,0:3:0:0:
373,384,54398,2,0,L|394:294,1,83.9999974365235,2|0,0:3|0:3,0:3:0:0:
186,221,54648,2,0,L|207:311,1,83.9999974365235,14|0,0:3|0:3,0:3:0:0:
26,231,54898,1,2,0:3:0:0:
84,142,55023,1,0,0:3:0:0:
109,362,55148,2,0,P|113:320|108:278,1,83.9999974365235,6|0,0:3|0:3,0:3:0:0:
160,47,55398,2,0,P|155:88|160:130,1,83.9999974365235,2|0,0:3|0:3,0:3:0:0:
279,316,55648,5,10,0:3:0:0:
286,238,55773,1,2,0:3:0:0:
293,160,55898,1,2,0:3:0:0:
302,83,56023,1,2,0:3:0:0:
463,122,56148,5,6,1:3:0:0:
450,211,56273,1,0,1:3:0:0:
379,155,56398,1,0,1:3:0:0:
181,336,56523,6,0,P|214:351|236:369,1,59.5000011348725,2|0,1:3|2:3,1:3:0:0:
281,216,56648,2,0,P|253:236|214:252,1,59.5000011348725,0|0,1:3|2:3,1:3:0:0:
337,362,56773,2,0,P|335:330|338:303,1,59.5000011348725,0|0,1:3|2:3,1:3:0:0:
101,255,56898,5,2,1:3:0:0:
68,340,57023,1,0,1:3:0:0:
11,268,57148,1,0,1:3:0:0:
169,12,57273,6,0,L|125:67,1,70,2|0,1:3|2:3,1:3:0:0:
11,150,57398,2,0,L|82:161,1,70,0|0,1:3|2:3,1:3:0:0:
209,218,57523,2,0,L|163:97,1,70,0|0,1:3|2:3,1:3:0:0:
8,71,57648,5,2,1:3:0:0:
217,121,57773,1,0,1:3:0:0:
11,78,57898,1,0,1:3:0:0:
289,20,58023,5,0,0:3:0:0:
288,28,58085,1,0,0:3:0:0:
287,36,58148,2,0,L|301:110,1,62.9999980773926,2|0,0:3|0:3,0:3:0:0:
372,132,58273,5,0,0:3:0:0:
373,140,58335,1,0,0:3:0:0:
374,148,58398,2,0,L|360:222,1,62.9999980773926,2|0,0:3|0:3,0:3:0:0:
279,254,58523,5,0,0:3:0:0:
282,266,58585,1,0,0:3:0:0:
286,277,58648,2,0,P|331:303|367:311,1,62.9999980773926,2|0,0:3|0:3,0:3:0:0:
422,287,58773,5,0,1:3:0:0:
425,274,58835,1,0,0:3:0:0:
429,264,58898,2,0,P|471:263|506:277,1,62.9999980773926,2|0,1:3|0:3,0:3:0:0:
493,158,59023,5,0,1:3:0:0:
486,143,59085,1,0,0:3:0:0:
483,131,59148,5,2,1:3:0:0:
459,138,59210,1,0,0:3:0:0:
445,159,59273,1,0,1:3:0:0:
441,183,59335,1,0,0:3:0:0:
387,166,59398,5,2,1:3:0:0:
383,111,59460,1,0,0:3:0:0:
333,86,59523,1,0,1:3:0:0:
285,112,59585,1,0,0:3:0:0:
230,102,59648,1,0,1:3:0:0:
207,53,59710,1,0,0:3:0:0:
235,6,59773,1,0,1:3:0:0:
288,6,59835,1,0,0:3:0:0:
281,23,59898,5,0,2:3:0:0:
281,23,60148,6,0,B|292:13|292:13|266:140,1,105.000004005432,6|0,0:3|2:3,0:3:0:0:
241,257,60398,1,2,0:3:0:0:
148,239,60523,1,0,0:3:0:0:
54,223,60648,2,0,P|73:275|69:326,1,105.000004005432,10|0,0:3|0:3,0:3:0:0:
39,116,60898,1,2,2:3:0:0:
131,135,61023,1,0,0:3:0:0:
223,154,61148,2,0,L|346:177,1,105.000004005432,6|0,0:3|0:3,0:3:0:0:
81,343,61398,2,0,L|204:366,1,105.000004005432,2|0,2:3|0:3,0:3:0:0:
512,134,61648,1,14,0:3:0:0:
465,339,61898,5,8,0:3:0:0:
484,363,62023,1,8,0:3:0:0:
292,344,62148,2,0,P|277:283|295:233,1,105.000004005432,6|0,0:3|0:3,0:3:0:0:
413,69,62398,1,2,2:3:0:0:
401,162,62523,1,0,0:3:0:0:
390,255,62648,2,0,L|376:368,1,105.000004005432,14|0,0:3|0:3,0:3:0:0:
189,228,62898,2,0,L|201:123,1,105.000004005432,2|0,0:3|2:3,0:3:0:0:
57,379,63148,2,0,P|151:373|19:330,1,420.000016021729,6|12,0:3|0:3,0:3:0:0:
0,62,63898,5,0,0:3:0:0:
72,47,64023,1,0,0:3:0:0:
144,33,64148,2,0,B|204:53|245:32|245:32|317:55|343:121|343:121|366:46,1,315.000012016297,6|0,0:3|0:3,0:3:0:0:
243,116,64648,2,0,L|258:220,1,105.000004005432,14|0,0:3|0:3,0:3:0:0:
154,109,64898,2,0,L|169:213,1,105.000004005432,2|0,0:3|0:3,0:3:0:0:
343,221,65148,2,0,P|459:204|348:266,1,315.000012016297,6|0,0:3|0:3,0:3:0:0:
374,292,65648,2,0,P|477:315|362:327,1,315.000012016297,14|0,0:3|0:3,0:3:0:0:
186,355,66148,6,0,L|63:316,1,105.000004005432,6|0,0:3|0:3,0:3:0:0:
185,226,66398,2,0,P|207:169|210:105,1,105.000004005432,2|0,0:3|0:3,0:3:0:0:
193,362,66648,2,0,L|70:323,1,105.000004005432,14|0,0:3|0:3,0:3:0:0:
192,233,66898,2,0,P|214:176|217:112,1,105.000004005432,2|0,0:3|0:3,0:3:0:0:
111,58,67148,2,0,B|52:101|51:197|107:253|107:253|73:246|36:264|21:299,1,315.000012016297,6|0,0:3|0:3,0:3:0:0:
92,330,67648,5,12,0:3:0:0:
92,330,67773,1,0,0:3:0:0:
92,330,67898,1,0,0:3:0:0:
326,344,68148,6,0,B|292:371|292:371|256:272|325:173,1,210.000008010865,6|0,0:3|0:3,0:3:0:0:
431,167,68523,1,0,0:3:0:0:
323,127,68648,2,0,L|225:91,1,105.000004005432,14|0,0:3|0:3,0:3:0:0:
209,192,68898,1,2,2:3:0:0:
120,156,69023,1,0,0:3:0:0:
31,121,69148,2,0,P|88:122|143:112,1,105.000004005432,6|0,0:3|0:3,0:3:0:0:
48,208,69398,1,0,0:3:0:0:
242,0,69648,1,14,0:3:0:0:
303,192,69898,5,0,0:3:0:0:
392,156,70023,1,0,0:3:0:0:
481,121,70148,2,0,P|424:122|369:112,1,105.000004005432,6|0,0:3|0:3,0:3:0:0:
255,270,70398,2,0,P|306:261|359:263,1,105.000004005432,0|2,0:3|0:3,0:3:0:0:
336,384,70648,1,12,0:3:0:0:
247,348,70773,1,0,0:3:0:0:
158,313,70898,2,0,B|145:278|151:247|151:247|70:265|56:356,1,210.000008010865,2|4,0:3|0:3,0:3:0:0:
168,71,71398,2,0,P|68:5|133:156,1,420.000016021729,2|0,0:3|0:3,0:3:0:0:
251,168,72023,5,0,0:3:0:0:
268,65,72148,2,0,B|312:9|394:11|436:67|436:67|491:37|491:37|519:118,1,315.000012016297,6|0,0:3|0:3,0:3:0:0:
352,127,72648,2,0,L|364:235,1,105.000004005432,14|0,0:3|0:3,0:3:0:0:
453,152,72898,2,0,L|465:260,1,105.000004005432,2|0,0:3|0:3,0:3:0:0:
252,241,73148,2,0,P|139:273|252:303,1,315.000012016297,6|0,0:3|0:3,0:3:0:0:
252,303,73648,2,0,P|364:333|252:365,1,315.000012016297,14|0,0:3|0:3,0:3:0:0:
52,302,74148,6,0,L|42:185,1,105.000004005432,6|0,0:3|2:3,0:3:0:0:
172,160,74398,5,8,0:3:0:0:
28,84,74523,1,8,0:3:0:0:
42,306,74648,6,0,L|32:189,1,105.000004005432,0|0,0:3|2:3,0:3:0:0:
162,164,74898,5,8,0:3:0:0:
18,88,75023,1,8,0:3:0:0:
250,39,75148,6,0,P|316:94|225:94,1,210.000008010865,4|4,0:3|0:3,0:3:0:0:
420,0,75648,6,0,L|409:67,1,52.5000020027161,8|0,0:3|0:3,0:3:0:0:
436,137,75773,2,0,L|426:199,1,52.5000020027161,8|0,0:3|0:3,0:3:0:0:
446,277,75898,1,8,0:3:0:0:
321,361,76148,5,6,1:3:0:0:
321,377,76273,1,0,1:3:0:0:
176,311,76398,1,2,1:3:0:0:
176,327,76523,1,0,1:3:0:0:
321,261,76648,1,2,1:3:0:0:
321,277,76773,1,0,1:3:0:0:
176,211,76898,1,2,1:3:0:0:
176,227,77023,1,0,1:3:0:0:
321,161,77148,1,2,1:3:0:0:
321,177,77273,1,0,1:3:0:0:
176,111,77398,1,2,1:3:0:0:
176,127,77523,1,0,1:3:0:0:
321,61,77648,1,2,1:3:0:0:
321,77,77773,1,0,1:3:0:0:
176,11,77898,1,2,1:3:0:0:
176,27,78023,1,0,1:3:0:0:
102,190,78148,6,0,P|78:232|45:269,1,97.9999970092774,6|0,0:3|0:3,0:3:0:0:
49,79,78398,2,0,P|72:36|105:0,1,97.9999970092774,6|0,0:3|0:3,0:3:0:0:
92,190,78648,2,0,P|68:232|35:269,1,97.9999970092774,2|0,0:3|1:3,0:3:0:0:
39,79,78898,2,0,P|62:36|95:0,1,97.9999970092774,2|0,1:3|1:3,1:3:0:0:
82,190,79148,2,0,P|58:232|25:269,1,97.9999970092774,2|0,1:3|1:3,1:3:0:0:
29,79,79398,2,0,P|52:36|85:0,1,97.9999970092774,2|0,1:3|1:3,1:3:0:0:
410,190,79648,6,0,P|433:232|466:269,1,97.9999970092774,6|0,0:3|0:3,0:3:0:0:
463,79,79898,2,0,P|439:36|406:0,1,97.9999970092774,6|0,0:3|0:3,0:3:0:0:
420,190,80148,2,0,P|443:232|476:269,1,97.9999970092774,2|0,0:3|1:3,0:3:0:0:
473,79,80398,2,0,P|449:36|416:0,1,97.9999970092774,2|0,1:3|1:3,1:3:0:0:
430,190,80648,2,0,P|453:232|486:269,1,97.9999970092774,2|0,1:3|1:3,1:3:0:0:
483,79,80898,2,0,P|459:36|426:0,1,97.9999970092774,2|0,1:3|1:3,1:3:0:0:
192,112,81148,5,2,0:3:0:0:
352,207,81273,1,0,0:3:0:0:
160,207,81398,1,2,0:3:0:0:
320,112,81523,1,0,0:3:0:0:
191,284,81648,2,0,P|168:343|177:381,1,97.9999970092774,6|0,0:3|0:3,0:3:0:0:
321,284,81898,2,0,P|344:343|335:381,1,97.9999970092774,6|0,0:3|0:3,0:3:0:0:
98,277,82148,6,0,L|-9:248,1,97.9999970092774,2|0,0:3|0:3,0:3:0:0:
98,67,82398,2,0,L|-9:96,1,97.9999970092774,2|0,0:3|0:3,0:3:0:0:
225,12,82648,2,0,P|234:62|226:124,1,97.9999970092774,2|0,0:3|0:3,0:3:0:0:
343,212,82898,2,0,P|334:162|342:100,1,97.9999970092774,2|0,1:3|1:3,1:3:0:0:
475,159,83148,1,2,1:3:0:0:
396,0,83273,1,0,1:3:0:0:
474,172,83398,2,0,L|462:282,1,97.9999970092774,2|0,1:3|1:3,1:3:0:0:
201,370,83648,5,6,0:3:0:0:
286,353,83773,1,0,0:3:0:0:
317,276,83898,1,0,0:3:0:0:
146,309,84023,1,0,0:3:0:0:
13,236,84148,6,0,P|4:154|43:60,1,146.999995513916,14|0,0:3|2:3,0:3:0:0:
12,88,84398,2,0,P|-9:181|6:250,1,146.999995513916,6|0,0:3|2:3,0:3:0:0:
20,295,84648,1,2,0:3:0:0:
136,211,84898,5,8,0:3:0:0:
138,199,84960,1,8,0:3:0:0:
137,187,85023,1,8,0:3:0:0:
132,177,85085,1,8,0:3:0:0:
122,169,85148,5,0,0:3:0:0:
161,169,85210,1,0,0:3:0:0:
210,172,85273,1,0,0:3:0:0:
268,174,85335,1,0,0:3:0:0:
337,178,85398,1,8,0:3:0:0:
328,158,85648,5,8,0:3:0:0:
320,140,85898,1,8,0:3:0:0:
382,280,86148,5,6,0:3:0:0:
242,376,86648,2,0,L|249:258,2,112,14|0|4,0:3|0:3|0:3,0:3:0:0:
134,316,87398,1,0,0:3:0:0:
382,280,87648,1,12,0:3:0:0:
382,280,88148,5,4,0:3:0:0:
462,340,88398,1,0,0:3:0:0:
386,152,88648,1,12,0:3:0:0:
476,106,88898,2,0,P|390:54|291:122,1,224,0|0,0:3|0:3,0:3:0:0:
288,146,89523,1,0,0:3:0:0:
211,193,89648,5,12,0:3:0:0:
215,176,89773,1,0,0:3:0:0:
135,55,89898,1,2,0:3:0:0:
122,133,90023,1,0,0:3:0:0:
109,212,90148,6,0,B|115:276|172:307|172:307|104:329|40:303,1,245,6|0,0:3|0:3,0:3:0:0:
14,270,90648,1,12,0:3:0:0:
36,376,90898,2,0,P|146:385|250:346,1,224,0|0,0:3|0:3,0:3:0:0:
14,270,91648,1,12,0:3:0:0:
14,270,92148,5,4,0:3:0:0:
23,169,92398,1,0,0:3:0:0:
122,18,92648,1,12,0:3:0:0:
113,119,92898,5,0,0:3:0:0:
125,108,93023,1,0,0:3:0:0:
137,97,93148,2,0,B|175:69|175:69|248:69|248:69|292:102,1,154.000004699707,4|0,0:3|1:3,0:3:0:0:
341,142,93523,1,0,1:3:0:0:
269,183,93648,5,12,0:3:0:0:
280,198,93710,1,0,0:3:0:0:
295,210,93773,1,0,0:3:0:0:
312,219,93835,1,0,0:3:0:0:
330,224,93898,1,0,0:3:0:0:
349,226,93960,1,0,0:3:0:0:
368,223,94023,1,2,0:3:0:0:
386,216,94085,1,0,0:3:0:0:
402,205,94148,5,6,0:3:0:0:
387,43,94648,2,0,L|280:101,2,112,14|0|4,0:3|0:3|0:3,0:3:0:0:
297,0,95398,1,0,0:3:0:0:
402,205,95648,1,12,0:3:0:0:
402,205,96148,5,4,0:3:0:0:
447,101,96398,1,0,0:3:0:0:
295,183,96648,1,12,0:3:0:0:
402,205,96898,2,0,P|449:236|349:258,1,224,0|0,0:3|0:3,0:3:0:0:
349,260,97523,1,0,0:3:0:0:
255,362,97648,5,12,0:3:0:0:
338,349,97773,1,0,0:3:0:0:
349,260,97898,1,0,0:3:0:0:
266,273,98023,1,0,0:3:0:0:
183,290,98148,6,0,B|92:312|92:312|152:173,1,245,6|0,0:3|0:3,0:3:0:0:
170,134,98648,1,14,0:3:0:0:
186,57,98898,2,0,P|95:148|141:206,1,224,2|0,0:3|0:3,0:3:0:0:
0,134,99648,1,12,0:3:0:0:
0,134,100148,5,4,0:3:0:0:
111,121,100398,1,0,0:3:0:0:
4,279,100648,1,12,0:3:0:0:
115,266,100898,5,0,0:3:0:0:
146,219,101023,1,0,0:3:0:0:
146,219,101148,2,0,L|170:291,1,56,8|8,0:3|0:3,0:3:0:0:
236,302,101398,5,8,1:3:0:0:
273,244,101523,1,8,1:3:0:0:
273,244,101648,2,0,L|302:332,1,83.9999974365235,0|0,0:3|0:3,0:3:0:0:
370,342,101898,5,8,1:3:0:0:
413,273,102023,1,8,1:3:0:0:
450,338,102148,5,4,0:3:0:0:
452,342,102210,1,0,0:3:0:0:
454,347,102273,1,0,0:3:0:0:
457,352,102335,1,0,0:3:0:0:
459,356,102398,1,0,0:3:0:0:
461,361,102460,1,0,0:3:0:0:
464,366,102523,1,0,0:3:0:0:
466,370,102585,1,0,0:3:0:0:
468,375,102648,5,8,0:3:0:0:
454,335,102710,1,8,0:3:0:0:
470,296,102773,5,8,0:3:0:0:
464,254,102835,1,8,0:3:0:0:
439,210,102898,5,8,0:3:0:0:
442,168,102960,1,8,0:3:0:0:
478,133,103023,5,8,0:3:0:0:
490,93,103085,1,8,0:3:0:0:
477,48,103148,5,4,0:3:0:0:
479,53,103210,1,0,0:3:0:0:
482,58,103273,1,0,0:3:0:0:
484,62,103335,1,0,0:3:0:0:
486,67,103398,1,0,0:3:0:0:
489,72,103460,1,0,0:3:0:0:
491,77,103523,1,0,0:3:0:0:
493,81,103585,1,0,0:3:0:0:
491,101,103648,5,8,0:3:0:0:
449,121,103710,1,8,0:3:0:0:
491,121,103898,5,8,0:3:0:0:
449,141,103960,1,8,0:3:0:0:
491,141,104148,5,6,1:3:0:0:
340,16,104273,1,0,1:3:0:0:
449,161,104398,1,2,1:3:0:0:
298,36,104522,1,0,1:3:0:0:
294,235,104648,2,0,L|292:339,1,105.000004005432,2|0,1:3|1:3,1:3:0:0:
196,104,104898,2,0,L|197:0,1,105.000004005432,0|0,1:3|1:3,1:3:0:0:
195,268,105148,5,2,1:3:0:0:
312,117,105273,1,0,1:3:0:0:
154,282,105398,1,2,1:3:0:0:
271,131,105523,1,0,1:3:0:0:
379,338,105648,2,0,P|420:296|434:241,1,105.000004005432,2|0,1:3|1:3,1:3:0:0:
112,190,105898,2,0,P|71:232|58:284,1,105.000004005432,0|0,1:3|1:3,1:3:0:0:
4,67,106148,5,2,1:3:0:0:
58,275,106273,1,0,1:3:0:0:
84,91,106398,2,0,L|97:-13,1,105.000004005432,2|0,1:3|1:3,1:3:0:0:
232,302,106648,5,2,1:3:0:0:
178,94,106773,1,2,1:3:0:0:
152,278,106898,2,0,L|139:382,1,105.000004005432,2|0,1:3|1:3,1:3:0:0:
318,175,107148,6,0,L|250:188,1,52.5000020027161,2|0,0:3|2:3,0:3:0:0:
106,218,107273,2,0,L|38:231,1,52.5000020027161,2|0,0:3|2:3,0:3:0:0:
453,147,107398,2,0,L|504:135,1,52.5000020027161,6|0,0:3|0:3,0:3:0:0:
288,68,107648,6,0,L|223:91,1,52.5000020027161,2|0,0:3|2:3,0:3:0:0:
85,143,107773,2,0,L|20:166,1,52.5000020027161,2|0,0:3|2:3,0:3:0:0:
416,19,107898,2,0,L|464:0,1,52.5000020027161,6|0,0:3|0:3,0:3:0:0:
389,183,108148,5,2,1:3:0:0:
464,0,108273,1,0,1:3:0:0:
407,219,108398,1,2,1:3:0:0:
482,36,108523,1,0,1:3:0:0:
362,286,108648,2,0,L|411:396,1,105.000004005432,2|0,1:3|1:3,1:3:0:0:
203,258,108898,2,0,L|252:368,1,105.000004005432,0|0,1:3|1:3,1:3:0:0:
21,249,109148,5,2,1:3:0:0:
270,175,109273,1,0,1:3:0:0:
36,208,109398,1,2,1:3:0:0:
285,134,109523,1,0,1:3:0:0:
97,31,109648,2,0,B|46:6|46:6|-1:19,1,105.000004005432,2|0,1:3|1:3,1:3:0:0:
332,121,109898,2,0,B|285:134|285:134|234:109,1,105.000004005432,0|0,1:3|1:3,1:3:0:0:
474,32,110148,5,2,1:3:0:0:
448,227,110273,1,0,1:3:0:0:
401,7,110398,2,0,P|409:77|460:108,1,105.000004005432,2|0,1:3|1:3,1:3:0:0:
439,357,110648,5,2,1:3:0:0:
465,162,110773,1,2,1:3:0:0:
512,382,110898,2,0,P|504:312|453:281,1,105.000004005432,2|0,1:3|1:3,1:3:0:0:
187,209,111148,6,0,L|254:195,1,52.5000020027161,2|0,0:3|2:3,0:3:0:0:
399,166,111273,2,0,L|466:152,1,52.5000020027161,2|0,0:3|2:3,0:3:0:0:
52,237,111398,2,0,L|0:248,1,52.5000020027161,6|0,0:3|0:3,0:3:0:0:
217,316,111648,6,0,L|281:292,1,52.5000020027161,2|0,0:3|2:3,0:3:0:0:
420,241,111773,2,0,L|484:217,1,52.5000020027161,2|0,0:3|2:3,0:3:0:0:
89,365,111898,2,0,L|40:384,1,52.5000020027161,6|0,0:3|0:3,0:3:0:0:
0,164,112148,5,6,0:3:0:0:
116,153,112398,1,2,0:3:0:0:
232,142,112648,1,14,0:3:0:0:
348,131,112898,1,0,0:3:0:0:
0,150,113148,5,6,0:3:0:0:
116,139,113398,1,2,0:3:0:0:
348,117,113648,1,14,0:3:0:0:
232,128,113898,1,2,0:3:0:0:
429,22,114148,5,6,0:3:0:0:
432,56,114210,1,2,0:3:0:0:
436,91,114273,1,2,0:3:0:0:
440,126,114335,1,2,0:3:0:0:
444,161,114398,1,2,0:3:0:0:
448,195,114460,1,2,0:3:0:0:
452,230,114523,1,2,0:3:0:0:
455,265,114585,1,2,0:3:0:0:
512,251,114648,5,14,0:3:0:0:
396,240,114898,1,2,0:3:0:0:
280,229,115148,1,6,0:3:0:0:
170,259,115398,5,2,0:3:0:0:
82,231,115523,1,0,0:3:0:0:
60,314,115648,5,14,0:3:0:0:
56,280,115710,1,2,0:3:0:0:
52,245,115773,1,2,0:3:0:0:
48,210,115835,1,2,0:3:0:0:
44,175,115898,1,2,0:3:0:0:
41,140,115960,1,2,0:3:0:0:
37,106,116023,1,2,0:3:0:0:
34,71,116085,1,2,0:3:0:0:
22,69,116148,5,6,0:3:0:0:
138,58,116398,1,0,0:3:0:0:
370,36,116648,2,0,B|360:85|360:85|362:138|379:176,1,140,14|0,0:3|0:3,0:3:0:0:
392,307,117148,6,2,L|372:245,2,52.5000020027161,6|2|2,0:3|0:3|0:3,0:3:0:0:
456,186,117398,2,2,L|495:338,1,157.500006008148,2|2,0:3|0:3,0:3:0:0:
466,333,117648,5,12,0:3:0:0:
279,379,117898,2,0,L|296:290,1,70,2|0,0:3|2:3,0:3:0:0:
310,174,118148,5,4,0:3:0:0:
270,179,118210,1,0,0:3:0:0:
231,193,118273,1,0,0:3:0:0:
197,213,118335,1,0,0:3:0:0:
169,243,118398,5,2,0:3:0:0:
147,236,118460,1,0,0:3:0:0:
127,228,118523,1,0,0:3:0:0:
106,222,118585,1,0,0:3:0:0:
85,215,118648,5,14,0:3:0:0:
97,227,118710,1,0,0:3:0:0:
110,239,118773,1,0,0:3:0:0:
123,251,118835,1,0,0:3:0:0:
135,264,118898,2,0,L|87:268,3,35,2|0|0|0,0:3|0:3|0:3|0:3,0:3:0:0:
94,282,119148,6,0,P|87:214|68:121,1,140,6|0,0:3|1:3,0:3:0:0:
3,25,119523,1,0,1:3:0:0:
161,115,119648,2,0,P|174:183|181:253,1,140,14|0,0:3|1:3,0:3:0:0:
118,374,120023,1,0,1:3:0:0:
31,335,120148,5,6,0:3:0:0:
147,346,120398,1,2,0:3:0:0:
263,357,120648,1,14,0:3:0:0:
379,368,120898,1,0,0:3:0:0:
31,349,121148,5,6,0:3:0:0:
147,360,121398,1,2,0:3:0:0:
379,382,121648,1,14,0:3:0:0:
263,371,121898,1,2,0:3:0:0:
497,339,122148,5,6,0:3:0:0:
492,304,122210,1,2,0:3:0:0:
487,269,122273,1,2,0:3:0:0:
482,235,122335,1,2,0:3:0:0:
477,200,122398,1,2,0:3:0:0:
472,165,122460,1,2,0:3:0:0:
467,131,122523,1,2,0:3:0:0:
462,96,122585,1,2,0:3:0:0:
512,89,122648,5,14,0:3:0:0:
396,100,122898,1,2,0:3:0:0:
280,111,123148,1,6,0:3:0:0:
173,162,123398,5,2,0:3:0:0:
92,109,123523,1,0,0:3:0:0:
150,21,123648,5,14,0:3:0:0:
145,55,123710,1,2,0:3:0:0:
140,90,123773,1,2,0:3:0:0:
135,124,123835,1,2,0:3:0:0:
130,159,123898,1,2,0:3:0:0:
125,194,123960,1,2,0:3:0:0:
120,228,124023,1,2,0:3:0:0:
115,263,124085,1,2,0:3:0:0:
126,274,124148,6,0,P|182:291|144:337,1,140,6|0,0:3|0:3,0:3:0:0:
12,335,124648,2,0,L|147:301,1,140,14|0,0:3|0:3,0:3:0:0:
327,253,125148,6,2,L|379:278,2,52.5000020027161,6|2|2,0:3|0:3|0:3,0:3:0:0:
416,383,125398,2,2,L|259:305,1,157.500006008148,2|2,0:3|0:3,0:3:0:0:
287,365,125648,5,12,0:3:0:0:
291,370,125898,2,0,L|326:297,1,70,2|0,0:3|2:3,0:3:0:0:
393,137,126148,5,4,0:3:0:0:
391,180,126210,1,0,0:3:0:0:
408,220,126273,1,0,0:3:0:0:
441,248,126335,1,0,0:3:0:0:
483,259,126398,5,2,0:3:0:0:
453,241,126460,1,0,0:3:0:0:
420,229,126523,1,0,0:3:0:0:
386,225,126585,1,0,0:3:0:0:
351,229,126648,5,14,0:3:0:0:
354,221,126710,1,0,0:3:0:0:
357,213,126773,1,0,0:3:0:0:
359,204,126835,1,0,0:3:0:0:
362,196,126898,2,0,L|325:204,3,35,2|0|0|0,0:3|0:3|0:3|0:3,0:3:0:0:
330,220,127148,6,0,B|319:146|319:146|330:57,1,140,6|0,0:3|1:3,0:3:0:0:
415,5,127523,1,0,1:3:0:0:
244,81,127648,2,0,B|239:150|239:150|249:219,1,140,14|0,0:3|1:3,0:3:0:0:
271,324,128023,1,0,1:3:0:0:
52,384,128148,5,14,0:3:0:0:
60,345,128210,1,0,0:3:0:0:
69,307,128273,1,0,0:3:0:0:
78,268,128335,1,0,0:3:0:0:
87,230,128398,5,10,0:3:0:0:
83,269,128460,1,0,0:3:0:0:
87,308,128523,1,0,0:3:0:0:
98,346,128585,1,0,0:3:0:0:
115,382,128648,5,10,0:3:0:0:
108,343,128710,1,0,0:3:0:0:
117,305,128773,1,0,0:3:0:0:
141,274,128835,1,0,0:3:0:0:
176,256,128898,1,8,0:3:0:0:
214,260,128960,1,0,0:3:0:0:
238,290,129023,1,0,0:3:0:0:
233,328,129085,1,0,0:3:0:0:
203,351,129148,5,10,0:3:0:0:
208,312,129210,1,0,0:3:0:0:
214,273,129273,1,0,0:3:0:0:
219,234,129335,1,0,0:3:0:0:
225,194,129398,5,10,0:3:0:0:
188,208,129460,1,0,0:3:0:0:
149,213,129523,1,0,0:3:0:0:
110,210,129585,1,0,0:3:0:0:
73,197,129648,5,10,3:3:0:0:
87,155,129710,1,0,3:3:0:0:
118,126,129773,1,0,3:3:0:0:
158,110,129835,1,0,3:3:0:0:
201,112,129898,1,8,0:3:0:0:
242,107,129960,1,0,0:3:0:0:
277,83,130023,1,0,0:3:0:0:
296,45,130085,1,0,0:3:0:0:
296,3,130148,5,14,0:3:0:0:
347,11,130210,1,8,2:3:0:0:
399,19,130273,1,8,2:3:0:0:
451,28,130335,1,8,2:3:0:0:
503,36,130398,5,10,0:3:0:0:
451,44,130460,1,8,2:3:0:0:
399,52,130523,1,8,2:3:0:0:
347,61,130585,1,8,2:3:0:0:
295,69,130648,5,10,0:3:0:0:
346,77,130710,1,8,2:3:0:0:
398,85,130773,1,8,2:3:0:0:
450,94,130835,1,8,2:3:0:0:
500,101,130898,5,10,0:3:0:0:
449,109,130960,1,8,2:3:0:0:
397,117,131023,1,8,2:3:0:0:
345,126,131085,1,8,2:3:0:0:
293,134,131148,5,10,0:3:0:0:
328,172,131210,1,8,2:3:0:0:
370,204,131273,1,10,2:3:0:0:
419,220,131335,1,8,2:3:0:0:
460,195,131398,1,10,0:3:0:0:
437,152,131460,1,8,2:3:0:0:
386,146,131523,1,8,2:3:0:0:
337,165,131585,1,8,2:3:0:0:
296,197,131648,6,8,P|323:222|357:222,3,52.5000020027161,10|8|10|8,0:0|0:0|0:0|0:0,0:0:0:0:
383,280,131898,2,8,P|404:251|406:216,3,52.5000020027161,10|8|8|8,0:0|0:0|0:0|0:0,0:0:0:0:
421,175,132148,5,14,0:3:0:0:
411,226,132210,1,8,2:3:0:0:
401,278,132273,1,8,2:3:0:0:
392,329,132335,1,8,2:3:0:0:
382,381,132398,5,10,0:3:0:0:
336,356,132460,1,8,2:3:0:0:
290,331,132523,1,8,2:3:0:0:
244,306,132585,1,8,2:3:0:0:
197,281,132648,5,10,0:3:0:0:
163,320,132710,1,8,2:3:0:0:
113,336,132773,1,8,2:3:0:0:
63,324,132835,1,8,2:3:0:0:
25,288,132898,1,8,0:3:0:0:
11,238,132960,1,8,2:3:0:0:
24,188,133023,1,8,2:3:0:0:
61,152,133085,1,8,2:3:0:0:
112,139,133148,5,10,0:3:0:0:
107,178,133210,1,0,0:3:0:0:
103,217,133273,1,0,0:3:0:0:
99,256,133335,1,0,0:3:0:0:
98,300,133398,5,10,0:3:0:0:
132,273,133460,1,0,0:3:0:0:
155,236,133523,1,0,0:3:0:0:
163,193,133585,1,0,0:3:0:0:
155,150,133648,5,10,0:3:0:0:
112,179,133710,1,0,0:3:0:0:
93,227,133773,1,0,0:3:0:0:
103,278,133835,1,0,0:3:0:0:
140,314,133898,1,8,0:3:0:0:
192,317,133960,1,0,0:3:0:0:
237,292,134023,1,0,0:3:0:0:
263,247,134085,1,0,0:3:0:0:
260,196,134148,6,0,L|226:246,1,52.5000020027161,6|0,1:3|0:3,0:3:0:0:
274,215,134273,2,0,L|239:264,1,52.5000020027161,0|0,1:3|0:3,0:3:0:0:
284,66,134398,6,0,L|234:31,1,52.5000020027161,2|0,1:3|0:3,0:3:0:0:
265,79,134523,2,0,L|215:44,1,52.5000020027161,0|0,1:3|0:3,0:3:0:0:
414,89,134648,6,0,L|448:39,1,52.5000020027161,2|0,1:3|0:3,0:3:0:0:
401,70,134773,2,0,L|435:20,1,52.5000020027161,2|0,1:3|0:3,0:3:0:0:
391,219,134898,6,0,L|440:253,1,52.5000020027161,2|0,1:3|0:3,0:3:0:0:
410,206,135023,2,0,L|459:240,1,52.5000020027161,0|0,1:3|0:3,0:3:0:0:
375,369,135148,6,0,L|331:338,1,52.5000020027161,2|0,1:3|0:3,0:3:0:0:
189,238,135273,2,0,L|146:208,1,52.5000020027161,2|0,1:3|0:3,0:3:0:0:
0,89,135398,2,8,B|33:82|33:82|55:63,3,52.5000020027161,10|8|8|8,2:3|2:3|2:3|2:3,2:3:0:0:
33,170,135648,5,10,0:3:0:0:
86,160,135710,1,8,0:3:0:0:
134,139,135773,1,10,0:3:0:0:
177,106,135835,1,8,0:3:0:0:
177,28,135898,2,8,B|151:31|151:31|129:45,3,52.5000020027161,10|8|8|8,2:3|2:3|2:3|2:3,2:3:0:0:
177,106,136148,5,14,0:3:0:0:
233,279,136273,1,0,0:3:0:0:
195,112,136398,5,10,0:3:0:0:
251,285,136523,1,0,0:3:0:0:
213,118,136648,5,10,0:3:0:0:
269,291,136773,1,0,0:3:0:0:
231,124,136898,5,8,0:3:0:0:
287,297,137023,1,0,0:3:0:0:
414,154,137148,5,10,0:3:0:0:
189,223,137273,1,0,0:3:0:0:
413,172,137398,5,10,0:3:0:0:
187,240,137523,1,0,0:3:0:0:
412,189,137648,5,10,0:3:0:0:
186,258,137773,1,0,0:3:0:0:
411,207,137898,5,8,0:3:0:0:
185,275,138023,1,0,0:3:0:0:
455,327,138148,5,14,0:3:0:0:
165,189,138273,1,0,0:3:0:0:
462,308,138398,5,10,0:3:0:0:
170,168,138523,1,0,0:3:0:0:
469,289,138648,5,10,0:3:0:0:
175,147,138773,1,0,0:3:0:0:
476,270,138898,5,8,0:3:0:0:
180,126,139023,1,0,0:3:0:0:
512,145,139148,5,10,0:3:0:0:
229,370,139273,1,10,0:3:0:0:
213,12,139398,1,10,0:3:0:0:
497,156,139648,5,10,0:3:0:0:
214,381,139773,1,10,0:3:0:0:
198,23,139898,1,10,0:3:0:0:
403,9,140148,5,14,0:3:0:0:
428,195,140273,1,0,0:3:0:0:
384,8,140398,5,10,0:3:0:0:
409,194,140523,1,0,0:3:0:0:
365,7,140648,5,10,0:3:0:0:
390,193,140773,1,0,0:3:0:0:
346,6,140898,5,8,0:3:0:0:
371,192,141023,1,0,0:3:0:0:
187,47,141148,5,10,0:3:0:0:
437,70,141273,1,0,0:3:0:0:
175,62,141398,5,10,0:3:0:0:
425,85,141523,1,0,0:3:0:0:
163,77,141648,5,10,0:3:0:0:
413,100,141773,1,0,0:3:0:0:
151,92,141898,5,8,0:3:0:0:
401,115,142023,1,0,0:3:0:0:
109,249,142148,5,14,0:3:0:0:
334,83,142273,1,0,0:3:0:0:
96,236,142398,5,10,0:3:0:0:
330,57,142523,1,0,0:3:0:0:
83,223,142648,5,10,0:3:0:0:
326,31,142773,1,0,0:3:0:0:
70,210,142898,5,8,0:3:0:0:
322,5,143023,1,0,0:3:0:0:
210,384,143148,5,8,0:3:0:0:
111,51,143273,1,8,0:3:0:0:
481,152,143398,1,8,0:3:0:0:
206,370,143648,5,8,0:3:0:0:
107,37,143773,1,8,0:3:0:0:
477,138,143898,1,8,0:3:0:0:
100,265,144148,5,6,0:3:0:0:
130,262,144273,1,0,0:3:0:0:
160,260,144398,1,0,0:3:0:0:
190,258,144523,1,0,0:3:0:0:
232,191,144648,5,14,0:3:0:0:
262,188,144773,1,0,0:3:0:0:
292,186,144898,1,0,0:3:0:0:
260,111,145023,1,8,0:3:0:0:
381,247,145148,5,4,0:3:0:0:
411,244,145273,1,0,0:3:0:0:
441,242,145398,1,0,0:3:0:0:
471,240,145523,1,0,0:3:0:0:
419,97,145648,5,12,0:3:0:0:
497,91,145773,1,0,0:3:0:0:
495,98,145835,1,0,0:3:0:0:
494,105,145898,1,0,0:3:0:0:
493,113,145960,1,0,0:3:0:0:
492,120,146023,1,0,0:3:0:0:
490,128,146085,1,0,0:3:0:0:
485,163,146148,5,4,0:3:0:0:
454,161,146273,1,0,0:3:0:0:
424,159,146398,1,0,0:3:0:0:
394,157,146523,1,0,0:3:0:0:
348,87,146648,5,12,0:3:0:0:
317,85,146773,1,0,0:3:0:0:
287,83,146898,1,0,0:3:0:0:
257,81,147023,1,0,0:3:0:0:
203,146,147148,5,4,0:3:0:0:
172,144,147273,1,0,0:3:0:0:
142,142,147398,5,0,0:3:0:0:
144,152,147460,1,0,0:3:0:0:
147,163,147523,1,0,0:3:0:0:
150,174,147585,1,0,0:3:0:0:
177,220,147648,2,0,L|86:212,1,90.9999958343508,12|0,0:3|0:3,0:3:0:0:
70,283,147898,5,2,0:3:0:0:
68,293,147960,1,0,0:3:0:0:
65,304,148023,1,0,0:3:0:0:
62,315,148085,1,0,0:3:0:0:
30,338,148148,5,6,0:3:0:0:
27,307,148273,1,0,0:3:0:0:
24,277,148398,1,0,0:3:0:0:
21,247,148523,1,0,0:3:0:0:
79,172,148648,5,12,0:3:0:0:
76,141,148773,1,0,0:3:0:0:
73,111,148898,1,0,0:3:0:0:
0,151,149023,1,8,0:3:0:0:
163,65,149148,5,4,0:3:0:0:
165,95,149273,1,0,0:3:0:0:
168,125,149398,1,0,0:3:0:0:
171,155,149523,1,0,0:3:0:0:
144,308,149648,5,12,0:3:0:0:
217,334,149773,1,0,0:3:0:0:
219,326,149835,1,0,0:3:0:0:
220,318,149898,1,0,0:3:0:0:
221,311,149960,1,0,0:3:0:0:
222,303,150023,1,0,0:3:0:0:
223,296,150085,1,0,0:3:0:0:
254,274,150148,5,4,0:3:0:0:
256,243,150273,1,0,0:3:0:0:
258,213,150398,1,0,0:3:0:0:
260,183,150523,1,0,0:3:0:0:
320,130,150648,5,12,0:3:0:0:
322,99,150773,1,0,0:3:0:0:
324,69,150898,1,0,0:3:0:0:
326,39,151023,1,0,0:3:0:0:
423,3,151148,6,0,L|418:102,1,90.9999958343508,4|0,0:3|0:3,0:3:0:0:
384,178,151398,5,0,0:3:0:0:
400,183,151460,1,0,0:3:0:0:
416,185,151523,1,0,0:3:0:0:
433,184,151585,1,0,0:3:0:0:
484,154,151648,2,0,L|479:244,1,90.9999958343508,12|0,0:3|0:3,0:3:0:0:
500,332,151898,5,2,0:3:0:0:
483,333,151960,1,0,0:3:0:0:
467,332,152023,1,0,0:3:0:0:
450,327,152085,1,0,0:3:0:0:
414,293,152148,5,6,0:3:0:0:
383,294,152273,1,0,0:3:0:0:
353,296,152398,1,0,0:3:0:0:
323,298,152523,1,0,0:3:0:0:
269,355,152648,5,14,0:3:0:0:
238,356,152773,1,0,0:3:0:0:
208,358,152898,1,0,0:3:0:0:
247,274,153023,1,8,0:3:0:0:
140,308,153148,5,4,0:3:0:0:
109,309,153273,1,0,0:3:0:0:
79,311,153398,1,0,0:3:0:0:
49,313,153523,1,0,0:3:0:0:
16,362,153648,6,0,P|3:311|2:251,1,90.9999958343508,12|0,0:3|0:3,0:3:0:0:
4,266,153835,1,0,0:3:0:0:
7,259,153898,1,0,0:3:0:0:
10,252,153960,1,0,0:3:0:0:
11,244,154023,1,0,0:3:0:0:
13,237,154085,1,0,0:3:0:0:
18,197,154148,5,4,0:3:0:0:
48,194,154273,1,0,0:3:0:0:
78,192,154398,1,0,0:3:0:0:
108,190,154523,1,0,0:3:0:0:
154,114,154648,5,12,0:3:0:0:
184,111,154773,1,0,0:3:0:0:
214,109,154898,1,0,0:3:0:0:
244,107,155023,1,0,0:3:0:0:
312,165,155148,5,4,0:3:0:0:
342,162,155273,1,0,0:3:0:0:
376,88,155398,5,0,0:3:0:0:
387,90,155460,1,0,0:3:0:0:
398,90,155523,1,0,0:3:0:0:
409,88,155585,1,0,0:3:0:0:
440,79,155648,2,0,L|451:184,1,90.9999958343508,12|0,0:3|0:3,0:3:0:0:
512,248,155898,5,0,0:3:0:0:
501,246,155960,1,0,0:3:0:0:
490,246,156023,1,0,0:3:0:0:
479,248,156085,1,0,0:3:0:0:
440,279,156148,5,6,0:3:0:0:
438,248,156273,1,0,0:3:0:0:
437,218,156398,1,0,0:3:0:0:
435,188,156523,1,0,0:3:0:0:
367,323,156648,6,0,L|360:219,1,90.9999958343508,14|0,0:3|0:3,0:3:0:0:
286,365,156898,5,2,0:3:0:0:
182,372,157023,1,8,0:3:0:0:
227,280,157148,5,4,0:3:0:0:
225,250,157273,1,0,0:3:0:0:
224,219,157398,1,0,0:3:0:0:
222,189,157523,1,0,0:3:0:0:
147,117,157648,6,0,L|152:237,1,90.9999958343508,12|0,0:3|0:3,0:3:0:0:
151,215,157835,1,0,0:3:0:0:
151,223,157898,1,0,0:3:0:0:
151,230,157960,1,0,0:3:0:0:
151,238,158023,1,0,0:3:0:0:
152,245,158085,1,0,0:3:0:0:
151,280,158148,6,0,P|104:272|51:277,1,90.9999958343508,4|0,0:3|0:3,0:3:0:0:
0,354,158398,2,0,P|47:362|100:357,1,90.9999958343508,0|0,0:3|0:3,0:3:0:0:
232,330,158648,5,12,0:3:0:0:
230,300,158773,1,0,0:3:0:0:
258,230,158898,1,0,0:3:0:0:
256,200,159023,1,0,0:3:0:0:
285,122,159148,6,0,P|283:51|260:20,1,90.9999958343508,4|0,0:3|0:3,0:3:0:0:
190,0,159398,1,0,0:3:0:0:
190,16,159460,1,0,0:3:0:0:
191,33,159523,1,0,0:3:0:0:
193,51,159585,1,0,0:3:0:0:
194,67,159648,1,12,0:3:0:0:
164,153,159773,1,0,0:3:0:0:
108,85,159898,5,0,0:3:0:0:
107,69,159961,1,0,0:3:0:0:
105,51,160023,1,0,0:3:0:0:
104,34,160086,1,0,0:3:0:0:
103,16,160148,6,2,L|-5:9,1,90.9999958343508,6|0,1:3|1:3,1:3:0:0:
367,168,160398,2,2,L|457:173,1,90.9999958343508,0|0,1:3|1:3,1:3:0:0:
103,27,160648,2,2,L|-5:20,1,90.9999958343508,0|0,1:3|1:3,1:3:0:0:
367,179,160898,2,2,L|457:184,1,90.9999958343508,0|0,1:3|1:3,1:3:0:0:
103,38,161148,2,2,L|-5:31,1,90.9999958343508,0|0,1:3|1:3,1:3:0:0:
367,190,161398,2,2,L|457:195,1,90.9999958343508,0|0,1:3|1:3,1:3:0:0:
103,49,161648,2,2,L|-5:42,1,90.9999958343508,0|0,1:3|1:3,1:3:0:0:
367,201,161898,2,2,L|457:206,1,90.9999958343508,0|0,1:3|1:3,1:3:0:0:
248,303,162148,6,0,B|248:267|222:256|222:256|252:245|287:255|287:255|260:213|188:225,1,224,6|0,2:3|2:3,0:3:0:0:
