osu file format v14

[General]
AudioFilename: audio.mp3
AudioLeadIn: 0
PreviewTime: 15486
Countdown: 0
SampleSet: Soft
StackLeniency: 0.7
Mode: 0
LetterboxInBreaks: 0
WidescreenStoryboard: 0

[Editor]
Bookmarks: 8000,16000,32000
DistanceSpacing: 1
BeatDivisor: 4
GridSize: 4
TimelineZoom: 1.5

[Metadata]
Title:Tranquil Yard
TitleUnicode:Tranquil Yard
Artist:Xavier Dang
ArtistUnicode:Xavier Dang
Creator:Nozhomi
Version:Waterfall
Source:
Tags:mister mv game score relaxing rpg
BeatmapID:1417782
BeatmapSetID:670363

[Difficulty]
HPDrainRate:5
CircleSize:6
OverallDifficulty:6.5
ApproachRate:7
SliderMultiplier:1.5
SliderTickRate:1

[Events]
//Background and Video events
0,0,"waterfall.jpg",0,0
//Break Periods
//Storyboard Layer 0 (Background)
//Storyboard Layer 1 (Fail)
//Storyboard Layer 2 (Pass)
//Storyboard Layer 3 (Foreground)
//Storyboard Sound Samples

[TimingPoints]
0,500,4,2,1,40,1,0
0,-133.333333333333,4,2,1,40,0,0
486,500,4,2,1,40,1,0
486,-133.333333333333,4,2,1,40,0,0
2486,500,4,2,1,40,1,0
2486,-133.333333333333,4,2,1,40,0,0
6236,-133.333333333333,4,2,1,10,0,0
6486,-133.333333333333,4,2,1,20,0,0
6736,-133.333333333333,4,2,1,30,0,0
6986,-133.333333333333,4,2,1,40,0,0
14236,-133.333333333333,4,2,1,10,0,0
14486,-133.333333333333,4,2,1,20,0,0
14736,-133.333333333333,4,2,1,30,0,0
14986,-133.333333333333,4,2,1,40,0,0
22236,-133.333333333333,4,2,1,10,0,0
22486,-133.333333333333,4,2,1,20,0,0
22736,-133.333333333333,4,2,1,30,0,0
22986,-133.333333333333,4,2,1,40,0,0
30236,-133.333333333333,4,2,1,10,0,0
30486,-133.333333333333,4,2,1,20,0,0
30736,-133.333333333333,4,2,1,30,0,0
30986,-133.333333333333,4,2,1,40,0,0
38236,-133.333333333333,4,2,1,10,0,0
38486,-133.333333333333,4,2,1,20,0,0
38736,-133.333333333333,4,2,1,30,0,0
38986,-133.333333333333,4,2,1,40,0,0
46236,-133.333333333333,4,2,1,10,0,0
46486,-133.333333333333,4,2,1,20,0,0
46736,-133.333333333333,4,2,1,30,0,0
46986,-133.333333333333,4,2,1,40,0,0
47986,-100,4,2,1,50,0,1
54236,-100,4,2,1,20,0,1
54486,-100,4,2,1,30,0,1
54736,-100,4,2,1,40,0,1
54986,-100,4,2,1,50,0,1
62236,-100,4,2,1,20,0,1
62486,-100,4,2,1,30,0,1
62736,-100,4,2,1,40,0,1
62986,-100,4,2,1,50,0,1
63986,-133.333333333333,4,2,1,40,0,0
67986,-133.333333333333,4,2,1,35,0,0
68736,-133.333333333333,4,2,1,30,0,0
69236,-133.333333333333,4,2,1,25,0,0
69736,-133.333333333333,4,2,1,25,0,0
69986,-133.333333333333,4,2,1,20,0,0
70236,-133.333333333333,4,2,1,15,0,0
70486,-133.333333333333,4,2,1,10,0,0
70736,-133.333333333333,4,2,1,8,0,0
70986,-133.333333333333,4,2,1,5,0,0

[Colours]
Combo1 : 216,135,14
Combo2 : 29,201,175
Combo3 : 74,176,45
Combo4 : 32,172,213

[HitObjects]
80,140,0,5,2,0:0:0:0:
180,88,486,2,0,P|196:141|179:194,1,112.500004291535,8|2,0:0|0:0,0:0:0:0:
148,240,1236,1,8,0:0:0:0:
256,320,1736,1,2,0:0:0:0:
348,252,2236,2,0,P|400:240|460:256,1,112.500004291535,8|2,0:0|0:0,0:0:0:0:
500,292,2986,1,2,0:0:0:0:
448,156,3486,2,0,L|452:96,1,56.2500021457673,8|0,0:0|0:0,0:0:0:0:
420,52,3986,5,2,0:0:0:0:
360,148,4486,2,0,L|364:204,1,56.2500021457673,8|0,0:0|0:0,0:0:0:0:
344,256,4986,1,2,0:0:0:0:
298,288,5236,1,8,0:0:0:0:
256,124,5736,1,2,0:0:0:0:
148,88,6236,5,2,0:0:0:0:
88,104,6486,1,2,0:0:0:0:
60,172,6736,1,2,0:0:0:0:
124,244,6986,1,2,0:0:0:0:
148,88,7486,1,2,0:0:0:0:
220,132,7736,1,8,0:0:0:0:
212,216,7986,5,2,0:0:0:0:
336,164,8486,2,0,P|390:151|444:164,1,112.500004291535,8|2,0:0|0:0,0:0:0:0:
492,212,9236,1,8,0:0:0:0:
400,340,9736,1,2,0:0:0:0:
316,232,10236,2,0,L|320:104,1,112.500004291535,8|2,0:0|0:0,0:0:0:0:
281,64,10986,1,2,0:0:0:0:
180,152,11486,2,0,P|152:156|104:144,1,56.2500021457673,8|0,0:0|0:0,0:0:0:0:
68,116,11986,5,2,0:0:0:0:
154,220,12486,2,0,P|158:251|147:292,1,56.2500021457673,8|0,0:0|0:0,0:0:0:0:
111,329,12986,1,2,0:0:0:0:
48,356,13236,1,8,0:0:0:0:
224,280,13736,1,2,0:0:0:0:
344,220,14236,5,2,0:0:0:0:
392,164,14486,1,2,0:0:0:0:
400,260,14736,1,2,0:0:0:0:
496,200,14986,1,2,0:0:0:0:
316,136,15486,1,2,0:0:0:0:
332,280,15736,1,8,0:0:0:0:
200,220,15986,5,4,0:0:0:0:
256,124,16486,1,8,0:0:0:0:
312,220,16986,1,2,0:0:0:0:
368,220,17236,1,8,0:0:0:0:
200,220,17736,1,2,0:0:0:0:
304,160,18236,2,0,P|324:112|292:52,1,112.500004291535,8|2,0:0|0:0,0:0:0:0:
256,24,18986,1,2,0:0:0:0:
152,68,19486,2,0,P|122:69|76:60,1,56.2500021457673,8|0,0:0|0:0,0:0:0:0:
44,44,19986,5,2,0:0:0:0:
192,112,20486,1,8,0:0:0:0:
188,168,20736,2,0,P|177:193|157:213,1,56.2500021457673,0|2,0:0|0:0,0:0:0:0:
108,242,21236,1,8,0:0:0:0:
312,192,21736,1,2,0:0:0:0:
384,280,22236,5,2,0:0:0:0:
344,328,22486,1,2,0:0:0:0:
273,346,22736,1,2,0:0:0:0:
180,324,22986,1,2,0:0:0:0:
256,188,23486,1,2,0:0:0:0:
264,267,23736,1,8,0:0:0:0:
273,346,23986,5,2,0:0:0:0:
172,296,24486,2,0,P|140:292|96:300,1,56.2500021457673,8|0,0:0|0:0,0:0:0:0:
64,316,24986,1,2,0:0:0:0:
36,364,25236,1,8,0:0:0:0:
116,224,25736,1,2,0:0:0:0:
48,132,26236,2,0,P|113:146|176:144,1,112.500004291535,8|2,0:0|0:0,0:0:0:0:
212,128,26986,1,2,0:0:0:0:
372,76,27486,2,0,P|344:71|316:75,1,56.2500021457673,8|0,0:0|0:0,0:0:0:0:
264,96,27986,5,2,0:0:0:0:
324,192,28486,1,2,0:0:0:0:
344,244,28736,2,0,P|350:272|344:299,1,56.2500021457673,8|0,0:0|0:0,0:0:0:0:
288,272,29236,1,8,0:0:0:0:
436,236,29736,5,2,0:0:0:0:
484,340,30236,1,2,0:0:0:0:
428,368,30486,1,2,0:0:0:0:
362,335,30736,1,2,0:0:0:0:
324,247,30986,1,2,0:0:0:0:
428,368,31486,1,2,0:0:0:0:
429,283,31736,1,8,0:0:0:0:
362,335,31986,5,2,0:0:0:0:
236,292,32486,2,0,P|208:288|180:291,1,56.2500021457673,8|0,0:0|0:0,0:0:0:0:
128,332,32986,1,2,0:0:0:0:
190,359,33236,1,8,0:0:0:0:
168,204,33736,1,2,0:0:0:0:
221,80,34236,2,0,P|167:63|114:80,1,112.500004291535,8|2,0:0|0:0,0:0:0:0:
64,124,34986,1,2,0:0:0:0:
92,256,35486,2,0,P|95:287|80:332,1,56.2500021457673,8|0,0:0|0:0,0:0:0:0:
44,360,35986,5,2,0:0:0:0:
100,200,36486,2,0,P|128:212|147:253,1,56.2500021457673,8|0,0:0|0:0,0:0:0:0:
143,300,36986,1,2,0:0:0:0:
92,256,37236,1,8,0:0:0:0:
256,180,37736,1,2,0:0:0:0:
372,248,38236,5,2,0:0:0:0:
360,176,38486,1,2,0:0:0:0:
296,240,38736,1,2,0:0:0:0:
308,128,38986,1,2,0:0:0:0:
132,204,39486,1,2,0:0:0:0:
204,268,39736,1,8,0:0:0:0:
296,240,39986,5,2,0:0:0:0:
265,107,40486,2,0,P|240:97|212:98,1,56.2500021457673,8|0,0:0|0:0,0:0:0:0:
228,164,40986,1,2,0:0:0:0:
296,168,41236,1,8,0:0:0:0:
256,28,41736,1,2,0:0:0:0:
160,144,42236,2,0,L|164:256,1,112.500004291535,8|2,0:0|0:0,0:0:0:0:
204,312,42986,1,2,0:0:0:0:
100,228,43486,2,0,L|98:171,1,56.2500021457673,8|0,0:0|0:0,0:0:0:0:
56,116,43986,5,2,0:0:0:0:
168,40,44486,2,0,P|204:24|244:20,1,56.2500021457673,8|0,0:0|0:0,0:0:0:0:
291,17,44986,1,2,0:0:0:0:
356,44,45236,1,8,0:0:0:0:
412,192,45736,5,2,0:0:0:0:
428,60,46236,1,2,0:0:0:0:
356,44,46486,1,2,0:0:0:0:
280,80,46736,1,2,0:0:0:0:
256,190,46986,1,2,0:0:0:0:
472,132,47486,1,2,0:0:0:0:
440,240,47736,1,8,0:0:0:0:
324,292,47986,6,0,L|164:284,1,150,4|8,0:0|0:0,0:0:0:0:
148,214,48736,2,0,P|177:195|225:190,1,75,0|2,0:0|0:0,0:0:0:0:
292,193,49236,2,0,P|328:202|357:224,1,75,8|0,0:0|0:0,0:0:0:0:
324,292,49736,1,2,0:0:0:0:
256,152,50236,2,0,B|232:80|280:80|256:5,1,150,8|2,0:0|0:0,0:0:0:0:
192,44,50986,1,2,0:0:0:0:
324,116,51486,2,0,P|360:120|424:112,1,75,8|0,0:0|0:0,0:0:0:0:
255,151,51986,6,0,P|280:222|269:295,1,150,2|8,0:0|0:0,0:0:0:0:
204,332,52736,2,0,L|129:326,1,75,0|2,0:0|0:0,0:0:0:0:
124,252,53236,2,0,L|198:257,1,75,8|0,0:0|0:0,0:0:0:0:
168,188,53736,2,0,P|93:180|48:236,1,150,2|2,0:0|0:0,0:0:0:0:
50,315,54486,1,2,0:0:0:0:
124,252,54736,1,2,0:0:0:0:
168,372,54986,1,2,0:0:0:0:
48,232,55486,1,2,0:0:0:0:
109,156,55736,1,8,0:0:0:0:
123,251,55986,6,0,P|192:275|256:239,1,150,2|8,0:0|0:0,0:0:0:0:
224,172,56736,2,0,P|208:136|224:96,1,75,0|2,0:0|0:0,0:0:0:0:
294,103,57236,2,0,P|303:138|288:172,1,75,8|0,0:0|0:0,0:0:0:0:
256,240,57736,1,2,0:0:0:0:
364,136,58236,2,0,B|357:25|357:25|404:60,1,150,8|2,0:0|0:0,0:0:0:0:
444,104,58986,1,2,0:0:0:0:
424,288,59486,2,0,P|414:323|425:359,1,75,8|0,0:0|0:0,0:0:0:0:
449,238,59986,6,0,P|475:169|444:104,1,150,2|8,0:0|0:0,0:0:0:0:
376,76,60736,2,0,L|280:84,1,75,0|2,0:0|0:0,0:0:0:0:
232,56,61236,2,0,L|136:48,1,75,8|0,0:0|0:0,0:0:0:0:
249,113,61736,2,0,P|269:185|244:254,1,150,2|2,0:0|0:0,0:0:0:0:
188,304,62486,1,2,0:0:0:0:
108,284,62736,1,2,0:0:0:0:
64,164,62986,1,2,0:0:0:0:
244,254,63486,1,2,0:0:0:0:
180,162,63736,1,8,0:0:0:0:
87,224,63986,5,2,0:0:0:0:
236,195,64486,2,0,P|242:140|205:101,1,112.500004291535,8|2,0:0|0:0,0:0:0:0:
152,116,65236,1,8,0:0:0:0:
189,248,65736,1,2,0:0:0:0:
292,208,66236,2,0,P|344:196|416:204,1,112.500004291535,8|2,0:0|0:0,0:0:0:0:
452,228,66986,1,2,0:0:0:0:
379,115,67486,2,0,P|374:87|385:54,1,56.2500021457673,8|0,0:0|0:0,0:0:0:0:
444,90,67986,5,2,0:0:0:0:
256,192,68236,12,0,71986,0:0:0:0:
