osu file format v14

[General]
AudioFilename: audio.mp3
AudioLeadIn: 0
PreviewTime: 15486
Countdown: 0
SampleSet: Soft
StackLeniency: 0.7
Mode: 0
LetterboxInBreaks: 0
WidescreenStoryboard: 0

[Editor]
DistanceSpacing: 1
BeatDivisor: 2
GridSize: 4
TimelineZoom: 1

[Metadata]
Title:Tranquil Yard
TitleUnicode:Tranquil Yard
Artist:Xavier Dang
ArtistUnicode:Xavier Dang
Creator:Nozhomi
Version:Normal
Source:
Tags:mister mv game score relaxing rpg
BeatmapID:1417781
BeatmapSetID:670363

[Difficulty]
HPDrainRate:2
CircleSize:4
OverallDifficulty:3
ApproachRate:4
SliderMultiplier:1.2
SliderTickRate:1

[Events]
//Background and Video events
0,0,"waterfall.jpg",0,0
//Break Periods
//Storyboard Layer 0 (Background)
//Storyboard Layer 1 (Fail)
//Storyboard Layer 2 (Pass)
//Storyboard Layer 3 (Foreground)
//Storyboard Sound Samples

[TimingPoints]
0,500,4,2,1,40,1,0
486,500,4,2,1,40,1,0
2486,500,4,2,1,40,1,0
6236,-100,4,2,1,10,0,0
6486,-100,4,2,1,20,0,0
6736,-100,4,2,1,30,0,0
6986,-100,4,2,1,40,0,0
14236,-100,4,2,1,10,0,0
14486,-100,4,2,1,20,0,0
14736,-100,4,2,1,30,0,0
14986,-100,4,2,1,40,0,0
22236,-100,4,2,1,10,0,0
22486,-100,4,2,1,20,0,0
22736,-100,4,2,1,30,0,0
22986,-100,4,2,1,40,0,0
30236,-100,4,2,1,10,0,0
30486,-100,4,2,1,20,0,0
30736,-100,4,2,1,30,0,0
30986,-100,4,2,1,40,0,0
38236,-100,4,2,1,10,0,0
38486,-100,4,2,1,20,0,0
38736,-100,4,2,1,30,0,0
38986,-100,4,2,1,40,0,0
46236,-100,4,2,1,10,0,0
46486,-100,4,2,1,20,0,0
46736,-100,4,2,1,30,0,0
46986,-100,4,2,1,40,0,0
47986,-100,4,2,1,50,0,1
54236,-100,4,2,1,20,0,1
54486,-100,4,2,1,30,0,1
54736,-100,4,2,1,40,0,1
54986,-100,4,2,1,50,0,1
62236,-100,4,2,1,20,0,1
62486,-100,4,2,1,30,0,1
62736,-100,4,2,1,40,0,1
62986,-100,4,2,1,50,0,1
63986,-100,4,2,1,40,0,0
67986,-100,4,2,1,35,0,0
68486,-100,4,2,1,35,0,0
68736,-100,4,2,1,30,0,0
68986,-100,4,2,1,30,0,0
69236,-100,4,2,1,25,0,0
69486,-100,4,2,1,25,0,0
69736,-100,4,2,1,25,0,0
69986,-100,4,2,1,20,0,0
70236,-100,4,2,1,15,0,0
70486,-100,4,2,1,10,0,0
70736,-100,4,2,1,8,0,0
70986,-100,4,2,1,5,0,0
71486,-100,4,2,1,5,0,0

[Colours]
Combo1 : 216,135,14
Combo2 : 29,201,175
Combo3 : 74,176,45
Combo4 : 32,172,213

[HitObjects]
52,80,0,6,0,P|104:51|148:60,1,117,2|8,0:0|0:0,0:0:0:0:
256,132,986,2,0,L|256:192,1,60,2|0,0:0|0:0,0:0:0:0:
256,312,1736,1,2,0:0:0:0:
360,252,2236,5,8,0:0:0:0:
256,192,2736,2,0,L|256:132,1,60,2|0,0:0|0:0,0:0:0:0:
332,40,3486,1,8,0:0:0:0:
408,132,3986,5,2,0:0:0:0:
352,240,4486,2,0,P|408:257|465:239,1,120,8|2,0:0|0:0,0:0:0:0:
472,167,5236,1,8,0:0:0:0:
416,60,5736,5,2,0:0:0:0:
312,120,6236,2,0,P|282:117|248:104,1,60,2|2,0:0|0:0,0:0:0:0:
196,64,6736,2,0,P|176:40|162:7,1,60,2|2,0:0|0:0,0:0:0:0:
188,136,7486,2,0,P|177:164|155:193,1,60,2|8,0:0|0:0,0:0:0:0:
100,228,7986,5,2,0:0:0:0:
196,300,8486,2,0,B|256:312|256:312|313:300,1,120,8|2,0:0|0:0,0:0:0:0:
384,284,9236,1,8,0:0:0:0:
324,180,9736,5,2,0:0:0:0:
368,68,10236,2,0,P|411:97|442:166,1,120,8|2,0:0|0:0,0:0:0:0:
432,228,10986,1,2,0:0:0:0:
352,316,11486,2,0,L|268:308,1,60,8|0,0:0|0:0,0:0:0:0:
221,301,11986,5,2,0:0:0:0:
232,180,12486,2,0,P|232:136|220:96,1,60,8|0,0:0|0:0,0:0:0:0:
192,60,12986,1,2,0:0:0:0:
132,100,13236,2,0,L|136:260,1,120,8|2,0:0|0:0,0:0:0:0:
22,260,14236,6,0,L|20:200,1,60,2|2,0:0|0:0,0:0:0:0:
18,128,14736,2,0,L|16:68,1,60,2|2,0:0|0:0,0:0:0:0:
132,100,15486,1,2,0:0:0:0:
200,120,15736,1,8,0:0:0:0:
268,100,15986,5,4,0:0:0:0:
368,36,16486,1,8,0:0:0:0:
468,100,16986,1,2,0:0:0:0:
423,156,17236,2,0,P|412:214|424:272,1,120,8|2,0:0|0:0,0:0:0:0:
508,360,18236,6,0,P|460:352|388:352,1,120,8|2,0:0|0:0,0:0:0:0:
319,370,18986,1,2,0:0:0:0:
212,320,19486,2,0,P|171:315|132:332,1,60,8|0,0:0|0:0,0:0:0:0:
91,356,19986,5,2,0:0:0:0:
28,252,20486,1,8,0:0:0:0:
88,212,20736,2,0,P|100:156|76:88,2,120,0|8|2,0:0|0:0|0:0,0:0:0:0:
12,120,22236,6,0,P|11:80|36:37,1,60,2|2,0:0|0:0,0:0:0:0:
79,24,22736,2,0,P|109:27|134:44,1,60,2|2,0:0|0:0,0:0:0:0:
216,132,23486,2,0,P|240:148|270:152,1,60,2|8,0:0|0:0,0:0:0:0:
340,136,23986,5,2,0:0:0:0:
420,48,24486,1,8,0:0:0:0:
460,108,24736,2,0,L|456:227,1,120,0|8,0:0|0:0,0:0:0:0:
396,332,25736,1,2,0:0:0:0:
336,228,26236,6,0,P|277:216|219:228,1,120,8|2,0:0|0:0,0:0:0:0:
156,264,26986,1,2,0:0:0:0:
252,336,27486,2,0,P|281:340|311:336,1,60,8|0,0:0|0:0,0:0:0:0:
368,292,27986,5,2,0:0:0:0:
336,164,28486,1,8,0:0:0:0:
384,112,28736,2,0,P|448:84|484:20,2,120,0|8|2,0:0|0:0|0:0,0:0:0:0:
287,39,30236,6,0,P|258:35|228:39,1,60,2|2,0:0|0:0,0:0:0:0:
160,60,30736,2,0,P|130:64|100:60,1,60,2|2,0:0|0:0,0:0:0:0:
212,108,31486,2,0,P|216:136|208:176,1,60,2|8,0:0|0:0,0:0:0:0:
172,228,31986,5,2,0:0:0:0:
68,288,32486,1,8,0:0:0:0:
4,188,32986,1,2,0:0:0:0:
56,139,33236,2,0,P|69:82|49:26,1,120,8|2,0:0|0:0,0:0:0:0:
160,76,34236,6,0,P|140:131|153:189,1,120,8|2,0:0|0:0,0:0:0:0:
208,240,34986,1,2,0:0:0:0:
312,300,35486,2,0,L|372:300,1,60,8|0,0:0|0:0,0:0:0:0:
432,260,35986,5,2,0:0:0:0:
492,156,36486,1,8,0:0:0:0:
428,124,36736,2,0,P|415:66|432:9,2,120,0|8|2,0:0|0:0|0:0,0:0:0:0:
364,224,38236,6,0,L|276:220,1,60,2|2,0:0|0:0,0:0:0:0:
244,180,38736,2,0,L|156:176,1,60,2|2,0:0|0:0,0:0:0:0:
72,224,39486,2,0,P|86:252|122:279,1,60,2|8,0:0|0:0,0:0:0:0:
176,296,39986,5,2,0:0:0:0:
284,244,40486,1,8,0:0:0:0:
335,296,40736,2,0,P|358:242|333:190,1,120,0|8,0:0|0:0,0:0:0:0:
233,122,41736,1,2,0:0:0:0:
308,28,42236,6,0,L|440:36,1,120,8|2,0:0|0:0,0:0:0:0:
484,80,42986,1,2,0:0:0:0:
368,108,43486,2,0,L|308:104,1,60,8|0,0:0|0:0,0:0:0:0:
256,152,43986,5,2,0:0:0:0:
176,60,44486,1,8,0:0:0:0:
136,120,44736,2,0,P|104:74|121:14,2,120,0|8|2,0:0|0:0|0:0,0:0:0:0:
220,208,46236,6,0,L|220:292,1,60,2|2,0:0|0:0,0:0:0:0:
292,268,46736,2,0,L|292:208,1,60,2|2,0:0|0:0,0:0:0:0:
336,96,47486,1,2,0:0:0:0:
396,56,47736,1,8,0:0:0:0:
456,96,47986,5,4,0:0:0:0:
455,216,48486,2,0,B|395:228|395:228|337:216,1,120,8|2,0:0|0:0,0:0:0:0:
268,200,49236,2,0,B|208:188|208:188|150:199,1,120,8|2,0:0|0:0,0:0:0:0:
80,296,50236,5,8,0:0:0:0:
180,360,50736,2,0,B|208:364|208:364|238:359,1,60,2|2,0:0|0:0,0:0:0:0:
328,280,51486,2,0,L|324:216,1,60,8|0,0:0|0:0,0:0:0:0:
280,160,51986,5,2,0:0:0:0:
340,54,52486,2,0,P|395:62|433:128,1,120,8|2,0:0|0:0,0:0:0:0:
426,184,53236,2,0,P|382:223|324:220,1,120,8|2,0:0|0:0,0:0:0:0:
232,140,54236,6,0,L|228:52,1,60,2|2,0:0|0:0,0:0:0:0:
156,76,54736,2,0,L|158:135,1,60,2|2,0:0|0:0,0:0:0:0:
236,228,55486,2,0,L|239:309,1,60,2|8,0:0|0:0,0:0:0:0:
196,344,55986,5,2,0:0:0:0:
100,272,56486,2,0,P|84:212|116:140,1,120,8|2,0:0|0:0,0:0:0:0:
148,103,57236,2,0,P|198:73|258:75,1,120,8|2,0:0|0:0,0:0:0:0:
352,148,58236,5,8,0:0:0:0:
448,76,58736,2,0,P|488:88|512:108,1,60,2|2,0:0|0:0,0:0:0:0:
502,217,59486,2,0,P|477:233|448:240,1,60,8|0,0:0|0:0,0:0:0:0:
380,216,59986,5,2,0:0:0:0:
268,168,60486,2,0,P|209:155|151:168,1,120,8|2,0:0|0:0,0:0:0:0:
151,240,61236,2,0,P|209:253|268:241,1,120,8|2,0:0|0:0,0:0:0:0:
360,164,62236,6,0,L|360:104,1,60,2|2,0:0|0:0,0:0:0:0:
320,44,62736,2,0,L|240:44,1,60,2|2,0:0|0:0,0:0:0:0:
140,44,63486,1,2,0:0:0:0:
96,100,63736,1,8,0:0:0:0:
140,156,63986,6,0,P|155:213|139:270,1,120,2|8,0:0|0:0,0:0:0:0:
224,356,64986,2,0,L|296:352,1,60,2|0,0:0|0:0,0:0:0:0:
376,276,65736,1,2,0:0:0:0:
313,173,66236,5,8,0:0:0:0:
197,142,66736,2,0,P|167:144|139:156,1,60,2|0,0:0|0:0,0:0:0:0:
76,258,67486,1,8,0:0:0:0:
196,260,67986,5,2,0:0:0:0:
256,192,68486,12,0,71986,0:0:0:0:
