osu file format v14

[General]
AudioFilename: audio.mp3
AudioLeadIn: 0
PreviewTime: 461
Countdown: 0
SampleSet: Soft
StackLeniency: 0.7
Mode: 0
LetterboxInBreaks: 0
WidescreenStoryboard: 0

[Editor]
Bookmarks: 63345
DistanceSpacing: 1.3
BeatDivisor: 4
GridSize: 4
TimelineZoom: 1

[Metadata]
Title:J'adore Le Zboub
TitleUnicode:J'adore Le Zboub
Artist:Xavier Dang
ArtistUnicode:Xavier Dang
Creator:Nozhomi
Version:Hard
Source:
Tags:feat ZeratoR Trinity Aayley Lutti DFG Locklear MoMaN zevent 2018 mister mv shapy
BeatmapID:1839762
BeatmapSetID:879756

[Difficulty]
HPDrainRate:5
CircleSize:4
OverallDifficulty:6
ApproachRate:7
SliderMultiplier:1.5
SliderTickRate:1

[Events]
//Background and Video events
0,0,"mv.jpg",0,0
Video,0,"zboub.mp4"
//Break Periods
//Storyboard Layer 0 (Background)
//Storyboard Layer 1 (Fail)
//Storyboard Layer 2 (Pass)
//Storyboard Layer 3 (Foreground)
//Storyboard Sound Samples

[TimingPoints]
4279,461.538461538462,4,2,1,50,1,0
63355,-125,4,2,1,50,0,0
91048,-125,4,2,1,30,0,0
91509,-125,4,2,1,35,0,0
91971,-125,4,2,1,40,0,0
92432,-125,4,2,1,45,0,0
92894,-100,4,2,1,50,0,1
107663,-125,4,2,1,40,0,0
109279,-125,4,2,1,20,0,0
109509,-125,4,2,1,40,0,0
110202,-125,4,2,1,20,0,0
110432,-125,4,2,1,40,0,0
112971,-125,4,2,1,20,0,0
113202,-125,4,2,1,40,0,0
113894,-125,4,2,1,20,0,0
114125,-125,4,2,1,40,0,0
116663,-125,4,2,1,20,0,0
116894,-125,4,2,1,40,0,0
117586,-125,4,2,1,20,0,0
117817,-125,4,2,1,40,0,0
119202,-125,4,2,1,35,0,0
119663,-125,4,2,1,30,0,0
120125,-125,4,2,1,20,0,0
120586,-125,4,2,1,40,0,0
124163,-125,4,2,1,20,0,0

[Colours]
Combo1 : 207,197,205
Combo2 : 47,166,26
Combo3 : 232,0,5

[HitObjects]
65,71,4279,6,0,L|166:82,1,75,0|0,3:0|0:0,0:0:0:0:
209,135,4740,2,0,L|283:126,1,75,0|0,1:0|0:0,0:0:0:0:
357,74,5202,1,0,3:0:0:0:
452,226,5663,2,0,P|450:263|434:297,1,75,0|0,1:0|0:0,0:0:0:0:
354,338,6125,5,0,3:0:0:0:
279,287,6355,2,0,P|207:263|124:266,1,150,2|2,0:0|0:0,0:0:0:0:
48,293,7048,1,0,3:0:0:0:
82,116,7509,1,0,1:0:0:0:
147,178,7740,1,0,0:0:0:0:
219,91,7971,6,0,L|212:10,1,75,0|0,3:0|0:0,0:0:0:0:
296,48,8432,2,0,L|302:122,1,75,0|0,1:0|0:0,0:0:0:0:
228,174,8894,1,0,3:0:0:0:
406,197,9355,2,0,L|496:189,1,75,0|0,1:0|0:0,0:0:0:0:
448,275,9817,5,0,3:0:0:0:
358,269,10048,2,0,L|205:255,1,150,2|2,0:0|0:0,0:0:0:0:
144,318,10740,1,0,3:0:0:0:
296,176,11202,1,0,1:0:0:0:
358,269,11432,1,0,0:0:0:0:
422,167,11663,6,0,L|417:88,1,75,0|0,3:0|0:0,0:0:0:0:
434,3,12125,1,0,1:0:0:0:
330,44,12355,2,0,P|249:61|171:36,1,150,2|0,0:0|0:0,0:0:0:0:
89,23,13048,2,0,P|112:67|117:112,1,75,0|2,1:0|0:0,0:0:0:0:
124,181,13509,6,0,P|109:228|80:263,1,75,0|0,3:0|0:0,0:0:0:0:
32,317,13971,1,0,1:0:0:0:
139,353,14202,2,0,L|309:341,1,150,2|0,0:0|0:0,0:0:0:0:
378,336,14894,1,0,1:0:0:0:
327,261,15125,1,2,0:0:0:0:
458,213,15355,6,0,L|383:207,1,75,0|0,3:0|0:0,0:0:0:0:
325,137,15817,1,0,1:0:0:0:
230,198,16048,2,0,P|148:225|92:189,1,150,2|0,0:0|0:0,0:0:0:0:
52,117,16740,2,0,L|45:34,1,75,0|2,1:0|0:0,0:0:0:0:
136,41,17202,6,0,L|142:115,1,75,0|0,3:0|0:0,0:0:0:0:
232,114,17663,1,0,1:0:0:0:
223,8,17894,2,0,P|295:23|330:87,1,150,2|0,0:0|0:0,0:0:0:0:
296,194,18586,1,0,1:0:0:0:
401,153,18817,1,2,0:0:0:0:
380,272,19048,6,0,L|384:354,1,75,0|0,3:0|0:0,0:0:0:0:
303,305,19509,1,0,1:0:0:0:
220,341,19740,1,2,0:0:0:0:
220,341,19971,2,0,P|176:335|141:304,1,75,0|0,3:0|0:0,0:0:0:0:
88,381,20432,2,0,P|61:345|58:298,1,75,0|2,1:0|0:0,0:0:0:0:
104,206,20894,6,0,P|119:142|78:71,1,150,0|0,3:0|1:0,0:0:0:0:
19,152,21586,1,2,0:0:0:0:
104,206,21817,2,0,L|183:203,1,75,0|0,3:0|0:0,0:0:0:0:
251,256,22279,2,0,L|325:253,1,75,0|2,1:0|0:0,0:0:0:0:
445,236,22740,6,0,P|408:200|397:148,1,75,0|0,3:0|0:0,0:0:0:0:
407,89,23201,1,0,1:0:0:0:
322,118,23432,1,2,0:0:0:0:
322,118,23663,2,0,P|270:118|225:89,1,75,0|0,3:0|0:0,0:0:0:0:
207,190,24125,2,0,P|170:154|159:101,1,75,0|2,1:0|0:0,0:0:0:0:
89,40,24586,6,0,L|87:220,1,150,0|0,3:0|1:0,0:0:0:0:
62,276,25278,1,2,0:0:0:0:
148,251,25509,2,0,P|184:242|227:248,1,75,0|0,3:0|0:0,0:0:0:0:
249,160,25971,2,0,P|280:179|306:213,1,75,0|2,1:0|0:0,0:0:0:0:
310,321,26432,5,2,0:0:0:0:
383,268,26663,2,0,L|478:272,1,75
418,352,27125,1,2,0:0:0:0:
351,184,27586,2,0,L|446:188,2,75,0|2|0,0:0|0:0|0:0,0:0:0:0:
256,144,28279,6,0,L|256:55,2,75,2|0|0,0:0|0:0|0:0,0:0:0:0:
161,184,28971,2,0,P|88:197|30:120,1,150,2|0,0:0|0:0,0:0:0:0:
16,61,29663,1,2,0:0:0:0:
100,92,29894,1,0,0:0:0:0:
35,149,30125,5,2,0:0:0:0:
84,224,30356,2,0,L|82:304,1,75
166,266,30818,1,2,0:0:0:0:
3,189,31279,2,0,L|1:263,2,75,0|2|0,0:0|0:0|0:0,0:0:0:0:
53,114,31972,6,0,P|92:130|127:125,2,75,2|0|0,0:0|0:0|0:0,0:0:0:0:
39,25,32663,2,0,P|112:12|173:52,1,150,2|0,0:0|0:0,0:0:0:0:
215,130,33355,1,2,0:0:0:0:
123,126,33586,1,0,0:0:0:0:
165,232,33817,6,0,L|242:229,1,75,0|2,3:0|0:0,0:0:0:0:
330,228,34279,1,0,3:0:0:0:
282,151,34509,2,0,P|283:93|368:79,1,150,2|2,0:0|0:0,0:0:0:0:
425,149,35202,2,0,L|426:241,1,75,0|2,3:0|0:0,0:0:0:0:
429,313,35663,5,0,3:0:0:0:
345,347,35894,2,0,B|319:347|296:329|296:329|251:354|199:344,1,150,2|2,0:0|0:0,0:0:0:0:
121,304,36586,1,0,3:0:0:0:
231,161,37048,1,0,3:0:0:0:
175,232,37279,1,2,0:0:0:0:
121,304,37509,6,0,L|14:299,1,75,0|2,3:0|0:0,0:0:0:0:
88,208,37971,1,0,3:0:0:0:
175,232,38202,2,0,L|337:224,1,150,2|2,0:0|0:0,0:0:0:0:
401,269,38894,2,0,P|413:305|408:342,1,75,0|2,3:0|0:0,0:0:0:0:
322,315,39355,5,0,3:0:0:0:
325,224,39586,2,0,B|323:112|323:112|288:143,1,150,2|2,0:0|0:0,0:0:0:0:
190,207,40279,2,0,P|153:214|116:206,1,75,0|2,3:0|0:0,0:0:0:0:
221,137,40740,2,0,P|257:129|294:137,1,75,0|2,3:0|0:0,0:0:0:0:
385,215,41202,6,0,B|368:142|368:142|396:73,2,150,0|0|0,3:0|3:0|3:0,0:0:0:0:
497,357,42586,2,0,P|471:330|435:319,1,75,0|2,3:0|0:0,0:0:0:0:
345,315,43048,5,0,3:0:0:0:
262,352,43279,2,0,L|173:347,1,75,2|0,0:0|3:0,0:0:0:0:
105,310,43740,1,2,0:0:0:0:
167,245,43971,2,0,P|189:175|154:111,1,150,0|0,3:0|3:0,0:0:0:0:
18,251,44894,6,0,P|-5:320|30:384,1,150,0|0,3:0|3:0,0:0:0:0:
105,310,45586,1,2,0:0:0:0:
167,245,45817,2,0,L|272:231,1,75,0|2,3:0|0:0,0:0:0:0:
336,323,46279,2,0,L|250:311,1,75,0|2,3:0|0:0,0:0:0:0:
330,222,46740,6,0,P|338:149|292:92,1,150,0|0,3:0|3:0,0:0:0:0:
200,59,47432,1,2,0:0:0:0:
145,158,47663,2,0,L|149:262,1,75,0|2,3:0|0:0,0:0:0:0:
224,320,48125,1,0,3:0:0:0:
81,277,48355,1,2,0:0:0:0:
224,204,48586,6,0,L|221:129,1,75,0|0,3:0|0:0,0:0:0:0:
216,31,49048,1,0,1:0:0:0:
122,93,49279,2,0,P|192:96|216:31,1,150,2|0,0:0|0:0,0:0:0:0:
296,98,49971,2,0,L|378:94,1,75,0|2,1:0|0:0,0:0:0:0:
430,171,50432,5,0,3:0:0:0:
468,81,50663,1,0,0:0:0:0:
508,168,50894,2,0,P|480:235|408:247,1,150,0|0,1:0|3:0,0:0:0:0:
337,181,51586,2,0,L|334:106,1,75,2|0,0:0|1:0,0:0:0:0:
429,152,52048,1,2,0:0:0:0:
334,254,52279,6,0,L|259:257,1,75,0|0,3:0|0:0,0:0:0:0:
161,260,52740,1,0,1:0:0:0:
227,351,52971,2,0,L|377:345,1,150,2|0,0:0|0:0,0:0:0:0:
434,265,53663,1,0,1:0:0:0:
492,342,53894,1,2,0:0:0:0:
361,275,54125,6,0,L|359:201,1,75,0|0,3:0|0:0,0:0:0:0:
409,116,54586,1,0,1:0:0:0:
311,126,54817,2,0,P|271:117|277:20,1,150,2|0,0:0|0:0,0:0:0:0:
172,65,55509,2,0,P|135:71|98:62,1,75,0|2,1:0|0:0,0:0:0:0:
134,154,55971,5,0,3:0:0:0:
172,65,56202,1,0,0:0:0:0:
238,135,56432,1,0,1:0:0:0:
325,64,56663,2,0,B|400:49|400:49|471:64,1,150,2|0,0:0|0:0,0:0:0:0:
436,155,57355,2,0,B|399:147|399:147|363:155,1,75,0|2,1:0|0:0,0:0:0:0:
307,236,57817,5,0,3:0:0:0:
251,155,58048,1,0,0:0:0:0:
159,230,58279,2,0,P|149:303|198:356,1,150,0|0,1:0|3:0,0:0:0:0:
309,314,58971,2,0,P|240:298|197:354,1,150,2|2,0:0|0:0,0:0:0:0:
328,381,59663,6,0,P|330:344|309:314,1,75,0|0,3:0|0:0,0:0:0:0:
197,354,60125,1,0,1:0:0:0:
125,288,60355,1,2,0:0:0:0:
64,211,60586,2,0,L|67:108,1,75,0|0,3:0|0:0,0:0:0:0:
136,67,61048,1,0,1:0:0:0:
211,131,61279,2,0,P|253:154|303:156,1,75,2|0,0:0|3:0,0:0:0:0:
352,93,61740,2,0,B|382:65|450:107|450:107|408:189|304:166|304:166|388:228|365:315,1,450,2|2,0:0|0:0,0:0:0:0:
260,333,63355,6,0,P|236:283|253:215,1,120,2|0,0:0|0:0,0:0:0:0:
156,224,64048,2,0,P|174:171|234:135,1,120,2|0,0:0|0:0,0:0:0:0:
314,159,64740,1,2,0:0:0:0:
249,222,64971,1,0,0:0:0:0:
286,83,65202,6,0,L|426:87,1,120,2|0,0:0|0:0,0:0:0:0:
433,162,65894,2,0,L|358:159,1,60,2|0,0:0|0:0,0:0:0:0:
308,224,66355,2,0,L|249:222,1,60,2|0,0:0|0:0,0:0:0:0:
181,284,66817,1,0,0:0:0:0:
84,213,67048,6,0,P|71:168|128:102,1,120,2|0,0:0|0:0,0:0:0:0:
196,125,67740,2,0,P|209:170|152:236,1,120,2|0,0:0|0:0,0:0:0:0:
92,287,68432,2,0,L|13:283,1,60,2|0,0:0|0:0,0:0:0:0:
133,347,68894,6,0,L|253:340,1,120,2|0,0:0|0:0,0:0:0:0:
317,171,69817,1,2,0:0:0:0:
388,336,70279,1,0,0:0:0:0:
176,223,70740,6,0,P|213:261|285:268,1,120,2|0,0:0|0:0,0:0:0:0:
362,242,71432,2,0,P|396:201|397:129,1,120,2|0,0:0|0:0,0:0:0:0:
340,69,72125,1,2,0:0:0:0:
280,137,72356,1,0,0:0:0:0:
205,61,72587,6,0,L|85:57,1,120,2|0,0:0|0:0,0:0:0:0:
25,125,73279,1,2,0:0:0:0:
105,165,73509,2,0,P|123:187|128:217,1,60
112,306,73971,1,2,0:0:0:0:
46,244,74202,1,0,0:0:0:0:
189,267,74432,6,0,L|328:262,1,120,2|0,0:0|0:0,0:0:0:0:
354,184,75125,2,0,L|234:188,1,120,2|0,0:0|0:0,0:0:0:0:
153,148,75817,2,0,P|146:118|153:88,1,60,2|0,0:0|0:0,0:0:0:0:
235,18,76279,6,0,P|293:21|338:59,1,120,2|0,0:0|0:0,0:0:0:0:
304,236,77202,1,2,0:0:0:0:
436,114,77663,2,0,L|473:115,3,30,2|0|2|0,0:0|0:0|0:0|0:0,0:0:0:0:
492,151,78125,6,0,P|490:221|425:237,1,120,2|0,0:0|0:0,0:0:0:0:
488,323,78817,2,0,L|348:318,1,120,2|0,0:0|0:0,0:0:0:0:
311,248,79509,1,2,0:0:0:0:
263,324,79740,1,0,0:0:0:0:
174,252,79971,6,0,P|168:194|200:145,1,120,2|0,0:0|0:0,0:0:0:0:
397,40,80894,2,0,L|480:37,1,60,2|0,0:0|0:0,0:0:0:0:
429,123,81355,1,2,0:0:0:0:
355,174,81586,1,0,0:0:0:0:
265,114,81817,6,0,P|197:89|146:109,1,120,2|0,0:0|0:0,0:0:0:0:
153,14,82509,2,0,P|88:44|66:93,1,120,2|0,0:0|0:0,0:0:0:0:
45,172,83202,2,0,L|51:252,1,60,2|0,0:0|0:0,0:0:0:0:
61,343,83663,5,2,0:0:0:0:
226,271,84125,1,0,0:0:0:0:
50,232,84586,2,0,L|138:225,1,60,2|0,0:0|0:0,0:0:0:0:
187,180,85048,2,0,L|246:184,1,60,2|0,0:0|0:0,0:0:0:0:
346,227,85509,6,0,B|445:218|445:218|432:247,1,120,2|0,0:0|0:0,0:0:0:0:
422,359,86202,2,0,P|408:332|410:302,1,60,2|0,0:0|0:0,0:0:0:0:
327,305,86663,2,0,P|277:274|267:216,1,120,2|0,0:0|0:0,0:0:0:0:
338,100,87355,6,0,P|336:158|290:196,1,120,2|0,0:0|0:0,0:0:0:0:
113,171,88279,2,0,L|41:166,1,60,2|0,0:0|0:0,0:0:0:0:
99,89,88740,1,2,0:0:0:0:
38,22,88971,1,0,0:0:0:0:
176,63,89202,6,0,L|304:57,1,120,2|0,0:0|0:0,0:0:0:0:
226,144,89894,2,0,L|354:138,1,120,2|0,0:0|0:0,0:0:0:0:
275,224,90586,2,0,L|352:220,1,60,2|0,0:0|0:0,0:0:0:0:
411,290,91048,6,0,P|410:308|402:330,3,30,0|0|0|0,1:0|1:0|1:0|0:0,0:0:0:0:
461,215,91509,2,0,P|473:229|483:250,3,30,0|0|0|0,1:0|1:0|1:0|0:0,0:0:0:0:
448,125,91971,2,0,P|466:125|488:133,3,30,0|0|0|0,1:0|1:0|1:0|0:0,0:0:0:0:
372,180,92432,1,0,1:0:0:0:
360,176,92548,1,0,1:0:0:0:
348,172,92663,1,0,1:0:0:0:
336,168,92779,1,0,1:0:0:0:
324,164,92894,6,0,L|163:170,1,150,4|0,3:2|1:0,0:0:0:0:
61,176,93586,1,2,0:0:0:0:
113,76,93817,2,0,L|188:73,1,75,0|2,3:0|0:0,0:0:0:0:
250,167,94279,1,0,1:0:0:0:
295,64,94509,1,2,0:0:0:0:
368,169,94740,6,0,L|366:269,1,75,0|2,3:0|0:0,0:0:0:0:
332,351,95202,2,0,P|353:327|401:312,1,75,0|2,1:0|0:0,0:0:0:0:
283,285,95663,2,0,P|262:261|214:246,1,75,0|2,3:0|0:0,0:0:0:0:
113,277,96125,1,0,1:0:0:0:
172,372,96355,1,2,0:0:0:0:
222,246,96586,6,0,P|224:164|198:85,1,150,0|0,3:0|1:0,0:0:0:0:
116,28,97279,1,2,0:0:0:0:
0,65,97509,2,0,P|42:114|74:119,1,75,0|2,3:0|0:0,0:0:0:0:
140,130,97971,2,0,P|177:123|205:99,1,75,0|2,1:0|0:0,0:0:0:0:
84,190,98432,6,0,L|88:350,1,150,0|0,3:0|1:0,0:0:0:0:
182,277,99125,1,2,0:0:0:0:
274,340,99355,2,0,P|330:354|361:341,1,75,0|2,3:0|0:0,0:0:0:0:
438,285,99817,1,0,1:0:0:0:
337,234,100048,1,2,0:0:0:0:
337,90,100279,6,0,B|358:163|358:163|337:233,1,150,0|0,3:0|1:0,0:0:0:0:
251,307,100971,1,2,0:0:0:0:
161,238,101202,2,0,L|87:230,1,75,0|2,3:0|0:0,0:0:0:0:
164,148,101663,2,0,L|238:140,1,75,0|2,1:0|0:0,0:0:0:0:
367,61,102125,6,0,P|301:71|264:155,1,150,0|0,3:0|1:0,0:0:0:0:
285,249,102817,1,2,0:0:0:0:
377,312,103048,2,0,P|393:279|396:242,1,75,0|2,3:0|0:0,0:0:0:0:
346,140,103509,1,0,1:0:0:0:
285,249,103741,1,2,0:0:0:0:
112,144,103971,6,0,L|261:138,1,150,0|0,3:0|1:0,0:0:0:0:
354,75,104663,1,2,0:0:0:0:
250,32,104894,2,0,P|212:36|172:65,1,75,0|2,3:0|0:0,0:0:0:0:
112,144,105355,2,0,P|99:180|108:228,1,75,0|2,1:0|0:0,0:0:0:0:
159,362,105817,6,0,P|189:298|128:244,1,150,0|0,3:0|1:0,0:0:0:0:
55,319,106509,1,2,0:0:0:0:
159,362,106740,2,0,L|259:355,1,75,0|2,3:0|0:0,0:0:0:0:
334,306,107202,1,2,1:2:0:0:
328,296,107317,1,0,0:0:0:0:
324,284,107432,1,2,0:0:0:0:
324,272,107548,1,2,0:0:0:0:
328,264,107663,6,0,P|392:304|344:144,1,420,2|0,0:0|0:0,0:0:0:0:
265,175,109509,2,0,P|205:195|116:127,1,180,2|0,0:0|0:0,0:0:0:0:
82,41,110432,1,2,0:0:0:0:
13,220,110894,1,2,0:0:0:0:
47,130,111125,1,2,0:0:0:0:
186,225,111355,6,0,B|256:286|397:277|457:262|468:158|388:114|314:134|308:202|345:227,1,420,2|0,0:0|0:0,0:0:0:0:
383,361,113201,2,0,P|401:278|337:220,1,180,2|0,0:0|0:0,0:0:0:0:
244,249,114125,1,2,0:0:0:0:
427,192,114586,1,2,0:0:0:0:
336,220,114817,1,2,0:0:0:0:
354,35,115048,6,0,B|338:66|349:100|349:100|292:93|267:133|267:133|350:161|336:220|336:220|259:192|198:230,1,420,2|0,0:0|0:0,0:0:0:0:
106,316,116894,2,0,P|200:296|204:222,1,180,2|0,0:0|0:0,0:0:0:0:
130,165,117817,1,2,0:0:0:0:
281,291,118279,1,2,0:0:0:0:
205,225,118509,1,2,0:0:0:0:
356,166,118740,6,0,B|385:162|385:162|412:172|412:172|433:151|433:151|465:147,3,120,2|2|2|0,0:0|0:0|0:0|0:0,0:0:0:0:
215,183,120586,5,2,0:0:0:0:
256,192,120702,12,0,124336,0:0:0:0:
