osu file format v14

[General]
AudioFilename: audio.mp3
AudioLeadIn: 0
PreviewTime: 461
Countdown: 0
SampleSet: Soft
StackLeniency: 0.7
Mode: 0
LetterboxInBreaks: 0
WidescreenStoryboard: 0

[Editor]
Bookmarks: 4269,19038,41192,48576,63345,78115,92884,100269,115038
DistanceSpacing: 1.3
BeatDivisor: 8
GridSize: 4
TimelineZoom: 2.599999

[Metadata]
Title:J'adore Le Zboub
TitleUnicode:J'adore Le Zboub
Artist:Xavier Dang
ArtistUnicode:Xavier Dang
Creator:Nozhomi
Version:Collab du Cul
Source:
Tags:feat ZeratoR Trinity Aayley Lutti DFG Locklear MoMaN zevent 2018 mister mv shapy
BeatmapID:1839761
BeatmapSetID:879756

[Difficulty]
HPDrainRate:6
CircleSize:4.2
OverallDifficulty:7
ApproachRate:8
SliderMultiplier:1.8
SliderTickRate:1

[Events]
//Background and Video events
0,0,"mv.jpg",0,0
Video,0,"zboub.mp4"
//Break Periods
//Storyboard Layer 0 (Background)
//Storyboard Layer 1 (Fail)
//Storyboard Layer 2 (Pass)
//Storyboard Layer 3 (Foreground)
//Storyboard Sound Samples

[TimingPoints]
4279,461.538461538462,4,2,1,60,1,0
34509,-117.647058823529,4,2,1,60,0,0
46740,-66.6666666666667,4,2,1,60,0,0
47202,-117.647058823529,4,2,1,60,0,0
61740,-83.3333333333333,4,2,1,60,0,0
63355,-133.333333333333,4,2,1,60,0,0
68894,-100,4,2,1,60,0,0
69355,-133.333333333333,4,2,1,60,0,0
76163,-133.333333333333,4,2,1,20,0,0
76279,-133.333333333333,4,2,1,60,0,0
84355,-86.9565217391304,4,2,1,60,0,0
85048,-133.333333333333,4,2,1,60,0,0
89202,-133.333333333333,4,2,1,25,0,0
89663,-133.333333333333,4,2,1,35,0,0
90125,-133.333333333333,4,2,1,45,0,0
90586,-133.333333333333,4,2,1,55,0,0
91048,-133.333333333333,4,2,1,45,0,0
91625,-133.333333333333,4,2,1,60,0,0
91971,-133.333333333333,4,2,1,45,0,0
92894,-83.3333333333333,4,2,1,70,0,1
107663,-133.333333333333,4,2,1,40,0,0
108125,-133.333333333333,4,2,1,35,0,0
108586,-133.333333333333,4,2,1,30,0,0
109048,-133.333333333333,4,2,1,20,0,0
109509,-133.333333333333,4,2,1,40,0,0
110202,-133.333333333333,4,2,1,30,0,0
110432,-133.333333333333,4,2,1,40,0,0
112971,-133.333333333333,4,2,1,20,0,0
113202,-133.333333333333,4,2,1,40,0,0
113548,-133.333333333333,4,2,1,30,0,0
113894,-133.333333333333,4,2,1,20,0,0
114125,-133.333333333333,4,2,1,40,0,0
115509,-133.333333333333,4,2,1,35,0,0
115971,-133.333333333333,4,2,1,30,0,0
116432,-133.333333333333,4,2,1,20,0,0
116894,-133.333333333333,4,2,1,40,0,0
117586,-133.333333333333,4,2,1,20,0,0
117817,-133.333333333333,4,2,1,40,0,0
118048,-133.333333333333,4,2,1,20,0,0
118279,-133.333333333333,4,2,1,40,0,0
118740,-100,4,2,1,40,0,0
119202,-100,4,2,1,35,0,0
119663,-133.333333333333,4,2,1,30,0,0
120125,-133.333333333333,4,2,1,20,0,0
120586,-133.333333333333,4,2,1,40,0,0
124163,-100,4,2,1,20,0,0

[Colours]
Combo1 : 207,197,205
Combo2 : 47,166,26
Combo3 : 232,0,5

[HitObjects]
132,273,4279,5,0,3:0:0:0:
159,141,4509,1,0,0:0:0:0:
238,250,4740,1,0,1:0:0:0:
348,171,4971,2,0,B|479:158|479:158|413:215,1,180
334,271,5663,1,0,1:0:0:0:
367,87,5894,1,0,0:0:0:0:
209,173,6125,5,0,3:0:0:0:
69,84,6355,2,0,P|117:81|149:105,1,90,2|0,0:0|1:0,0:0:0:0:
171,256,6817,2,0,P|119:171|163:94,1,180,2|0,0:0|0:0,0:0:0:0:
258,23,7509,1,0,1:0:0:0:
149,105,7740,1,2,0:0:0:0:
328,150,7971,5,0,3:0:0:0:
229,241,8201,1,0,0:0:0:0:
227,105,8432,1,0,1:0:0:0:
313,236,8663,2,0,B|318:365|318:365|348:321,1,180
421,210,9355,1,0,1:0:0:0:
237,293,9586,1,0,0:0:0:0:
353,149,9817,5,0,3:0:0:0:
216,215,10048,2,0,L|110:207,1,90,2|0,0:0|1:0,0:0:0:0:
2,257,10509,2,0,P|72:283|119:182,1,180,2|0,0:0|0:0,0:0:0:0:
68,86,11201,1,0,1:0:0:0:
127,208,11432,1,2,0:0:0:0:
236,66,11663,6,0,L|348:70,1,90,0|0,3:0|0:0,0:0:0:0:
461,75,12125,1,0,1:0:0:0:
339,258,12355,2,0,P|319:182|392:120,1,180,2|0,0:0|0:0,0:0:0:0:
478,221,13048,1,0,1:0:0:0:
387,120,13279,1,2,0:0:0:0:
399,296,13509,5,0,3:0:0:0:
267,185,13740,2,0,P|220:177|164:191,1,90,0|0,0:0|1:0,0:0:0:0:
38,345,14202,2,0,P|108:295|103:209,1,180,2|0,0:0|0:0,0:0:0:0:
15,102,14894,1,0,1:0:0:0:
103,209,15125,1,2,0:0:0:0:
201,47,15355,6,0,L|111:43,1,90,0|0,3:0|0:0,0:0:0:0:
176,162,15817,1,0,1:0:0:0:
285,47,16047,2,0,P|315:123|436:121,1,180,2|0,0:0|0:0,0:0:0:0:
486,32,16740,1,0,1:0:0:0:
489,200,16971,1,2,0:0:0:0:
405,56,17201,5,0,3:0:0:0:
344,227,17432,2,0,L|348:326,1,90,0|0,0:0|1:0,0:0:0:0:
177,366,17894,2,0,P|190:283|273:279,1,180,2|0,0:0|0:0,0:0:0:0:
415,357,18586,1,0,1:0:0:0:
273,279,18817,1,2,0:0:0:0:
441,164,19048,6,0,P|445:116|428:64,1,90,0|0,3:0|0:0,0:0:0:0:
289,126,19509,1,0,1:0:0:0:
378,227,19740,1,2,0:0:0:0:
345,61,19971,2,0,P|305:41|247:52,1,90
222,214,20432,1,0,1:0:0:0:
371,129,20663,1,2,0:0:0:0:
304,276,20894,5,0,3:0:0:0:
225,116,21125,2,0,P|198:81|148:53,1,90,0|0,0:0|1:0,0:0:0:0:
76,221,21586,2,0,B|57:258|62:317|79:340|79:340|114:313|114:279,1,180,2|0,0:0|0:0,0:0:0:0:
187,194,22279,1,0,1:0:0:0:
259,296,22509,1,2,0:0:0:0:
301,116,22740,6,0,P|328:81|378:53,1,90,0|0,3:0|0:0,0:0:0:0:
421,180,23202,1,0,1:0:0:0:
272,213,23432,1,2,0:0:0:0:
409,320,23663,2,0,L|521:330,1,90,0|0,3:0|0:0,0:0:0:0:
358,233,24125,1,0,1:0:0:0:
241,331,24355,1,2,0:0:0:0:
198,155,24586,5,0,3:0:0:0:
384,124,24817,2,0,P|466:147|482:164,1,90,0|0,0:0|1:0,0:0:0:0:
232,236,25279,2,0,P|135:216|110:144,1,180,2|0,0:0|0:0,0:0:0:0:
179,42,25971,1,0,1:0:0:0:
273,124,26202,1,2,0:0:0:0:
375,36,26432,5,2,0:0:0:0:
355,206,26663,1,0,0:0:0:0:
355,206,26779,2,0,L|356:306,1,90,2|0,0:0|0:0,0:0:0:0:
287,328,27125,2,0,L|286:238,1,90,2|0,0:0|0:0,0:0:0:0:
231,186,27471,2,0,P|195:241|131:257,1,135,2|2,0:0|0:0,0:0:0:0:
73,156,28048,1,0,0:0:0:0:
258,81,28279,6,0,L|375:88,1,90,2|0,0:0|0:0,0:0:0:0:
387,159,28625,2,0,L|297:153,1,90,2|0,0:0|0:0,0:0:0:0:
211,142,28971,2,0,P|182:63|243:4,1,180,2|0,0:0|0:0,0:0:0:0:
347,86,29663,1,2,0:0:0:0:
459,29,29894,1,0,0:0:0:0:
308,214,30125,5,2,0:0:0:0:
422,140,30355,1,0,0:0:0:0:
422,140,30471,2,0,P|418:181|444:233,1,90,2|0,0:0|0:0,0:0:0:0:
475,285,30817,2,0,P|479:326|453:378,1,90,2|0,0:0|0:0,0:0:0:0:
392,384,31163,2,0,L|239:380,1,135,2|2,0:0|0:0,0:0:0:0:
154,308,31740,1,0,0:0:0:0:
140,139,31971,6,0,L|138:40,1,90,2|0,0:0|0:0,0:0:0:0:
59,106,32317,2,0,L|60:195,1,90,2|0,0:0|0:0,0:0:0:0:
138,49,32663,2,0,B|199:30|283:47|283:47|247:66,1,180,2|0,0:0|0:0,0:0:0:0:
223,185,33355,2,0,P|226:235|251:276,1,90,2|0,0:0|0:0,0:0:0:0:
339,199,33817,5,0,3:0:0:0:
388,303,34048,1,2,0:0:0:0:
407,132,34279,1,0,3:0:0:0:
209,96,34509,2,0,P|131:117|83:171,1,153.000002918243,2|2,0:0|0:0,0:0:0:0:
56,296,35202,1,0,3:0:0:0:
185,230,35432,1,2,0:0:0:0:
157,370,35663,5,0,3:0:0:0:
270,291,35894,2,0,P|343:277|361:283,1,76.5000014591217,2|0,0:0|3:0,0:0:0:0:
472,355,36355,2,0,P|456:285|473:192,1,153.000002918243,2|2,0:0|0:0,0:0:0:0:
392,107,37048,2,0,P|319:93|301:99,1,76.5000014591217,0|2,3:0|0:0,0:0:0:0:
347,220,37509,5,0,3:0:0:0:
470,124,37740,1,2,0:0:0:0:
318,93,37971,1,0,3:0:0:0:
314,289,38202,2,0,P|406:269|422:201,1,153.000002918243,2|2,0:0|0:0,0:0:0:0:
152,255,38894,1,0,3:0:0:0:
216,113,39125,1,2,0:0:0:0:
253,237,39355,5,0,3:0:0:0:
159,329,39586,2,0,P|118:322|93:299,1,76.5000014591217,2|0,0:0|3:0,0:0:0:0:
128,173,40048,1,2,0:0:0:0:
247,312,40279,2,0,P|284:306|312:282,1,76.5000014591217,0|2,3:0|0:0,0:0:0:0:
457,270,40740,2,0,P|419:275|391:299,1,76.5000014591217,0|2,3:0|0:0,0:0:0:0:
392,146,41202,6,0,L|390:299,1,153.000002918243,0|0,3:0|3:0,0:0:0:0:
490,241,41894,1,2,0:0:0:0:
322,199,42125,2,0,P|281:198|229:223,1,76.5000014591217,0|2,3:0|0:0,0:0:0:0:
181,303,42586,1,0,3:0:0:0:
181,303,42702,1,0,0:0:0:0:
181,303,42817,1,2,0:0:0:0:
74,192,43048,5,0,3:0:0:0:
176,147,43279,2,0,L|178:223,1,76.5000014591217,2|0,0:0|3:0,0:0:0:0:
97,112,43740,1,2,0:0:0:0:
230,74,43971,2,0,L|306:71,1,76.5000014591217,0|2,3:0|0:0,0:0:0:0:
429,30,44432,1,0,3:0:0:0:
429,30,44548,1,0,0:0:0:0:
429,30,44663,1,2,0:0:0:0:
365,170,44894,6,0,B|348:247|348:247|365:319,1,153.000002918243,0|0,3:0|3:0,0:0:0:0:
472,245,45586,1,2,0:0:0:0:
365,170,45817,2,0,P|334:147|321:112,1,76.5000014591217,0|2,3:0|0:0,0:0:0:0:
202,144,46279,2,0,P|196:106|212:72,1,76.5000014591217,0|2,3:0|0:0,0:0:0:0:
283,226,46740,6,0,L|107:217,1,135.000005149842,0|2,3:0|0:0,0:0:0:0:
215,322,47202,6,0,L|291:325,1,76.5000014591217,0|2,3:0|0:0,0:0:0:0:
451,275,47663,2,0,L|374:278,1,76.5000014591217,0|2,3:0|0:0,0:0:0:0:
288,152,48125,1,0,3:0:0:0:
292,325,48355,1,2,0:0:0:0:
409,198,48586,6,0,P|421:160|418:121,1,76.5000014591217,0|0,3:0|0:0,0:0:0:0:
298,245,49048,2,0,P|258:252|220:245,1,76.5000014591217,0|2,1:0|0:0,0:0:0:0:
85,188,49509,2,0,P|73:150|76:111,1,76.5000014591217,0|0,3:0|0:0,0:0:0:0:
81,99,49855,1,0,0:0:0:0:
89,86,49971,1,0,1:0:0:0:
211,17,50202,1,2,0:0:0:0:
352,119,50432,6,0,L|430:126,1,76.5000014591217,0|0,3:0|0:0,0:0:0:0:
302,202,50894,2,0,L|380:195,1,76.5000014591217,0|2,1:0|0:0,0:0:0:0:
476,58,51355,1,0,3:0:0:0:
285,67,51586,1,0,0:0:0:0:
269,84,51702,1,0,0:0:0:0:
260,105,51817,1,0,1:0:0:0:
449,198,52048,1,2,0:0:0:0:
298,283,52279,6,0,L|194:291,1,76.5000014591217,0|0,3:0|0:0,0:0:0:0:
86,273,52740,1,0,1:0:0:0:
250,183,52971,1,2,0:0:0:0:
48,176,53202,2,0,L|152:184,1,76.5000014591217,0|0,3:0|0:0,0:0:0:0:
124,181,53548,1,0,0:0:0:0:
124,181,53663,1,0,1:0:0:0:
257,32,53894,1,2,0:0:0:0:
357,136,54125,6,0,P|363:176|344:226,1,76.5000014591217,0|0,3:0|0:0,0:0:0:0:
257,122,54586,1,0,1:0:0:0:
266,316,54817,1,2,0:0:0:0:
353,210,55048,1,0,3:0:0:0:
172,142,55279,1,0,0:0:0:0:
172,142,55394,1,0,0:0:0:0:
172,142,55509,2,0,L|172:58,1,76.5000014591217,0|2,1:0|0:0,0:0:0:0:
52,171,55971,5,0,3:0:0:0:
124,288,56202,1,0,0:0:0:0:
275,237,56432,2,0,P|330:243|358:264,1,76.5000014591217,0|2,1:0|0:0,0:0:0:0:
457,325,56894,2,0,P|402:331|374:352,1,76.5000014591217,0|0,3:0|0:0,0:0:0:0:
371,349,57240,1,0,0:0:0:0:
361,361,57355,1,0,1:0:0:0:
212,300,57586,1,2,0:0:0:0:
377,190,57817,5,0,3:0:0:0:
260,116,58048,1,0,0:0:0:0:
440,53,58279,2,0,P|465:80|472:127,1,76.5000014591217,0|2,1:0|0:0,0:0:0:0:
319,45,58740,1,0,3:0:0:0:
291,208,58971,1,0,0:0:0:0:
270,218,59086,1,0,0:0:0:0:
247,223,59202,1,0,1:0:0:0:
62,52,59432,1,2,0:0:0:0:
68,169,59663,6,0,L|73:271,1,76.5000014591217,0|0,3:0|0:0,0:0:0:0:
163,123,60125,1,0,1:0:0:0:
164,266,60355,1,2,0:0:0:0:
261,138,60586,2,0,P|321:147|342:170,1,76.5000014591217,0|0,3:0|0:0,0:0:0:0:
262,298,61048,1,0,1:0:0:0:
432,187,61279,2,0,P|437:145|417:97,1,76.5000014591217,2|0,0:0|3:0,0:0:0:0:
247,41,61740,6,0,B|206:48|164:30|164:30|121:54|80:50|80:50|157:79|157:79|104:123|101:160|101:160|129:192|121:242,1,431.999986816407,2|0,0:0|0:0,0:0:0:0:
289,335,62894,1,0,1:0:0:0:
316,128,63125,1,2,0:0:0:0:
179,318,63355,6,0,P|211:249|286:222,1,135.000005149842,2|0,0:0|0:0,0:0:0:0:
427,320,64048,2,0,P|358:288|331:213,1,135.000005149842,2|0,0:0|0:0,0:0:0:0:
328,69,64740,1,2,0:0:0:0:
439,196,64971,1,0,0:0:0:0:
244,141,65202,6,0,L|97:151,1,135.000005149842,2|0,0:0|0:0,0:0:0:0:
225,277,65894,2,0,P|253:251|261:214,1,67.5000025749208,2|0,0:0|0:0,0:0:0:0:
210,86,66355,2,0,P|235:109|244:142,1,67.5000025749208,2|0,0:0|0:0,0:0:0:0:
225,277,66817,1,0,0:0:0:0:
331,161,67048,6,0,L|465:170,1,135.000005149842,2|0,0:0|0:0,0:0:0:0:
345,78,67740,2,0,L|210:84,1,135.000005149842,2|0,0:0|0:0,0:0:0:0:
101,164,68432,1,2,0:0:0:0:
101,164,68663,1,0,0:0:0:0:
158,287,68894,6,0,P|150:319|120:286,1,90,2|0,0:0|0:0,0:0:0:0:
246,221,69355,2,0,L|326:223,1,67.5000025749208
303,331,69817,2,0,L|370:329,1,67.5000025749208,2|0,0:0|0:0,0:0:0:0:
397,224,70279,2,0,L|477:226,1,67.5000025749208
413,30,70740,6,0,P|364:74|353:140,1,135.000005149842,2|0,0:0|0:0,0:0:0:0:
225,89,71432,2,0,P|274:133|285:198,1,135.000005149842,2|0,0:0|0:0,0:0:0:0:
357,94,72125,1,2,0:0:0:0:
360,230,72356,1,0,0:0:0:0:
209,170,72587,6,0,L|62:180,1,135.000005149842,2|0,0:0|0:0,0:0:0:0:
158,305,73279,1,2,0:0:0:0:
285,199,73510,2,0,P|290:166|281:134,1,67.5000025749208
239,275,73971,1,2,0:0:0:0:
370,178,74202,1,0,0:0:0:0:
423,346,74432,6,0,L|355:345,1,67.5000025749208,2|0,0:0|0:0,0:0:0:0:
239,275,74894,1,0,0:0:0:0:
115,342,75125,2,0,P|143:316|151:279,1,67.5000025749208,2|0,0:0|0:0,0:0:0:0:
156,196,75585,1,0,0:0:0:0:
0,116,75818,2,0,P|18:161|65:178,1,101.250003862381,2|0,0:0|0:0,0:0:0:0:
110,165,76279,6,0,L|108:24,1,135.000005149842,2|0,0:0|0:0,0:0:0:0:
220,104,76971,1,0,0:0:0:0:
222,243,77202,2,0,L|221:164,1,67.5000025749208,2|0,0:0|0:0,0:0:0:0:
349,93,77663,1,2,0:0:0:0:
342,112,77779,1,0,0:0:0:0:
327,126,77894,1,2,0:0:0:0:
309,136,78009,1,0,0:0:0:0:
289,142,78125,6,0,P|346:143|376:212,1,135.000005149842,2|0,0:0|0:0,0:0:0:0:
294,305,78817,2,0,L|146:293,1,135.000005149842,2|0,0:0|0:0,0:0:0:0:
98,189,79509,1,2,0:0:0:0:
37,302,79740,1,0,0:0:0:0:
170,218,79971,6,0,L|304:228,1,135.000005149842,2|0,0:0|0:0,0:0:0:0:
396,318,80663,1,0,0:0:0:0:
427,193,80894,2,0,L|421:110,1,67.5000025749208,2|0,0:0|0:0,0:0:0:0:
304,228,81355,1,2,0:0:0:0:
463,267,81586,1,0,0:0:0:0:
276,326,81817,6,0,P|189:316|177:278,1,135.000005149842,2|0,0:0|0:0,0:0:0:0:
81,157,82509,2,0,P|167:166|180:205,1,135.000005149842,2|0,0:0|0:0,0:0:0:0:
58,297,83202,1,2,0:0:0:0:
177,281,83432,1,0,0:0:0:0:
81,157,83663,5,2,0:0:0:0:
202,59,83894,2,0,P|246:55|298:85,1,101.250003862381,2|0,0:0|0:0,0:0:0:0:
332,117,84355,2,0,P|375:143|426:141,1,103.500001974106,0|2,0:0|0:0,0:0:0:0:
466,56,84817,1,0,0:0:0:0:
472,211,85048,1,2,0:0:0:0:
316,214,85279,1,0,0:0:0:0:
313,59,85509,6,0,P|245:33|183:57,1,135.000005149842,2|0,0:0|0:0,0:0:0:0:
140,174,86202,2,0,L|144:255,1,67.5000025749208,2|0,0:0|0:0,0:0:0:0:
228,284,86663,2,0,L|224:216,1,67.5000025749208,0|2,0:0|0:0,0:0:0:0:
77,357,87125,6,0,L|70:222,1,135.000005149842,2|0,0:0|0:0,0:0:0:0:
117,102,87817,2,0,P|149:99|189:117,1,67.5000025749208
257,220,88279,2,0,P|259:187|242:148,1,67.5000025749208,2|0,0:0|0:0,0:0:0:0:
373,95,88740,2,0,P|340:92|301:110,1,67.5000025749208,2|0,0:0|0:0,0:0:0:0:
262,246,89202,5,0,1:0:0:0:
264,262,89317,1,0,1:0:0:0:
265,278,89432,1,0,1:0:0:0:
267,294,89548,1,0,1:0:0:0:
256,325,89663,5,0,1:0:0:0:
227,342,89779,1,0,1:0:0:0:
193,347,89894,1,0,1:0:0:0:
159,341,90009,1,0,1:0:0:0:
133,304,90125,5,0,1:0:0:0:
134,260,90240,1,0,1:0:0:0:
154,221,90355,1,0,1:0:0:0:
190,195,90471,1,0,1:0:0:0:
224,153,90586,5,0,1:0:0:0:
226,98,90702,1,0,1:0:0:0:
197,52,90817,1,0,1:0:0:0:
146,33,90932,1,0,1:0:0:0:
92,43,91048,6,0,L|72:51,6,16.8750006437302,0|0|0|0|0|0|0,1:0|1:0|1:0|1:0|1:0|1:0|1:0,1:0:0:0:
43,113,91509,1,0,1:0:0:0:
44,136,91625,1,0,1:0:0:0:
45,159,91740,1,0,1:0:0:0:
46,182,91855,1,0,1:0:0:0:
46,205,91971,6,0,L|47:234,6,16.8750006437302,0|0|0|0|0|0|0,1:0|1:0|1:0|1:0|1:0|1:0|1:0,1:0:0:0:
102,264,92432,2,0,L|103:293,6,16.8750006437302,0|0|0|0|0|0|0,1:0|1:0|1:0|1:0|1:0|1:0|1:0,1:0:0:0:
146,342,92894,6,0,P|198:359|270:333,1,107.999996704102,4|2,3:2|0:0,0:0:0:0:
408,280,93355,2,0,P|356:263|284:289,1,107.999996704102,0|2,1:0|0:0,0:0:0:0:
449,358,93817,1,0,3:0:0:0:
449,358,93932,1,0,0:0:0:0:
449,358,94048,1,2,0:0:0:0:
496,214,94279,2,0,L|492:102,1,107.999996704102,0|2,1:0|0:0,0:0:0:0:
254,77,94740,6,0,P|285:117|365:127,1,107.999996704102,0|2,3:0|0:0,0:0:0:0:
179,48,95202,2,0,P|128:55|79:119,1,107.999996704102,0|2,1:0|0:0,0:0:0:0:
59,286,95663,2,0,B|72:232|72:232|59:182,1,107.999996704102,0|2,3:0|0:0,0:0:0:0:
236,262,96125,1,0,1:0:0:0:
173,78,96355,1,2,0:0:0:0:
399,153,96586,6,0,L|291:160,1,107.999996704102,0|2,3:0|0:0,0:0:0:0:
128,254,97048,2,0,L|236:262,1,107.999996704102,0|2,1:0|0:0,0:0:0:0:
394,340,97509,1,0,3:0:0:0:
394,340,97624,1,0,0:0:0:0:
394,340,97740,1,2,0:0:0:0:
324,158,97971,2,0,P|315:217|337:283,1,107.999996704102,0|2,1:0|0:0,0:0:0:0:
238,66,98432,6,0,P|185:54|134:73,1,107.999996704102,0|2,3:0|0:0,0:0:0:0:
324,158,98894,2,0,P|376:169|428:151,1,107.999996704102,0|2,1:0|0:0,0:0:0:0:
215,176,99355,2,0,B|205:232|205:232|218:281,1,107.999996704102,0|2,3:0|0:0,0:0:0:0:
387,237,99817,1,0,1:0:0:0:
253,109,100047,1,2,0:0:0:0:
421,49,100279,6,0,P|438:98|420:162,1,107.999996704102,0|2,3:0|0:0,0:0:0:0:
243,101,100740,2,0,P|166:95|115:119,1,107.999996704102,0|2,1:0|0:0,0:0:0:0:
68,250,101202,1,0,3:0:0:0:
68,250,101317,1,0,0:0:0:0:
68,250,101432,1,2,0:0:0:0:
35,89,101663,1,0,1:0:0:0:
144,196,101894,1,2,0:0:0:0:
317,143,102125,6,0,L|313:35,1,107.999996704102,0|2,3:0|0:0,0:0:0:0:
426,160,102586,2,0,L|431:295,1,107.999996704102,0|2,1:0|0:0,0:0:0:0:
257,185,103048,1,0,3:0:0:0:
244,174,103163,1,0,0:0:0:0:
231,163,103279,1,2,0:0:0:0:
426,160,103509,1,0,1:0:0:0:
255,273,103740,1,2,0:0:0:0:
327,104,103971,6,0,P|330:47|300:8,1,107.999996704102,0|2,3:0|0:0,0:0:0:0:
177,107,104432,1,0,1:0:0:0:
177,107,104548,1,0,0:0:0:0:
177,107,104663,1,2,0:0:0:0:
84,254,104894,1,0,3:0:0:0:
48,92,105125,1,2,0:0:0:0:
213,189,105355,2,0,L|326:195,1,107.999996704102,0|2,1:0|0:0,0:0:0:0:
98,347,105817,5,0,3:0:0:0:
98,347,105932,1,0,0:0:0:0:
98,347,106048,1,2,0:0:0:0:
287,287,106279,2,0,P|326:223|319:192,1,107.999996704102,0|2,1:0|0:0,0:0:0:0:
172,122,106740,2,0,P|137:161|138:214,1,107.999996704102,0|2,3:0|0:0,0:0:0:0:
315,82,107202,1,0,1:0:0:0:
362,84,107317,1,0,0:0:0:0:
402,111,107432,1,2,0:0:0:0:
421,155,107548,1,0,0:0:0:0:
435,193,107663,6,0,B|456:227|433:255|409:283|441:331,3,135.000005149842,2|2|2|0,0:0|0:0|0:0|0:0,0:0:0:0:
295,196,109509,2,0,P|217:174|195:280,1,202.500007724762,2|0,0:0|0:0,0:0:0:0:
283,300,110432,5,2,0:0:0:0:
153,113,110894,1,2,0:0:0:0:
96,205,111125,1,2,0:0:0:0:
276,221,111355,6,0,B|330:217|349:166|349:166|397:210|469:191|469:191|475:142|420:70|328:53|271:128,1,472.500018024445,2|0,0:0|0:0,0:0:0:0:
170,153,113202,2,0,P|143:39|248:12,1,236.250009012223,2|0,0:0|0:0,0:0:0:0:
210,83,114125,5,2,0:0:0:0:
277,288,114586,1,2,0:0:0:0:
334,196,114817,1,2,0:0:0:0:
184,194,115048,6,0,B|143:195|128:225|128:225|88:203|59:230,3,135.000005149842,2|2|2|0,0:0|0:0|0:0|0:0,0:0:0:0:
30,318,116663,1,0,0:0:0:0:
155,352,116894,2,0,P|220:285|174:188,1,202.500007724762,2|0,0:0|0:0,0:0:0:0:
109,117,117817,6,0,B|120:84|120:84|110:52,1,67.5000025749208,2|0,0:0|0:0,0:0:0:0:
7,85,118279,1,2,0:0:0:0:
39,188,118509,1,2,0:0:0:0:
194,102,118740,6,0,B|223:95|231:74|231:74|257:97|257:97|284:65|284:65|297:93|333:104,1,180,2|2,0:0|0:0,0:0:0:0:
471,240,119663,2,0,B|444:246|429:263|429:263|407:245|407:245|381:257|381:257|360:243|333:242,1,135.000005149842,2|0,0:0|0:0,0:0:0:0:
96,323,120586,5,2,0:0:0:0:
256,192,120702,12,0,124336,0:0:0:0:
