osu file format v14

[General]
AudioFilename: audio.mp3
AudioLeadIn: 0
PreviewTime: 589192
Countdown: 0
SampleSet: Soft
StackLeniency: 0.7
Mode: 0
LetterboxInBreaks: 0
WidescreenStoryboard: 1

[Editor]
Bookmarks: 266,45497,111958,157992,189992,221991,242201,271001,292819,301546,310273,317910,326091,335364,338637,343001,351728,360455,376819,377910,386637,399728,400001,420319,420590,420863,421136,421408,421681,421954,422227,422499,422772,423045,423318,423590,423863,424136,424408,424681,424954,425227,425499,452364,474303,494970,516303,537636,548303,558970,580303,580747,589192,590969,598969,601636,602969,612303,620303,622969,623491,624013,624535,625056,625578,626100,626622,627143,627665,628187,628709,629230,629752,630274,630796,631317,631839,632361,632883,633404,633926,634448,634970,635491,636013,636535,637056,637578,638100,638622,639143,639665,640187,640709,641230,641752,642274,642796,643317,643839,644361,644883,645404,645926,646448,646970,647491,648013,648535,649056,649578,650100,650622,651143,651665,652047,678228,704410,730591,739319,748046,748591
DistanceSpacing: 0.6
BeatDivisor: 6
GridSize: 8
TimelineZoom: 2.899999

[Metadata]
Title:The Sound of a Glinting Blade / The Sound Which Has No Name
TitleUnicode:The Sound of a Glinting Blade / The Sound Which Has No Name
Artist:Xanthochroid
ArtistUnicode:Xanthochroid
Creator:Dereban
Version:Helpless Cries
Source:
Tags:english epic black melodic Metal Symphonic of erthe and axen act 1 2017 coppertine glasand
BeatmapID:2132119
BeatmapSetID:1018888

[Difficulty]
HPDrainRate:6
CircleSize:4.4
OverallDifficulty:9.3
ApproachRate:10
SliderMultiplier:2
SliderTickRate:1

[Events]
//Background and Video events
0,0,"bg.jpg",0,0
//Break Periods
2,420518,425186
2,623170,651325
2,730791,737573
//Storyboard Layer 0 (Background)
//Storyboard Layer 1 (Fail)
//Storyboard Layer 2 (Pass)
//Storyboard Layer 3 (Foreground)
//Storyboard Layer 4 (Overlay)
//Storyboard Sound Samples

[TimingPoints]
266,461.538461538462,4,2,1,40,1,0
45497,461.538461538462,4,2,1,40,1,0
153497,472.44094488189,4,2,1,40,1,0
153733,571.428571428571,4,2,1,40,1,0
154018,521.739130434783,4,2,1,40,1,0
154278,571.428571428571,4,2,1,40,1,0
157992,333.333333333333,4,2,1,40,1,0
221991,421.052631578947,3,2,1,40,1,0
242201,400,3,2,1,40,1,0
271001,272.727272727273,4,2,1,30,1,0
271001,-222.222222222222,4,2,1,30,0,0
274001,-222.222222222222,4,2,1,5,0,0
274137,-222.222222222222,4,2,1,30,0,0
274341,272.727272727273,4,2,1,30,1,0
274341,-285.714285714286,4,2,1,30,0,0
275431,-285.714285714286,4,2,2,30,0,0
278704,-200,4,2,2,30,0,0
284159,-166.666666666667,4,2,2,30,0,0
285250,-142.857142857143,4,2,2,30,0,0
286341,-125,4,2,1,30,0,0
287431,-111.111111111111,4,2,1,30,0,0
288522,-100,4,2,1,30,0,0
291591,272.727272727273,4,2,1,35,1,0
291727,-200,4,2,1,35,0,0
292000,-166.666666666667,4,2,1,35,0,0
292272,-142.857142857143,4,2,2,35,0,0
292545,-142.857142857143,4,2,4,35,0,0
292819,272.727272727273,4,2,3,55,1,1
297182,-100,4,2,3,55,0,1
297183,-100,4,2,4,55,0,1
298545,-100,4,2,3,55,0,1
298546,-100,4,2,3,55,0,1
300455,-100,4,2,1,55,0,1
300728,-100,4,2,2,55,0,1
300796,-100,4,2,2,58,0,1
300864,-100,4,2,2,60,0,1
300932,-100,4,2,2,63,0,1
301000,-100,4,2,3,65,0,0
301546,-100,4,2,4,50,0,0
301819,-133.333333333333,4,2,4,60,0,0
301820,-133.333333333333,4,2,4,60,0,0
309454,-133.333333333333,4,2,4,55,0,0
309455,-133.333333333333,4,2,1,55,0,0
309728,-133.333333333333,4,2,2,50,0,0
310000,-133.333333333333,4,2,2,60,0,0
310001,-133.333333333333,4,2,2,60,0,0
310273,-153.846153846153,4,2,1,45,0,0
313819,-153.846153846153,4,2,7,50,0,0
317091,-200,4,2,7,60,0,0
317364,-200,4,2,4,60,0,0
317909,-200,4,2,5,55,0,1
318319,-200,4,2,4,55,0,1
318455,-200,4,2,5,55,0,1
318591,-200,4,2,4,55,0,1
318728,-100,4,2,5,55,0,1
318864,-100,4,2,4,55,0,1
319000,-100,4,2,5,55,0,1
319137,-100,4,2,4,55,0,1
319272,-100,4,2,4,55,0,1
319273,-100,4,2,5,55,0,1
319409,-100,4,2,4,55,0,1
319545,-100,4,2,4,55,0,1
319546,-100,4,2,5,55,0,1
319682,-100,4,2,4,55,0,1
319819,-100,4,2,5,55,0,1
319955,-100,4,2,4,55,0,1
320091,-100,4,2,4,55,0,1
320092,-100,4,2,5,55,0,1
320227,-100,4,2,5,55,0,1
320228,-100,4,2,4,55,0,1
320363,-100,4,2,4,55,0,1
320365,-100,4,2,5,55,0,1
320500,-100,4,2,4,55,0,1
320637,-100,4,2,5,55,0,1
320773,-100,4,2,4,55,0,1
320909,-100,4,2,4,55,0,1
320910,-100,4,2,5,55,0,1
321045,-100,4,2,5,55,0,1
321046,-100,4,2,4,55,0,1
321181,-100,4,2,4,55,0,1
321183,-100,4,2,5,55,0,1
321318,-100,4,2,5,55,0,1
321319,-100,4,2,4,55,0,1
321455,-100,4,2,4,55,0,1
321456,-100,4,2,5,55,0,1
321591,-100,4,2,4,55,0,1
321728,-100,4,2,6,55,0,1
321864,-100,4,2,4,55,0,1
322000,-100,4,2,4,55,0,1
322001,-100,4,2,5,55,0,1
322137,-100,4,2,4,55,0,1
322273,-100,4,2,4,60,0,1
322274,-100,4,2,5,60,0,1
322363,-100,4,2,5,5,0,1
322364,-100,4,2,5,60,0,1
322409,-100,4,2,4,5,0,1
322455,-100,4,2,1,60,0,1
322545,-100,4,2,1,5,0,1
322546,-100,4,2,4,5,0,1
322637,-100,4,2,1,60,0,1
322682,-100,4,2,4,60,0,1
322727,-100,4,2,4,5,0,1
322728,-100,4,2,4,60,0,1
322817,-100,4,2,5,65,0,1
322819,-100,4,2,5,65,0,1
322909,-100,4,2,5,5,0,1
322955,-100,4,2,4,5,0,1
323001,-100,4,2,1,65,0,1
323090,-100,4,2,4,5,0,1
323091,-100,4,2,4,5,0,1
323183,-100,4,2,1,65,0,1
323229,-100,4,2,4,65,0,1
323273,-100,4,2,4,5,0,1
323364,-100,4,2,5,70,0,1
323454,-100,4,2,5,5,0,1
323455,-100,4,2,5,70,0,1
323502,-100,4,2,4,5,0,1
323546,-100,4,2,1,70,0,1
323636,-100,4,2,1,5,0,1
323637,-100,4,2,1,5,0,1
323728,-100,4,2,1,70,0,1
323774,-100,4,2,4,70,0,1
323818,-100,4,2,4,5,0,1
323819,-100,4,2,4,70,0,1
323909,-100,4,2,6,75,0,1
323999,-100,4,2,6,5,0,1
324000,-100,4,2,6,75,0,1
324047,-100,4,2,4,5,0,1
324091,-100,4,2,1,75,0,1
324181,-100,4,2,1,5,0,1
324182,-100,4,2,4,5,0,1
324273,-100,4,2,1,75,0,1
324320,-100,4,2,4,75,0,1
324363,-100,4,2,4,5,0,1
324364,-100,4,2,4,75,0,1
324455,-100,4,2,6,80,0,1
324545,-100,4,2,6,5,0,1
324546,-100,4,2,6,80,0,1
324593,-100,4,2,4,5,0,1
324637,-100,4,2,1,80,0,1
324727,-100,4,2,1,5,0,1
324728,-100,4,2,4,5,0,1
324819,-100,4,2,1,80,0,1
324866,-100,4,2,4,80,0,1
324909,-100,4,2,4,5,0,1
325000,-100,4,2,6,85,0,1
325090,-100,4,2,6,5,0,1
325091,-100,4,2,6,85,0,1
325138,-100,4,2,4,5,0,1
325182,-100,4,2,1,85,0,1
325272,-100,4,2,1,5,0,1
325273,-100,4,2,1,5,0,1
325364,-100,4,2,1,85,0,1
325411,-100,4,2,4,85,0,1
325455,-100,4,2,4,85,0,1
325546,-100,4,2,1,90,0,1
325819,-100,4,2,1,80,0,0
326091,-100,4,2,2,40,0,0
326183,-100,4,2,1,40,0,0
326637,-100,4,2,4,75,0,0
326909,-100,4,2,4,55,0,0
326911,-100,4,2,4,65,0,0
327182,-133.333333333333,4,2,4,65,0,0
332364,-133.333333333333,4,2,4,65,0,0
332365,-133.333333333333,4,2,1,65,0,0
334819,-133.333333333333,4,2,2,65,0,0
335364,-153.846153846153,4,2,1,60,0,0
337409,-153.846153846153,4,2,4,60,0,0
337546,-153.846153846153,4,2,1,60,0,0
338910,-153.846153846153,4,2,7,60,0,0
340819,-153.846153846153,4,2,7,65,0,0
341364,-153.846153846153,4,2,4,65,0,0
341909,-153.846153846153,4,2,5,65,0,0
342455,-153.846153846153,4,2,4,65,0,0
343000,-153.846153846153,4,2,8,65,0,0
343546,-153.846153846153,4,2,2,65,0,0
351728,-153.846153846153,4,2,1,65,0,0
353546,-100,4,2,1,65,0,0
355909,-100,4,2,9,65,0,0
356637,-100,4,2,1,65,0,0
368637,-100,4,2,2,60,0,0
369182,-100,4,2,1,50,0,0
371364,-133.333333333333,4,2,1,50,0,0
377091,-181.818181818181,4,2,1,50,0,0
377637,-181.818181818181,4,2,4,50,0,0
377909,-181.818181818181,4,2,4,65,0,1
378728,-100,4,2,4,65,0,1
381727,-100,4,2,3,65,0,1
381728,-100,4,2,3,65,0,1
382272,-100,4,2,4,65,0,1
382273,-100,4,2,4,65,0,1
385818,-100,4,2,1,65,0,1
386091,-100,4,2,2,50,0,0
386637,-200,4,2,9,50,0,0
386909,-133.333333333333,4,2,9,50,0,0
387182,-100,4,2,9,50,0,0
387455,-133.333333333333,4,2,9,50,0,0
387728,-100,4,2,9,50,0,0
387729,-100,4,2,1,50,0,0
388000,-80,4,2,1,50,0,0
388682,-80,4,2,4,50,0,0
388819,-133.333333333333,4,2,1,50,0,0
389091,-200,4,2,1,50,0,0
389364,-133.333333333333,4,2,1,50,0,0
389637,-100,4,2,1,50,0,0
389909,-80,4,2,1,50,0,0
390455,-80,4,2,10,50,0,0
390591,-80,4,2,1,50,0,0
390728,-80,4,2,10,50,0,0
390864,-80,4,2,3,50,0,0
391273,-133.333333333333,4,2,3,50,0,0
391682,-133.333333333333,4,2,3,5,0,0
391819,-133.333333333333,4,2,1,50,0,0
393182,-181.818181818181,4,2,1,50,0,0
395637,-181.818181818181,4,2,3,50,0,0
396183,-181.818181818181,4,2,1,50,0,0
396455,-133.333333333333,4,2,1,50,0,0
397545,-133.333333333333,4,2,11,50,0,0
397546,-181.818181818181,4,2,11,50,0,0
398091,-181.818181818181,4,2,11,50,0,0
398092,-181.818181818181,4,2,1,50,0,0
398909,-181.818181818181,4,2,1,50,0,0
398910,-181.818181818181,4,2,10,50,0,0
399000,-181.818181818181,4,2,1,50,0,0
399455,-181.818181818181,4,2,2,50,0,0
399727,-181.818181818181,4,2,2,50,0,0
399728,545.454545454546,4,2,1,50,1,0
400000,-100,4,2,6,50,0,0
401500,-100,4,2,1,50,0,0
401637,-100,4,2,1,50,0,0
401909,-181.818181818181,4,2,1,25,0,0
404364,-133.333333333333,4,2,1,25,0,0
406273,-153.846153846153,4,2,1,25,0,0
407364,-222.222222222221,4,2,1,25,0,0
408455,-153.846153846153,4,2,1,25,0,0
409546,-117.647058823529,4,2,1,25,0,0
410637,-153.846153846154,4,2,1,25,0,0
411728,-222.222222222222,4,2,1,25,0,0
412818,-400,4,2,1,25,0,0
413909,-222.222222222222,4,2,1,25,0,0
415273,-153.846153846154,4,2,1,25,0,0
420318,545.454545454546,4,2,1,25,1,0
425636,444.444444444444,3,2,1,25,1,0
425636,-200,3,2,1,25,0,0
436277,461.538461538462,3,2,1,25,1,0
437676,612.244897959184,3,2,1,25,1,0
437982,681.818181818182,3,2,1,25,1,0
439041,857.142857142857,3,2,1,30,1,0
439041,-133.333333333333,3,2,1,30,0,0
441636,444.444444444444,3,2,1,30,1,0
441636,-133.333333333333,3,2,1,30,0,0
452302,-133.333333333333,3,2,1,30,0,0
453636,-200,3,2,3,30,0,0
455414,-200,3,2,3,30,0,0
474969,-133.333333333333,3,2,3,20,0,0
475858,-153.846153846153,3,2,3,20,0,0
476080,-181.818181818181,3,2,3,20,0,0
480303,-100,3,2,3,20,0,0
481191,-133.333333333333,3,2,3,20,0,0
481414,-100,3,2,3,20,0,0
481636,-133.333333333333,3,2,3,20,0,0
485191,-100,3,2,3,20,0,0
485636,-80,3,2,3,20,0,0
486525,-66.6666666666667,3,2,3,20,0,0
486969,-80,3,2,3,20,0,0
487414,-100,3,2,3,20,0,0
489636,-133.333333333333,3,2,3,20,0,0
490525,-100,3,2,3,20,0,0
490969,-80,3,2,3,20,0,0
491858,-66.6666666666667,3,2,3,20,0,0
492302,-100,3,2,3,20,0,0
494394,444.444444444444,4,2,3,50,1,0
494542,-100,4,2,12,50,0,0
494970,444.444444444444,3,2,3,60,1,0
494970,-66.6666666666667,3,2,3,60,0,0
495414,-66.6666666666667,3,2,1,60,0,0
495636,-66.6666666666667,3,2,1,5,0,0
495858,-100,3,2,1,60,0,0
496303,-62.5,3,2,1,60,0,0
496969,-62.5,3,2,1,5,0,0
497192,-100,3,2,1,60,0,0
497303,-100,3,2,1,5,0,0
497414,-100,3,2,1,60,0,0
497525,-100,3,2,1,5,0,0
497636,-83.3333333333333,3,2,13,60,0,0
497747,-83.3333333333333,3,2,13,5,0,0
497858,-83.3333333333333,3,2,13,60,0,0
497970,-83.3333333333333,3,2,13,5,0,0
498081,-83.3333333333333,3,2,1,60,0,0
500303,-105.263157894737,3,2,13,60,0,0
500747,-105.263157894737,3,2,1,60,0,0
501414,-105.263157894737,3,2,1,5,0,0
501636,-62.5,3,2,1,60,0,0
502970,-71.4285714285714,3,2,13,60,0,0
503414,-71.4285714285714,3,2,1,60,0,0
504747,-71.4285714285714,3,2,1,5,0,0
505025,-71.4285714285714,3,2,1,60,0,0
505636,-100,3,2,13,55,0,0
506081,-100,3,2,1,55,0,0
508303,-90.9090909090909,3,2,13,55,0,0
508747,-90.9090909090909,3,2,1,55,0,0
509636,-100,3,2,1,55,0,0
510970,-100,3,2,13,55,0,0
511414,-100,3,2,1,55,0,0
513636,-100,3,2,13,55,0,0
514081,-100,3,2,1,55,0,0
516303,-100,3,2,3,60,0,0
519636,-100,3,2,1,60,0,0
519858,-100,3,2,3,60,0,0
520080,-100,3,2,3,60,0,0
520081,-100,3,2,1,60,0,0
520303,-80,3,2,3,60,0,0
521636,-100,3,2,3,60,0,0
522303,-100,3,2,1,60,0,0
522525,-100,3,2,3,60,0,0
522747,-100,3,2,1,60,0,0
522970,-100,3,2,3,60,0,0
523192,-100,3,2,1,60,0,0
523414,-100,3,2,3,60,0,0
524970,-100,3,2,1,60,0,0
525192,-100,3,2,3,60,0,0
526525,-100,3,2,1,60,0,0
526821,-100,3,2,2,60,0,0
526970,-100,3,2,13,60,0,0
527081,-100,3,2,13,5,0,0
527192,-100,3,2,13,60,0,0
527303,-100,3,2,13,5,0,0
527414,-133.333333333333,3,2,1,60,0,0
527525,-133.333333333333,3,2,1,5,0,0
527636,-133.333333333333,3,2,1,60,0,0
527747,-133.333333333333,3,2,1,5,0,0
527858,-133.333333333333,3,2,1,60,0,0
528303,-100,3,2,1,60,0,0
529303,-100,3,2,1,5,0,0
529414,-100,3,2,1,60,0,0
529525,-100,3,2,1,5,0,0
529636,-100,3,2,1,60,0,0
529747,-100,3,2,1,5,0,0
529858,-100,3,2,1,60,0,0
529969,-100,3,2,1,5,0,0
529970,-100,3,2,1,5,0,0
530081,-100,3,2,1,60,0,0
532303,-100,3,2,13,60,0,0
532747,-100,3,2,1,60,0,0
533636,-80,3,2,1,60,0,0
534970,-86.9565217391304,3,2,13,60,0,0
535414,-86.9565217391304,3,2,1,60,0,0
537192,-86.9565217391304,3,2,11,60,0,0
537636,-86.9565217391304,3,2,13,55,0,0
538081,-86.9565217391304,3,2,1,55,0,0
540303,-86.9565217391304,3,2,13,55,0,0
540747,-86.9565217391304,3,2,1,55,0,0
541636,-100,3,2,1,55,0,0
542970,-133.333333333333,3,2,13,55,0,0
543414,-133.333333333333,3,2,1,55,0,0
543636,-133.333333333333,3,2,1,5,0,0
543858,-133.333333333333,3,2,1,55,0,0
545636,-100,3,2,13,55,0,0
546970,-100,3,2,1,55,0,0
548303,-100,3,2,3,65,0,0
548970,-100,3,2,4,65,0,0
549192,-100,3,2,3,65,0,0
549414,-100,3,2,4,65,0,0
549636,-100,3,2,3,65,0,0
549858,-100,3,2,4,65,0,0
550081,-100,3,2,3,75,0,0
551192,-100,3,2,7,75,0,0
551414,-100,3,2,3,65,0,0
551636,-100,3,2,4,65,0,0
551858,-100,3,2,3,65,0,0
552747,-100,3,2,3,75,0,0
554080,-100,3,2,3,65,0,0
554081,-100,3,2,3,65,0,0
554303,-100,3,2,4,65,0,0
554525,-100,3,2,3,65,0,0
555414,-100,3,2,3,75,0,0
556303,-100,3,2,3,65,0,0
556969,-100,3,2,3,70,0,0
556970,-100,3,2,4,70,0,0
557192,-100,3,2,3,70,0,0
558229,-100,3,2,1,70,0,0
558525,-133.333333333333,3,2,1,70,0,0
558673,-133.333333333333,3,2,2,70,0,0
558969,-133.333333333333,3,2,2,70,0,0
559858,-133.333333333333,3,2,1,70,0,0
561636,-100,3,2,1,70,0,0
568302,-100,3,2,1,70,0,0
568303,-100,3,2,3,70,0,0
568747,-100,3,2,1,70,0,0
569191,-100,3,2,1,70,0,0
569192,-100,3,2,3,70,0,0
569636,-100,3,2,13,70,0,0
570525,-100,3,2,1,70,0,0
572303,-100,3,2,4,70,0,0
572747,-100,3,2,1,70,0,0
574969,-100,3,2,13,70,0,0
575858,-100,3,2,1,70,0,0
578969,-100,3,2,3,70,0,0
579414,-100,3,2,1,70,0,0
579858,-100,3,2,3,70,0,0
580303,-200,3,2,3,70,0,0
580636,-200,3,2,3,5,0,0
580747,-200,3,2,3,80,0,0
582525,-100,3,2,3,80,0,0
582673,-80,3,2,3,80,0,0
582821,-66.6666666666667,3,2,3,80,0,0
587414,-80,3,2,3,80,0,0
587858,-100,3,2,3,80,0,0
590229,-80,3,2,3,80,0,0
590525,-66.6666666666667,3,2,3,80,0,0
590969,-66.6666666666667,3,2,3,80,0,1
591414,-66.6666666666667,3,2,3,80,0,1
596303,-66.6666666666667,3,2,14,80,0,1
596451,-66.6666666666667,3,2,2,80,0,1
598969,-66.6666666666667,3,2,1,80,0,0
600302,-66.6666666666667,3,2,14,80,0,0
600303,-66.6666666666667,3,2,1,80,0,0
600599,-80,3,2,1,80,0,0
601562,-80,3,2,2,70,0,0
602081,-80,3,2,2,80,0,1
602525,-80,3,2,3,80,0,1
610969,-100,3,2,3,80,0,0
611414,-80,3,2,10,80,0,0
611488,-80,3,2,1,80,0,0
611858,-66.6666666666667,3,2,12,80,0,0
611932,-66.6666666666667,3,2,2,80,0,0
612303,-66.6666666666667,3,2,1,80,0,1
614969,-66.6666666666667,3,2,13,80,0,1
614970,-66.6666666666667,3,2,11,80,0,1
615414,-66.6666666666667,3,2,11,80,0,1
615415,-66.6666666666667,3,2,1,80,0,1
617636,-66.6666666666667,3,2,1,80,0,1
617637,-66.6666666666667,3,2,14,80,0,1
617784,-66.6666666666667,3,2,2,80,0,1
620302,-66.6666666666667,3,2,14,85,0,1
620303,-66.6666666666667,3,2,14,85,0,1
620747,-80,3,2,14,85,0,0
620748,-80,3,2,2,85,0,0
621192,-80,3,2,2,85,0,0
621266,-80,3,2,1,85,0,0
622525,-80,3,2,2,85,0,0
622969,-80,3,2,3,85,0,0
622970,521.739130434783,4,2,3,85,1,0
623652,662.983425414365,4,2,3,85,1,0
628262,662.983425414365,4,2,3,85,1,0
633565,659.340659340659,4,2,3,85,1,0
637524,612.244897959184,4,2,3,85,1,0
638745,600,4,2,3,85,1,0
640545,555.555555555556,4,2,3,85,1,0
645545,508.474576271186,4,2,3,85,1,0
646556,555.555555555556,4,2,3,85,1,0
648778,535.714285714286,4,2,3,85,1,0
649313,547.945205479452,4,2,3,85,1,0
651775,545.454545454546,4,2,13,50,1,0
652047,545.454545454546,4,2,13,50,1,0
652047,-83.3333333333333,4,2,13,50,0,0
652592,-83.3333333333333,4,2,1,50,0,0
652865,-83.3333333333333,4,2,1,5,0,0
653137,-100,4,2,1,50,0,0
654228,-83.3333333333333,4,2,1,50,0,0
655319,-71.4285714285714,4,2,1,50,0,0
656137,-71.4285714285714,4,2,1,5,0,0
656410,-66.6666666666667,4,2,3,50,0,0
656956,-66.6666666666667,4,2,1,50,0,0
657228,-66.6666666666667,4,2,1,5,0,0
657501,-83.3333333333333,4,2,1,50,0,0
658592,-100,4,2,1,50,0,0
660774,-100,4,2,3,50,0,0
661319,-100,4,2,1,50,0,0
661865,-66.6666666666667,4,2,1,50,0,0
662956,-76.9230769230769,4,2,4,50,0,0
663501,-76.9230769230769,4,2,1,50,0,0
663774,-76.9230769230769,4,2,1,5,0,0
664047,-133.333333333333,4,2,1,50,0,0
664456,-133.333333333333,4,2,1,5,0,0
664592,-100,4,2,1,50,0,0
665001,-100,4,2,1,5,0,0
665137,-64.5161290322581,4,2,4,50,0,0
665683,-64.5161290322581,4,2,1,50,0,0
666773,-64.5161290322581,4,2,1,50,0,0
667319,-71.4285714285714,4,2,1,50,0,0
669501,-100,4,2,3,50,0,0
670047,-100,4,2,1,50,0,0
671410,-83.3333333333333,4,2,1,50,0,0
671682,-83.3333333333333,4,2,1,50,0,0
672501,-71.4285714285714,4,2,1,50,0,0
673865,-71.4285714285714,4,2,3,50,0,0
674410,-71.4285714285714,4,2,1,50,0,0
677137,-100,4,2,1,50,0,0
678228,-100,4,2,3,60,0,0
678774,-133.333333333333,4,2,1,65,0,0
679183,-133.333333333333,4,2,1,5,0,0
679319,-100,4,2,1,65,0,0
679728,-100,4,2,1,5,0,0
679865,-66.6666666666667,4,2,1,65,0,0
680274,-66.6666666666667,4,2,1,5,0,0
680410,-80,4,2,1,65,0,0
680547,-80,4,2,1,5,0,0
680683,-100,4,2,1,65,0,0
680819,-100,4,2,1,5,0,0
680956,-133.333333333333,4,2,1,65,0,0
681365,-133.333333333333,4,2,1,5,0,0
681501,-133.333333333333,4,2,1,65,0,0
682047,-80,4,2,1,65,0,0
682456,-80,4,2,1,5,0,0
682592,-66.6666666666667,4,2,4,65,0,0
683137,-66.6666666666667,4,2,1,65,0,0
683547,-66.6666666666667,4,2,1,5,0,0
683683,-66.6666666666667,4,2,1,65,0,0
684092,-66.6666666666667,4,2,1,5,0,0
684228,-57.1428571428571,4,2,1,65,0,0
684637,-57.1428571428571,4,2,1,5,0,0
684774,-100,4,2,1,65,0,0
684910,-100,4,2,1,5,0,0
685047,-100,4,2,1,65,0,0
685183,-100,4,2,1,5,0,0
685319,-66.6666666666667,4,2,1,65,0,0
685728,-66.6666666666667,4,2,1,5,0,0
685865,-66.6666666666667,4,2,1,65,0,0
686410,-66.6666666666667,4,2,7,65,0,0
689137,-100,4,2,4,65,0,0
689546,-100,4,2,4,5,0,0
689547,-100,4,2,4,65,0,0
689683,-100,4,2,4,65,0,0
690228,-80,4,2,4,65,0,0
690773,-80,4,2,4,65,0,0
690774,-80,4,2,1,65,0,0
691319,-66.6666666666667,4,2,3,65,0,0
692410,-100,4,2,1,65,0,0
692819,-100,4,2,1,5,0,0
692956,-80,4,2,1,65,0,0
693365,-80,4,2,1,5,0,0
693501,-80,4,2,13,65,0,0
694592,-80,4,2,1,65,0,0
695683,-80,4,2,7,65,0,0
696228,-80,4,2,1,65,0,0
699501,-80,4,2,3,65,0,0
701137,-133.333333333333,4,2,1,65,0,0
702228,-100,4,2,5,65,0,0
702773,-100,4,2,5,65,0,0
702774,-100,4,2,1,65,0,0
703592,-100,4,2,4,65,0,0
703865,-100,4,2,1,65,0,0
704410,272.727272727273,4,2,10,70,1,0
704410,-125,4,2,10,70,0,0
704546,-125,4,2,4,70,0,0
704682,-166.666666666667,4,2,4,70,0,0
704955,-100,4,2,4,70,0,0
705228,-125,4,2,4,70,0,0
705500,-83.3333333333333,4,2,4,70,0,0
705773,-100,4,2,4,70,0,0
706591,-125,4,2,4,70,0,0
706864,-166.666666666667,4,2,4,70,0,0
707137,-83.3333333333333,4,2,4,70,0,0
707410,-100,4,2,4,70,0,0
707682,-71.4285714285714,4,2,4,70,0,0
707955,-83.3333333333333,4,2,4,70,0,0
708773,-125,4,2,4,70,0,0
709046,-100,4,2,4,70,0,0
709319,-83.3333333333333,4,2,4,70,0,0
709591,-100,4,2,4,70,0,0
709864,-71.4285714285714,4,2,4,70,0,0
710137,-83.3333333333333,4,2,4,70,0,0
710955,-125,4,2,4,70,0,0
711228,-100,4,2,4,70,0,0
711500,-83.3333333333333,4,2,4,70,0,0
711773,-71.4285714285714,4,2,4,70,0,0
712046,-62.5,4,2,4,70,0,0
712864,-62.5,4,2,1,70,0,0
713137,-100,4,2,3,70,0,0
713410,-100,4,2,1,70,0,0
714228,-83.3333333333333,4,2,3,70,0,0
714773,-83.3333333333333,4,2,1,70,0,0
715319,-117.647058823529,4,2,7,70,0,0
715796,-117.647058823529,4,2,7,5,0,0
715864,-117.647058823529,4,2,7,70,0,0
716410,-200,4,2,7,70,0,0
716819,-200,4,2,7,5,0,0
716955,-133.333333333333,4,2,1,70,0,0
717500,-133.333333333333,4,2,4,70,0,0
718045,-133.333333333333,4,2,4,70,0,0
718046,-133.333333333333,4,2,1,70,0,0
718591,-111.111111111111,4,2,1,70,0,0
719682,-133.333333333333,4,2,4,70,0,0
720227,-133.333333333333,4,2,4,70,0,0
720228,-133.333333333333,4,2,1,70,0,0
721319,-133.333333333333,4,2,4,70,0,0
721864,-133.333333333333,4,2,4,70,0,0
724046,-133.333333333333,4,2,4,70,0,0
726228,-133.333333333333,4,2,7,70,0,0
729500,-200,4,2,7,50,0,0
730046,-200,4,2,1,30,0,0
730318,-200,4,2,1,40,0,0
730319,-200,4,2,1,40,0,0
730591,-200,4,2,4,50,0,0
738500,-200,4,2,1,50,0,0
738772,-200,4,2,2,50,0,0
738773,-200,4,2,2,50,0,0
739046,-100,4,2,2,50,0,1
739319,-100,4,2,7,80,0,1
743682,-100,4,2,7,85,0,1
743683,-100,4,2,7,85,0,1
744500,-83.3333333333333,4,2,7,85,0,1
745864,-83.3333333333333,4,2,7,90,0,1
745865,-83.3333333333333,4,2,7,90,0,1
746682,-71.4285714285714,4,2,7,90,0,1
747773,-71.4285714285714,4,2,1,95,0,1
748045,-71.4285714285714,4,2,1,85,0,1
748046,-71.4285714285714,4,2,3,85,0,0
748319,-71.4285714285714,4,2,1,85,0,0

[Colours]
Combo1 : 111,119,162
Combo2 : 208,68,68
Combo3 : 116,158,182
Combo4 : 247,141,36
SliderTrackOverride : 35,35,35

[HitObjects]
225,229,271001,6,0,B|212:259|230:297|230:297|171:294|126:247|126:247|33:238|-42:299|1:409|123:418|151:332|132:245|132:245|128:211|149:174|149:174|160:76|77:15|77:15|0:74|30:174,1,989.999969787599,4|0,0:2|0:0,0:0:0:0:
35,167,274137,1,0,0:0:0:0:
227,152,274341,2,0,P|225:112|213:72,2,69.9999978637696
287,216,275160,1,0,0:0:0:0:
365,374,275364,5,0,0:0:0:0:
365,374,275432,2,0,P|407:360|437:359,1,69.9999978637696,4|0,0:2|0:0,0:0:0:0:
508,377,275978,1,0,0:0:0:0:
426,170,276251,5,0,0:0:0:0:
489,223,276523,2,0,P|493:265|485:301,2,69.9999978637696
385,46,277341,5,0,0:0:0:0:
322,99,277613,2,0,P|317:141|326:177,2,69.9999978637696
501,75,278431,1,0,0:0:0:0:
271,44,278704,6,0,P|188:93|109:36,1,200
192,3,279522,1,0,0:0:0:0:
0,205,279795,6,0,B|114:182|82:269|192:247,1,200,4|0,0:2|0:0,0:0:0:0:
264,204,280613,1,0,0:0:0:0:
351,347,280886,2,0,P|315:310|256:301,2,100
273,383,281704,1,0,0:0:0:0:
264,204,281977,6,0,P|313:178|431:259,1,200
331,288,282795,1,0,0:0:0:0:
233,96,283068,2,0,L|240:295,1,200
129,231,283886,1,0,0:0:0:0:
320,136,284159,6,0,B|372:122|412:152|412:152|499:142|511:53,1,239.999992675781,4|0,0:2|0:0,0:0:0:0:
397,0,284977,1,0,0:0:0:0:
512,280,285250,6,0,B|452:309|398:284|398:284|352:306|352:306|283:278|234:310,1,279.999991455078
180,384,286068,1,0,0:0:0:0:
7,113,286341,6,0,B|81:56|168:93|190:147|190:147|158:187|117:186|91:169,1,320,4|0,0:2|0:0,0:0:0:0:
185,16,287159,1,0,0:0:0:0:
304,284,287431,6,0,B|341:230|287:172|287:172|296:146|294:120|294:120|269:81|288:9|341:5|341:5|392:59|371:145|371:145|381:98|350:57,1,539.999983520508,4|0,0:2|0:0,0:0:0:0:
40,261,288522,6,0,B|-29:300|-34:378|46:459|124:384|128:306|62:241|62:241|7:205|-5:142|18:85|18:85|86:93|133:135|143:212|143:212|156:293|237:347|306:312|355:224|316:151|227:128|227:128|142:109|145:-19|255:-45|345:22|306:112|242:133|242:133|153:164|147:280|261:308|261:308|292:330|311:361|311:361|369:330|393:225|393:225|401:335|465:369|465:369|499:335|496:297,1,2200
475,178,291591,5,0,1:0:0:0:
475,178,291659,1,0,1:0:0:0:
475,178,291727,2,0,L|470:235,1,50,8|0,0:2|0:0,0:0:0:0:
386,81,292000,2,0,L|391:148,1,59.9999981689454,2|0,1:2|0:0,0:0:0:0:
485,17,292272,2,0,L|478:93,1,69.9999978637696,2|0,1:2|0:0,0:0:0:0:
425,340,292545,5,8,1:2:0:0:
426,347,292613,1,8,1:2:0:0:
427,354,292681,1,8,1:2:0:0:
428,361,292749,1,8,1:2:0:0:
430,368,292819,5,4,1:2:0:0:
399,342,292887,1,0,0:0:0:0:
362,325,292955,1,0,0:0:0:0:
323,318,293023,1,0,0:0:0:0:
283,321,293091,1,8,1:2:0:0:
246,334,293159,1,0,0:0:0:0:
212,356,293228,1,8,1:2:0:0:
176,372,293296,1,0,0:0:0:0:
136,370,293364,1,8,1:2:0:0:
102,351,293432,1,0,0:0:0:0:
80,318,293500,1,8,1:2:0:0:
75,278,293568,1,0,0:0:0:0:
88,241,293637,2,0,P|110:211|137:198,1,50,8|0,1:2|0:0,0:0:0:0:
283,140,293773,2,0,P|245:136|221:119,1,50,8|0,1:2|0:0,0:0:0:0:
108,30,293909,5,8,1:2:0:0:
140,6,293977,1,0,0:0:0:0:
179,0,294045,1,8,1:2:0:0:
217,11,294113,1,0,0:0:0:0:
246,37,294182,1,8,1:2:0:0:
275,63,294251,1,0,0:0:0:0:
313,74,294319,1,8,1:2:0:0:
352,67,294387,1,0,0:0:0:0:
384,44,294455,1,8,1:2:0:0:
386,68,294523,1,0,0:0:0:0:
388,93,294591,1,8,1:2:0:0:
391,118,294659,1,0,0:0:0:0:
393,144,294728,2,0,P|366:128|319:127,1,50,8|0,1:2|0:0,0:0:0:0:
297,308,294864,2,0,P|324:292|348:252,1,50,8|0,1:2|0:0,0:0:0:0:
170,93,295000,5,12,1:2:0:0:
143,122,295068,1,0,0:0:0:0:
136,161,295137,1,8,1:2:0:0:
150,198,295204,1,0,0:0:0:0:
182,221,295272,1,8,1:2:0:0:
213,245,295341,1,0,0:0:0:0:
227,281,295409,1,8,1:2:0:0:
220,321,295477,1,0,0:0:0:0:
194,350,295546,1,8,1:2:0:0:
169,351,295614,1,0,0:0:0:0:
144,353,295682,1,8,1:2:0:0:
119,355,295750,1,0,0:0:0:0:
94,358,295819,2,0,L|100:291,1,50,8|0,1:2|0:0,0:0:0:0:
15,151,295955,2,0,L|21:218,1,50,8|0,1:2|0:0,0:0:0:0:
227,281,296091,5,8,1:2:0:0:
251,312,296159,1,0,0:0:0:0:
287,329,296227,1,8,1:2:0:0:
326,327,296295,1,0,0:0:0:0:
361,308,296364,1,8,1:2:0:0:
383,275,296431,1,0,0:0:0:0:
387,235,296500,1,8,1:2:0:0:
398,196,296568,1,0,0:0:0:0:
425,168,296636,1,8,1:2:0:0:
464,168,296704,1,0,0:0:0:0:
491,196,296772,1,8,1:2:0:0:
491,235,296840,1,0,0:0:0:0:
463,262,296909,2,0,L|390:257,1,50,8|0,1:2|0:0,0:0:0:0:
357,78,297046,2,0,L|430:73,1,50,8|0,1:2|0:0,0:0:0:0:
490,356,297182,5,12,1:2:0:0:
452,369,297250,1,0,0:0:0:0:
412,368,297318,1,8,1:2:0:0:
376,353,297386,1,0,0:0:0:0:
347,326,297454,1,8,1:2:0:0:
318,297,297523,1,0,0:0:0:0:
281,282,297591,1,8,1:2:0:0:
241,281,297659,1,0,0:0:0:0:
203,295,297728,1,8,1:2:0:0:
217,315,297796,1,0,0:0:0:0:
238,329,297864,1,8,1:2:0:0:
262,335,297932,1,0,0:0:0:0:
287,335,298000,2,0,P|299:304|299:265,1,50,8|0,1:2|0:0,0:0:0:0:
232,91,298137,2,0,P|220:122|220:161,1,50,8|0,1:2|0:0,0:0:0:0:
439,267,298273,5,8,1:2:0:0:
482,242,298341,1,0,0:0:0:0:
508,200,298409,1,8,1:2:0:0:
510,151,298477,1,0,0:0:0:0:
488,107,298546,1,10,1:2:0:0:
447,79,298613,1,0,0:0:0:0:
398,74,298682,1,8,1:2:0:0:
353,94,298750,1,0,0:0:0:0:
323,134,298818,1,10,1:2:0:0:
297,157,298887,1,0,0:0:0:0:
264,167,298955,1,8,1:2:0:0:
229,161,299023,1,0,0:0:0:0:
201,141,299091,2,0,P|196:109|199:68,1,50,10|0,1:2|0:0,0:0:0:0:
44,6,299228,2,0,P|49:38|46:79,1,50,8|0,1:2|0:0,0:0:0:0:
0,284,299364,5,8,1:2:0:0:
11,332,299432,1,0,0:0:0:0:
44,369,299500,1,8,1:2:0:0:
91,386,299568,1,0,0:0:0:0:
140,379,299636,1,8,1:2:0:0:
180,350,299704,1,0,0:0:0:0:
202,306,299773,1,8,1:2:0:0:
200,256,299841,1,0,0:0:0:0:
175,213,299909,2,0,P|144:207|112:209,3,50,8|0|8|0,1:2|0:0|1:2|0:0,0:0:0:0:
273,280,300182,2,0,P|304:286|336:284,3,50,8|0|8|0,1:2|0:0|1:2|0:0,0:0:0:0:
482,237,300455,5,8,3:2:0:0:
435,253,300523,1,0,3:0:0:0:
406,293,300591,1,0,3:0:0:0:
403,342,300659,1,0,3:0:0:0:
428,384,300728,5,8,3:2:0:0:
477,329,300796,1,0,3:0:0:0:
491,256,300864,1,0,3:0:0:0:
464,187,300932,1,0,3:0:0:0:
405,143,301000,1,4,1:2:0:0:
405,143,301546,5,4,0:2:0:0:
390,145,301614,1,0,0:0:0:0:
375,147,301682,1,0,0:0:0:0:
360,150,301750,1,0,0:0:0:0:
300,114,301819,6,0,L|306:65,3,37.5000014305115,8|0|8|0,1:2|0:0|1:2|0:0,0:0:0:0:
236,172,302091,2,0,L|230:123,3,37.5000014305115,8|0|8|0,1:2|0:0|1:2|0:0,0:0:0:0:
298,237,302364,2,0,L|304:188,3,37.5000014305115,8|0|8|0,1:2|0:0|1:2|0:0,0:0:0:0:
237,281,302637,5,8,1:2:0:0:
240,296,302705,1,0,0:0:0:0:
242,311,302773,1,8,1:2:0:0:
244,326,302841,1,0,0:0:0:0:
247,342,302909,2,0,P|217:331|194:325,3,37.5000014305115,8|0|8|0,1:2|0:0|1:2|0:0,0:0:0:0:
118,323,303182,5,8,1:2:0:0:
115,338,303250,1,0,0:0:0:0:
113,353,303318,1,8,1:2:0:0:
111,368,303386,1,0,0:0:0:0:
108,384,303454,2,0,P|138:373|161:367,3,37.5000014305115,8|0|8|0,1:2|0:0|1:2|0:0,0:0:0:0:
45,333,303728,5,8,1:2:0:0:
30,331,303796,1,0,0:0:0:0:
15,329,303864,1,8,1:2:0:0:
0,326,303932,1,0,0:0:0:0:
35,259,304000,6,0,L|84:265,3,37.5000014305115,8|0|8|0,1:2|0:0|1:2|0:0,0:0:0:0:
99,195,304273,2,0,L|128:155,3,37.5000014305115,8|0|8|0,1:2|0:0|1:2|0:0,0:0:0:0:
75,107,304546,2,0,L|55:61,3,37.5000014305115,8|0|8|0,1:2|0:0|1:2|0:0,0:0:0:0:
111,16,304819,5,8,1:2:0:0:
127,24,304887,1,0,0:0:0:0:
146,28,304955,1,8,1:2:0:0:
164,28,305023,1,0,0:0:0:0:
183,25,305091,2,0,P|181:-1|188:-21,3,37.5000014305115,8|0|8|0,1:2|0:0|1:2|0:0,0:0:0:0:
251,67,305364,5,8,1:2:0:0:
267,59,305432,1,0,0:0:0:0:
286,55,305500,1,8,1:2:0:0:
304,55,305568,1,0,0:0:0:0:
323,58,305637,2,0,P|321:84|328:104,3,37.5000014305115,8|0|8|0,1:2|0:0|1:2|0:0,0:0:0:0:
350,181,305909,5,8,1:2:0:0:
365,179,305977,1,0,0:0:0:0:
380,177,306045,1,8,1:2:0:0:
395,174,306113,1,0,0:0:0:0:
456,122,306182,6,0,P|461:99|461:76,3,37.5000014305115,8|0|8|0,1:2|0:0|1:2|0:0,0:0:0:0:
471,201,306455,2,0,P|488:216|508:228,3,37.5000014305115,8|0|8|0,1:2|0:0|1:2|0:0,0:0:0:0:
395,174,306728,2,0,P|372:181|352:192,3,37.5000014305115,8|0|8|0,1:2|0:0|1:2|0:0,0:0:0:0:
334,272,307000,5,8,1:2:0:0:
352,270,307068,1,0,0:0:0:0:
371,268,307136,1,8,1:2:0:0:
390,267,307204,1,0,0:0:0:0:
408,265,307273,2,0,P|401:304|402:321,3,37.5000014305115,8|0|8|0,1:2|0:0|1:2|0:0,0:0:0:0:
339,355,307546,5,8,1:2:0:0:
320,353,307614,1,0,0:0:0:0:
301,351,307682,1,8,1:2:0:0:
282,350,307750,1,0,0:0:0:0:
265,348,307819,2,0,P|272:387|271:404,3,37.5000014305115,8|0|8|0,1:2|0:0|1:2|0:0,0:0:0:0:
198,297,308091,5,8,1:2:0:0:
200,278,308159,1,0,0:0:0:0:
202,259,308227,1,8,1:2:0:0:
204,241,308295,1,0,0:0:0:0:
175,174,308364,6,0,L|130:179,3,37.5000014305115,8|0|8|0,1:2|0:0|1:2|0:0,0:0:0:0:
242,133,308637,2,0,L|287:138,3,37.5000014305115,8|0|8|0,1:2|0:0|1:2|0:0,0:0:0:0:
183,77,308909,2,0,L|138:82,3,37.5000014305115,8|0|8|0,1:2|0:0|1:2|0:0,0:0:0:0:
227,5,309182,5,8,1:2:0:0:
255,30,309250,1,0,1:0:0:0:
267,65,309318,1,0,1:0:0:0:
262,102,309386,1,0,1:0:0:0:
241,133,309454,1,8,3:2:0:0:
228,155,309523,1,0,3:0:0:0:
225,181,309591,1,0,3:0:0:0:
231,206,309659,1,0,3:0:0:0:
247,228,309728,2,0,L|298:221,3,37.5000014305115,8|0|0|0,3:2|3:0|3:0|3:0,0:0:0:0:
384,342,310000,5,8,1:2:0:0:
328,334,310068,1,8,1:2:0:0:
272,327,310136,1,8,1:2:0:0:
216,320,310204,1,8,1:2:0:0:
160,313,310273,6,0,P|171:356|170:402,1,64.9999970245363,2|0,1:2|1:0,0:0:0:0:
109,255,310546,2,0,P|65:265|20:264,1,64.9999970245363,0|0,1:0|1:0,0:0:0:0:
167,203,310819,2,0,P|156:159|157:114,1,64.9999970245363,2|0,1:2|1:0,0:0:0:0:
219,261,311091,2,0,P|262:250|307:251,1,64.9999970245363,0|0,1:0|1:0,0:0:0:0:
497,187,311364,6,0,P|502:147|497:101,1,64.9999970245363,10|0,1:2|1:0,0:0:0:0:
442,31,311637,1,0,1:0:0:0:
384,292,311773,2,0,P|389:252|384:206,1,64.9999970245363,8|2,1:2|1:2,0:0:0:0:
316,85,312046,1,0,1:0:0:0:
316,85,312182,2,0,P|311:125|316:171,1,64.9999970245363,0|0,1:0|1:0,0:0:0:0:
73,147,312455,6,0,L|-19:136,1,64.9999970245363,2|0,1:2|1:0,0:0:0:0:
143,73,312728,1,0,1:0:0:0:
101,299,312864,2,0,L|193:288,1,64.9999970245363,8|2,1:2|1:2,0:0:0:0:
344,267,313137,1,8,0:2:0:0:
81,377,313273,5,8,0:2:0:0:
40,351,313341,1,8,0:2:0:0:
20,307,313409,1,8,0:2:0:0:
30,260,313477,1,8,0:2:0:0:
64,226,313545,1,10,0:2:0:0:
0,48,313819,5,2,1:2:0:0:
21,78,313887,1,0,0:0:0:0:
50,102,313955,1,2,1:2:0:0:
84,117,314023,1,0,0:0:0:0:
121,122,314091,1,2,1:2:0:0:
158,116,314159,1,0,0:0:0:0:
192,100,314228,1,2,1:2:0:0:
220,76,314296,1,0,0:0:0:0:
241,45,314364,5,2,1:2:0:0:
242,52,314432,1,0,0:0:0:0:
243,59,314500,1,2,1:2:0:0:
244,67,314568,1,0,0:0:0:0:
246,78,314637,5,2,1:2:0:0:
267,47,314705,1,0,0:0:0:0:
295,23,314773,1,2,1:2:0:0:
329,7,314842,1,0,0:0:0:0:
366,1,314909,1,2,1:2:0:0:
403,6,314978,1,0,0:0:0:0:
437,21,315046,1,2,1:2:0:0:
466,45,315114,1,0,0:0:0:0:
487,75,315182,1,2,1:2:0:0:
498,111,315251,1,0,0:0:0:0:
498,148,315319,1,2,1:2:0:0:
486,183,315387,1,0,0:0:0:0:
461,211,315455,5,2,1:2:0:0:
404,206,315523,1,0,0:0:0:0:
348,201,315591,1,2,1:2:0:0:
292,197,315659,1,0,0:0:0:0:
236,192,315728,5,2,1:2:0:0:
257,221,315796,1,0,0:0:0:0:
260,258,315864,1,2,1:2:0:0:
242,290,315932,1,0,0:0:0:0:
209,308,316000,1,2,1:2:0:0:
172,305,316068,1,0,0:0:0:0:
143,282,316137,1,2,1:2:0:0:
131,248,316205,1,0,0:0:0:0:
139,212,316273,1,2,1:2:0:0:
147,175,316341,1,0,0:0:0:0:
134,141,316409,1,2,1:2:0:0:
105,118,316478,1,0,0:0:0:0:
68,115,316546,1,2,1:2:0:0:
35,133,316614,1,0,0:0:0:0:
17,165,316682,1,2,1:2:0:0:
20,202,316750,1,0,0:0:0:0:
42,232,316818,1,10,1:2:0:0:
213,8,317091,6,0,L|208:101,1,75.0000028610231,4|0,1:2|0:0,0:0:0:0:
233,0,317364,2,0,L|228:93,1,75.0000028610231,4|0,1:2|0:0,0:0:0:0:
230,301,317637,5,8,1:2:0:0:
229,310,317705,1,8,1:2:0:0:
228,319,317773,1,8,1:2:0:0:
228,329,317841,1,8,1:2:0:0:
227,338,317909,5,4,1:2:0:0:
259,362,317977,1,0,0:0:0:0:
298,368,318046,1,0,0:0:0:0:
336,357,318113,1,0,0:0:0:0:
365,331,318181,1,2,1:2:0:0:
394,305,318251,1,0,0:0:0:0:
432,294,318319,1,2,1:2:0:0:
471,301,318387,1,0,0:0:0:0:
503,324,318455,1,2,1:2:0:0:
505,300,318523,1,0,0:0:0:0:
507,275,318591,1,2,1:2:0:0:
510,250,318659,1,0,0:0:0:0:
512,224,318728,2,0,P|485:240|438:241,1,50,2|0,1:2|0:0,0:0:0:0:
416,60,318864,2,0,P|443:76|467:116,1,50,2|0,1:2|0:0,0:0:0:0:
214,341,319000,5,2,1:2:0:0:
165,327,319068,1,0,0:0:0:0:
130,294,319137,1,2,1:2:0:0:
115,247,319205,1,0,0:0:0:0:
125,199,319272,1,2,1:2:0:0:
157,161,319340,1,0,0:0:0:0:
203,143,319409,1,2,1:2:0:0:
252,151,319477,1,0,0:0:0:0:
291,182,319545,1,2,1:2:0:0:
322,197,319614,1,0,0:0:0:0:
357,199,319682,1,2,1:2:0:0:
389,184,319750,1,0,0:0:0:0:
411,157,319819,2,0,P|407:124|394:85,1,50,2|0,1:2|0:0,0:0:0:0:
216,249,319955,2,0,P|219:281|232:320,1,50,2|0,1:2|0:0,0:0:0:0:
342,36,320091,5,2,1:2:0:0:
299,11,320159,1,0,0:0:0:0:
251,12,320227,1,2,1:2:0:0:
210,38,320296,1,0,0:0:0:0:
190,81,320363,1,2,1:2:0:0:
167,124,320432,1,0,0:0:0:0:
127,150,320500,1,2,1:2:0:0:
79,151,320568,1,0,0:0:0:0:
38,126,320637,2,0,L|30:52,1,50,2|0,1:2|0:0,0:0:0:0:
280,105,320773,2,0,L|272:179,1,50,2|0,1:2|0:0,0:0:0:0:
141,360,320909,5,2,1:2:0:0:
93,374,320977,1,0,0:0:0:0:
46,359,321045,1,2,1:2:0:0:
15,321,321113,1,0,0:0:0:0:
11,272,321181,1,2,1:2:0:0:
34,229,321249,1,0,0:0:0:0:
78,206,321318,1,2,1:2:0:0:
127,211,321386,1,0,0:0:0:0:
164,243,321455,2,0,P|176:274|178:297,1,50,2|0,1:2|0:0,0:0:0:0:
207,77,321591,2,0,P|209:44|205:21,1,50,2|0,1:2|0:0,0:0:0:0:
286,245,321728,5,2,1:2:0:0:
334,247,321796,1,0,0:0:0:0:
377,224,321864,1,2,1:2:0:0:
403,182,321932,1,0,0:0:0:0:
406,132,322000,1,2,1:2:0:0:
383,88,322069,1,0,0:0:0:0:
342,62,322137,1,2,1:2:0:0:
293,60,322205,1,0,0:0:0:0:
248,82,322273,6,0,P|228:118|229:144,1,66.6666666666667,6|0,1:2|0:0,0:0:0:0:
361,248,322455,2,0,P|339:212|316:200,1,66.6666666666667,2|2,0:2|1:2,0:0:0:0:
161,263,322637,2,0,P|202:261|224:247,1,66.6666666666667,2|0,0:2|0:0,0:0:0:0:
178,82,322819,6,0,P|179:131|196:157,1,66.6666666666667,2|0,1:2|0:0,0:0:0:0:
395,187,323001,2,0,P|351:163|320:164,1,66.6666666666667,2|2,0:2|1:2,0:0:0:0:
196,322,323183,2,0,P|238:295|252:268,1,66.6666666666667,2|0,0:2|0:0,0:0:0:0:
105,124,323364,6,0,P|137:175|170:192,1,66.6666666666667,2|0,1:2|0:0,0:0:0:0:
394,103,323546,2,0,P|334:105|303:125,1,66.6666666666667,2|0,0:2|1:0,0:0:0:0:
268,363,323728,2,0,P|296:310|295:273,1,66.6666666666667,2|0,0:2|0:0,0:0:0:0:
56,211,323909,6,0,P|119:245|163:243,1,66.6666666666667,2|0,1:2|0:0,0:0:0:0:
343,16,324091,2,0,P|282:54|262:93,1,66.6666666666667,2|2,0:2|1:2,0:0:0:0:
368,362,324273,2,0,P|366:290|342:253,1,66.6666666666667,2|0,0:2|0:0,0:0:0:0:
150,44,324455,6,0,P|110:33|69:34,1,66.6666666666667,2|0,1:2|0:0,0:0:0:0:
412,204,324637,2,0,P|452:215|493:214,1,66.6666666666667,2|2,0:2|0:2,0:0:0:0:
134,349,324819,2,0,P|94:338|53:339,1,66.6666666666667,2|0,0:2|0:0,0:0:0:0:
417,44,325000,6,0,P|383:47|352:56,1,66.6666666666667,2|0,1:2|0:0,0:0:0:0:
26,228,325182,2,0,P|59:225|90:216,1,66.6666666666667,2|0,0:2|1:0,0:0:0:0:
433,350,325364,2,0,P|399:352|368:361,1,66.6666666666667,2|0,0:2|0:0,0:0:0:0:
44,143,325546,5,2,1:2:0:0:
81,103,325614,1,0,1:0:0:0:
139,91,325682,1,0,1:0:0:0:
198,115,325750,1,0,1:0:0:0:
239,172,325819,1,2,3:2:0:0:
285,230,325887,1,0,3:0:0:0:
358,243,325955,1,0,3:0:0:0:
421,207,326023,1,0,3:0:0:0:
446,139,326091,1,2,0:2:0:0:
446,139,326637,5,4,0:2:0:0:
123,225,326909,5,8,1:2:0:0:
121,240,326977,1,0,0:0:0:0:
119,255,327045,1,8,1:2:0:0:
116,270,327113,1,0,0:0:0:0:
152,330,327182,6,0,L|201:324,3,37.5000014305115,8|0|8|0,1:2|0:0|1:2|0:0,0:0:0:0:
99,378,327455,2,0,L|61:373,3,37.5000014305115,8|0|8|0,1:2|0:0|1:2|0:0,0:0:0:0:
251,287,327728,5,8,1:2:0:0:
267,295,327796,1,0,0:0:0:0:
286,299,327864,1,8,1:2:0:0:
304,299,327932,1,0,0:0:0:0:
323,296,328000,2,0,P|321:270|328:250,3,37.5000014305115,8|0|8|0,1:2|0:0|1:2|0:0,0:0:0:0:
393,344,328273,5,8,1:2:0:0:
409,336,328341,1,0,0:0:0:0:
428,332,328409,1,8,1:2:0:0:
446,332,328477,1,0,0:0:0:0:
465,335,328546,2,0,P|463:361|470:381,3,37.5000014305115,8|0|8|0,1:2|0:0|1:2|0:0,0:0:0:0:
427,231,328819,5,8,1:2:0:0:
425,216,328887,1,0,0:0:0:0:
423,201,328955,1,8,1:2:0:0:
420,186,329023,1,0,0:0:0:0:
368,125,329091,6,0,P|345:120|322:120,3,37.5000014305115,8|0|8|0,1:2|0:0|1:2|0:0,0:0:0:0:
277,46,329364,2,0,P|261:63|249:83,3,37.5000014305115,8|0|8|0,1:2|0:0|1:2|0:0,0:0:0:0:
163,85,329637,2,0,P|170:107|181:127,3,37.5000014305115,8|0|8|0,1:2|0:0|1:2|0:0,0:0:0:0:
102,208,329909,5,8,1:2:0:0:
99,223,329977,1,0,0:0:0:0:
97,238,330045,1,8,1:2:0:0:
95,253,330113,1,0,0:0:0:0:
92,269,330182,2,0,P|122:258|145:252,3,37.5000014305115,8|0|8|0,1:2|0:0|1:2|0:0,0:0:0:0:
235,298,330455,5,8,1:2:0:0:
238,313,330523,1,0,0:0:0:0:
240,328,330591,1,8,1:2:0:0:
242,343,330659,1,0,0:0:0:0:
245,359,330727,2,0,P|215:348|192:342,3,37.5000014305115,8|0|8|0,1:2|0:0|1:2|0:0,0:0:0:0:
315,201,331000,5,12,1:2:0:0:
330,203,331068,1,0,0:0:0:0:
345,205,331136,1,8,1:2:0:0:
360,208,331205,1,0,0:0:0:0:
420,172,331273,6,0,L|414:123,3,37.5000014305115,8|0|8|0,1:2|0:0|1:2|0:0,0:0:0:0:
484,230,331546,2,0,L|490:181,3,37.5000014305115,8|0|8|0,1:2|0:0|1:2|0:0,0:0:0:0:
422,295,331818,2,0,L|416:246,3,37.5000014305115,8|0|8|0,1:2|0:0|1:2|0:0,0:0:0:0:
331,118,332091,5,8,1:2:0:0:
316,120,332159,1,0,0:0:0:0:
301,122,332227,1,8,1:2:0:0:
286,125,332295,1,0,0:0:0:0:
229,175,332364,6,0,L|220:246,1,37.5000014305115,10|0,1:2|0:0,0:0:0:0:
102,46,332500,2,0,L|111:-25,1,37.5000014305115,10|0,1:2|0:0,0:0:0:0:
362,34,332637,6,0,P|381:55|389:74,1,37.5000014305115,10|0,1:2|0:0,0:0:0:0:
512,164,332773,2,0,P|484:169|463:167,1,37.5000014305115,10|0,1:2|0:0,0:0:0:0:
324,228,332909,2,0,P|332:201|345:184,3,37.5000014305115,10|0|10|0,1:2|0:0|1:2|0:0,0:0:0:0:
346,314,333182,6,0,L|286:308,1,37.5000014305115,10|0,1:2|0:0,0:0:0:0:
111,194,333319,2,0,L|171:188,1,37.5000014305115,10|0,1:2|0:0,0:0:0:0:
366,4,333455,5,10,1:2:0:0:
364,19,333523,1,0,0:0:0:0:
362,34,333591,1,10,1:2:0:0:
359,49,333659,1,0,0:0:0:0:
309,106,333728,6,0,L|238:115,3,37.5000014305115,10|0|10|0,1:2|0:0|1:2|0:0,0:0:0:0:
352,168,334000,2,0,L|423:177,3,37.5000014305115,10|0|8|0,1:2|0:0|1:2|0:0,0:0:0:0:
214,369,334273,5,8,1:2:0:0:
166,340,334341,1,0,1:0:0:0:
148,288,334409,1,0,1:0:0:0:
166,236,334477,1,0,1:0:0:0:
212,207,334545,1,8,3:2:0:0:
246,175,334614,1,0,3:0:0:0:
252,129,334682,1,0,3:0:0:0:
227,90,334750,1,0,3:0:0:0:
183,75,334819,2,0,L|178:121,3,37.5000014305115,8|0|0|0,3:2|3:0|3:0|3:0,0:0:0:0:
231,288,335091,5,8,1:2:0:0:
287,280,335159,1,8,1:2:0:0:
343,273,335227,1,8,1:2:0:0:
399,266,335295,1,8,1:2:0:0:
455,259,335364,6,0,P|444:302|445:348,1,64.9999970245363,2|0,1:2|1:0,0:0:0:0:
347,138,335637,2,0,P|358:181|357:227,1,64.9999970245363,0|0,1:0|1:0,0:0:0:0:
455,17,335909,2,0,P|444:60|445:106,1,64.9999970245363,2|0,1:2|1:0,0:0:0:0:
501,194,336182,5,0,1:0:0:0:
501,194,336319,1,0,1:0:0:0:
351,48,336455,6,0,L|259:54,1,64.9999970245363,10|0,1:2|1:0,0:0:0:0:
143,251,336728,1,0,1:0:0:0:
143,251,336864,2,0,L|235:245,1,64.9999970245363,8|2,1:2|1:2,0:0:0:0:
219,10,337137,5,0,1:0:0:0:
127,75,337273,1,0,1:0:0:0:
35,10,337409,1,2,1:2:0:0:
238,171,337546,6,0,P|235:138|225:107,1,64.9999970245363,2|0,1:2|1:0,0:0:0:0:
318,269,337819,2,0,P|320:236|330:205,1,64.9999970245363,0|8,1:0|1:2,0:0:0:0:
238,367,338091,2,0,P|235:334|225:303,1,64.9999970245363,2|8,1:2|0:2,0:0:0:0:
62,179,338364,5,8,0:2:0:0:
30,215,338432,1,8,0:2:0:0:
21,263,338500,1,8,0:2:0:0:
34,309,338568,1,8,0:2:0:0:
68,343,338637,1,10,0:2:0:0:
427,360,338909,5,2,1:2:0:0:
445,333,338977,1,0,0:0:0:0:
453,302,339045,1,2,1:2:0:0:
448,270,339113,1,0,0:0:0:0:
431,242,339182,1,2,1:2:0:0:
408,209,339250,1,0,0:0:0:0:
398,172,339318,1,2,1:2:0:0:
404,134,339386,1,0,0:0:0:0:
425,100,339454,1,2,1:2:0:0:
450,140,339523,1,0,0:0:0:0:
444,187,339591,1,2,1:2:0:0:
409,220,339659,1,0,0:0:0:0:
361,223,339728,2,0,L|306:214,3,32.4999985122681,2|0|2|0,1:2|0:0|1:2|0:0,0:0:0:0:
270,125,340000,5,2,1:2:0:0:
240,111,340068,1,0,0:0:0:0:
208,107,340136,1,2,1:2:0:0:
176,112,340204,1,0,0:0:0:0:
147,127,340272,1,2,1:2:0:0:
115,147,340341,1,0,0:0:0:0:
76,149,340409,1,2,1:2:0:0:
41,133,340477,1,0,0:0:0:0:
19,101,340546,6,0,P|20:82|28:57,1,32.4999985122681,2|0,1:2|0:0,0:0:0:0:
210,193,340682,2,0,P|209:212|201:237,1,32.4999985122681,2|0,1:2|0:0,0:0:0:0:
10,368,340819,5,14,1:2:0:0:
57,311,340909,1,0,1:0:0:0:
128,294,341000,1,0,1:0:0:0:
196,323,341091,1,0,1:0:0:0:
262,350,341182,1,0,1:0:0:0:
334,333,341273,1,0,1:0:0:0:
284,205,341364,5,14,1:2:0:0:
241,208,341454,1,0,1:0:0:0:
211,238,341545,1,0,1:0:0:0:
205,280,341636,1,0,1:0:0:0:
227,316,341727,1,0,1:0:0:0:
267,331,341818,1,0,1:0:0:0:
350,250,341909,5,10,1:2:0:0:
361,226,341999,1,0,1:0:0:0:
365,201,342090,1,0,1:0:0:0:
360,175,342181,1,0,1:0:0:0:
347,153,342272,1,0,1:0:0:0:
328,136,342363,1,0,1:0:0:0:
252,0,342455,5,10,1:2:0:0:
194,50,342545,1,8,1:2:0:0:
187,125,342636,1,8,1:2:0:0:
235,185,342727,1,8,1:2:0:0:
282,244,342819,1,8,1:2:0:0:
275,320,342910,1,8,1:2:0:0:
218,370,343000,6,0,L|127:359,1,86.6666626993817,6|0,1:2|0:0,0:0:0:0:
81,260,343364,1,0,0:0:0:0:
310,174,343546,6,0,L|401:163,1,86.6666626993817,10|0,1:2|0:0,0:0:0:0:
447,64,343910,1,0,0:0:0:0:
19,112,344091,6,0,P|5:161|14:220,1,86.6666626993817,2|0,1:2|0:0,0:0:0:0:
81,260,344455,1,0,1:0:0:0:
453,51,344637,6,0,L|366:40,1,86.6666626993817,10|0,1:2|0:0,0:0:0:0:
271,30,345000,1,0,0:0:0:0:
461,368,345182,6,0,B|472:333|472:333|463:258,1,86.6666626993817,2|0,1:2|0:0,0:0:0:0:
376,324,345546,1,0,0:0:0:0:
104,102,345728,6,0,B|93:67|93:67|102:-8,1,86.6666626993817,10|0,1:2|0:0,0:0:0:0:
189,58,346092,1,0,0:0:0:0:
15,353,346273,6,0,L|129:339,1,86.6666626993817,2|0,1:2|0:0,0:0:0:0:
404,118,346614,1,0,1:0:0:0:
412,146,346682,1,0,1:0:0:0:
419,174,346750,1,0,1:2:0:0:
426,203,346819,6,0,L|339:192,2,86.6666626993817,10|0|0,1:2|1:0|1:0,0:0:0:0:
73,74,347364,6,0,P|132:94|159:137,1,86.6666626993817,2|0,1:2|0:0,0:0:0:0:
161,218,347728,1,0,0:0:0:0:
333,11,347909,6,0,P|345:72|321:116,1,86.6666626993817,10|0,1:2|0:0,0:0:0:0:
252,159,348273,1,0,0:0:0:0:
479,371,348455,6,0,L|491:252,1,86.6666626993817,2|0,1:2|0:0,0:0:0:0:
438,189,348819,1,0,0:0:0:0:
203,317,349000,6,0,L|322:329,1,86.6666626993817,10|0,1:2|0:0,0:0:0:0:
32,169,349364,1,0,1:0:0:0:
32,169,349546,2,0,L|44:369,1,173.333325398763,2|0,1:2|0:0,0:0:0:0:
179,101,350091,6,0,P|143:46|89:29,1,86.6666626993817,10|0,1:2|0:0,0:0:0:0:
28,49,350455,1,0,0:0:0:0:
280,167,350637,6,0,P|345:163|387:125,1,86.6666626993817,2|0,1:2|0:0,0:0:0:0:
173,222,350978,1,0,1:0:0:0:
173,222,351046,1,0,1:0:0:0:
173,222,351114,1,0,1:0:0:0:
173,222,351182,6,0,P|143:280|155:335,2,86.6666626993817,10|0|0,1:2|1:0|1:0,0:0:0:0:
406,157,351728,5,2,1:2:0:0:
306,201,351909,1,0,1:0:0:0:
293,309,352091,1,0,1:0:0:0:
232,44,352273,5,10,1:2:0:0:
220,152,352454,1,0,1:0:0:0:
307,217,352636,1,0,1:0:0:0:
47,138,352819,5,2,1:2:0:0:
134,202,353000,1,0,1:0:0:0:
234,159,353182,1,0,1:0:0:0:
35,345,353364,5,10,1:2:0:0:
147,193,353546,2,0,L|171:331,1,133.333333333333,0|0,1:0|1:0,0:0:0:0:
470,137,353909,5,2,1:2:0:0:
351,71,354091,1,0,1:0:0:0:
466,0,354273,1,0,1:0:0:0:
237,159,354455,5,10,1:2:0:0:
233,23,354637,1,0,1:0:0:0:
352,88,354819,1,0,1:0:0:0:
255,301,355000,5,2,1:2:0:0:
135,236,355182,1,0,1:0:0:0:
251,165,355364,1,0,1:0:0:0:
141,373,355546,5,10,1:2:0:0:
259,151,355728,2,0,L|401:146,1,133.333333333333,0|4,1:0|1:2,0:0:0:0:
512,354,356091,5,6,1:2:0:0:
370,313,356273,1,0,1:0:0:0:
228,354,356455,1,0,1:0:0:0:
84,278,356637,5,10,1:2:0:0:
226,237,356819,1,0,1:0:0:0:
368,278,357001,1,0,1:0:0:0:
510,199,357182,5,2,1:2:0:0:
368,158,357364,1,0,1:0:0:0:
226,199,357546,1,0,1:0:0:0:
82,123,357728,5,10,1:2:0:0:
392,174,357909,2,0,L|368:36,1,133.333333333333,0|0,1:0|1:0,0:0:0:0:
71,13,358273,5,2,1:2:0:0:
41,203,358455,1,0,1:0:0:0:
142,62,358637,1,0,1:0:0:0:
392,174,358819,5,10,1:2:0:0:
422,364,359001,1,0,1:0:0:0:
321,223,359183,1,0,1:0:0:0:
497,325,359364,5,10,1:2:0:0:
252,298,359546,1,0,1:0:0:0:
240,290,359637,1,0,1:0:0:0:
221,283,359728,1,0,1:0:0:0:
194,281,359819,1,0,1:0:0:0:
162,291,359909,1,8,1:2:0:0:
124,304,360000,1,0,1:0:0:0:
77,303,360091,1,0,1:0:0:0:
36,268,360182,1,8,1:2:0:0:
33,207,360273,1,0,1:0:0:0:
77,157,360364,1,0,1:0:0:0:
143,157,360455,5,10,1:2:0:0:
204,176,360545,1,0,1:0:0:0:
260,144,360636,1,0,1:0:0:0:
275,81,360727,1,0,1:0:0:0:
238,28,360818,1,0,1:0:0:0:
174,19,360909,1,0,1:0:0:0:
124,61,361000,5,2,1:2:0:0:
173,94,361091,1,0,1:0:0:0:
232,97,361182,1,0,1:0:0:0:
283,66,361273,1,0,1:0:0:0:
338,42,361364,1,0,1:0:0:0:
397,50,361455,1,0,1:0:0:0:
455,128,361546,5,10,1:2:0:0:
430,175,361637,1,0,1:0:0:0:
382,198,361728,1,0,1:0:0:0:
331,181,361819,1,0,1:0:0:0:
301,137,361909,1,0,1:0:0:0:
304,83,362000,1,0,1:0:0:0:
338,42,362091,1,2,1:2:0:0:
383,32,362182,1,0,1:0:0:0:
426,49,362273,1,0,1:0:0:0:
376,117,362364,5,0,1:0:0:0:
343,127,362455,1,0,1:0:0:0:
311,117,362546,1,0,1:0:0:0:
296,10,362637,5,10,1:2:0:0:
342,57,362728,1,0,1:0:0:0:
363,120,362819,1,0,1:0:0:0:
342,182,362909,1,0,1:0:0:0:
291,225,363000,1,0,1:0:0:0:
282,291,363091,1,0,1:0:0:0:
324,345,363182,5,2,1:2:0:0:
349,299,363272,1,0,1:0:0:0:
336,248,363363,1,0,1:0:0:0:
290,223,363454,1,0,1:0:0:0:
240,237,363545,1,0,1:0:0:0:
214,281,363636,1,0,1:0:0:0:
144,324,363728,5,10,1:2:0:0:
94,335,363819,1,0,1:0:0:0:
49,308,363910,1,0,1:0:0:0:
37,258,364001,1,0,1:0:0:0:
63,213,364092,1,0,1:0:0:0:
112,200,364183,1,0,1:0:0:0:
156,226,364273,1,2,1:2:0:0:
198,244,364364,1,0,1:0:0:0:
241,227,364455,1,0,1:0:0:0:
206,120,364546,5,0,1:0:0:0:
202,138,364637,1,0,1:0:0:0:
198,156,364728,1,0,1:0:0:0:
295,160,364819,5,10,1:2:0:0:
302,95,364909,1,0,1:0:0:0:
266,40,365000,1,0,1:0:0:0:
203,21,365091,1,0,1:0:0:0:
143,46,365182,1,0,1:0:0:0:
113,104,365273,1,0,1:0:0:0:
129,169,365364,5,2,1:2:0:0:
144,225,365454,1,0,1:0:0:0:
112,274,365545,1,0,1:0:0:0:
55,283,365636,1,0,1:0:0:0:
10,246,365727,1,0,1:0:0:0:
7,188,365818,1,0,1:0:0:0:
42,84,365909,5,10,1:2:0:0:
92,69,365999,1,0,1:0:0:0:
142,87,366090,1,0,1:0:0:0:
172,129,366181,1,0,1:0:0:0:
174,181,366272,1,0,1:0:0:0:
144,225,366363,1,0,1:0:0:0:
96,244,366455,1,2,1:2:0:0:
51,269,366545,1,0,1:0:0:0:
34,320,366636,1,0,1:0:0:0:
160,298,366728,5,0,1:0:0:0:
149,281,366819,1,0,1:0:0:0:
134,267,366909,1,0,1:0:0:0:
109,364,367000,5,10,1:2:0:0:
172,379,367090,1,0,1:0:0:0:
226,344,367181,1,0,1:0:0:0:
239,280,367272,1,0,1:0:0:0:
247,213,367364,1,0,1:0:0:0:
306,181,367455,1,0,1:0:0:0:
369,196,367545,5,2,1:2:0:0:
427,197,367636,1,0,1:0:0:0:
471,158,367727,1,0,1:0:0:0:
475,99,367818,1,0,1:0:0:0:
439,54,367909,1,0,1:0:0:0:
381,46,368000,1,0,1:0:0:0:
333,80,368091,1,10,3:2:0:0:
400,315,368273,5,0,3:0:0:0:
419,309,368364,1,0,3:0:0:0:
438,303,368455,1,0,3:0:0:0:
182,44,368637,5,8,3:2:0:0:
182,44,368728,1,0,3:0:0:0:
182,44,368819,1,0,3:0:0:0:
187,110,368909,1,0,3:0:0:0:
192,176,369000,1,0,3:0:0:0:
198,243,369091,1,0,3:0:0:0:
203,309,369182,5,10,1:2:0:0:
165,301,369272,1,0,1:0:0:0:
137,273,369363,1,0,1:0:0:0:
129,235,369454,1,0,1:0:0:0:
145,198,369545,1,0,1:0:0:0:
177,177,369636,1,0,1:0:0:0:
217,177,369728,1,2,1:2:0:0:
256,177,369819,1,0,1:0:0:0:
289,155,369910,1,0,1:0:0:0:
304,119,370001,1,0,1:0:0:0:
296,80,370092,1,0,1:0:0:0:
269,52,370183,1,0,1:0:0:0:
192,43,370273,5,10,1:2:0:0:
206,93,370363,1,0,1:0:0:0:
246,128,370454,1,0,1:0:0:0:
297,137,370545,1,0,1:0:0:0:
346,117,370636,1,0,1:0:0:0:
377,74,370727,1,0,1:0:0:0:
380,22,370819,5,2,1:2:0:0:
322,53,370909,1,0,1:0:0:0:
285,108,371000,1,0,1:0:0:0:
276,173,371091,1,0,1:0:0:0:
298,236,371182,1,0,1:0:0:0:
345,282,371273,1,0,1:0:0:0:
408,301,371364,2,0,L|477:291,2,50.0000019073487,10|0|0,1:2|1:0|1:0,0:0:0:0:
411,202,371637,2,0,L|361:195,2,50.0000019073487,0|0|0,1:0|1:0|1:0,0:0:0:0:
308,314,371909,5,2,1:2:0:0:
284,333,371999,1,0,1:0:0:0:
258,346,372090,1,0,1:0:0:0:
228,352,372181,1,0,1:0:0:0:
199,352,372272,1,0,1:0:0:0:
170,344,372363,1,0,1:0:0:0:
99,332,372455,5,10,1:2:0:0:
113,305,372546,1,0,1:0:0:0:
120,276,372637,1,0,1:0:0:0:
121,246,372728,1,0,1:0:0:0:
114,217,372819,1,0,1:0:0:0:
101,190,372910,1,0,1:0:0:0:
82,167,373000,5,2,1:2:0:0:
89,215,373090,1,0,1:0:0:0:
122,253,373181,1,0,1:0:0:0:
169,268,373272,1,0,1:0:0:0:
217,256,373363,1,0,1:0:0:0:
251,221,373454,1,0,1:0:0:0:
263,173,373546,5,10,1:2:0:0:
258,105,373636,1,0,1:0:0:0:
301,53,373727,1,0,1:0:0:0:
369,47,373818,1,0,1:0:0:0:
422,90,373909,1,0,1:0:0:0:
429,158,374000,1,0,1:0:0:0:
386,211,374091,1,2,1:2:0:0:
338,260,374182,1,0,1:0:0:0:
339,328,374273,1,0,1:0:0:0:
387,375,374364,1,0,1:0:0:0:
455,375,374455,1,0,1:0:0:0:
504,326,374546,1,0,1:0:0:0:
487,185,374637,5,10,1:2:0:0:
418,174,374727,1,0,1:0:0:0:
356,203,374818,1,0,1:0:0:0:
293,232,374909,1,0,1:0:0:0:
225,221,374999,1,0,1:0:0:0:
172,173,375091,1,0,1:0:0:0:
170,102,375182,5,2,1:2:0:0:
231,137,375272,1,0,1:0:0:0:
230,209,375363,1,0,1:0:0:0:
167,243,375454,1,0,1:0:0:0:
104,276,375546,1,0,1:0:0:0:
102,348,375637,1,0,1:0:0:0:
164,384,375728,6,0,P|176:344|168:316,2,50.0000019073487,10|0|0,1:2|1:0|1:0,0:0:0:0:
22,258,376000,2,0,P|22:282|33:305,2,50.0000019073487,0|0|0,1:0|1:0|1:0,0:0:0:0:
228,185,376273,2,0,L|244:13,1,150.000005722046,2|0,1:2|1:0,0:0:0:0:
135,0,376614,5,0,1:0:0:0:
138,18,376682,1,0,1:0:0:0:
142,36,376750,1,0,1:0:0:0:
146,54,376819,1,10,1:2:0:0:
434,362,377091,6,0,L|439:257,1,82.5000025177003,2|0,0:2|0:0,0:0:0:0:
414,370,377364,2,0,L|419:277,1,82.5000025177003,2|0,0:2|0:0,0:0:0:0:
417,69,377637,5,8,1:2:0:0:
418,60,377705,1,8,1:2:0:0:
419,51,377773,1,8,1:2:0:0:
419,41,377841,1,8,1:2:0:0:
420,32,377909,5,4,1:2:0:0:
385,52,377977,1,0,0:0:0:0:
347,60,378045,1,0,0:0:0:0:
307,54,378113,1,0,0:0:0:0:
272,34,378182,1,8,1:2:0:0:
237,14,378250,1,0,0:0:0:0:
198,6,378319,1,8,1:2:0:0:
159,15,378386,1,0,0:0:0:0:
125,36,378454,1,8,1:2:0:0:
107,63,378523,1,0,0:0:0:0:
103,94,378591,1,8,1:2:0:0:
112,124,378659,1,0,0:0:0:0:
133,148,378728,2,0,P|159:148|179:138,1,50,8|0,1:2|0:0,0:0:0:0:
317,19,378864,2,0,P|292:20|271:33,1,50,8|0,1:2|0:0,0:0:0:0:
313,351,379000,5,8,1:2:0:0:
344,327,379068,1,0,0:0:0:0:
357,290,379136,1,8,1:2:0:0:
345,251,379204,1,0,0:0:0:0:
314,228,379273,1,8,1:2:0:0:
283,203,379341,1,0,0:0:0:0:
272,166,379409,1,8,1:2:0:0:
285,128,379478,1,0,0:0:0:0:
317,107,379545,1,8,1:2:0:0:
343,125,379614,1,0,0:0:0:0:
359,152,379682,1,8,1:2:0:0:
361,184,379750,1,0,0:0:0:0:
348,213,379819,2,0,P|324:235|303:242,1,50,8|0,1:2|0:0,0:0:0:0:
157,48,379955,2,0,P|191:57|209:74,1,50,8|0,1:2|0:0,0:0:0:0:
119,355,380091,5,12,1:2:0:0:
82,370,380159,1,0,0:0:0:0:
43,363,380227,1,8,1:2:0:0:
14,336,380295,1,0,0:0:0:0:
5,299,380363,1,8,1:2:0:0:
18,261,380431,1,0,0:0:0:0:
49,237,380500,1,8,1:2:0:0:
88,234,380568,1,0,0:0:0:0:
123,253,380636,1,8,1:2:0:0:
151,268,380705,1,0,0:0:0:0:
182,269,380773,1,8,1:2:0:0:
211,257,380841,1,0,0:0:0:0:
233,233,380909,2,0,P|238:205|233:175,1,50,8|0,1:2|0:0,0:0:0:0:
64,95,381046,2,0,P|58:122|63:152,1,50,8|0,1:2|0:0,0:0:0:0:
368,353,381182,5,8,1:2:0:0:
399,329,381250,1,0,0:0:0:0:
412,291,381318,1,8,1:2:0:0:
401,253,381386,1,0,0:0:0:0:
372,227,381454,1,8,1:2:0:0:
337,209,381523,1,0,0:0:0:0:
319,174,381591,1,8,1:2:0:0:
324,135,381659,1,0,0:0:0:0:
350,106,381728,1,10,1:2:0:0:
374,109,381796,1,0,0:0:0:0:
399,112,381864,1,8,1:2:0:0:
424,115,381932,1,0,0:0:0:0:
449,118,382000,2,0,L|457:191,1,50,8|0,1:2|0:0,0:0:0:0:
300,325,382137,2,0,L|292:252,1,50,8|0,1:2|0:0,0:0:0:0:
273,74,382273,5,12,1:2:0:0:
244,46,382341,1,0,0:0:0:0:
205,38,382409,1,8,1:2:0:0:
168,54,382477,1,0,0:0:0:0:
147,87,382546,1,8,1:2:0:0:
125,120,382614,1,0,0:0:0:0:
88,135,382682,1,8,1:2:0:0:
50,128,382750,1,0,0:0:0:0:
21,101,382819,1,8,1:2:0:0:
12,77,382887,1,0,0:0:0:0:
12,52,382955,1,8,1:2:0:0:
22,29,383023,1,0,0:0:0:0:
39,11,383091,2,0,P|61:-2|91:-3,1,50,8|0,1:2|0:0,0:0:0:0:
174,183,383228,2,0,P|152:196|122:197,1,50,8|0,1:2|0:0,0:0:0:0:
322,12,383364,5,8,1:2:0:0:
347,40,383432,1,0,0:0:0:0:
356,79,383500,1,8,1:2:0:0:
343,117,383568,1,0,0:0:0:0:
313,142,383636,1,8,1:2:0:0:
283,168,383705,1,0,0:0:0:0:
270,205,383773,1,8,1:2:0:0:
278,244,383841,1,0,0:0:0:0:
305,273,383909,1,8,1:2:0:0:
333,280,383977,1,0,0:0:0:0:
363,275,384046,1,8,1:2:0:0:
388,259,384113,1,0,0:0:0:0:
404,234,384182,2,0,P|404:193|395:173,1,50,8|0,1:2|0:0,0:0:0:0:
221,59,384319,2,0,P|221:100|230:120,1,50,8|0,1:2|0:0,0:0:0:0:
151,315,384455,5,8,1:2:0:0:
123,343,384523,1,0,0:0:0:0:
85,352,384591,1,8,1:2:0:0:
48,338,384659,1,0,0:0:0:0:
24,307,384728,1,8,1:2:0:0:
21,267,384795,1,0,0:0:0:0:
40,233,384864,1,8,1:2:0:0:
74,214,384932,1,0,0:0:0:0:
114,217,385000,1,8,1:2:0:0:
153,219,385069,1,0,0:0:0:0:
187,201,385137,1,8,1:2:0:0:
207,167,385206,1,0,0:0:0:0:
203,127,385273,2,0,P|184:98|160:85,1,50,8|0,1:2|0:0,0:0:0:0:
151,315,385409,2,0,P|185:313|208:298,1,50,8|0,1:2|0:0,0:0:0:0:
355,199,385546,5,8,1:2:0:0:
397,173,385614,1,0,1:0:0:0:
424,132,385682,1,0,1:0:0:0:
430,83,385750,1,0,1:0:0:0:
413,36,385818,5,8,3:2:0:0:
372,98,385887,1,0,3:0:0:0:
365,172,385955,1,0,3:0:0:0:
395,240,386023,1,0,3:0:0:0:
453,285,386091,1,8,3:2:0:0:
453,285,386637,6,0,P|404:272|389:272,1,50,6|0,1:2|1:0,0:0:0:0:
296,179,386909,2,0,P|258:203|230:256,1,75.0000028610231,0|0,1:0|1:0,0:0:0:0:
96,221,387182,2,0,P|97:265|129:316,1,100,2|0,1:2|1:0,0:0:0:0:
377,198,387455,6,0,P|375:153|343:102,1,75.0000028610231,0|0,1:0|1:0,0:0:0:0:
46,30,387728,2,0,P|100:61|162:60,1,100,10|0,1:2|1:0,0:0:0:0:
192,171,388000,2,0,P|245:139|275:85,1,125,0|8,1:0|1:2,0:0:0:0:
391,11,388273,5,2,1:2:0:0:
391,11,388409,1,0,1:0:0:0:
322,258,388546,1,0,1:0:0:0:
322,258,388682,1,2,1:2:0:0:
255,0,388819,6,0,P|219:29|209:73,1,75.0000028610231,2|0,1:2|1:0,0:0:0:0:
104,70,389091,2,0,P|109:104|134:127,1,50,0|8,1:0|1:2,0:0:0:0:
78,222,389364,2,0,P|121:238|164:225,1,75.0000028610231,2|8,1:2|0:2,0:0:0:0:
218,359,389637,2,0,P|258:326|270:276,1,100,8|8,0:2|0:2,0:0:0:0:
417,119,389909,6,0,L|402:386,1,250,10|8,0:2|0:2,0:0:0:0:
499,314,390319,1,8,1:2:0:0:
246,104,390455,1,2,1:2:0:0:
270,281,390591,1,0,1:0:0:0:
487,67,390728,1,0,1:0:0:0:
147,333,390864,5,8,1:2:0:0:
159,252,390932,1,0,0:0:0:0:
171,171,391000,1,0,1:0:0:0:
166,153,391273,6,0,B|120:142|89:163|89:163|10:138|7:41,1,225.000008583069,4|0,0:2|0:0,0:0:0:0:
14,39,391819,1,2,1:2:0:0:
369,118,392091,6,0,B|342:73|360:44|408:12|450:16|491:109|489:216|411:148|372:202|381:272|402:302,1,375.000014305115,10|0,1:2|0:0,0:0:0:0:
408,305,392909,1,2,1:2:0:0:
31,366,393182,6,0,B|61:330|56:291|56:291|6:226|37:146,1,220.000006713867,10|2,1:2|0:2,0:0:0:0:
325,349,394069,5,0,1:0:0:0:
325,349,394137,1,0,1:0:0:0:
325,349,394205,1,0,1:0:0:0:
325,349,394273,2,0,L|209:336,1,110.000003356934,10|0,1:2|1:0,0:0:0:0:
166,269,394819,1,2,0:2:0:0:
365,51,395228,5,0,1:0:0:0:
353,132,395296,1,0,1:0:0:0:
341,213,395364,1,10,1:2:0:0:
346,231,395637,6,0,B|348:277|311:303|311:303|318:354|371:373,1,165.000005035401,4|0,0:2|0:0,0:0:0:0:
375,363,396182,1,2,1:2:0:0:
289,19,396455,6,0,B|219:50|219:50|108:21|108:21|54:22|27:71|43:118,1,300.000011444092,10|2,1:2|0:2,0:0:0:0:
73,167,397273,1,2,1:2:0:0:
480,239,397546,6,0,B|529:203|519:140|519:140|468:104|477:37,1,220.000006713867,10|2,1:2|0:2,0:0:0:0:
126,91,398364,1,0,1:0:0:0:
122,116,398455,1,0,1:0:0:0:
119,141,398546,1,0,1:0:0:0:
56,224,398637,5,10,1:2:0:0:
82,199,398727,1,0,3:0:0:0:
115,182,398818,1,0,3:0:0:0:
151,176,398909,1,0,1:0:0:0:
187,180,399000,1,0,3:0:0:0:
221,194,399091,1,0,3:0:0:0:
249,217,399182,1,2,3:2:0:0:
277,239,399273,1,0,3:0:0:0:
311,254,399364,1,0,3:0:0:0:
347,257,399455,1,0,3:0:0:0:
383,251,399546,2,0,L|388:192,1,36.6666677856446,0|0,3:0|1:0,0:0:0:0:
409,19,399727,1,10,1:2:0:0:
147,366,400000,6,0,B|121:314|138:274|138:274|182:240|210:182|190:107|144:93|138:61|138:61|135:93|74:117|76:185|106:229,1,500,4|0,0:2|0:0,0:0:0:0:
431,323,401637,1,0,0:0:0:0:
431,323,401909,2,0,B|317:349|354:251|277:253|219:267|189:294|200:348|243:380|285:349,1,330.000010070801,2|0,0:2|0:0,0:0:0:0:
406,0,404091,5,2,0:2:0:0:
406,0,404364,2,0,B|376:61|411:112|411:112|382:147|382:147|442:211|406:260|406:260|411:215|372:172,1,375.000014305115,2|0,0:2|0:0,0:0:0:0:
179,141,406000,1,2,0:2:0:0:
179,141,406273,2,0,P|200:226|130:307,1,194.999991073609
105,178,407364,2,0,P|124:207|65:197,1,134.999995880127,2|0,0:2|0:0,0:0:0:0:
123,41,408455,6,0,P|163:71|238:51,1,129.999994049073,2|0,0:2|0:0,0:0:0:0:
298,9,409273,1,2,0:2:0:0:
473,68,409546,6,0,B|371:45|388:111|280:81,1,170.000003242493,2|0,0:2|0:0,0:0:0:0:
183,0,410364,1,0,0:0:0:0:
270,164,410637,6,0,P|278:202|203:346,1,194.999991073609,2|0,0:2|0:0,0:0:0:0:
340,316,411728,2,0,P|359:297|469:292,1,134.999995880127,2|0,0:2|0:0,0:0:0:0:
390,200,412818,2,0,P|379:196|356:159,1,50,2|0,0:2|0:0,0:0:0:0:
386,87,413637,1,2,0:2:0:0:
512,33,413909,6,0,P|474:54|365:57,1,134.999995880127,2|2,0:2|0:2,0:0:0:0:
169,8,415000,5,2,0:2:0:0:
169,8,415273,2,0,P|184:82|184:145,1,129.999994049073,2|0,0:2|0:0,0:0:0:0:
311,142,416091,5,2,0:2:0:0:
311,142,416364,2,0,P|296:216|296:279,1,129.999994049073,2|0,0:2|0:0,0:0:0:0:
224,361,417182,5,2,0:2:0:0:
256,192,417318,12,0,420318,0:0:0:0:
92,57,425636,6,0,P|105:85|107:112,1,50,2|0,0:2|0:0,0:0:0:0:
182,95,426080,2,0,P|179:126|167:151,1,50
207,208,426524,2,0,P|226:193|240:172,1,50
388,220,426969,6,0,P|374:248|372:276,1,50,2|0,0:2|0:0,0:0:0:0:
298,258,427413,2,0,P|300:289|312:314,1,50
272,371,427857,2,0,P|252:355|239:334,1,50
412,312,428302,6,0,L|471:303,1,50,2|0,0:2|0:0,0:0:0:0:
429,232,428747,2,0,L|488:223,1,50
495,144,429191,2,0,L|446:152,1,50
308,169,429636,6,0,L|249:160,1,50,2|0,0:2|0:0,0:0:0:0:
291,89,430081,2,0,L|232:80,1,50
224,1,430525,2,0,L|273:8,1,50
197,303,430969,6,0,P|165:300|140:288,1,50,2|0,0:2|0:0,0:0:0:0:
119,361,431413,2,0,P|93:343|77:320,1,50
8,327,431857,2,0,P|12:351|23:373,1,50
201,225,432302,6,0,P|197:200|186:179,1,50,2|0,0:2|0:0,0:0:0:0:
265,265,432746,2,0,P|274:241|275:217,1,50
333,293,433190,2,0,P|320:314|300:330,1,50
111,176,433636,6,0,L|181:167,1,50,2|0,0:2|0:0,0:0:0:0:
33,190,434080,2,0,L|-9:133,1,50
65,297,434524,2,0,L|85:251,1,50
166,85,434969,6,0,L|100:57,1,50,2|0,0:2|0:0,0:0:0:0:
240,111,435413,2,0,L|248:181,1,50
265,1,435857,2,0,L|225:31,1,50
277,204,436277,5,2,0:2:0:0:
373,230,436507,1,2,0:2:0:0:
455,192,436738,1,2,0:2:0:0:
480,116,436969,1,2,0:2:0:0:
440,58,437200,1,2,0:2:0:0:
380,50,437430,1,2,0:2:0:0:
336,75,437676,1,2,0:0:0:0:
321,112,437982,1,2,0:0:0:0:
334,138,438322,1,2,0:2:0:0:
351,147,438663,1,2,0:2:0:0:
198,30,439041,6,0,B|117:35|154:72|57:76,1,150.000005722046,2|0,0:2|0:0,0:0:0:0:
194,240,440326,2,0,P|219:198|162:94,1,150.000005722046
144,289,441636,6,0,P|180:307|232:302,1,75.0000028610231,2|0,0:2|0:0,0:0:0:0:
280,355,442080,2,0,P|313:332|335:285,1,75.0000028610231,2|0,0:2|0:0,0:0:0:0:
385,199,442524,2,0,P|403:232|405:270,1,75.0000028610231,2|0,0:2|0:0,0:0:0:0:
479,28,442969,6,0,P|438:30|396:60,1,75.0000028610231,2|0,0:2|0:0,0:0:0:0:
328,38,443413,2,0,P|310:74|315:126,1,75.0000028610231,2|0,0:2|0:0,0:0:0:0:
313,226,443857,2,0,P|281:206|261:174,1,75.0000028610231,2|0,0:2|0:0,0:0:0:0:
175,55,444302,6,0,L|91:46,1,75.0000028610231,2|0,0:2|0:0,0:0:0:0:
74,131,444747,2,0,L|-10:140,1,75.0000028610231,2|0,0:2|0:0,0:0:0:0:
179,224,445191,2,0,L|95:215,1,75.0000028610231,2|0,0:2|0:0,0:0:0:0:
425,351,445636,6,0,L|434:266,1,75.0000028610231,2|0,0:2|0:0,0:0:0:0:
348,249,446081,2,0,L|339:164,1,75.0000028610231,2|0,0:2|0:0,0:0:0:0:
254,354,446525,2,0,L|263:270,1,75.0000028610231,2|0,0:2|0:0,0:0:0:0:
377,98,446969,6,0,P|324:93|277:115,1,75.0000028610231,2|0,0:2|0:0,0:0:0:0:
431,170,447413,2,0,P|461:126|466:74,1,75.0000028610231,2|0,0:2|0:0,0:0:0:0:
378,243,447858,2,0,P|353:215|341:180,1,75.0000028610231,2|0,0:2|0:0,0:0:0:0:
1,271,448302,6,0,P|28:295|64:308,1,75.0000028610231,2|0,0:2|0:0,0:0:0:0:
146,272,448746,2,0,P|153:309|146:346,1,75.0000028610231,2|0,0:2|0:0,0:0:0:0:
75,218,449191,2,0,P|103:193|138:182,1,75.0000028610231,2|0,0:2|0:0,0:0:0:0:
275,34,449636,6,0,P|230:42|182:37,1,75.0000028610231,2|0,0:2|0:0,0:0:0:0:
354,75,450080,2,0,P|319:104|274:124,1,75.0000028610231,2|0,0:2|0:0,0:0:0:0:
410,138,450524,2,0,P|430:106|442:71,1,75.0000028610231,2|0,0:2|0:0,0:0:0:0:
148,201,450969,6,0,P|166:168|191:140,1,75.0000028610231,2|0,0:2|0:0,0:0:0:0:
225,293,451413,2,0,P|224:255|232:219,1,75.0000028610231,2|0,0:2|0:0,0:0:0:0:
308,267,451857,2,0,P|319:302|339:334,1,75.0000028610231,2|2,0:2|0:2,0:0:0:0:
435,302,452303,5,2,0:2:0:0:
371,334,452747,1,0,0:0:0:0:
287,318,453191,1,0,0:0:0:0:
222,189,453636,2,0,P|222:131|262:66,2,100,2|0|0,0:2|0:0|0:0,0:0:0:0:
10,290,454914,5,0,0:0:0:0:
10,290,454969,2,0,P|34:284|60:283,1,50,2|0,0:2|0:0,0:0:0:0:
103,216,455414,2,0,P|120:233|134:255,1,50,0|0,0:2|0:0,0:0:0:0:
213,259,455858,1,0,0:0:0:0:
438,158,456303,5,0,0:0:0:0:
351,187,456747,1,0,0:0:0:0:
247,121,457191,1,0,0:0:0:0:
421,250,457636,6,0,P|433:273|435:348,2,100
469,81,458969,1,2,0:2:0:0:
424,144,459414,1,0,0:0:0:0:
348,152,459858,1,0,0:0:0:0:
162,34,460303,6,0,P|188:33|254:-2,2,100,2|0|0,0:2|0:0|0:0,0:0:0:0:
90,12,461636,1,0,0:0:0:0:
114,142,462080,1,0,0:0:0:0:
53,84,462525,1,0,0:0:0:0:
251,125,462969,6,0,L|243:232,2,100
359,3,464303,5,2,0:2:0:0:
417,96,464747,1,0,0:0:0:0:
487,136,465191,1,0,0:0:0:0:
440,296,465636,6,0,L|338:312,2,100,2|0|0,0:2|0:0|0:0,0:0:0:0:
335,210,466969,1,0,0:0:0:0:
251,269,467414,1,0,0:0:0:0:
182,234,467858,1,0,0:0:0:0:
55,378,468303,6,0,P|91:377|153:336,2,100
43,201,469636,5,2,0:2:0:0:
8,315,470080,1,0,0:0:0:0:
55,379,470525,1,0,0:0:0:0:
139,276,470969,6,0,P|146:227|131:164,1,100
52,105,471858,1,0,0:0:0:0:
243,12,472303,5,2,0:2:0:0:
277,130,472747,1,0,0:0:0:0:
235,199,473191,1,0,0:0:0:0:
296,356,473636,2,0,P|341:352|401:292,1,125,2|0,0:2|0:2,0:0:0:0:
415,286,474303,6,0,P|417:267|417:259,8,16.6666666666667,0|0|0|2|0|0|0|0|0,0:2|0:0|0:0|0:2|0:0|0:0|0:0|0:0|0:0,0:0:0:0:
377,159,474969,2,0,P|372:131|373:112,11,25.0000009536744,2|0|0|0|0|0|2|0|0|0|0|0,0:2|0:0|0:0|0:0|0:0|0:0|0:2|0:0|0:0|0:0|0:0|0:0,0:0:0:0:
309,218,475858,6,0,P|303:240|297:248,2,21.6666656748454,2|0|0,0:2|0:0|0:0,0:0:0:0:
216,220,476080,2,0,P|203:230|194:233,2,18.3333338928223
110,203,476303,6,0,L|106:169,2,18.3333338928223,2|0|0,0:2|0:0|0:0,0:0:0:0:
206,117,476525,2,0,L|210:83,2,18.3333338928223,2|0|0,0:2|0:0|0:0,0:0:0:0:
85,42,476747,2,0,L|81:12,47,18.3333338928223,2|0|0|2|0|0|2|0|0|0|0|0|2|0|0|0|0|0|2|0|0|0|0|0|2|0|0|0|0|0|2|0|0|0|0|0|2|0|0|0|0|0|2|0|0|0|0|0,0:2|0:0|0:0|0:2|0:0|0:0|0:2|0:0|0:0|0:0|0:0|0:0|0:2|0:0|0:0|0:0|0:0|0:0|0:2|0:0|0:0|0:0|0:0|0:0|0:2|0:0|0:0|0:0|0:0|0:0|0:2|0:0|0:0|0:0|0:0|0:0|0:2|0:0|0:0|0:0|0:0|0:0|0:2|0:0|0:0|0:0|0:0|0:0,0:0:0:0:
208,84,480303,6,0,L|216:25,11,33.3333333333333,2|0|0|0|0|0|2|0|0|0|0|0,0:2|0:0|0:0|0:0|0:0|0:0|0:2|0:0|0:0|0:0|0:0|0:0,0:0:0:0:
300,142,481191,2,0,L|306:179,2,25.0000009536744,2|0|0,0:2|0:0|0:0,0:0:0:0:
390,90,481414,2,0,L|396:53,2,33.3333333333333
487,190,481636,6,0,P|474:203|461:210,35,25.0000009536744,2|0|0|0|0|0|2|0|0|0|0|0|2|0|0|0|0|0|2|0|0|0|0|0|2|0|0|0|0|0|2|0|0|0|0|0,0:2|0:0|0:0|0:0|0:0|0:0|0:2|0:0|0:0|0:0|0:0|0:0|0:2|0:0|0:0|0:0|0:0|0:0|0:2|0:0|0:0|0:0|0:0|0:0|0:2|0:0|0:0|0:0|0:0|0:0|0:2|0:0|0:0|0:0|0:0|0:0,0:0:0:0:
449,286,484303,2,0,P|429:296|404:299,11,25.0000009536744,2|0|0|0|0|0|2|0|0|0|0|0,0:2|0:0|0:0|0:0|0:0|0:0|0:2|0:0|0:0|0:0|0:0|0:0,0:0:0:0:
372,358,485191,2,0,P|335:356|325:353,5,33.3333333333333,2|0|0|0|0|0,0:2|0:0|0:0|0:0|0:0|0:0,0:0:0:0:
219,344,485636,2,0,P|202:310|199:300,11,41.6666666666667,2|0|0|0|0|0|2|0|0|0|0|0,0:2|0:0|0:0|0:0|0:0|0:0|0:2|0:0|0:0|0:0|0:0|0:0,0:0:0:0:
257,207,486525,6,0,P|265:151|262:127,5,50.0000019073487,2|0|0|0|0|0,0:2|0:0|0:0|0:0|0:0|0:0,0:0:0:0:
148,180,486969,2,0,P|118:188|96:202,5,41.6666666666667,2|0|0|0|0|0,0:2|0:0|0:0|0:2|0:0|0:0,0:0:0:0:
39,286,487414,2,0,P|69:294|91:308,23,33.3333333333333,2|0|0|0|0|0|2|0|0|0|0|0|2|0|0|0|0|0|2|0|0|0|0|0,0:2|0:0|0:0|0:0|0:0|0:0|0:2|0:0|0:0|0:0|0:0|0:0|0:2|0:0|0:0|0:0|0:0|0:0|0:2|0:0|0:0|0:0|0:0|0:0,0:0:0:0:
157,264,489191,6,0,L|152:297,5,33.3333333333333,2|0|0|0|0|0,0:2|0:0|0:0|0:0|0:0|0:0,0:0:0:0:
234,327,489636,2,0,L|242:368,11,25.0000009536744,2|0|0|0|0|0|2|0|0|0|0|0,0:2|0:0|0:0|0:0|0:0|0:0|0:2|0:0|0:0|0:0|0:0|0:0,0:0:0:0:
219,223,490525,6,0,L|216:170,5,33.3333333333333,2|0|0|0|0|0,0:2|0:0|0:0|0:0|0:0|0:0,0:0:0:0:
319,125,490969,2,0,L|316:178,11,41.6666666666667,2|0|0|0|0|0|2|0|0|0|0|0,0:2|0:0|0:0|0:0|0:0|0:0|0:2|0:0|0:0|0:0|0:0|0:0,0:0:0:0:
441,147,491858,6,0,L|449:97,5,50.0000019073487,2|0|0|0|0|0,0:2|0:0|0:0|0:0|0:0|0:0,0:0:0:0:
490,276,492302,2,0,L|485:319,27,33.3333333333333,2|0|0|0|0|0|2|0|0|0|0|0|2|0|0|0|0|0|2|0|0|0|0|0|2|0|0|0,0:2|0:0|0:0|0:0|0:0|0:0|0:2|0:0|0:0|0:0|0:0|0:0|0:2|0:0|0:0|0:0|0:0|0:0|0:2|0:0|0:0|0:0|0:0|0:0|0:2|0:0|0:0|0:0,0:0:0:0:
322,357,494394,5,0,1:0:0:0:
312,355,494468,1,0,1:0:0:0:
302,353,494542,1,0,1:0:0:0:
493,35,494970,6,0,B|480:91|419:130|358:97|335:50|335:50|291:132|291:132|264:89|209:52|153:93|135:139,1,450.000017166138,4|0,1:2|0:0,0:0:0:0:
179,262,495858,2,0,P|207:209|209:147,1,100,2|0,0:2|0:0,0:0:0:0:
10,284,496303,2,0,B|204:220|136:389|312:339|312:339|355:253|293:190,1,480,2|2,0:2|0:2,0:0:0:0:
472,16,497192,6,0,P|430:9|393:22,1,50,2|0,0:2|0:0,0:0:0:0:
408,145,497414,2,0,P|435:112|442:73,1,50
174,22,497636,6,0,L|187:95,1,59.9999981689454,6|0,1:2|0:0,0:0:0:0:
317,191,497858,2,0,L|330:118,1,59.9999981689454
105,167,498081,2,0,B|67:206|19:213|19:213|167:243|154:161|298:200|298:200|376:248|409:338|311:374|223:336|251:250|320:202|320:202|404:146|316:101|421:26|421:26|371:97|398:160,1,1079.99996704102,2|0,0:2|0:0,0:0:0:0:
216,370,500303,2,0,B|180:322|176:270|191:210|231:174|231:174|254:69|194:24|194:24|218:80|181:161,1,474.999987316132,6|0,1:2|0:0,0:0:0:0:
48,365,501636,6,0,B|47:319|63:281|63:281|96:218|172:190|208:276|178:348|96:328|65:268|65:268|38:198|116:215|103:139|64:83|9:94|-32:155|9:202,1,640,2|2,0:2|0:2,0:0:0:0:
314,300,502747,1,0,0:0:0:0:
178,23,502970,2,0,B|138:54|72:45|72:45|96:49|149:78|158:141|158:141|203:78|280:97|280:97|346:132|376:213|303:270|204:248|206:159|285:71|285:71|359:122|415:96|415:96|400:160|454:224|454:224|430:170|480:95,1,1119.99996582031,6|2,1:2|0:2,0:0:0:0:
394,378,505025,5,0,1:0:0:0:
411,372,505081,1,0,1:0:0:0:
429,367,505136,1,0,1:0:0:0:
447,362,505192,1,10,1:2:0:0:
214,286,505414,1,0,1:0:0:0:
486,291,505636,6,0,B|366:275|414:352|292:336,1,200,6|2,1:2|0:2,0:0:0:0:
282,329,506525,1,2,0:2:0:0:
61,147,506970,2,0,B|94:206|94:206|78:370,1,200,10|2,0:2|0:2,0:0:0:0:
73,351,507858,1,2,0:2:0:0:
177,204,508081,1,0,1:0:0:0:
12,41,508303,6,0,B|64:12|124:38|94:76|160:101|214:64,1,220.000006713867,6|2,1:2|0:2,0:0:0:0:
391,4,509192,1,2,1:2:0:0:
448,199,509636,2,0,P|368:174|516:97,1,400,10|2,1:2|0:2,0:0:0:0:
261,173,510970,6,0,B|380:157|332:234|454:218,1,200,6|2,1:2|0:2,0:0:0:0:
266,94,511858,1,2,1:2:0:0:
300,327,512303,6,0,B|180:311|228:388|106:372,1,200,10|2,1:2|0:2,0:0:0:0:
295,248,513191,1,2,0:2:0:0:
107,147,513414,5,0,1:0:0:0:
346,47,513636,2,0,P|308:157|242:-5,1,400,6|2,1:2|0:2,0:0:0:0:
430,93,514747,5,0,1:0:0:0:
433,112,514803,1,0,1:0:0:0:
437,131,514858,1,0,1:0:0:0:
440,150,514914,1,0,1:0:0:0:
443,169,514970,1,10,1:2:0:0:
264,79,515192,1,0,1:0:0:0:
135,303,515747,5,0,1:0:0:0:
141,291,515803,1,0,1:0:0:0:
148,279,515858,2,0,L|147:243,1,25,10|8,1:2|1:2,0:0:0:0:
8,95,516303,6,0,P|63:165|66:8,1,400,6|2,1:2|0:2,0:0:0:0:
91,87,517414,1,0,0:0:0:0:
248,99,517636,2,0,P|241:33|213:-12,1,100,10|0,0:2|0:0,0:0:0:0:
70,244,518081,5,2,1:2:0:0:
379,99,518303,1,0,1:0:0:0:
198,344,518525,1,2,1:2:0:0:
226,3,518747,1,0,1:0:0:0:
512,217,518970,6,0,B|398:193|438:298|284:263,1,200,6|2,1:2|0:2,0:0:0:0:
347,180,519636,1,2,0:2:0:0:
242,314,519858,2,0,P|299:287|351:286,1,100,2|2,0:2|0:2,0:0:0:0:
475,37,520303,2,0,P|431:87|345:69,1,125,10|0,0:2|0:0,0:0:0:0:
80,31,520747,5,2,1:2:0:0:
154,21,520858,1,0,1:0:0:0:
227,11,520970,1,0,1:0:0:0:
335,284,521192,1,2,1:2:0:0:
261,274,521304,1,0,1:0:0:0:
187,264,521415,1,0,1:0:0:0:
322,70,521636,6,0,B|302:19|340:-30|418:-24|468:60|406:218|328:84|322:217|361:285,1,400,6|2,1:2|0:2,0:0:0:0:
62,24,522970,1,10,0:2:0:0:
42,274,523414,5,2,1:2:0:0:
460,147,523636,1,0,1:0:0:0:
42,110,523858,5,2,1:2:0:0:
460,237,524080,1,0,1:0:0:0:
164,384,524303,2,0,P|121:299|178:198,1,200,6|2,1:2|0:2,0:0:0:0:
218,153,524970,2,0,P|229:103|216:46,1,100,2|2,0:2|0:2,0:0:0:0:
33,14,525414,5,0,1:0:0:0:
27,29,525488,1,0,1:0:0:0:
23,45,525562,1,0,1:0:0:0:
23,61,525636,2,0,P|57:99|98:111,1,66.6666666666667,10|0,1:2|1:0,0:0:0:0:
196,36,525932,1,0,1:0:0:0:
139,184,526081,2,0,P|188:173|219:144,1,66.6666666666667,8|0,1:2|1:0,0:0:0:0:
202,20,526377,1,0,1:0:0:0:
42,193,526525,5,0,3:0:0:0:
169,275,526673,1,0,3:0:0:0:
260,231,526821,1,0,3:0:0:0:
463,51,526970,6,0,P|421:41|395:46,1,50,6|0,1:2|0:0,0:0:0:0:
294,147,527192,2,0,P|335:134|355:117,1,50
338,13,527414,6,0,P|335:43|338:66,1,37.5000014305115,2|0,0:2|0:0,0:0:0:0:
417,154,527636,2,0,P|420:124|417:101,1,37.5000014305115
236,68,527858,5,2,1:2:0:0:
426,350,528303,2,0,B|462:295|458:253|458:253|403:214|408:137,1,200,10|2,0:2|0:2,0:0:0:0:
86,93,529192,6,0,P|106:133|106:171,1,50,2|0,1:2|0:0,0:0:0:0:
173,215,529414,2,0,P|190:197|202:175,1,50,0|0,1:0|0:0,0:0:0:0:
82,10,529636,6,0,P|122:16|156:34,1,50,2|0,1:2|0:0,0:0:0:0:
183,292,529858,2,0,P|143:286|109:268,1,50,0|0,1:0|0:0,0:0:0:0:
269,57,530081,2,0,P|317:169|263:271,1,200,2|2,1:2|0:2,0:0:0:0:
1,320,530970,2,0,B|60:342|60:342|234:299,1,200,10|2,0:2|0:2,0:0:0:0:
204,294,531858,1,2,0:2:0:0:
349,384,532081,1,0,1:0:0:0:
512,214,532303,6,0,B|406:197|433:281|295:254,1,200,6|2,1:2|0:2,0:0:0:0:
206,173,533192,1,2,0:2:0:0:
503,2,533636,6,0,B|505:88|456:138|456:138|443:202|485:258,1,250,10|2,0:2|0:2,0:0:0:0:
101,184,534525,1,2,1:2:0:0:
413,92,534747,1,0,1:0:0:0:
60,17,534970,2,0,B|-2:-14|-53:81|11:137|163:143|75:28|200:32|246:75|252:109|252:109|221:75|173:86,1,460.000008773804,6|2,1:2|0:2,0:0:0:0:
141,362,536081,5,0,1:0:0:0:
145,343,536155,1,0,1:0:0:0:
149,324,536229,1,0,1:0:0:0:
153,305,536303,2,0,P|98:284|32:298,1,115.000002193451,10|0,1:2|1:0,0:0:0:0:
265,365,536747,2,0,P|298:313|285:209,1,153.333336257935,2|0,0:2|1:0,0:0:0:0:
246,162,537118,1,0,1:0:0:0:
232,147,537192,1,2,3:2:0:0:
81,201,537414,1,0,1:0:0:0:
370,11,537636,6,0,L|393:261,1,230.000004386902,6|2,1:2|0:2,0:0:0:0:
407,256,538525,1,2,0:2:0:0:
82,61,538970,2,0,P|149:32|303:89,1,230.000004386902,10|2,0:2|0:2,0:0:0:0:
300,99,539636,1,0,1:0:0:0:
265,344,539858,1,2,1:2:0:0:
512,202,540303,6,0,B|467:163|401:169|401:169|356:253|248:266|204:190,1,345.000006580353,6|0,1:2|0:0,0:0:0:0:
212,178,541192,1,2,1:2:0:0:
67,360,541636,2,0,B|114:281|59:206|59:206|8:133|55:47|55:47|42:107|56:145,1,400,10|2,0:2|0:2,0:0:0:0:
395,79,542747,5,0,1:0:0:0:
197,140,542970,2,0,P|139:131|217:76,1,225.000008583069,6|0,1:2|0:0,0:0:0:0:
221,89,543858,1,2,1:2:0:0:
345,307,544081,5,0,1:0:0:0:
360,296,544155,1,0,1:0:0:0:
375,285,544229,1,0,1:0:0:0:
391,273,544303,2,0,P|420:165|381:48,1,225.000008583069,10|0,1:2|0:0,0:0:0:0:
365,48,545192,1,2,0:2:0:0:
248,204,545414,1,0,1:0:0:0:
507,363,545636,6,0,P|438:330|317:364,1,200,6|2,1:2|1:2,0:0:0:0:
314,378,546525,1,2,1:2:0:0:
87,331,546747,5,0,1:0:0:0:
92,315,546821,1,0,1:0:0:0:
97,299,546895,1,0,1:0:0:0:
101,282,546970,2,0,L|92:168,1,100,10|0,1:2|1:0,0:0:0:0:
281,36,547414,2,0,L|272:150,1,100,10|0,0:2|1:0,0:0:0:0:
0,118,547858,1,10,3:2:0:0:
150,38,548081,1,0,1:0:0:0:
294,298,548303,6,0,P|256:277|286:144,1,200,6|2,1:2|0:2,0:0:0:0:
301,152,548970,1,2,0:2:0:0:
429,41,549192,1,2,0:2:0:0:
407,46,549414,1,2,0:2:0:0:
488,237,549636,2,0,L|504:112,1,100,10|2,0:2|0:2,0:0:0:0:
250,14,550081,5,2,1:2:0:0:
315,356,550303,1,0,1:0:0:0:
488,128,550525,1,2,1:2:0:0:
146,193,550747,1,0,1:0:0:0:
459,384,550970,6,0,P|513:313|447:215,1,200,6|2,1:2|0:2,0:0:0:0:
445,228,551636,1,2,0:2:0:0:
383,325,551858,1,2,0:2:0:0:
405,330,552080,1,0,0:0:0:0:
273,141,552303,2,0,L|262:266,1,100,10|0,0:2|0:0,0:0:0:0:
55,372,552747,5,2,1:2:0:0:
40,300,552858,1,0,1:0:0:0:
25,228,552970,1,0,1:0:0:0:
211,68,553192,5,2,1:2:0:0:
196,140,553303,1,0,1:0:0:0:
181,212,553414,1,0,1:0:0:0:
1,15,553636,6,0,B|118:-14|94:73|231:33,1,200,6|2,1:2|0:2,0:0:0:0:
217,26,554303,1,2,0:2:0:0:
320,134,554525,1,2,0:2:0:0:
290,120,554747,1,0,0:0:0:0:
474,0,554970,2,0,L|485:134,1,100,10|0,0:2|0:0,0:0:0:0:
52,255,555414,5,2,1:2:0:0:
464,359,555636,1,0,1:0:0:0:
183,48,555858,1,2,1:2:0:0:
223,384,556080,1,0,1:0:0:0:
435,55,556303,6,0,P|402:115|310:-18,1,300,6|2,1:2|0:2,0:0:0:0:
355,50,557192,1,2,0:2:0:0:
207,170,557414,5,0,1:0:0:0:
190,165,557488,1,0,1:0:0:0:
173,160,557562,1,0,1:0:0:0:
156,156,557636,2,0,P|142:106|147:66,1,66.6666666666667,14|8,1:2|1:2,0:0:0:0:
200,20,557932,1,8,1:2:0:0:
42,71,558081,2,0,P|67:25|99:0,1,66.6666666666667,8|0,1:2|3:0,0:0:0:0:
93,12,558303,1,0,3:0:0:0:
109,10,558377,1,8,1:2:0:0:
65,179,558525,2,0,L|0:167,2,50.0000019073487,8|0|0,1:2|3:0|3:0,0:0:0:0:
18,274,558969,5,6,1:2:0:0:
96,266,559118,1,0,1:0:0:0:
167,301,559266,1,0,1:0:0:0:
97,169,559414,5,2,1:2:0:0:
157,219,559562,1,0,1:0:0:0:
183,294,559710,1,0,1:0:0:0:
227,150,559858,5,10,1:2:0:0:
234,228,560007,1,0,1:0:0:0:
199,299,560155,1,0,1:0:0:0:
305,279,560303,5,2,1:2:0:0:
291,202,560452,1,0,1:0:0:0:
239,142,560600,1,0,1:0:0:0:
411,19,560747,5,2,1:2:0:0:
436,39,560821,1,0,1:0:0:0:
454,67,560895,1,0,1:0:0:0:
462,99,560969,1,0,1:0:0:0:
459,132,561043,1,0,1:0:0:0:
446,163,561117,1,0,1:0:0:0:
423,187,561191,1,10,1:2:0:0:
400,211,561266,1,0,1:0:0:0:
387,241,561340,1,0,1:0:0:0:
384,274,561414,1,0,1:0:0:0:
392,307,561488,1,0,1:0:0:0:
410,334,561562,1,0,1:0:0:0:
435,355,561636,2,0,L|507:343,2,66.6666666666667,2|0|0,1:2|1:0|1:0,0:0:0:0:
368,108,562081,2,0,L|302:97,2,66.6666666666667,2|0|0,1:2|1:0|1:0,0:0:0:0:
34,44,562525,5,10,1:2:0:0:
37,92,562599,1,0,1:0:0:0:
72,126,562673,1,8,1:2:0:0:
120,132,562747,1,0,1:0:0:0:
161,105,562821,1,8,1:2:0:0:
175,57,562895,1,0,1:0:0:0:
157,13,562970,1,10,0:2:0:0:
271,267,563414,5,10,1:2:0:0:
266,218,563488,1,0,1:0:0:0:
231,183,563562,1,8,1:2:0:0:
183,178,563636,1,0,1:0:0:0:
142,205,563710,1,8,1:2:0:0:
128,252,563784,1,0,1:0:0:0:
147,297,563858,1,10,1:2:0:0:
351,18,564303,5,2,1:2:0:0:
369,102,564451,1,0,1:0:0:0:
340,183,564599,1,0,1:0:0:0:
270,273,564747,5,2,1:2:0:0:
252,189,564895,1,0,1:0:0:0:
281,108,565043,1,0,1:0:0:0:
478,88,565192,5,10,1:2:0:0:
431,160,565340,1,0,1:0:0:0:
353,196,565488,1,0,1:0:0:0:
143,203,565636,5,2,1:2:0:0:
163,118,565784,1,0,1:0:0:0:
185,34,565932,1,0,1:0:0:0:
434,300,566081,5,2,1:2:0:0:
413,325,566155,1,0,1:0:0:0:
385,343,566229,1,0,1:0:0:0:
352,350,566303,1,0,1:0:0:0:
319,347,566377,1,0,1:0:0:0:
289,333,566451,1,0,1:0:0:0:
265,309,566525,1,10,1:2:0:0:
241,285,566599,1,0,1:0:0:0:
211,271,566673,1,0,1:0:0:0:
178,268,566747,1,0,1:0:0:0:
145,275,566821,1,0,1:0:0:0:
117,293,566895,1,0,1:0:0:0:
96,318,566969,2,0,L|99:384,2,66.6666666666667,2|0|0,1:2|1:0|1:0,0:0:0:0:
4,145,567414,2,0,L|0:211,2,66.6666666666667,2|0|0,1:2|1:0|1:0,0:0:0:0:
165,112,567858,5,10,1:2:0:0:
205,121,567932,1,0,1:0:0:0:
244,140,568006,1,8,1:2:0:0:
276,170,568080,1,0,1:0:0:0:
300,205,568154,1,8,1:2:0:0:
315,245,568228,1,0,1:0:0:0:
319,289,568302,1,10,1:2:0:0:
215,335,568747,5,10,1:2:0:0:
211,282,568821,1,0,1:0:0:0:
222,230,568895,1,8,1:2:0:0:
245,185,568969,1,0,1:0:0:0:
278,146,569043,1,8,1:2:0:0:
322,115,569117,1,0,1:0:0:0:
370,97,569191,1,10,1:2:0:0:
31,7,569636,5,6,1:2:0:0:
77,78,569784,1,0,1:0:0:0:
162,92,569932,1,0,1:0:0:0:
1,158,570081,5,2,1:2:0:0:
65,100,570229,1,0,1:0:0:0:
151,109,570377,1,0,1:0:0:0:
117,16,570525,5,10,1:2:0:0:
163,87,570673,1,0,1:0:0:0:
248,101,570821,1,0,1:0:0:0:
326,254,570969,5,2,1:2:0:0:
280,183,571117,1,0,1:0:0:0:
195,169,571265,1,0,1:0:0:0:
299,335,571414,5,2,1:2:0:0:
331,340,571488,1,0,1:0:0:0:
363,332,571562,1,0,1:0:0:0:
390,312,571636,1,0,1:0:0:0:
407,284,571710,1,0,1:0:0:0:
411,251,571784,1,0,1:0:0:0:
403,219,571858,1,10,1:2:0:0:
394,187,571932,1,0,1:0:0:0:
398,154,572006,1,0,1:0:0:0:
415,125,572080,1,0,1:0:0:0:
442,106,572154,1,0,1:0:0:0:
474,98,572228,1,0,1:0:0:0:
507,103,572303,2,0,L|525:192,2,66.6666666666667,2|0|0,1:2|1:0|1:0,0:0:0:0:
231,66,572747,2,0,L|249:-23,2,66.6666666666667,2|0|0,1:2|1:0|1:0,0:0:0:0:
104,357,573192,5,8,1:2:0:0:
130,314,573266,1,0,1:0:0:0:
146,267,573340,1,8,1:2:0:0:
150,217,573414,1,0,1:0:0:0:
144,168,573488,1,8,1:2:0:0:
127,121,573562,1,0,1:0:0:0:
99,79,573636,1,10,1:2:0:0:
426,10,574081,5,10,1:2:0:0:
400,53,574155,1,0,1:0:0:0:
384,100,574229,1,8,1:2:0:0:
380,150,574303,1,0,1:0:0:0:
386,199,574377,1,8,1:2:0:0:
403,246,574451,1,0,1:0:0:0:
431,288,574525,1,10,1:2:0:0:
109,373,574969,5,6,1:2:0:0:
70,295,575118,1,0,1:0:0:0:
1,242,575266,1,0,1:0:0:0:
88,301,575414,5,0,1:0:0:0:
127,223,575563,1,0,1:0:0:0:
196,170,575711,1,0,1:0:0:0:
109,229,575858,5,10,1:2:0:0:
70,151,576007,1,0,1:0:0:0:
1,98,576155,1,0,1:0:0:0:
160,19,576303,5,2,1:2:0:0:
79,52,576451,1,0,1:0:0:0:
149,106,576599,1,0,1:0:0:0:
445,52,576747,5,2,1:2:0:0:
417,32,576821,1,0,1:0:0:0:
385,24,576895,1,0,1:0:0:0:
352,28,576969,1,0,1:0:0:0:
323,43,577043,1,0,1:0:0:0:
301,68,577117,1,0,1:0:0:0:
290,99,577191,1,10,1:2:0:0:
278,130,577266,1,0,1:0:0:0:
256,154,577340,1,0,1:0:0:0:
227,170,577414,1,0,1:0:0:0:
194,174,577488,1,0,1:0:0:0:
162,165,577562,1,0,1:0:0:0:
135,146,577636,2,0,L|127:73,2,66.6666666666667,2|0|0,1:2|1:0|1:0,0:0:0:0:
7,213,578081,2,0,L|-1:286,2,66.6666666666667,2|0|0,1:2|1:0|1:0,0:0:0:0:
189,325,578525,5,10,1:2:0:0:
211,280,578599,1,0,1:0:0:0:
234,236,578673,1,8,1:2:0:0:
257,191,578747,1,0,1:0:0:0:
280,147,578821,1,8,1:2:0:0:
303,102,578895,1,0,1:0:0:0:
326,58,578969,1,10,1:2:0:0:
168,23,579414,5,10,1:2:0:0:
197,78,579488,1,0,1:0:0:0:
226,135,579562,1,8,1:2:0:0:
255,190,579636,1,0,1:0:0:0:
283,247,579710,1,8,1:2:0:0:
312,302,579784,1,0,1:0:0:0:
340,359,579858,1,10,1:2:0:0:
152,165,580303,6,0,L|145:249,1,75,4|0,1:2|0:0,0:0:0:0:
251,357,580747,5,8,1:2:0:0:
270,341,580821,1,0,1:0:0:0:
284,321,580895,1,0,1:0:0:0:
289,296,580969,1,0,1:0:0:0:
287,272,581043,1,0,1:0:0:0:
275,249,581117,1,0,1:0:0:0:
257,232,581191,1,8,1:2:0:0:
238,216,581266,1,0,1:0:0:0:
224,196,581340,1,0,1:0:0:0:
218,171,581414,1,0,1:0:0:0:
221,147,581488,1,0,1:0:0:0:
232,124,581562,1,0,1:0:0:0:
251,106,581636,5,8,1:2:0:0:
274,135,581710,1,0,1:0:0:0:
279,171,581784,1,0,1:0:0:0:
265,206,581858,1,0,1:0:0:0:
236,229,581932,1,0,1:0:0:0:
200,234,582006,1,0,1:0:0:0:
166,224,582081,1,8,1:2:0:0:
131,227,582155,1,0,1:0:0:0:
103,248,582229,1,0,1:0:0:0:
92,281,582303,1,0,1:0:0:0:
106,313,582377,1,0,1:0:0:0:
137,328,582451,1,0,1:0:0:0:
170,317,582525,6,0,P|181:291|181:275,1,33.3333333333333,8|0,1:2|1:0,0:0:0:0:
47,190,582673,2,0,P|35:164|35:148,1,41.6666666666667,0|0,1:0|1:0,0:0:0:0:
211,97,582821,2,0,P|223:67|223:48,1,50.0000019073487,0|0,1:0|1:0,0:0:0:0:
71,7,582969,5,8,1:2:0:0:
37,22,583043,1,0,1:0:0:0:
14,51,583117,1,0,1:0:0:0:
6,88,583191,1,0,1:0:0:0:
15,124,583265,1,0,1:0:0:0:
40,152,583339,1,0,1:0:0:0:
74,165,583414,1,8,1:2:0:0:
104,176,583488,1,0,1:0:0:0:
127,201,583562,1,0,1:0:0:0:
135,234,583636,1,0,1:0:0:0:
127,267,583710,1,0,1:0:0:0:
107,293,583784,1,0,1:0:0:0:
76,307,583858,2,0,P|42:308|17:291,5,50.0000019073487,8|0|0|0|0|0,1:2|1:0|1:0|1:0|1:0|1:0,0:0:0:0:
175,253,584302,5,8,1:2:0:0:
222,254,584377,1,0,1:0:0:0:
265,235,584451,1,0,1:0:0:0:
295,200,584525,1,0,1:0:0:0:
308,155,584599,1,0,1:0:0:0:
302,110,584673,1,0,1:0:0:0:
276,70,584747,1,8,1:2:0:0:
251,110,584821,1,0,1:0:0:0:
246,156,584895,1,0,1:0:0:0:
261,200,584969,1,0,1:0:0:0:
293,234,585043,1,0,1:0:0:0:
336,251,585117,1,0,1:0:0:0:
382,249,585192,1,8,1:2:0:0:
360,206,585267,1,0,1:0:0:0:
322,179,585341,1,0,1:0:0:0:
277,170,585415,1,0,1:0:0:0:
231,181,585489,1,0,1:0:0:0:
195,210,585563,1,0,1:0:0:0:
175,253,585636,5,8,1:2:0:0:
197,282,585710,1,0,1:0:0:0:
230,300,585784,1,0,1:0:0:0:
267,304,585858,1,0,1:0:0:0:
303,292,585932,1,0,1:0:0:0:
331,268,586006,1,0,1:0:0:0:
347,234,586080,1,8,1:2:0:0:
374,194,586155,1,0,1:0:0:0:
421,181,586229,1,0,1:0:0:0:
465,204,586303,1,0,1:0:0:0:
482,250,586377,1,0,1:0:0:0:
464,295,586451,1,0,1:0:0:0:
420,316,586525,1,8,1:2:0:0:
370,311,586599,1,0,1:0:0:0:
332,280,586673,1,0,1:0:0:0:
316,233,586747,1,0,1:0:0:0:
328,185,586821,1,0,1:0:0:0:
364,152,586895,1,0,1:0:0:0:
414,148,586969,6,0,P|446:151|464:158,1,50.0000019073487,8|0,1:2|1:0,0:0:0:0:
251,230,587118,2,0,P|231:257|215:268,1,50.0000019073487,0|0,1:0|1:0,0:0:0:0:
261,48,587266,2,0,P|247:19|245:2,1,50.0000019073487,0|0,1:0|1:0,0:0:0:0:
350,231,587414,6,0,P|362:255|363:270,1,41.6666666666667,8|0,1:2|1:0,0:0:0:0:
221,144,587563,2,0,P|180:140|158:132,1,41.6666666666667,0|0,1:0|1:0,0:0:0:0:
359,75,587711,2,0,P|373:53|385:43,1,41.6666666666667,0|0,1:0|1:0,0:0:0:0:
267,214,587858,6,0,P|253:234|241:242,1,33.3333333333333,8|0,1:2|1:0,0:0:0:0:
276,81,588007,2,0,P|267:62|264:49,1,33.3333333333333,0|0,1:0|1:0,0:0:0:0:
386,153,588155,2,0,P|406:155|417:159,1,33.3333333333333,0|0,1:0|1:0,0:0:0:0:
190,360,588303,5,8,1:2:0:0:
145,335,588377,1,0,1:0:0:0:
114,296,588451,1,0,1:0:0:0:
102,249,588525,1,0,1:0:0:0:
109,199,588599,1,0,1:0:0:0:
135,157,588673,1,0,1:0:0:0:
177,129,588747,1,8,1:2:0:0:
212,96,588821,1,0,1:0:0:0:
217,48,588895,1,0,1:0:0:0:
187,10,588969,1,0,1:0:0:0:
138,2,589043,1,0,1:0:0:0:
99,30,589117,1,0,1:0:0:0:
88,78,589192,5,8,1:2:0:0:
111,87,589266,1,0,1:0:0:0:
136,92,589340,1,0,1:0:0:0:
161,92,589414,1,0,1:0:0:0:
185,86,589488,1,0,1:0:0:0:
208,77,589562,1,0,1:0:0:0:
229,62,589636,2,0,L|223:23,5,33.3333333333333,8|8|8|8|8|8,1:2|1:2|1:2|1:2|1:2|1:2,0:0:0:0:
43,25,590081,5,0,1:0:0:0:
34,34,590155,1,0,1:0:0:0:
28,45,590229,2,0,P|19:83|19:88,3,41.6666666666667,0|0|0|0,1:0|1:0|1:0|1:0,0:0:0:0:
76,179,590525,2,0,P|87:231|87:238,5,50.0000019073487,8|8|8|8|8|8,1:2|1:2|1:2|1:2|1:2|1:2,0:0:0:0:
1,315,590969,5,12,1:2:0:0:
55,312,591043,1,0,0:0:0:0:
109,308,591117,1,8,1:2:0:0:
163,304,591191,1,0,0:0:0:0:
217,301,591265,1,8,1:2:0:0:
271,297,591339,1,0,0:0:0:0:
324,293,591413,5,10,1:2:0:0:
311,333,591488,1,0,0:0:0:0:
284,365,591563,1,8,1:2:0:0:
247,383,591636,1,0,0:0:0:0:
205,384,591711,1,8,1:2:0:0:
167,369,591784,1,0,0:0:0:0:
138,340,591859,1,10,1:2:0:0:
123,301,591932,1,0,0:0:0:0:
125,260,592007,1,8,1:2:0:0:
143,223,592080,1,0,0:0:0:0:
174,196,592154,1,8,1:2:0:0:
214,184,592228,1,0,0:0:0:0:
255,188,592303,1,10,1:2:0:0:
293,202,592377,1,0,0:0:0:0:
335,201,592452,1,8,1:2:0:0:
372,183,592525,1,0,0:0:0:0:
399,152,592600,1,8,1:2:0:0:
411,113,592673,1,0,0:0:0:0:
407,71,592748,1,10,1:2:0:0:
386,35,592821,1,0,0:0:0:0:
354,11,592896,1,8,1:2:0:0:
313,1,592969,1,0,0:0:0:0:
272,9,593044,1,8,1:2:0:0:
238,33,593117,1,0,0:0:0:0:
216,67,593193,1,10,1:2:0:0:
210,108,593266,1,0,0:0:0:0:
222,148,593341,1,8,1:2:0:0:
247,180,593414,1,0,0:0:0:0:
282,200,593489,1,8,1:2:0:0:
322,204,593562,1,0,0:0:0:0:
360,195,593637,5,10,1:2:0:0:
327,161,593710,1,0,0:0:0:0:
284,145,593785,1,8,1:2:0:0:
238,149,593858,1,0,0:0:0:0:
197,172,593933,1,8,1:2:0:0:
171,210,594006,1,0,0:0:0:0:
163,255,594082,5,10,1:2:0:0:
201,261,594155,1,0,0:0:0:0:
237,251,594230,1,8,1:2:0:0:
267,227,594303,1,0,0:0:0:0:
286,194,594378,1,8,1:2:0:0:
289,156,594451,1,0,0:0:0:0:
278,120,594526,1,10,1:2:0:0:
253,91,594599,1,0,0:0:0:0:
219,74,594674,1,8,1:2:0:0:
181,72,594747,1,0,0:0:0:0:
145,85,594822,1,8,1:2:0:0:
118,111,594895,1,0,0:0:0:0:
102,145,594970,5,14,1:2:0:0:
125,176,595043,1,0,0:0:0:0:
158,195,595118,1,8,1:2:0:0:
196,201,595191,1,0,0:0:0:0:
233,191,595265,1,8,1:2:0:0:
263,169,595339,1,0,0:0:0:0:
284,137,595414,1,10,1:2:0:0:
304,104,595488,1,0,0:0:0:0:
334,82,595562,1,8,1:2:0:0:
371,73,595636,1,0,0:0:0:0:
409,78,595710,1,8,1:2:0:0:
442,98,595784,1,0,0:0:0:0:
465,128,595858,1,10,1:2:0:0:
473,164,595932,1,0,0:0:0:0:
468,202,596006,1,8,1:2:0:0:
448,235,596080,1,0,0:0:0:0:
418,258,596154,1,8,1:2:0:0:
385,271,596229,1,0,0:0:0:0:
347,269,596303,5,14,1:2:0:0:
367,243,596377,1,0,0:0:0:0:
397,227,596451,1,8,1:2:0:0:
430,225,596525,1,0,0:0:0:0:
461,236,596599,1,8,1:2:0:0:
485,259,596673,1,0,0:0:0:0:
498,289,596748,5,10,1:2:0:0:
476,326,596821,1,0,0:0:0:0:
442,352,596896,1,8,1:2:0:0:
401,366,596969,1,0,0:0:0:0:
358,365,597045,1,8,1:2:0:0:
318,349,597117,1,0,0:0:0:0:
285,321,597192,1,10,1:2:0:0:
268,282,597266,1,0,0:0:0:0:
265,239,597341,1,8,1:2:0:0:
277,197,597414,1,0,0:0:0:0:
304,163,597489,1,8,1:2:0:0:
345,149,597562,1,0,0:0:0:0:
387,154,597637,1,10,1:2:0:0:
430,156,597710,1,0,0:0:0:0:
467,135,597785,1,8,1:2:0:0:
488,98,597858,1,0,0:0:0:0:
486,55,597933,1,8,1:2:0:0:
463,19,598006,1,0,0:0:0:0:
424,8,598082,1,10,1:2:0:0:
381,16,598154,1,0,0:0:0:0:
348,41,598229,1,8,1:2:0:0:
338,81,598303,1,0,0:0:0:0:
342,124,598377,1,8,1:2:0:0:
370,155,598451,1,0,0:0:0:0:
406,178,598525,1,10,1:2:0:0:
423,197,598599,1,0,0:0:0:0:
435,220,598673,1,8,1:2:0:0:
439,245,598747,1,0,0:0:0:0:
437,271,598821,1,8,1:2:0:0:
428,295,598895,1,0,0:0:0:0:
413,317,598969,5,10,1:2:0:0:
369,311,599043,1,0,0:0:0:0:
326,306,599117,1,0,1:0:0:0:
283,301,599191,1,0,0:0:0:0:
240,296,599265,1,0,1:0:0:0:
197,291,599339,1,0,0:0:0:0:
154,286,599414,5,10,1:2:0:0:
187,282,599488,1,0,0:0:0:0:
219,279,599562,1,0,1:0:0:0:
251,275,599636,1,0,0:0:0:0:
283,271,599710,1,0,1:0:0:0:
316,267,599784,1,0,0:0:0:0:
349,264,599858,5,10,1:2:0:0:
324,261,599932,1,0,0:0:0:0:
300,258,600006,1,0,1:0:0:0:
276,255,600080,1,0,0:0:0:0:
252,252,600154,1,0,1:0:0:0:
227,249,600228,1,0,0:0:0:0:
202,247,600302,5,2,1:2:0:0:
225,282,600377,1,0,1:0:0:0:
262,304,600451,1,0,1:0:0:0:
305,306,600525,1,0,1:0:0:0:
344,289,600599,2,0,P|367:268|377:243,1,41.6666666666667,0|0,1:0|1:0,0:0:0:0:
431,91,600747,5,10,1:2:0:0:
379,63,600822,1,0,1:0:0:0:
321,62,600896,1,0,1:0:0:0:
268,89,600970,1,0,1:0:0:0:
234,135,601044,2,0,P|222:175|227:211,1,41.6666666666667,0|0,1:0|1:0,0:0:0:0:
286,379,601192,1,10,1:2:0:0:
435,13,601488,5,0,3:0:0:0:
422,9,601562,1,0,3:0:0:0:
409,5,601636,1,0,0:0:0:0:
409,5,602081,5,8,1:2:0:0:
405,63,602155,1,0,1:0:0:0:
401,121,602229,1,0,1:0:0:0:
398,179,602303,1,0,1:0:0:0:
394,237,602377,1,0,1:0:0:0:
391,296,602451,1,0,1:0:0:0:
387,354,602525,5,10,1:2:0:0:
436,323,602599,1,0,1:0:0:0:
458,270,602673,1,0,1:0:0:0:
445,214,602747,1,0,1:0:0:0:
403,176,602821,1,0,1:0:0:0:
346,169,602895,1,0,1:0:0:0:
295,198,602969,5,10,1:2:0:0:
327,218,603043,1,0,1:0:0:0:
362,230,603117,1,0,1:0:0:0:
399,232,603191,1,0,1:0:0:0:
437,226,603265,1,0,1:0:0:0:
470,210,603339,1,0,1:0:0:0:
500,187,603414,5,8,1:2:0:0:
466,204,603488,1,0,1:0:0:0:
438,229,603562,1,0,1:0:0:0:
416,260,603636,1,0,1:0:0:0:
403,294,603710,1,0,1:0:0:0:
399,332,603784,1,0,1:0:0:0:
406,369,603858,5,10,1:2:0:0:
407,331,603932,1,0,1:0:0:0:
400,294,604006,1,0,1:0:0:0:
385,260,604080,1,0,1:0:0:0:
360,231,604154,1,0,1:0:0:0:
331,209,604228,1,0,1:0:0:0:
295,196,604303,5,10,1:2:0:0:
253,156,604377,1,0,1:0:0:0:
246,99,604451,1,0,1:0:0:0:
275,50,604525,1,0,1:0:0:0:
328,29,604599,1,0,1:0:0:0:
383,46,604673,1,0,1:0:0:0:
415,93,604747,5,10,1:2:0:0:
372,131,604821,1,0,1:0:0:0:
316,144,604895,1,0,1:0:0:0:
260,129,604969,1,0,1:0:0:0:
204,114,605044,1,0,1:0:0:0:
147,127,605118,1,0,1:0:0:0:
104,165,605192,5,10,1:2:0:0:
155,210,605266,1,0,1:0:0:0:
223,215,605340,1,0,1:0:0:0:
281,178,605414,1,0,1:0:0:0:
303,113,605488,1,0,1:0:0:0:
281,48,605562,1,0,1:0:0:0:
224,9,605636,5,8,1:2:0:0:
170,60,605710,1,0,1:0:0:0:
160,134,605784,1,0,1:0:0:0:
199,197,605858,1,0,1:0:0:0:
237,260,605932,1,0,1:0:0:0:
227,334,606006,1,0,1:0:0:0:
173,384,606081,5,8,1:2:0:0:
135,341,606155,1,0,1:0:0:0:
133,283,606229,1,0,1:0:0:0:
168,238,606303,1,0,1:0:0:0:
224,226,606377,1,0,1:0:0:0:
275,252,606451,1,0,1:0:0:0:
297,304,606525,5,10,1:2:0:0:
251,302,606599,1,0,1:0:0:0:
204,301,606673,1,0,1:0:0:0:
157,299,606747,1,0,1:0:0:0:
111,297,606821,1,0,1:0:0:0:
64,295,606895,1,0,1:0:0:0:
17,293,606969,5,10,1:2:0:0:
59,253,607043,1,0,1:0:0:0:
115,246,607117,1,0,1:0:0:0:
165,274,607191,1,0,1:0:0:0:
214,302,607266,1,0,1:0:0:0:
271,294,607340,1,0,1:0:0:0:
312,254,607414,5,8,1:2:0:0:
271,214,607488,1,0,1:0:0:0:
214,206,607562,1,0,1:0:0:0:
165,234,607637,1,0,1:2:0:0:
115,262,607711,1,0,1:0:0:0:
59,254,607785,1,0,1:0:0:0:
18,215,607859,5,8,1:2:0:0:
52,218,607932,1,0,1:0:0:0:
82,235,608006,1,0,1:0:0:0:
102,264,608080,1,0,1:0:0:0:
108,298,608154,1,0,1:0:0:0:
99,331,608228,1,0,1:0:0:0:
77,358,608302,5,10,1:2:0:0:
37,316,608377,1,0,1:0:0:0:
24,260,608451,1,0,1:0:0:0:
41,205,608525,1,0,1:0:0:0:
83,166,608599,1,0,1:0:0:0:
100,110,608673,1,0,1:0:0:0:
87,54,608747,5,10,1:2:0:0:
54,101,608821,1,0,1:0:0:0:
53,158,608895,1,0,1:0:0:0:
85,207,608969,1,0,1:0:0:0:
137,229,609043,1,0,1:0:0:0:
194,219,609117,1,0,1:0:0:0:
235,179,609192,5,10,1:2:0:0:
280,169,609266,1,0,1:0:0:0:
320,191,609340,1,0,1:0:0:0:
335,234,609414,1,0,1:0:0:0:
319,277,609488,1,0,1:0:0:0:
279,298,609562,1,0,1:0:0:0:
234,287,609636,5,10,1:2:0:0:
257,254,609710,1,0,1:0:0:0:
293,235,609784,1,0,1:0:0:0:
334,234,609858,1,0,1:0:0:0:
370,252,609932,1,0,1:0:0:0:
406,269,610007,1,0,1:0:0:0:
446,268,610081,5,8,1:2:0:0:
409,231,610155,1,0,1:0:0:0:
358,230,610229,1,0,1:0:0:0:
319,264,610303,1,0,1:0:0:0:
280,297,610377,1,0,1:0:0:0:
229,296,610451,1,0,1:0:0:0:
192,260,610525,5,10,1:2:0:0:
230,217,610599,1,0,1:0:0:0:
286,205,610673,1,0,1:0:0:0:
339,227,610747,1,0,1:0:0:0:
370,276,610821,1,0,1:0:0:0:
366,333,610895,1,0,1:0:0:0:
330,378,610969,6,0,P|300:375|271:368,5,33.3333333333333,8|0|0|0|0|0,1:2|1:0|1:0|1:0|1:0|1:0,0:0:0:0:
236,278,611414,2,0,P|212:262|189:238,5,41.6666666666667,0|0|0|0|0|0,1:0|3:0|3:0|3:0|3:0|3:0,0:0:0:0:
202,144,611858,2,0,P|188:119|181:86,5,50.0000019073487,0|0|0|0|0|0,1:0|3:0|3:0|3:0|3:0|3:0,0:0:0:0:
100,45,612303,5,12,1:2:0:0:
102,98,612377,1,0,0:0:0:0:
103,151,612451,1,8,1:2:0:0:
105,205,612525,1,0,0:0:0:0:
106,258,612599,1,8,1:2:0:0:
108,311,612673,1,0,0:0:0:0:
110,365,612747,5,10,1:2:0:0:
71,355,612821,1,0,0:0:0:0:
37,331,612895,1,8,1:2:0:0:
14,297,612969,1,0,0:0:0:0:
3,257,613044,1,8,1:2:0:0:
9,215,613117,1,0,0:0:0:0:
28,179,613191,1,10,1:2:0:0:
59,151,613265,1,0,0:0:0:0:
98,137,613340,1,8,1:2:0:0:
139,137,613413,1,0,0:0:0:0:
178,152,613488,1,8,1:2:0:0:
209,178,613561,1,0,0:0:0:0:
229,215,613636,1,10,1:2:0:0:
242,256,613710,1,0,0:0:0:0:
268,286,613784,1,8,1:2:0:0:
304,308,613858,1,0,0:0:0:0:
344,315,613932,1,8,1:2:0:0:
386,308,614007,1,0,0:0:0:0:
422,288,614081,1,10,1:2:0:0:
451,256,614155,1,0,0:0:0:0:
463,218,614229,1,8,1:2:0:0:
465,176,614303,1,0,0:0:0:0:
451,138,614377,1,8,1:2:0:0:
424,105,614451,1,0,0:0:0:0:
388,85,614525,1,10,1:2:0:0:
346,77,614599,1,0,0:0:0:0:
306,84,614673,1,8,1:2:0:0:
270,105,614747,1,0,0:0:0:0:
243,136,614821,1,8,1:2:0:0:
228,175,614895,1,0,0:0:0:0:
227,216,614969,5,10,1:2:0:0:
260,184,615043,1,0,0:0:0:0:
276,140,615118,1,8,1:2:0:0:
271,94,615191,1,0,0:0:0:0:
247,55,615265,1,8,1:2:0:0:
208,30,615339,1,0,0:0:0:0:
162,24,615414,5,10,1:2:0:0:
147,61,615488,1,0,0:0:0:0:
142,100,615562,1,8,1:2:0:0:
146,140,615636,1,0,0:0:0:0:
160,178,615710,1,8,1:2:0:0:
182,211,615784,1,0,0:0:0:0:
211,238,615858,1,10,1:2:0:0:
246,258,615932,1,0,0:0:0:0:
284,269,616006,1,8,1:2:0:0:
324,270,616080,1,0,0:0:0:0:
363,263,616155,1,8,1:2:0:0:
399,246,616228,1,0,0:0:0:0:
431,221,616302,5,14,1:2:0:0:
403,192,616377,1,0,0:0:0:0:
368,174,616451,1,8,1:2:0:0:
328,169,616525,1,0,0:0:0:0:
289,177,616599,1,8,1:2:0:0:
255,198,616673,1,0,0:0:0:0:
230,229,616747,1,10,1:2:0:0:
204,259,616821,1,0,0:0:0:0:
170,280,616895,1,8,1:2:0:0:
131,288,616969,1,0,0:0:0:0:
92,283,617044,1,8,1:2:0:0:
57,265,617117,1,0,0:0:0:0:
29,236,617192,1,10,1:2:0:0:
18,197,617266,1,0,0:0:0:0:
23,158,617340,1,8,1:2:0:0:
43,123,617414,1,0,0:0:0:0:
75,99,617488,1,8,1:2:0:0:
113,88,617562,1,0,0:0:0:0:
152,93,617636,5,14,1:2:0:0:
136,114,617710,1,0,0:0:0:0:
114,128,617784,1,8,1:2:0:0:
88,134,617858,1,0,0:0:0:0:
62,131,617932,1,8,1:2:0:0:
38,120,618006,1,0,0:0:0:0:
19,101,618081,5,10,1:2:0:0:
46,72,618155,1,0,0:0:0:0:
81,54,618229,1,8,1:2:0:0:
121,49,618303,1,0,0:0:0:0:
160,58,618377,1,8,1:2:0:0:
193,80,618451,1,0,0:0:0:0:
217,111,618525,1,10,1:2:0:0:
229,149,618599,1,0,0:0:0:0:
227,189,618673,1,8,1:2:0:0:
213,226,618747,1,0,0:0:0:0:
207,264,618821,1,8,1:2:0:0:
216,303,618895,1,0,0:0:0:0:
237,337,618969,5,10,1:2:0:0:
273,320,619043,1,0,0:0:0:0:
301,292,619117,1,8,1:2:0:0:
316,255,619191,1,0,0:0:0:0:
317,216,619266,1,8,1:2:0:0:
303,178,619339,1,0,0:0:0:0:
277,149,619414,1,10,1:2:0:0:
241,131,619487,1,0,0:0:0:0:
201,128,619561,1,8,1:2:0:0:
163,139,619635,1,0,0:0:0:0:
132,164,619710,1,8,1:2:0:0:
115,201,619784,1,0,0:0:0:0:
112,240,619858,5,10,1:2:0:0:
148,273,619932,1,0,0:0:0:0:
196,287,620006,1,8,1:2:0:0:
245,279,620080,1,0,0:0:0:0:
285,251,620155,1,8,1:2:0:0:
309,207,620228,1,0,0:0:0:0:
312,158,620303,5,14,1:2:0:0:
315,93,620377,1,0,0:0:0:0:
361,47,620451,1,0,1:0:0:0:
426,45,620525,1,0,0:0:0:0:
475,87,620599,1,0,1:0:0:0:
483,152,620673,1,0,0:0:0:0:
444,204,620747,6,0,L|379:194,1,41.6666666666667,8|0,1:2|1:0,0:0:0:0:
257,104,620895,2,0,L|322:93,1,41.6666666666667,0|0,1:0|1:0,0:0:0:0:
462,12,621044,2,0,L|396:1,1,41.6666666666667,0|0,1:0|1:0,0:0:0:0:
234,20,621192,5,4,1:2:0:0:
178,68,621266,1,0,3:0:0:0:
160,138,621340,1,0,3:0:0:0:
177,208,621414,1,0,3:0:0:0:
228,261,621488,1,0,3:0:0:0:
298,280,621562,1,0,3:0:0:0:
368,259,621636,5,0,1:0:0:0:
308,212,621710,1,0,1:0:0:0:
235,218,621784,1,0,1:0:0:0:
183,271,621858,1,0,1:0:0:0:
132,327,621932,1,0,1:0:0:0:
58,331,622006,1,0,1:0:0:0:
0,285,622081,5,0,1:0:0:0:
50,248,622155,1,0,1:0:0:0:
112,245,622229,1,0,1:0:0:0:
166,274,622303,1,0,1:0:0:0:
220,303,622377,1,0,1:0:0:0:
282,298,622451,1,0,1:0:0:0:
332,262,622525,5,0,3:0:0:0:
307,246,622599,1,0,3:0:0:0:
278,242,622673,1,0,3:0:0:0:
252,253,622747,1,0,3:0:0:0:
233,275,622821,1,0,3:0:0:0:
227,303,622895,1,0,3:0:0:0:
260,374,622970,5,4,0:2:0:0:
167,132,651775,5,2,1:2:0:0:
384,333,652047,2,0,B|326:316|290:343|290:343|255:312|255:312|198:316|241:359|156:371|101:358|101:294|148:257|186:289,1,359.999989013672,4|0,1:2|0:0,0:0:0:0:
421,9,653137,6,0,B|426:56|462:80|462:80|519:126|504:217|416:236|370:146|432:115,1,300,2|0,0:2|0:0,0:0:0:0:
12,119,654228,2,0,B|36:88|82:83|82:83|166:150|210:82|244:72|244:72|212:60|185:5|133:38,1,359.999989013672,10|0,0:2|0:0,0:0:0:0:
38,335,655319,2,0,B|155:269|288:322|288:322|195:275|193:192,1,419.999987182618,2|0,0:2|0:0,0:0:0:0:
474,60,656410,6,0,P|417:207|364:32,1,450.000017166138,4|0,0:2|0:0,0:0:0:0:
401,118,657501,2,0,B|427:168|394:213|394:213|419:253|419:253|385:286|395:350,1,239.999992675781,2|2,0:2|0:2,0:0:0:0:
69,52,658592,6,0,B|23:34|-30:70|-34:146|56:218|195:175|111:67|205:34|327:54|329:169|261:222|207:179,1,500,10|0,0:2|0:0,0:0:0:0:
184,11,660228,1,2,0:2:0:0:
134,296,660501,1,0,1:0:0:0:
512,17,660774,6,0,B|394:-5|445:104|291:68,1,200,4|2,1:2|0:2,0:0:0:0:
49,333,661865,6,0,B|62:368|62:368|96:312|50:216|50:216|57:132|140:93,1,300.000011444092,2|0,0:2|1:0,0:0:0:0:
405,236,662683,1,0,1:0:0:0:
25,92,662956,2,0,B|14:125|0:180|67:234|138:217|161:168|171:134|171:134|239:165|303:103|303:103,1,389.999982147218,10|0,0:2|0:0,0:0:0:0:
467,24,664047,6,0,P|479:74|454:147,1,112.500004291535,2|0,0:2|0:0,0:0:0:0:
392,341,664592,2,0,P|378:268|399:197,1,150,2|0,0:2|0:0,0:0:0:0:
77,133,665137,6,0,B|43:151|-19:133|-20:62|46:-6|197:-5|106:159|214:150|263:122|263:122|306:90|323:-9|223:-42|146:31|195:102|262:134|262:134|322:167|317:233|269:273|269:273|229:244|227:188,1,930.000007095337,4|2,0:2|0:2,0:0:0:0:
461,98,667319,2,0,B|422:81|392:20|392:20|441:144|387:232|387:232|358:332|433:383|501:344|506:265|447:248,1,559.999982910157,10|2,0:2|0:2,0:0:0:0:
24,352,668683,5,0,1:0:0:0:
47,356,668751,1,0,1:0:0:0:
70,360,668819,1,0,1:0:0:0:
93,363,668887,1,0,1:0:0:0:
115,366,668956,2,0,P|140:301|126:233,1,139.999995727539,10|0,1:2|1:0,0:0:0:0:
8,96,669501,6,0,B|53:129|112:113|112:113|161:4|289:55,1,300,4|0,0:2|0:0,0:0:0:0:
288,205,670592,1,2,0:2:0:0:
288,205,670865,2,0,P|233:170|214:125,1,100,0|2,0:0|0:2,0:0:0:0:
470,247,671410,6,0,P|485:318|465:368,1,119.999996337891,0|10,0:0|0:2,0:0:0:0:
388,136,671956,2,0,P|372:64|392:14,1,119.999996337891,0|2,0:0|0:2,0:0:0:0:
327,318,672501,6,0,L|178:305,1,139.999995727539,0|2,0:0|0:2,0:0:0:0:
373,150,673047,2,0,L|522:137,1,139.999995727539,0|2,0:0|0:2,0:0:0:0:
140,227,673592,5,0,0:0:0:0:
6,240,673865,2,0,B|59:238|85:202|85:202|137:272|210:245|210:245|262:195|374:189|399:319|278:393|221:303|211:251|211:251|204:180|220:151|220:151|252:97|232:13|163:-9|78:19|89:111|155:107,1,979.999970092774,4|0,0:2|0:0,0:0:0:0:
312,145,676047,2,0,P|317:98|281:-2,1,139.999995727539,10|0,0:2|0:0,0:0:0:0:
413,209,676592,1,2,0:2:0:0:
511,4,676865,1,8,0:2:0:0:
511,4,677137,2,0,P|495:51|497:100,1,100,10|0,0:2|0:0,0:0:0:0:
468,330,677683,5,8,0:2:0:0:
396,306,677819,1,8,0:2:0:0:
396,231,677956,1,8,0:2:0:0:
468,208,678092,1,8,0:2:0:0:
512,269,678228,1,12,0:2:0:0:
150,34,678774,6,0,P|170:71|161:160,1,112.500004291535,2|0,0:2|0:0,0:0:0:0:
154,259,679319,2,0,P|127:215|28:171,1,150,10|0,0:2|0:0,0:0:0:0:
90,313,679865,2,0,P|178:340|218:215,1,225.000008583069,2|0,0:2|0:0,0:0:0:0:
332,16,680410,6,0,P|358:66|406:93,1,62.5,2|0,1:2|0:0,0:0:0:0:
335,156,680683,2,0,P|379:157|417:135,1,50
448,229,680956,2,0,P|480:178|474:122,1,112.500004291535,2|0,0:2|0:0,0:0:0:0:
384,70,681501,1,10,0:2:0:0:
239,350,682047,6,0,P|329:357|389:290,1,187.5,2|0,0:2|0:0,0:0:0:0:
185,183,682592,2,0,B|222:164|267:86|212:14|120:29|104:101|140:155|140:155|171:200|195:276|174:349|133:376,1,525.000020027161,4|0,1:2|0:0,0:0:0:0:
75,213,683683,2,0,P|38:133|98:-8,1,225.000008583069,10|0,0:2|0:0,0:0:0:0:
344,5,684228,2,0,L|332:323,1,262.500002503395,2|0,0:2|0:0,0:0:0:0:
474,162,684774,2,0,P|427:140|396:141,1,50,2|0,1:2|0:0,0:0:0:0:
256,178,685047,2,0,P|303:200|334:199,1,50
512,8,685319,2,0,B|369:-8|444:87|263:54,1,225.000008583069,2|0,0:2|0:0,0:0:0:0:
232,20,685865,1,10,0:2:0:0:
123,360,686137,5,0,1:0:0:0:
147,353,686206,1,0,1:0:0:0:
171,346,686274,1,0,1:0:0:0:
194,338,686342,1,0,1:0:0:0:
217,330,686410,1,10,1:2:0:0:
30,266,686683,1,0,1:0:0:0:
398,89,686956,6,0,B|446:145|389:226|389:226|342:291|389:372,1,300.000011444092,12|0,1:2|0:0,0:0:0:0:
253,163,687774,1,0,0:0:0:0:
505,17,688047,1,8,0:2:0:0:
286,6,688319,1,0,1:0:0:0:
291,35,688592,1,0,1:0:0:0:
296,64,688865,1,0,1:0:0:0:
77,228,689137,6,0,P|23:155|75:77,1,150.000005722046,4|0,1:2|0:0,0:0:0:0:
128,75,689683,1,0,1:0:0:0:
123,104,689956,1,0,1:0:0:0:
329,359,690228,6,0,P|390:299|306:173,1,250,8|2,0:2|0:2,0:0:0:0:
208,275,691047,1,0,1:0:0:0:
393,47,691319,6,0,B|245:11|265:109|152:118|181:185|61:119|32:75|77:-2|144:4|168:47,1,450.000017166138,4|0,1:2|0:0,0:0:0:0:
10,377,692410,6,0,P|71:327|156:320,1,150,10|0,0:2|0:0,0:0:0:0:
327,348,692956,2,0,P|238:314|219:205,1,187.5,2|0,0:2|0:0,0:0:0:0:
416,49,693501,6,0,B|456:115|444:172|444:172|389:234|428:337|428:337|418:290|432:245,1,375,6|0,1:2|0:0,0:0:0:0:
511,40,694592,1,10,0:2:0:0:
244,132,694933,5,0,1:0:0:0:
264,128,695001,1,0,1:0:0:0:
284,124,695069,1,0,1:0:0:0:
303,121,695137,2,0,P|313:59|294:0,1,125,10|0,1:2|1:0,0:0:0:0:
2,192,695683,6,0,B|73:201|117:157|117:157|196:158|222:220,1,250,6|2,0:2|0:2,0:0:0:0:
88,348,696774,1,10,0:2:0:0:
162,5,697319,1,2,0:2:0:0:
509,353,697865,6,0,B|450:385|396:335|396:335|347:366|347:366|262:292|163:360,1,375,2|0,1:2|0:0,0:0:0:0:
15,176,698956,1,10,0:2:0:0:
462,284,699501,1,4,1:2:0:0:
48,291,700047,6,0,P|167:174|14:63,1,375,4|0,1:2|0:0,0:0:0:0:
27,215,701137,2,0,P|74:208|85:149,1,112.500004291535,10|0,0:2|0:0,0:0:0:0:
72,138,701683,1,2,0:2:0:0:
145,354,701956,1,0,1:0:0:0:
430,114,702228,6,0,P|320:128|229:97,1,200,2|2,1:2|0:2,0:0:0:0:
499,15,703115,5,0,1:0:0:0:
497,31,703183,1,0,1:0:0:0:
495,47,703251,1,0,1:0:0:0:
493,63,703319,2,0,L|483:190,1,100,10|0,1:2|1:0,0:0:0:0:
404,271,703865,1,0,3:0:0:0:
412,291,704137,1,0,3:0:0:0:
69,201,704410,6,0,L|65:306,1,80,4|0,1:2|1:0,0:0:0:0:
171,268,704682,2,0,L|181:343,1,59.9999981689454,0|0,1:0|1:0,0:0:0:0:
278,159,704955,2,0,L|268:288,1,100,0|0,1:0|1:0,0:0:0:0:
391,336,705228,2,0,L|381:241,1,80,0|0,1:0|1:0,0:0:0:0:
316,83,705500,6,0,P|247:78|201:130,1,119.999996337891,8|0,1:2|1:0,0:0:0:0:
399,138,705773,2,0,P|459:141|499:106,1,100,0|0,1:0|1:0,0:0:0:0:
422,35,706046,1,0,1:0:0:0:
422,35,706182,1,0,1:0:0:0:
333,243,706319,1,0,1:0:0:0:
333,243,706455,1,0,1:0:0:0:
185,24,706591,6,0,L|196:104,1,80,0|0,1:0|1:0,0:0:0:0:
74,121,706864,2,0,L|73:181,1,59.9999981689454,0|0,1:0|1:0,0:0:0:0:
293,65,707137,2,0,L|279:190,1,119.999996337891,0|0,1:0|1:0,0:0:0:0:
86,6,707410,2,0,L|97:105,1,100,0|0,1:0|1:0,0:0:0:0:
367,95,707682,6,0,P|363:23|297:-15,1,139.999995727539,8|0,1:2|1:0,0:0:0:0:
304,152,707955,2,0,P|368:184|434:146,1,119.999996337891,0|0,1:0|1:0,0:0:0:0:
291,68,708228,1,0,1:0:0:0:
291,68,708364,1,0,1:0:0:0:
394,290,708500,1,0,1:0:0:0:
394,290,708637,1,0,1:0:0:0:
121,368,708773,6,0,L|109:274,1,80,0|0,1:0|1:0,0:0:0:0:
252,220,709046,2,0,L|244:346,1,100,0|0,1:0|1:0,0:0:0:0:
29,221,709319,2,0,P|96:199|156:200,1,119.999996337891,0|0,1:0|1:0,0:0:0:0:
280,59,709591,2,0,P|213:81|153:80,1,100,0|0,1:0|1:0,0:0:0:0:
400,237,709864,6,0,L|409:86,1,139.999995727539,8|0,1:2|1:0,0:0:0:0:
231,169,710137,2,0,L|240:289,1,119.999996337891,0|0,1:0|1:0,0:0:0:0:
410,339,710410,1,0,1:0:0:0:
410,339,710546,1,0,1:0:0:0:
315,144,710682,1,0,1:0:0:0:
315,144,710819,1,0,1:0:0:0:
241,374,710955,6,0,L|330:358,1,80,0|0,1:0|1:0,0:0:0:0:
494,266,711228,2,0,L|388:247,1,100,0|0,1:0|1:0,0:0:0:0:
204,147,711500,2,0,L|341:122,1,119.999996337891,0|0,1:0|1:0,0:0:0:0:
512,24,711773,2,0,L|374:0,1,139.999995727539,0|0,1:0|1:0,0:0:0:0:
28,139,712046,6,0,P|110:175|180:-4,1,320,8|0,1:2|1:0,0:0:0:0:
88,45,712455,1,0,1:0:0:0:
95,53,712523,1,0,1:0:0:0:
101,60,712591,1,2,1:2:0:0:
411,60,712864,1,0,3:0:0:0:
253,379,713137,6,0,B|327:279|255:191|255:191|176:104|255:-1,1,400,4|0,0:2|0:0,0:0:0:0:
508,311,714228,6,0,B|450:282|450:282|382:313|382:313|318:267|251:305,1,239.999992675781,8|0,0:2|1:0,0:0:0:0:
269,304,714637,1,0,1:0:0:0:
242,376,714773,1,0,3:0:0:0:
201,56,715046,1,0,3:0:0:0:
2,262,715319,6,0,P|66:302|207:161,1,297.500005674362,4|0,1:2|0:0,0:0:0:0:
201,156,715864,1,0,1:0:0:0:
73,123,716137,1,0,1:0:0:0:
405,7,716410,6,0,P|406:98|371:154,1,150,10|0,0:2|0:0,0:0:0:0:
431,368,716955,2,0,P|430:277|465:221,1,150.000005722046,2|0,0:2|1:0,0:0:0:0:
23,90,717500,6,0,P|135:142|213:7,1,300.000011444092,4|2,1:2|0:2,0:0:0:0:
492,115,718591,2,0,B|417:96|352:146|352:146|291:114|291:114|266:163|246:186|215:208|176:217,1,359.999989013672,8|2,0:2|0:2,0:0:0:0:
319,240,719410,1,0,1:0:0:0:
116,44,719682,2,0,L|91:363,1,300.000011444092,4|2,1:2|0:2,0:0:0:0:
488,308,720773,1,8,0:2:0:0:
236,371,721046,5,0,1:0:0:0:
232,352,721114,1,0,1:0:0:0:
228,333,721182,1,0,1:0:0:0:
224,314,721250,1,0,1:0:0:0:
220,295,721319,1,10,1:2:0:0:
310,63,721591,5,0,1:0:0:0:
390,369,721864,2,0,B|374:301|401:248|401:248|368:145|251:158,1,300.000011444092,4|0,0:2|0:0,0:0:0:0:
51,366,722955,5,8,0:2:0:0:
244,4,723500,1,0,0:0:0:0:
416,229,724046,2,0,B|471:192|557:265|519:363|416:420|247:324|400:235|248:229|117:219|120:304|141:373|194:394|240:356,1,600.000022888185,2|8,1:2|0:2,0:0:0:0:
305,23,725682,5,0,1:0:0:0:
328,195,725955,1,0,1:0:0:0:
5,33,726228,6,0,B|80:71|150:23|150:23|228:47|231:139,1,300.000011444092,4|0,1:2|0:0,0:0:0:0:
73,296,727319,2,0,B|16:326|-44:286|-34:205|51:166|134:194|166:272,1,300.000011444092,8|2,0:2|0:2,0:0:0:0:
204,381,728137,1,0,1:0:0:0:
452,180,728410,2,0,P|366:156|260:318,1,300.000011444092,2|2,1:2|0:2,0:0:0:0:
461,162,729296,5,0,1:0:0:0:
466,144,729364,1,0,1:0:0:0:
471,126,729432,1,0,1:0:0:0:
477,108,729500,2,0,L|469:5,1,100,8|0,0:2|1:0,0:0:0:0:
326,62,730046,1,0,3:0:0:0:
318,82,730318,1,0,3:0:0:0:
476,288,730591,5,4,0:2:0:0:
206,105,738023,5,0,1:0:0:0:
204,93,738091,1,0,1:0:0:0:
202,81,738160,1,0,1:0:0:0:
200,69,738228,1,8,1:2:0:0:
42,41,738500,5,2,1:2:0:0:
352,0,738773,1,2,1:2:0:0:
147,281,739046,2,0,L|150:222,1,50,8|0,1:2|1:0,0:0:0:0:
16,15,739182,2,0,L|19:73,1,50,8|0,1:2|1:0,0:0:0:0:
31,287,739319,5,4,0:2:0:0:
63,249,739387,1,0,0:0:0:0:
109,231,739455,1,0,0:0:0:0:
159,236,739523,1,0,0:0:0:0:
200,262,739591,1,10,1:2:0:0:
236,285,739660,1,0,0:0:0:0:
281,289,739728,1,8,1:2:0:0:
328,274,739796,1,0,0:0:0:0:
357,235,739864,1,10,1:2:0:0:
357,186,739932,1,0,0:0:0:0:
329,146,740000,1,8,1:2:0:0:
282,130,740068,1,0,0:0:0:0:
235,146,740137,2,0,L|239:195,3,50,10|0|8|0,1:2|0:0|1:2|0:0,0:0:0:0:
311,312,740410,5,10,1:2:0:0:
341,350,740478,1,0,0:0:0:0:
387,368,740546,1,8,1:2:0:0:
436,359,740614,1,0,0:0:0:0:
473,326,740682,1,10,1:2:0:0:
488,279,740750,1,0,0:0:0:0:
477,231,740819,1,8,1:2:0:0:
442,196,740887,1,0,0:0:0:0:
394,183,740955,1,10,1:2:0:0:
346,170,741023,1,0,0:0:0:0:
311,135,741091,1,8,1:2:0:0:
300,87,741160,1,0,0:0:0:0:
315,40,741228,2,0,L|364:36,3,50,10|0|8|0,1:2|0:0|1:2|0:0,0:0:0:0:
231,351,741500,5,10,1:2:0:0:
181,353,741568,1,0,0:0:0:0:
139,329,741637,1,8,1:2:0:0:
117,284,741704,1,0,0:0:0:0:
123,235,741772,1,10,1:2:0:0:
155,198,741840,1,0,0:0:0:0:
203,185,741910,1,8,1:2:0:0:
250,171,741978,1,0,0:0:0:0:
282,134,742046,1,10,1:2:0:0:
288,85,742114,1,0,0:0:0:0:
267,41,742182,1,8,1:2:0:0:
219,24,742250,1,0,0:0:0:0:
171,40,742319,2,0,P|149:74|150:98,3,50,10|0|8|0,1:2|0:0|1:2|0:0,0:0:0:0:
222,267,742591,5,10,1:2:0:0:
180,293,742659,1,0,0:0:0:0:
130,297,742727,1,8,1:2:0:0:
84,278,742795,1,0,0:0:0:0:
51,241,742863,1,10,1:2:0:0:
38,194,742932,1,0,0:0:0:0:
47,145,743000,1,8,1:2:0:0:
76,105,743068,1,0,0:0:0:0:
120,82,743137,1,10,1:2:0:0:
170,81,743204,1,0,0:0:0:0:
215,103,743272,1,8,1:2:0:0:
263,119,743341,1,0,0:0:0:0:
313,111,743410,2,0,P|334:74|339:46,3,50,10|0|8|0,1:2|0:0|1:2|0:0,0:0:0:0:
512,300,743682,5,14,1:2:0:0:
495,243,743750,1,0,0:0:0:0:
453,200,743818,1,10,1:2:0:0:
397,181,743886,1,0,0:0:0:0:
338,191,743955,1,8,1:2:0:0:
291,228,744022,1,0,0:0:0:0:
266,282,744091,1,10,1:2:0:0:
241,335,744160,1,0,0:0:0:0:
194,372,744228,1,8,1:2:0:0:
135,382,744296,1,0,0:0:0:0:
78,363,744364,1,10,1:2:0:0:
37,321,744432,1,0,0:0:0:0:
21,264,744500,2,0,P|24:222|39:197,3,59.9999981689454,8|0|10|0,1:2|0:0|1:2|0:0,0:0:0:0:
261,119,744773,5,8,1:2:0:0:
253,66,744841,1,0,0:0:0:0:
215,20,744909,1,10,1:2:0:0:
159,1,744977,1,0,0:0:0:0:
101,14,745045,1,8,1:2:0:0:
59,55,745113,1,0,0:0:0:0:
45,113,745182,1,10,1:2:0:0:
63,169,745250,1,0,0:0:0:0:
108,207,745318,1,8,1:2:0:0:
134,259,745387,1,0,0:0:0:0:
114,314,745455,1,10,1:2:0:0:
61,338,745523,1,0,0:0:0:0:
7,317,745591,2,0,P|48:290|90:294,3,59.9999981689454,8|0|10|0,1:2|0:0|1:2|0:0,0:0:0:0:
253,346,745864,5,8,1:2:0:0:
314,376,745932,1,0,0:0:0:0:
383,368,746000,1,10,1:2:0:0:
436,324,746068,1,0,0:0:0:0:
456,258,746136,1,8,1:2:0:0:
437,192,746204,1,0,0:0:0:0:
385,147,746273,1,10,1:2:0:0:
317,137,746341,1,0,0:0:0:0:
254,167,746409,1,8,1:2:0:0:
210,219,746478,1,0,0:0:0:0:
144,237,746546,1,10,1:2:0:0:
78,220,746615,1,0,0:0:0:0:
33,165,746682,2,0,L|25:90,3,69.9999978637696,8|0|10|0,1:2|0:0|1:2|0:0,0:0:0:0:
332,31,746955,5,8,1:2:0:0:
397,46,747023,1,0,0:0:0:0:
438,100,747091,1,10,1:2:0:0:
437,169,747159,1,0,0:0:0:0:
393,222,747228,1,8,1:2:0:0:
359,282,747296,1,0,0:0:0:0:
385,344,747364,1,10,1:2:0:0:
449,365,747432,1,0,0:0:0:0:
506,331,747500,5,8,1:2:0:0:
457,274,747568,1,8,1:2:0:0:
387,250,747636,1,8,1:2:0:0:
314,264,747704,1,8,1:2:0:0:
259,313,747773,1,0,3:0:0:0:
200,362,747841,1,0,3:0:0:0:
125,376,747910,1,0,3:0:0:0:
52,349,747977,1,0,3:0:0:0:
9,282,748045,1,4,1:2:0:0:
351,108,748387,5,0,3:0:0:0:
354,123,748455,1,0,3:0:0:0:
357,138,748523,1,0,3:0:0:0:
360,153,748591,1,8,1:2:0:0:
