osu file format v14

[General]
AudioFilename: audio.mp3
AudioLeadIn: 0
PreviewTime: 317633
Countdown: 0
SampleSet: Drum
StackLeniency: 0.4
Mode: 0
LetterboxInBreaks: 0
WidescreenStoryboard: 1

[Editor]
Bookmarks: 47400,63400,79400,95400,129000,141600,158400,174820,211716,229715,237715,301715,317715,357715,373715
DistanceSpacing: 1.1
BeatDivisor: 6
GridSize: 16
TimelineZoom: 2.499999

[Metadata]
Title:Of Strength and the Lust for Power
TitleUnicode:Of Strength and the Lust for Power
Artist:Xanthochroid
ArtistUnicode:Xanthochroid
Creator:SILENCE PLAYER
Version:Neverending
Source:
Tags:epic cinematic symphonic black metal stream marathon ItsWinter english of erthe and axen act ii 2
BeatmapID:2238053
BeatmapSetID:1069086

[Difficulty]
HPDrainRate:5
CircleSize:4.6
OverallDifficulty:9.5
ApproachRate:9.7
SliderMultiplier:2
SliderTickRate:1

[Events]
//Background and Video events
0,0,"gizamaluke3456789mid+sig.jpg",0,0
//Break Periods
2,23600,29905
2,95600,102105
2,104000,110505
2,171553,173505
//Storyboard Layer 0 (Background)
//Storyboard Layer 1 (Fail)
//Storyboard Layer 2 (Pass)
//Storyboard Layer 3 (Foreground)
//Storyboard Layer 4 (Overlay)
//Storyboard Sound Samples

[TimingPoints]
7400,500,4,2,0,5,1,0
23400,-166.666666666667,4,3,1,35,0,0
24191,-166.666666666667,4,2,0,35,0,0
28900,-166.666666666667,4,2,1,35,0,0
34316,-166.666666666667,4,2,1,5,0,0
34400,-166.666666666667,4,2,1,35,0,0
37316,-166.666666666667,4,2,1,5,0,0
37400,-166.666666666667,4,2,1,25,0,0
37566,-166.666666666667,4,2,1,30,0,0
37733,-166.666666666667,4,2,1,35,0,0
37900,-166.666666666667,4,2,1,40,0,0
38400,-166.666666666667,4,2,1,45,0,0
42316,-166.666666666667,4,2,1,5,0,0
42400,-166.666666666667,4,2,1,35,0,0
43316,-166.666666666667,4,2,1,5,0,0
43400,-166.666666666667,4,2,1,35,0,0
46316,-166.666666666667,4,2,1,5,0,0
46400,-66.6666666666667,4,3,1,60,0,0
63066,-66.6666666666667,4,3,8,60,0,0
63233,-66.6666666666667,4,3,9,60,0,0
63400,-66.6666666666667,4,3,1,60,0,0
78566,-66.6666666666667,4,3,8,60,0,0
78733,-66.6666666666667,4,3,9,60,0,0
78900,-66.6666666666667,4,3,1,60,0,0
79400,-66.6666666666667,4,3,1,65,0,1
81400,-58.8235294117647,4,3,1,65,0,1
95066,-58.8235294117647,4,3,8,65,0,1
95233,-58.8235294117647,4,3,9,65,0,1
95400,600,4,2,1,60,1,0
102600,-100,4,2,1,45,0,0
111000,-100,4,3,1,40,0,0
111600,-100,4,3,8,60,0,0
111900,-100,4,3,9,60,0,0
112200,300,7,2,0,40,1,0
112200,-100,4,3,1,60,0,0
119700,-100,4,3,8,60,0,0
119800,-100,4,3,1,60,0,0
120300,-100,4,3,8,60,0,0
120400,-100,4,3,9,60,0,0
120500,-100,4,3,10,60,0,0
120600,-100,4,3,1,60,0,0
128400,-100,4,3,8,60,0,0
128700,-100,4,3,9,60,0,0
129000,-200,4,3,1,60,0,0
130425,-200,4,2,0,5,0,0
130500,-200,4,3,1,60,0,0
130725,-200,4,2,0,5,0,0
130800,-333.333333333333,4,3,1,60,0,0
131025,-333.333333333333,4,2,0,5,0,0
131100,-200,4,3,1,60,0,0
133125,-200,4,2,0,5,0,0
133200,-200,4,3,9,60,0,0
133500,-83.3333333333333,4,3,1,60,0,0
133725,-83.3333333333333,4,2,0,5,0,0
133800,-83.3333333333333,4,3,1,60,0,0
134025,-83.3333333333333,4,2,0,5,0,0
134100,-83.3333333333333,4,3,1,60,0,0
134925,-83.3333333333333,4,2,0,5,0,0
135000,-83.3333333333333,4,3,8,60,0,0
135300,-125,4,3,1,60,0,0
137100,-333.333333333333,4,3,1,60,0,0
137325,-83.3333333333333,4,2,0,5,0,0
137400,-166.666666666667,4,3,1,60,0,0
139200,-333.333333333333,4,3,1,60,0,0
139425,-333.333333333333,4,2,0,5,0,0
139500,-200,4,3,1,60,0,0
140700,-142.857142857143,4,3,1,60,0,0
141600,-80,4,3,1,60,0,0
143925,-80,4,3,1,5,0,0
144000,-80,4,3,1,60,0,0
144525,-80,4,3,1,5,0,0
144600,-80,4,3,1,60,0,0
151425,-80,4,3,1,5,0,0
151500,-80,4,3,1,60,0,0
153525,-80,4,3,1,5,0,0
153600,-80,4,3,1,60,0,0
153900,-80,4,3,8,60,0,0
154200,-80,4,3,1,60,0,0
155625,-80,4,3,1,5,0,0
155700,-80,4,3,1,60,0,0
157950,-80,4,3,8,60,0,0
158250,-80,4,3,9,60,0,0
158400,-133.333333333333,4,3,1,60,0,0
159600,-200,4,3,1,60,0,0
162525,-200,4,3,1,5,0,0
162600,-200,4,3,8,60,0,0
162900,-83.3333333333333,4,3,1,60,0,0
163125,-83.3333333333333,4,3,1,5,0,0
163200,-83.3333333333333,4,3,1,60,0,0
163425,-83.3333333333333,4,3,1,5,0,0
163500,-200,4,3,8,60,0,0
163800,-83.3333333333333,4,3,9,60,0,0
164100,-83.3333333333333,4,3,1,60,0,0
164325,-83.3333333333333,4,3,1,5,0,0
164400,-83.3333333333333,4,3,1,60,0,0
164700,-133.333333333333,4,3,1,60,0,0
166500,-333.333333333333,4,3,1,60,0,0
166725,-333.333333333333,4,2,0,5,0,0
166800,-166.666666666667,4,3,1,60,0,0
168600,-222.222222222222,4,3,1,60,0,0
168900,-133.333333333333,4,3,1,60,0,0
170400,-133.333333333333,4,3,8,60,0,0
170700,-133.333333333333,4,3,9,60,0,0
170850,-133.333333333333,4,3,10,60,0,0
171000,272.727272727273,7,3,1,65,1,0
174272,-100,4,3,8,65,0,0
174545,-100,4,3,9,65,0,0
174818,-80,7,3,1,70,0,1
175022,-80,7,3,1,5,0,1
175090,-80,7,3,1,65,0,1
181908,-80,7,3,8,65,0,1
182181,-80,7,3,9,65,0,1
182454,-80,7,3,1,65,0,1
182658,-80,7,3,1,5,0,1
182727,-80,7,3,1,65,0,1
189545,-80,7,3,8,65,0,1
189818,-80,7,3,9,65,0,1
190090,-80,7,3,1,65,0,1
190295,-80,7,3,1,5,0,1
190363,-80,7,3,1,65,0,1
190840,-80,7,3,1,5,0,1
190908,-80,7,3,1,65,0,1
191113,-80,7,3,1,5,0,1
191181,-80,7,3,1,65,0,1
191658,-80,7,3,1,5,0,1
191726,-80,7,3,1,65,0,1
191931,-80,7,3,1,5,0,1
191999,-80,7,3,1,65,0,1
192204,-80,7,3,1,5,0,1
192272,-80,7,3,1,65,0,1
192749,-80,7,3,1,5,0,1
192817,-80,7,3,1,65,0,1
193022,-80,7,3,1,5,0,1
193090,-80,7,3,1,65,0,1
196090,272.727272727273,7,3,1,70,1,0
196090,-80,7,3,1,70,0,1
196294,-80,7,3,1,5,0,1
196362,-80,7,3,1,70,0,1
203180,-80,7,3,8,70,0,1
203453,-80,7,3,9,70,0,1
203726,-80,7,3,1,70,0,1
203930,-80,7,3,1,5,0,1
203999,-80,7,3,1,70,0,1
204476,-80,7,3,1,5,0,1
204544,-80,7,3,1,70,0,1
204749,-80,7,3,1,5,0,1
204817,-80,7,3,1,70,0,1
205294,-80,7,3,1,5,0,1
205362,-80,7,3,1,70,0,1
205567,-80,7,3,1,5,0,1
205635,-80,7,3,1,70,0,1
205840,-80,7,3,1,5,0,1
205908,-80,7,3,1,70,0,1
206385,-80,7,3,1,5,0,1
206453,-80,7,3,1,70,0,1
206658,-80,7,3,1,5,0,1
206726,-80,7,3,1,70,0,1
209453,566.037735849057,4,3,1,65,1,0
209523,-100,4,3,1,50,0,0
211646,-100,4,3,1,5,0,0
211717,500,4,3,1,65,1,0
212217,-66.6666666666667,3,3,1,65,0,0
212717,-100,3,3,9,65,0,0
213217,-66.6666666666667,3,3,1,65,0,0
213717,-47.6190476190476,6,3,1,65,0,0
213800,-47.6190476190476,6,3,1,5,0,0
213883,-47.6190476190476,6,3,1,65,0,0
213967,-47.6190476190476,6,3,1,5,0,0
214050,-47.6190476190476,6,3,1,65,0,0
214133,-47.6190476190476,6,3,1,5,0,0
214217,-47.6190476190476,6,3,1,65,0,0
217800,-47.6190476190476,6,3,1,5,0,0
217883,-47.6190476190476,6,3,1,65,0,0
217967,-47.6190476190476,6,3,1,5,0,0
218050,-47.6190476190476,6,3,1,65,0,0
218133,-47.6190476190476,6,3,1,5,0,0
218217,-47.6190476190476,6,3,1,65,0,0
220550,-66.6666666666667,6,3,1,65,0,0
220883,-71.4285714285714,4,3,8,65,0,0
221050,-66.6666666666667,4,3,9,65,0,0
221217,-100,4,3,1,65,0,0
221383,-100,4,3,8,65,0,0
221550,-66.6666666666667,4,3,9,65,0,0
221717,-100,6,3,10,65,0,0
222383,-47.6190476190476,6,3,1,65,0,0
222467,-47.6190476190476,6,3,1,5,0,0
222550,-47.6190476190476,6,3,1,65,0,0
222633,-47.6190476190476,6,3,1,5,0,0
222717,-66.6666666666667,6,3,1,65,0,0
225717,-47.6190476190476,6,3,1,65,0,0
225800,-47.6190476190476,6,3,1,5,0,0
225883,-47.6190476190476,6,3,1,65,0,0
225967,-47.6190476190476,6,3,1,5,0,0
226050,-47.6190476190476,6,3,1,65,0,0
226133,-47.6190476190476,6,3,1,5,0,0
226217,-66.6666666666667,6,3,1,65,0,0
228883,-47.6190476190476,4,3,8,65,0,0
229050,-66.6666666666667,4,3,9,65,0,0
229217,-100,4,3,1,65,0,0
229383,-100,4,3,8,65,0,0
229550,-66.6666666666667,4,3,9,65,0,0
229717,-66.6666666666667,6,3,1,70,0,1
235717,-52.6315789473684,6,3,1,70,0,1
235967,-80,6,3,1,5,0,1
236050,-80,6,3,8,70,0,1
236383,-80,6,3,9,70,0,1
236717,-44.4444444444445,6,3,1,70,0,1
237217,-37.7358490566038,6,3,1,70,0,1
237717,-66.6666666666667,4,3,1,65,0,0
252883,-66.6666666666667,4,3,8,65,0,0
253050,-66.6666666666667,4,3,9,65,0,0
253217,-66.6666666666667,4,3,1,65,0,0
253383,-66.6666666666667,4,3,8,65,0,0
253550,-66.6666666666667,4,3,9,65,0,0
253717,-66.6666666666667,4,3,1,65,0,0
261217,-66.6666666666667,4,3,8,65,0,0
261383,-66.6666666666667,4,3,1,65,0,0
261967,-66.6666666666667,4,3,1,5,0,0
262050,-66.6666666666667,4,3,1,65,0,0
269383,-66.6666666666667,4,3,8,65,0,0
269550,-66.6666666666667,4,3,9,65,0,0
269717,-50,4,3,1,65,0,0
269967,-50,4,3,1,5,0,0
270050,-50,4,3,1,65,0,0
270217,-50,4,3,9,65,0,0
270717,-50,4,3,10,65,0,0
271029,-50,4,3,1,65,0,0
272883,-50,4,3,8,65,0,0
273050,-50,4,3,9,65,0,0
273217,-50,4,3,1,65,0,0
273383,-50,4,3,8,65,0,0
273550,-50,4,3,9,65,0,0
273717,-50,4,3,1,65,0,0
273967,-50,4,3,1,5,0,0
274029,-50,4,3,1,65,0,0
274217,-50,4,3,9,65,0,0
274717,-50,4,3,10,65,0,0
275029,-50,4,3,1,65,0,0
275633,-50,4,3,1,5,0,0
275717,-50,4,3,1,65,0,0
276217,-50,4,3,8,65,0,0
277217,-50,4,3,9,65,0,0
277717,-50,4,3,1,65,0,0
277967,-50,4,3,1,5,0,0
278029,-50,4,3,1,65,0,0
278217,-50,4,3,9,65,0,0
278717,-50,4,3,10,65,0,0
279029,-50,4,3,1,65,0,0
279633,-50,4,3,1,5,0,0
279717,-50,4,3,1,65,0,0
280217,-50,4,3,8,65,0,0
280383,-50,4,3,1,65,0,0
280550,-50,4,3,9,65,0,0
280717,-50,4,3,1,65,0,0
281217,-50,4,3,8,65,0,0
281550,-50,4,3,9,65,0,0
281717,-50,4,3,1,65,0,0
281967,-50,4,3,1,5,0,0
282029,-50,4,3,1,65,0,0
282217,-50,4,3,9,65,0,0
282717,-50,4,3,10,65,0,0
283029,-50,4,3,1,65,0,0
283633,-50,4,3,1,5,0,0
283717,-50,4,3,1,65,0,0
284383,-50,4,3,8,65,0,0
284717,-50,4,3,1,65,0,0
285050,-50,4,3,8,65,0,0
285383,-50,4,3,9,65,0,0
285550,-50,4,3,10,65,0,0
285717,-100,4,3,1,65,0,0
286383,-100,4,3,1,45,0,0
286717,-100,4,3,1,65,0,0
287050,-100,4,3,1,45,0,0
287717,-100,4,3,1,65,0,0
288383,-100,4,3,1,45,0,0
288717,-100,4,3,1,65,0,0
289050,-100,4,3,1,40,0,0
289217,-100,4,3,1,45,0,0
289383,-100,4,3,1,50,0,0
289550,-100,4,3,1,55,0,0
289717,-100,4,3,1,65,0,0
290383,-100,4,3,1,45,0,0
290717,-100,4,3,1,65,0,0
291050,-100,4,3,1,45,0,0
291717,-100,4,3,1,65,0,0
292383,-100,4,3,1,45,0,0
292529,-100,4,3,1,65,0,0
294383,-100,4,3,1,45,0,0
294717,-100,4,3,1,65,0,0
295050,-100,4,3,1,45,0,0
295217,-100,4,3,1,65,0,0
295383,-100,4,3,1,50,0,0
295717,-100,4,3,1,65,0,0
297467,-100,4,3,1,5,0,0
297550,-100,4,3,1,65,0,0
297633,-100,4,3,1,5,0,0
297717,-100,4,3,1,65,0,0
298383,-100,4,3,1,45,0,0
298717,-100,4,3,1,65,0,0
299050,-100,4,3,1,45,0,0
299717,-100,4,3,1,65,0,0
300383,-100,4,3,1,45,0,0
300529,-100,4,3,1,65,0,0
301717,-80,4,3,1,65,0,1
308883,-80,4,3,8,65,0,1
309050,-80,4,3,9,65,0,1
309217,-80,4,3,1,65,0,1
309383,-80,4,3,8,65,0,1
309550,-80,4,3,9,65,0,1
309717,-80,4,3,1,65,0,1
316383,-80,4,3,8,65,0,1
316550,-80,4,3,9,65,0,1
316717,-80,4,3,1,65,0,1
316883,-80,4,3,8,65,0,1
317050,-80,4,3,9,65,0,1
317217,-80,4,3,1,65,0,1
317383,-80,4,3,8,65,0,1
317550,-80,4,3,9,65,0,1
317717,-100,4,3,1,65,0,0
332467,-100,4,3,1,5,0,0
332529,-100,4,3,1,65,0,0
334383,-100,4,3,1,45,0,0
334717,-100,4,3,1,65,0,0
335050,-100,4,3,1,45,0,0
335717,-100,4,3,1,65,0,0
337050,-100,4,3,1,50,0,0
337217,-100,4,3,1,65,0,0
338383,-100,4,3,1,45,0,0
338717,-100,4,3,1,65,0,0
339050,-100,4,3,1,45,0,0
339717,-100,4,3,1,65,0,0
340383,-100,4,3,1,45,0,0
340529,-100,4,3,1,65,0,0
343633,-100,4,3,1,5,0,0
343717,-100,4,3,1,65,0,0
348467,-100,4,3,1,5,0,0
348529,-100,4,3,1,65,0,0
349633,-100,4,3,1,5,0,0
349717,-100,4,3,1,65,0,0
351633,-100,4,3,1,5,0,0
351717,-100,4,3,1,65,0,0
353633,-100,4,3,1,5,0,0
353717,-100,4,3,1,65,0,0
357717,-100,4,3,1,65,0,1
364550,-80,4,3,1,65,0,1
364883,-80,4,3,8,65,0,1
365050,-80,4,3,9,65,0,1
365217,-80,4,3,1,65,0,1
365383,-80,4,3,8,65,0,1
365550,-80,4,3,9,65,0,1
365717,-80,4,3,1,65,0,1
372883,-80,4,3,8,65,0,1
373050,-80,4,3,9,65,0,1
373217,-80,4,3,1,65,0,1
373383,-80,4,3,8,65,0,1
373550,-80,4,3,9,65,0,1
373717,-80,4,3,1,65,0,0

[Colours]
Combo1 : 128,64,64
Combo2 : 255,128,128
Combo3 : 255,128,64
Combo4 : 128,128,255

[HitObjects]
256,192,21400,12,0,23316,0:0:0:0:
381,35,23400,5,6,0:0:0:0:
39,211,30400,6,0,L|30:340,1,119.999996337891,2|0,0:3|0:0,2:2:0:0:
427,339,31400,5,4,0:0:0:0:
256,192,31483,12,0,34316,0:0:0:0:
393,72,34400,5,2,0:2:0:0:
326,184,34566,1,2,0:2:0:0:
359,160,34650,1,2,0:2:0:0:
398,160,34733,1,2,0:2:0:0:
310,214,34900,1,2,0:2:0:0:
472,264,35066,5,2,0:2:0:0:
439,240,35150,1,2,0:2:0:0:
399,240,35233,1,2,0:2:0:0:
486,298,35400,5,6,0:0:0:0:
256,192,35483,12,0,37316,0:0:0:0:
277,41,37400,6,0,P|276:59|273:70,1,19.9999993896485,2|2,0:2|0:2,0:0:0:0:
211,83,37566,2,0,P|203:101|196:108,1,19.9999993896485,2|2,0:0|0:2,0:0:0:0:
129,107,37733,2,0,P|111:118|105:118,1,19.9999993896485,2|2,0:2|0:2,0:0:0:0:
74,26,37900,6,0,L|98:20,1,19.9999993896485,2|0,0:3|0:0,0:0:0:0:
191,181,38066,2,0,L|163:176,1,19.9999993896485,2|0,0:3|0:0,0:0:0:0:
221,67,38233,1,2,0:2:0:0:
231,57,38316,1,2,0:2:0:0:
241,47,38400,5,2,0:2:0:0:
296,142,38566,1,2,0:2:0:0:
256,247,38733,1,2,0:2:0:0:
144,148,38900,5,2,0:2:0:0:
284,122,39066,1,2,0:2:0:0:
297,127,39150,1,2,0:2:0:0:
307,136,39233,1,2,0:2:0:0:
377,246,39400,5,6,0:0:0:0:
256,192,39483,12,0,42316,0:0:0:0:
389,356,42400,5,2,0:2:0:0:
287,310,42566,1,2,0:0:0:0:
274,316,42650,1,2,0:0:0:0:
261,322,42733,1,2,0:0:0:0:
155,216,42900,5,2,0:0:0:0:
309,242,43066,2,0,L|376:217,1,59.9999981689454,2|0,0:3|0:0,0:0:0:0:
454,221,43400,5,6,0:0:0:0:
256,192,43483,12,0,46316,0:0:0:0:
321,68,46400,5,12,0:2:0:0:
368,334,46566,1,0,0:0:0:0:
203,238,46733,1,0,0:0:0:0:
401,165,46900,5,14,0:2:0:0:
145,116,47066,1,0,0:0:0:0:
419,154,47233,1,0,0:0:0:0:
141,336,47400,6,0,B|169:304|220:305|220:305|262:359|344:329,1,200.000007629395,6|0,0:0|0:0,0:0:0:0:
412,164,47900,2,0,P|392:216|414:280,2,100.000003814697,10|0|0,0:0|0:0|0:0,0:0:0:0:
512,59,48400,2,0,L|285:30,1,200.000007629395,2|0,0:0|0:0,0:0:0:0:
165,141,48900,2,0,P|188:92|173:31,2,100.000003814697,10|0|0,0:0|0:0|0:0,0:0:0:0:
0,223,49400,6,0,P|55:195|182:239,1,200.000007629395,2|0,0:0|0:0,0:0:0:0:
238,384,49900,2,0,P|232:331|264:279,2,100.000003814697,10|0|0,0:0|0:0|0:0,0:0:0:0:
376,149,50400,5,2,0:0:0:0:
400,337,50566,1,0,0:0:0:0:
372,127,50733,1,0,0:0:0:0:
209,260,50900,1,10,0:0:0:0:
406,240,51066,1,0,0:0:0:0:
293,140,51233,1,0,0:0:0:0:
508,109,51400,6,0,B|464:82|385:95|441:169|246:113,1,200.000007629395,6|0,0:0|0:0,0:0:0:0:
176,10,51900,2,0,P|193:44|151:137,2,100.000003814697,10|0|0,0:0|0:0|0:0,0:0:0:0:
0,159,52400,2,0,P|99:116|220:137,1,200.000007629395,2|0,0:0|0:0,0:0:0:0:
233,330,52900,2,0,P|222:276|244:215,2,100.000003814697,10|0|0,0:0|0:0|0:0,0:0:0:0:
512,226,53400,6,0,L|276:191,1,200.000007629395,2|0,0:0|0:0,0:0:0:0:
116,330,53900,2,0,L|242:303,2,100.000003814697,10|0|0,0:0|0:0|0:0,0:0:0:0:
206,140,54400,1,2,0:0:0:0:
267,371,54566,1,0,0:0:0:0:
212,147,54733,1,0,0:0:0:0:
212,147,54816,1,0,0:0:0:0:
212,147,54900,1,14,0:0:0:0:
317,236,55066,1,0,0:0:0:0:
385,121,55233,1,0,0:0:0:0:
234,345,55400,6,0,L|210:129,1,200.000007629395,6|0,0:0|0:0,0:0:0:0:
360,20,55900,2,0,L|346:128,2,100.000003814697,10|0|0,0:0|0:0|0:0,0:0:0:0:
492,202,56400,2,0,P|416:158|286:177,1,200.000007629395,2|0,0:0|0:0,0:0:0:0:
225,318,56900,2,0,P|289:306|321:263,2,100.000003814697,10|0|0,0:0|0:0|0:0,0:0:0:0:
185,96,57400,6,0,B|208:155|208:155|186:304,1,200.000007629395,2|0,0:0|0:0,0:0:0:0:
0,302,57900,2,0,B|37:266|37:266|101:256,2,100.000003814697,10|0|0,0:0|0:0|0:0,0:0:0:0:
240,342,58400,5,6,0:0:0:0:
76,368,58566,1,0,0:0:0:0:
254,333,58733,1,0,0:0:0:0:
145,205,58900,5,14,0:0:0:0:
116,286,59066,1,0,0:0:0:0:
378,214,59233,1,0,0:0:0:0:
382,184,59316,1,0,0:0:0:0:
387,154,59400,6,0,B|349:126|277:134|311:168|246:186|165:141,1,200.000007629395,6|0,0:0|0:0,0:0:0:0:
107,0,59900,2,0,P|130:46|108:127,2,100.000003814697,10|0|0,0:0|0:0|0:0,0:0:0:0:
14,208,60400,2,0,P|76:179|212:197,1,200.000007629395,2|0,0:0|0:0,0:0:0:0:
306,325,60900,2,0,P|247:301|177:325,2,100.000003814697,10|0|0,0:0|0:0|0:0,0:0:0:0:
425,169,61400,6,0,L|445:374,1,200.000007629395,2|0,0:0|0:0,0:0:0:0:
267,118,61900,2,0,L|257:217,2,100.000003814697,10|0|0,0:0|0:0|0:0,0:0:0:0:
398,350,62400,5,14,0:0:0:0:
204,48,62566,1,8,2:0:0:0:
199,97,62650,1,8,2:0:0:0:
194,147,62733,1,8,2:0:0:0:
340,57,62900,1,8,0:0:0:0:
208,8,63066,1,8,0:0:0:0:
99,71,63233,1,8,0:0:0:0:
271,212,63400,6,0,B|280:103|134:133|164:231|225:278|282:290|282:290|220:270|165:290|202:314|127:326|66:295,1,500.000019073487,6|0,0:0|0:0,0:0:0:0:
26,209,64400,2,0,B|22:116|133:139|129:219|41:259|41:259|122:324|214:287|162:264|247:240|306:287,1,500.000019073487,10|0,0:0|0:0,0:0:0:0:
374,307,65400,6,0,B|433:257|506:303|506:303|454:277|440:214|485:172|485:172|434:141|378:165|415:176|346:232|263:161,1,500.000019073487,2|0,0:0|0:0,0:0:0:0:
191,17,66400,2,0,P|254:86|181:267,1,300.000011444092,10|2,0:0|0:0,0:0:0:0:
6,100,67400,6,0,B|78:46|178:109|99:102|211:168|286:116|286:116|342:177|419:176|466:118,1,500.000019073487,6|0,0:0|0:0,0:0:0:0:
201,0,68400,2,0,L|233:310,1,300.000011444092,10|2,0:0|0:0,0:0:0:0:
467,310,69400,6,0,B|392:239|320:291|320:291|310:388|210:385,1,300.000011444092,2|2,0:0|0:0,0:0:0:0:
115,196,70150,1,0,0:0:0:0:
122,230,70233,1,0,0:0:0:0:
129,263,70316,1,0,0:0:0:0:
137,297,70400,5,14,0:0:0:0:
212,117,70566,1,0,0:0:0:0:
222,96,70733,1,0,0:0:0:0:
311,301,70900,5,14,0:0:0:0:
232,75,71066,1,0,0:0:0:0:
91,237,71233,1,8,0:0:0:0:
456,172,71400,6,0,B|406:142|316:167|352:192|282:239|175:189|175:189|255:241|221:339|182:365,1,500.000019073487,6|0,0:0|0:0,0:0:0:0:
23,277,72400,2,0,B|51:186|147:197|147:197|239:258|322:203|322:203|413:150|483:204,1,500.000019073487,10|0,0:0|0:0,0:0:0:0:
399,374,73400,6,0,P|354:286|401:188,1,200.000007629395,6|2,0:0|0:0,0:0:0:0:
496,222,73900,2,0,L|270:192,1,200.000007629395,2|0,0:0|0:0,0:0:0:0:
74,274,74400,2,0,B|186:221|154:66|28:80|28:80|98:3|202:0|232:75,1,500.000019073487,10|0,0:0|0:0,0:0:0:0:
348,135,75400,6,0,B|357:16|192:44|230:179|322:201|322:201|222:246|239:338|300:373,1,500.000019073487,6|0,0:0|0:0,0:0:0:0:
512,273,76400,6,0,B|425:209|337:272|395:280|285:320|212:267,1,300.000011444092,10|2,0:0|0:0,0:0:0:0:
99,150,77400,6,0,B|145:206|91:265|5:236|20:109|20:109|80:42|158:78|120:97|204:137|266:92,1,500.000019073487,6|0,0:0|0:0,0:0:0:0:
313,12,78400,5,8,2:0:0:0:
295,58,78483,1,8,2:0:0:0:
298,102,78566,1,8,0:0:0:0:
318,129,78650,1,8,0:0:0:0:
344,138,78733,1,8,0:0:0:0:
368,133,78816,1,8,0:0:0:0:
417,96,78900,5,8,2:0:0:0:
405,45,78983,1,8,2:0:0:0:
296,257,79233,1,0,0:0:0:0:
289,207,79316,1,0,0:0:0:0:
282,156,79400,6,0,B|231:124|177:159|206:164|146:202|81:161,1,200.000007629395,6|0,0:0|0:0,0:0:0:0:
55,294,79900,2,0,P|49:235|73:176,2,100.000003814697,2|0|0,0:0|0:0|0:0,0:0:0:0:
278,294,80400,2,0,P|232:284|172:293,1,100.000003814697,10|0,0:0|0:0,0:0:0:0:
324,200,80733,2,0,P|373:212|424:240,1,100.000003814697,2|2,0:2|0:0,0:0:0:0:
289,10,81066,2,0,P|273:68|266:151,1,100.000003814697
467,109,81400,6,0,L|314:80,2,113.333335494995,6|0|0,0:0|0:0|0:0,0:0:0:0:
289,10,81900,1,2,0:0:0:0:
196,208,82066,2,0,P|209:136|226:88,1,113.333335494995
383,311,82400,6,0,B|354:267|298:272|298:272|249:350|142:303,1,226.66667098999,10|0,0:0|0:0,0:0:0:0:
137,138,82900,2,0,P|156:221|134:364,1,226.66667098999,2|0,0:0|0:0,0:0:0:0:
0,39,83400,5,6,0:0:0:0:
116,145,83566,1,0,0:0:0:0:
242,86,83733,1,0,0:0:0:0:
67,243,83900,2,0,P|75:185|107:131,2,113.333335494995,2|0|0,0:0|0:0|0:0,0:0:0:0:
328,286,84400,6,0,B|269:251|269:251|79:308,1,226.66667098999,10|0,0:0|0:0,0:0:0:0:
243,107,84900,2,0,B|261:143|261:143|248:245,2,113.333335494995,2|0|0,0:0|0:0|0:0,0:0:0:0:
52,319,85400,6,0,P|113:296|185:301,2,113.333335494995,6|0|0,0:0|0:0|0:0,0:0:0:0:
212,341,85900,1,2,0:0:0:0:
151,135,86066,2,0,P|140:213|150:275,1,113.333335494995
173,107,86316,1,0,0:0:0:0:
202,91,86400,5,14,0:0:0:0:
343,296,86566,1,0,0:0:0:0:
246,252,86733,1,0,0:0:0:0:
448,333,86900,5,14,0:0:0:0:
383,167,87066,1,0,0:0:0:0:
234,266,87233,1,0,0:0:0:0:
498,174,87400,6,0,B|444:142|444:142|261:166,1,226.66667098999,6|0,0:0|0:0,0:0:0:0:
372,62,87900,1,2,0:0:0:0:
191,177,88066,2,0,P|224:120|276:88,1,113.333335494995
389,337,88400,6,0,P|333:294|262:274,1,113.333335494995,10|0,0:0|0:0,0:0:0:0:
456,292,88733,1,0,0:0:0:0:
231,190,88900,2,0,P|237:273|226:326,2,113.333335494995,2|0|0,0:0|0:0|0:0,0:0:0:0:
118,353,89400,5,6,0:0:0:0:
232,173,89566,2,0,P|287:160|380:162,1,113.333335494995
440,42,89900,1,2,0:0:0:0:
371,170,90066,2,0,P|351:233|346:298,1,113.333335494995
148,119,90400,5,10,0:0:0:0:
230,81,90566,1,0,0:0:0:0:
318,102,90733,1,0,0:0:0:0:
238,203,90900,5,2,0:0:0:0:
217,80,91066,2,0,P|245:29|293:-10,1,113.333335494995
383,269,91400,5,6,0:0:0:0:
232,191,91566,1,0,0:0:0:0:
112,277,91733,1,0,0:0:0:0:
128,86,91900,5,2,0:0:0:0:
239,206,92066,2,0,P|248:274|230:335,1,113.333335494995
471,90,92400,2,0,P|411:68|342:63,1,113.333335494995,10|0,0:0|0:0,0:0:0:0:
439,272,92733,1,0,0:0:0:0:
432,227,92816,1,0,0:0:0:0:
452,186,92900,5,14,0:0:0:0:
356,340,93066,1,0,0:0:0:0:
328,253,93233,1,0,0:0:0:0:
126,298,93400,5,6,0:0:0:0:
216,199,93566,1,0,0:0:0:0:
265,317,93733,1,0,0:0:0:0:
359,252,93900,5,6,0:0:0:0:
221,176,94066,1,0,0:0:0:0:
69,219,94233,1,0,0:0:0:0:
102,33,94400,5,14,0:0:0:0:
226,153,94566,1,0,0:0:0:0:
375,87,94733,1,0,0:0:0:0:
446,240,94900,5,8,2:0:0:0:
395,214,94983,1,8,2:0:0:0:
339,223,95066,1,0,0:0:0:0:
301,266,95150,1,8,0:0:0:0:
295,322,95233,2,0,P|297:362|304:384,1,56.6666677474976,8|8,0:0|0:0,0:0:0:0:
497,132,95400,5,6,0:0:0:0:
340,43,102600,5,2,2:0:0:0:
339,57,102675,1,2,2:0:0:0:
338,71,102750,1,2,2:0:0:0:
337,85,102825,1,2,2:0:0:0:
347,109,102900,5,2,2:3:0:0:
224,88,103050,1,2,2:3:0:0:
267,178,103200,1,2,2:2:0:0:
128,11,103350,5,2,2:0:0:0:
161,247,103500,1,2,2:0:0:0:
213,105,103650,1,6,2:3:0:0:
35,184,103800,5,6,2:3:0:0:
284,29,111000,5,8,2:0:0:0:
281,43,111075,1,8,2:0:0:0:
278,57,111150,1,8,2:0:0:0:
275,71,111225,1,8,2:0:0:0:
272,85,111300,5,8,2:0:0:0:
145,28,111450,1,8,2:0:0:0:
81,203,111600,5,8,0:0:0:0:
175,140,111750,1,8,0:0:0:0:
267,186,111900,1,8,0:0:0:0:
358,141,112050,1,8,0:0:0:0:
355,322,112200,6,0,B|331:262|331:262|389:109,1,200,6|0,0:0|0:0,0:0:0:0:
468,284,112650,1,0,0:0:0:0:
371,29,112800,2,0,B|313:58|313:58|256:212,1,200,2|0,0:0|0:0,0:0:0:0:
386,319,113250,1,0,0:0:0:0:
149,292,113400,2,0,B|187:269|187:269|286:284,1,100,10|0,0:0|0:0,0:0:0:0:
463,193,113700,2,0,B|425:216|425:216|326:201,1,100,2|0,0:0|0:0,0:0:0:0:
494,120,114000,1,0,0:0:0:0:
474,50,114150,1,0,0:0:0:0:
421,335,114300,6,0,B|392:296|392:296|311:334|233:280,1,200,6|0,0:0|0:0,0:0:0:0:
426,226,114750,1,0,0:0:0:0:
115,214,114900,2,0,B|152:245|152:245|223:167|307:222,1,200,6|0,0:2|0:0,0:0:0:0:
84,120,115350,1,0,0:0:0:0:
187,357,115500,2,0,B|157:337|157:337|121:311|78:336,1,100,10|0,0:0|0:0,0:0:0:0:
275,283,115800,2,0,B|280:248|280:248|288:204|247:176,1,100,2|0,0:0|0:0,0:0:0:0:
388,350,116100,1,12,2:0:0:0:
431,112,116250,1,8,2:0:0:0:
275,318,116400,6,0,B|261:271|261:271|184:240|96:275,1,200,6|0,0:0|0:0,0:0:0:0:
283,340,116850,1,0,0:0:0:0:
278,66,117000,2,0,B|234:67|234:67|178:144|229:221,1,200,4|0,0:2|0:0,0:0:0:0:
296,57,117450,1,0,0:0:0:0:
39,172,117600,2,0,B|55:136|55:136|83:125|135:136,1,100,10|0,0:0|0:0,0:0:0:0:
276,251,117900,2,0,B|260:287|260:287|232:298|180:287,1,100,2|0,0:0|0:0,0:0:0:0:
393,171,118200,1,0,0:0:0:0:
369,255,118350,1,0,0:0:0:0:
509,77,118500,6,0,P|425:63|299:62,1,200,6|0,0:0|0:0,0:0:0:0:
509,168,118950,1,0,0:0:0:0:
330,277,119100,2,0,P|348:211|368:171,1,100,6|0,0:0|0:0,0:0:0:0:
275,346,119400,1,0,0:0:0:0:
237,265,119550,1,0,0:0:0:0:
444,253,119700,6,0,P|417:295|395:308,1,66.6666666666667,8|8,0:0|2:0,0:0:0:0:
313,281,119900,1,8,2:0:0:0:
368,141,120000,2,0,P|371:188|367:212,1,66.6666666666667,8|8,2:0|2:0,2:0:0:0:
293,286,120200,1,8,2:0:0:0:
240,171,120300,5,8,0:0:0:0:
243,197,120400,1,8,0:0:0:0:
236,222,120500,1,8,0:0:0:0:
117,235,120600,6,0,B|153:202|153:202|346:232,1,200,6|0,0:0|0:0,0:0:0:0:
441,69,121050,1,0,0:0:0:0:
448,222,121200,2,0,B|423:179|423:179|231:148,1,200,2|0,0:0|0:0,0:0:0:0:
181,51,121650,1,0,0:0:0:0:
106,263,121800,2,0,B|89:222|89:222|94:164,1,100,10|0,0:0|0:0,0:0:0:0:
277,61,122100,2,0,B|294:102|294:102|289:160,1,100,2|0,0:0|0:0,0:0:0:0:
212,336,122400,1,4,0:2:0:0:
341,268,122550,1,2,0:0:0:0:
56,276,122700,6,0,B|85:301|132:282|132:282|151:208|263:222,1,200,6|0,0:0|0:0,0:0:0:0:
208,347,123150,1,0,0:0:0:0:
253,71,123300,2,0,B|240:112|262:144|262:144|203:110|134:166,1,200,6|0,0:0|0:0,0:0:0:0:
172,62,123750,1,0,0:0:0:0:
308,250,123900,2,0,P|299:189|274:154,1,100,10|0,0:0|0:0,0:0:0:0:
88,303,124200,5,2,0:0:0:0:
193,363,124350,1,0,0:0:0:0:
416,247,124500,1,8,2:0:0:0:
386,227,124575,1,8,2:0:0:0:
351,225,124650,1,8,2:0:0:0:
321,243,124725,1,8,2:0:0:0:
298,269,124800,6,0,B|258:234|258:234|285:72,1,200,6|0,0:0|0:0,0:0:0:0:
367,17,125250,1,0,0:0:0:0:
84,145,125400,2,0,B|104:100|104:100|284:74,1,200,2|0,0:0|0:0,0:0:0:0:
35,46,125850,1,0,0:0:0:0:
237,243,126000,6,0,B|194:209|128:239|158:245|104:270|37:235,1,200,10|4,0:0|0:2,0:0:0:0:
151,44,126450,1,0,0:0:0:0:
124,149,126600,1,0,0:0:0:0:
255,248,126750,5,0,0:0:0:0:
125,131,126900,2,0,P|70:183|68:316,1,200,6|2,0:0|0:0,0:0:0:0:
131,111,127350,1,8,0:0:0:0:
184,332,127500,2,0,P|227:293|311:263,1,100,4|0,0:2|0:0,0:0:0:0:
462,354,127800,1,2,0:0:0:0:
385,379,127950,1,0,0:0:0:0:
396,129,128100,5,8,2:0:0:0:
406,177,128175,1,8,2:0:0:0:
400,226,128250,1,8,2:0:0:0:
365,261,128325,1,8,2:0:0:0:
348,259,128400,5,8,0:0:0:0:
313,230,128475,1,8,0:0:0:0:
268,227,128550,1,8,0:0:0:0:
228,247,128625,1,8,0:0:0:0:
214,275,128700,5,8,0:0:0:0:
183,300,128775,1,8,0:0:0:0:
143,301,128850,1,8,0:0:0:0:
111,276,128925,1,8,0:0:0:0:
91,234,129000,6,0,B|65:188|65:188|97:42,1,200,6|6,0:0|0:0,2:0:0:0:
214,257,129900,5,0,0:0:0:0:
187,157,130050,1,0,0:0:0:0:
320,225,130200,2,0,L|313:316,1,75,10|0,0:0|0:0,0:0:0:0:
432,376,130500,2,0,L|422:298,1,75,2|0,0:0|0:0,0:0:0:0:
501,194,130800,2,0,P|483:204|457:208,1,44.999998626709,2|0,0:0|0:0,0:0:0:0:
363,149,131100,6,0,B|315:125|250:146|284:155|227:183|164:151,2,200,6|2|10,0:0|0:0|0:0,2:0:0:0:
210,319,132600,1,0,0:0:0:0:
395,305,132750,1,8,0:0:0:0:
349,356,132900,2,0,P|340:322|343:278,1,75,6|0,0:2|0:0,0:0:0:0:
403,219,133200,5,8,0:0:0:0:
366,235,133300,1,8,0:0:0:0:
326,227,133400,1,8,0:0:0:0:
282,159,133500,6,0,L|296:342,1,179.999994506836,6|0,0:0|0:0,0:0:0:0:
421,73,133800,2,0,L|407:256,1,179.999994506836,6|0,0:0|0:0,0:0:0:0:
400,286,134100,1,8,2:0:0:0:
511,227,134250,1,8,2:0:0:0:
264,141,134400,1,8,2:0:0:0:
377,177,134550,1,8,2:0:0:0:
139,298,134700,6,0,P|201:252|326:254,1,179.999994506836,6|0,0:0|0:0,0:0:0:0:
372,384,135000,1,8,0:0:0:0:
333,265,135150,1,8,0:0:0:0:
478,51,135300,6,0,B|446:134|446:134|376:169|288:141|255:57,2,320,6|2|10,0:0|0:0|0:0,2:0:0:0:
477,32,136800,1,2,0:0:0:0:
325,214,137100,2,0,P|365:204|382:205,1,44.999998626709,2|0,0:0|0:0,0:0:0:0:
425,273,137400,6,0,P|366:251|189:306,2,239.999992675781,6|2|10,0:0|0:0|0:0,2:0:0:0:
424,289,138900,1,2,0:0:0:0:
195,140,139200,2,0,P|206:173|203:196,1,44.999998626709,2|0,0:0|0:0,0:0:0:0:
117,223,139500,6,0,B|164:202|208:239|208:239|259:263|313:223,1,200,6|2,0:0|0:0,2:0:0:0:
92,246,140400,1,2,0:0:0:0:
280,20,140700,2,0,L|278:111,1,69.9999978637696,10|0,0:0|0:0,0:0:0:0:
190,291,141000,5,8,2:0:0:0:
229,262,141075,1,8,2:0:0:0:
278,262,141150,1,8,2:0:0:0:
320,286,141225,1,8,2:0:0:0:
342,329,141300,1,8,0:0:0:0:
182,203,141450,1,8,0:0:0:0:
500,217,141600,6,0,B|470:238|470:238|377:212,1,125,6|0,0:0|0:0,0:0:0:0:
352,26,141900,1,0,0:0:0:0:
377,103,142050,1,0,0:0:0:0:
262,244,142200,2,0,B|281:209|281:209|265:118,1,125,2|0,0:0|0:0,0:0:0:0:
162,10,142500,1,0,0:0:0:0:
180,104,142650,1,0,0:0:0:0:
9,170,142800,6,0,B|39:139|39:139|134:149,1,125,10|0,0:0|0:0,0:0:0:0:
213,295,143100,1,2,0:0:0:0:
134,249,143250,1,0,0:0:0:0:
261,131,143400,5,2,0:0:0:0:
239,317,143550,1,0,0:0:0:0:
10,110,143700,6,0,B|9:75|34:67|34:67|186:52,1,187.5,6|0,0:0|0:0,0:0:0:0:
205,49,144000,1,2,0:0:0:0:
155,182,144150,1,0,0:0:0:0:
470,193,144300,2,0,B|466:151|431:147|431:147|256:133,1,187.5,6|0,0:0|0:0,0:0:0:0:
280,137,144600,1,2,0:0:0:0:
310,266,144750,1,0,0:0:0:0:
133,328,144900,6,0,B|113:306|117:286|117:286|132:192,1,125,10|0,0:0|0:0,0:0:0:0:
293,38,145200,2,0,B|312:54|306:79|306:79|285:167,1,125,2|0,0:0|0:0,0:0:0:0:
137,89,145500,5,8,0:0:0:0:
368,21,145650,1,8,0:0:0:0:
440,248,145800,6,0,P|415:312|351:330,1,125,6|0,0:0|0:0,0:0:0:0:
463,124,146100,1,0,0:0:0:0:
504,196,146250,1,0,0:0:0:0:
255,187,146400,2,0,P|307:181|368:225,1,125,2|0,0:0|0:0,0:0:0:0:
320,64,146700,1,0,0:0:0:0:
351,173,146850,1,0,0:0:0:0:
462,32,147000,6,0,P|412:17|328:58,1,125,14|0,0:0|0:0,0:0:0:0:
208,206,147300,1,0,0:0:0:0:
276,151,147450,1,0,0:0:0:0:
391,273,147600,1,2,0:0:0:0:
314,258,147750,1,0,0:0:0:0:
198,53,147900,6,0,B|205:99|205:99|196:126|196:126|207:199,1,125,4|0,0:2|0:0,0:0:0:0:
60,301,148200,1,2,0:0:0:0:
147,282,148350,1,0,0:0:0:0:
61,203,148500,2,0,B|29:213|29:213|134:237,1,125,2|0,0:2|0:0,0:0:0:0:
92,42,148800,1,2,0:0:0:0:
76,118,148950,1,0,0:0:0:0:
317,206,149100,2,0,B|344:193|344:193|227:159,1,125,14|0,0:0|0:0,0:0:0:0:
144,347,149400,5,10,2:0:0:0:
179,321,149475,1,8,2:0:0:0:
192,279,149550,1,8,2:0:0:0:
184,235,149625,1,8,2:0:0:0:
152,204,149700,1,8,2:0:0:0:
298,357,149850,1,8,0:0:0:0:
30,176,150000,6,0,B|41:212|41:212|141:229,1,125,6|0,0:0|0:0,0:0:0:0:
286,120,150300,1,0,0:0:0:0:
261,214,150450,1,0,0:0:0:0:
483,125,150600,2,0,B|461:95|461:95|355:93,1,125,6|0,0:0|0:0,0:0:0:0:
459,294,150900,1,0,0:0:0:0:
431,204,151050,1,0,0:0:0:0:
246,291,151200,6,0,B|286:259|286:259|428:286,1,187.5,6|0,0:0|0:0,0:0:0:0:
459,294,151500,2,0,B|431:204|431:204|363:190,1,125,2|0,0:0|0:0,0:0:0:0:
307,366,151800,1,2,0:0:0:0:
321,284,151950,1,0,0:0:0:0:
436,177,152100,6,0,B|403:209|403:209|279:186,1,125,6|0,0:0|0:0,0:0:0:0:
192,87,152400,1,0,0:0:0:0:
209,167,152550,1,0,0:0:0:0:
330,39,152700,2,0,B|368:16|368:16|471:32,1,125,2|0,0:0|0:0,0:0:0:0:
491,190,153000,1,0,0:0:0:0:
471,120,153150,1,0,0:0:0:0:
256,262,153300,6,0,B|286:219|286:219|365:196|461:276,1,187.5,10|0,0:0|0:0,0:0:0:0:
437,258,153600,1,2,0:0:0:0:
361,361,153750,1,8,0:0:0:0:
233,139,153900,5,8,0:0:0:0:
273,355,154050,1,8,0:0:0:0:
30,270,154200,6,0,B|54:240|54:240|177:210,1,125,6|0,0:0|0:0,0:0:0:0:
244,116,154500,1,0,0:0:0:0:
226,222,154650,1,0,0:0:0:0:
353,77,154800,2,0,B|314:55|314:55|207:83,1,125,2|0,0:0|0:0,0:0:0:0:
65,136,155100,1,0,0:0:0:0:
76,44,155250,1,0,0:0:0:0:
252,297,155400,6,0,P|231:185|190:110,1,187.5,10|0,0:0|0:0,0:0:0:0:
182,103,155700,1,2,0:0:0:0:
144,192,155850,1,0,0:0:0:0:
291,30,156000,1,2,0:0:0:0:
329,130,156150,1,0,0:0:0:0:
486,48,156300,6,0,P|423:31|357:36,1,125,6|0,0:2|0:0,0:0:0:0:
269,103,156600,1,2,0:0:0:0:
502,45,156750,1,8,0:0:0:0:
451,199,156900,2,0,P|395:162|321:149,1,125,4|0,0:2|0:0,0:0:0:0:
427,356,157200,1,2,0:0:0:0:
378,266,157350,1,0,0:0:0:0:
190,306,157500,5,8,2:0:0:0:
203,252,157575,1,8,2:0:0:0:
239,209,157650,1,8,2:0:0:0:
295,201,157725,1,8,2:0:0:0:
346,227,157800,1,0,0:0:0:0:
188,115,157950,5,8,0:0:0:0:
173,142,158025,1,8,0:0:0:0:
173,173,158100,1,8,0:0:0:0:
368,109,158250,1,8,0:0:0:0:
339,346,158400,6,0,B|259:292|169:336|209:354|143:381|28:330,1,300.000011444092,6|2,0:0|0:0,2:0:0:0:
38,333,159300,1,0,0:0:0:0:
1,236,159450,1,0,0:0:0:0:
145,281,159600,2,0,B|183:268|183:268|213:201,2,100,10|0|0,0:0|0:0|0:0,0:0:0:0:
408,292,160500,6,0,B|441:243|420:196|420:196|419:122|482:114,2,200,6|2|10,0:0|0:0|0:0,2:0:0:0:
482,112,162000,1,0,0:0:0:0:
307,246,162150,1,8,0:0:0:0:
298,142,162300,2,0,P|283:198|286:237,1,75,4|0,0:2|0:0,0:0:0:0:
335,325,162600,5,8,0:0:0:0:
329,295,162700,1,8,0:0:0:0:
310,271,162800,1,8,0:0:0:0:
241,318,162900,6,0,L|464:280,1,179.999994506836,6|0,0:0|0:0,0:0:0:0:
512,222,163200,2,0,L|289:184,1,179.999994506836,6|0,0:0|0:0,0:0:0:0:
303,204,163500,1,8,0:0:0:0:
327,72,163650,1,8,0:0:0:0:
242,281,163800,1,8,0:0:0:0:
204,181,163950,1,8,0:0:0:0:
60,333,164100,6,0,B|104:285|104:285|266:282,1,179.999994506836,6|0,0:0|0:0,0:0:0:0:
242,281,164400,1,8,0:0:0:0:
51,215,164550,1,8,0:0:0:0:
344,46,164700,6,0,B|393:46|423:92|423:92|373:188|240:111,2,300.000011444092,6|2|10,0:0|0:0|0:0,2:0:0:0:
320,44,166200,1,2,0:0:0:0:
351,261,166500,2,0,P|323:248|297:245,1,44.999998626709,2|0,0:0|0:0,0:0:0:0:
236,305,166800,6,0,P|374:282|476:320,2,239.999992675781,14|2|10,0:0|0:0|0:0,2:0:0:0:
247,325,168300,1,2,0:0:0:0:
300,125,168600,2,0,P|303:153|304:170,1,44.999998626709,2|0,0:0|0:0,0:0:0:0:
168,254,168900,6,0,B|207:220|289:249|259:273|320:307|394:257,1,225.000008583069,6|0,0:0|0:0,2:0:0:0:
416,87,169500,2,0,P|395:140|475:295,1,225.000008583069,2|0,0:0|0:0,0:0:0:0:
439,66,170100,5,8,2:0:0:0:
394,38,170175,1,8,2:0:0:0:
341,37,170250,1,8,2:0:0:0:
297,66,170325,1,8,2:0:0:0:
283,92,170400,5,8,0:0:0:0:
253,125,170475,1,8,0:0:0:0:
208,131,170550,1,8,0:0:0:0:
166,113,170625,1,8,0:0:0:0:
148,96,170700,5,8,0:0:0:0:
110,110,170775,1,8,0:0:0:0:
89,146,170850,1,8,0:0:0:0:
95,187,170925,1,8,0:0:0:0:
131,249,171000,5,6,0:0:0:0:
82,173,174000,5,8,2:0:0:0:
124,157,174068,1,8,2:0:0:0:
166,141,174136,1,8,2:0:0:0:
208,125,174204,1,8,2:0:0:0:
245,96,174272,5,8,0:0:0:0:
241,125,174340,1,8,0:0:0:0:
237,155,174409,1,8,0:0:0:0:
234,184,174477,1,8,0:0:0:0:
207,204,174545,5,8,0:0:0:0:
209,228,174613,1,8,0:0:0:0:
212,252,174681,1,8,0:0:0:0:
215,277,174750,1,8,0:0:0:0:
199,315,174818,6,0,B|272:296|272:296|293:302|293:302|388:274,1,187.5,6|0,0:0|0:0,0:0:0:0:
441,211,175090,1,2,0:0:0:0:
443,192,175158,1,8,0:0:0:0:
445,173,175227,2,0,L|453:101,1,62.5,0|8,0:0|0:0,0:0:0:0:
293,1,175363,5,6,0:0:0:0:
296,25,175431,1,8,0:0:0:0:
299,49,175499,1,0,0:0:0:0:
302,73,175568,1,8,0:0:0:0:
306,97,175636,1,2,0:0:0:0:
310,121,175704,1,8,0:0:0:0:
314,145,175772,2,0,L|253:185,1,62.5,0|8,0:0|0:0,0:0:0:0:
95,121,175908,5,6,0:0:0:0:
108,100,175977,1,8,0:0:0:0:
121,80,176045,2,0,L|192:92,1,62.5,0|8,0:1|0:0,0:0:0:0:
327,242,176181,5,6,0:0:0:0:
314,263,176249,1,8,0:0:0:0:
301,283,176318,2,0,L|229:270,1,62.5,2|8,0:2|0:0,0:0:0:0:
84,203,176454,2,0,B|103:188|103:188|156:181,1,62.5,2|8,0:1|0:0,0:0:0:0:
146,372,176590,2,0,B|121:369|121:369|79:336,1,62.5,2|8,0:1|3:0,3:0:0:0:
260,164,176727,5,6,0:0:0:0:
264,194,176795,1,8,0:0:0:0:
268,224,176863,1,0,0:0:0:0:
272,254,176931,1,8,0:0:0:0:
276,284,176999,1,2,0:0:0:0:
280,315,177068,1,8,0:0:0:0:
284,345,177136,2,0,L|353:363,1,62.5,0|8,0:0|0:0,0:0:0:0:
496,294,177272,5,6,0:0:0:0:
492,264,177340,1,8,0:0:0:0:
488,234,177408,1,0,0:0:0:0:
484,204,177477,1,8,0:0:0:0:
480,174,177545,1,2,0:0:0:0:
476,143,177613,1,8,0:0:0:0:
472,113,177681,2,0,L|403:95,1,62.5,0|8,0:0|0:0,0:0:0:0:
225,190,177818,5,6,0:0:0:0:
229,221,177886,1,8,0:0:0:0:
233,251,177954,2,0,L|302:269,1,62.5,0|8,0:0|0:0,0:0:0:0:
486,156,178090,5,6,0:0:0:0:
482,125,178158,1,8,0:0:0:0:
478,95,178227,2,0,L|409:77,1,62.5,2|8,0:2|0:0,0:0:0:0:
294,105,178363,2,0,B|285:126|285:126|291:183,1,62.5,2|8,0:1|0:0,0:0:0:0:
456,283,178499,2,0,B|465:262|465:262|459:205,1,62.5,2|8,0:1|0:0,0:0:0:0:
348,35,178636,5,6,0:0:0:0:
316,32,178704,1,8,0:0:0:0:
284,30,178772,1,0,0:0:0:0:
252,28,178840,1,8,0:0:0:0:
220,26,178908,1,2,0:0:0:0:
188,24,178977,1,8,0:0:0:0:
156,22,179045,2,0,L|77:15,1,62.5,0|8,0:0|0:0,0:0:0:0:
0,162,179181,5,6,0:0:0:0:
31,155,179249,1,8,0:0:0:0:
63,150,179318,1,0,0:0:0:0:
94,145,179386,1,8,0:0:0:0:
126,139,179454,1,2,0:0:0:0:
157,134,179522,1,8,0:0:0:0:
189,129,179590,2,0,L|266:113,1,62.5,0|8,0:0|0:0,0:0:0:0:
417,241,179727,5,6,0:0:0:0:
393,249,179795,1,8,0:0:0:0:
368,255,179863,2,0,L|282:242,1,62.5,0|8,0:0|0:0,0:0:0:0:
136,325,179999,5,6,0:0:0:0:
160,333,180068,1,8,0:0:0:0:
185,339,180136,2,0,L|271:326,1,62.5,2|8,0:2|0:0,0:0:0:0:
402,366,180272,2,0,L|331:378,1,62.5,2|8,0:1|0:0,0:0:0:0:
161,227,180408,2,0,L|232:239,1,62.5,2|8,0:1|0:0,0:0:0:0:
397,71,180545,5,6,0:0:0:0:
395,94,180613,1,8,0:0:0:0:
393,118,180681,1,0,0:0:0:0:
391,142,180749,1,8,0:0:0:0:
390,167,180818,1,2,0:0:0:0:
388,191,180886,1,8,0:0:0:0:
386,215,180954,2,0,L|324:253,1,62.5,0|8,0:0|0:0,0:0:0:0:
144,319,181090,5,6,0:0:0:0:
146,296,181158,1,8,0:0:0:0:
148,272,181227,1,0,0:0:0:0:
150,248,181295,1,8,0:0:0:0:
151,223,181363,2,0,L|226:192,1,62.5,2|8,0:0|0:0,0:0:0:0:
310,329,181499,2,0,L|235:298,1,62.5,0|8,0:0|0:0,0:0:0:0:
393,60,181636,5,8,2:0:0:0:
386,103,181704,1,8,2:0:0:0:
379,146,181772,1,8,2:0:0:0:
372,189,181840,1,8,2:0:0:0:
344,212,181908,5,8,0:0:0:0:
348,243,181977,1,8,0:0:0:0:
352,273,182045,1,8,0:0:0:0:
355,303,182113,1,8,0:0:0:0:
355,335,182181,5,8,0:0:0:0:
368,322,182249,1,8,0:0:0:0:
382,309,182318,1,8,0:0:0:0:
395,296,182386,1,8,0:0:0:0:
426,287,182454,6,0,B|353:270|353:270|328:280|328:280|232:256,1,187.5,6|0,0:0|0:0,0:0:0:0:
247,123,182727,5,2,0:0:0:0:
203,118,182795,1,8,0:0:0:0:
164,137,182863,1,0,0:0:0:0:
146,176,182931,1,8,0:0:0:0:
152,219,182999,5,2,0:1:0:0:
178,261,183068,1,8,0:0:0:0:
174,310,183136,1,0,0:0:0:0:
138,345,183204,1,8,0:0:0:0:
88,350,183272,1,2,0:0:0:0:
52,314,183340,1,8,0:0:0:0:
46,264,183408,2,0,P|60:229|93:208,1,62.5,0|8,0:0|0:0,0:0:0:0:
301,78,183545,5,2,0:1:0:0:
337,111,183613,1,8,0:0:0:0:
346,159,183681,2,0,P|323:208|306:221,1,62.5,0|8,0:0|0:0,0:0:0:0:
84,137,183818,5,2,0:1:0:0:
80,93,183886,1,8,0:0:0:0:
102,56,183954,2,0,P|142:49|176:61,1,62.5,0|8,0:0|0:0,0:0:0:0:
207,179,184090,5,6,0:2:0:0:
204,203,184158,1,8,0:3:0:0:
201,228,184227,1,2,0:2:0:0:
198,252,184295,1,8,0:0:0:0:
198,269,184363,5,6,0:0:0:0:
235,294,184431,1,8,0:0:0:0:
279,298,184499,1,0,0:0:0:0:
322,286,184568,1,8,0:0:0:0:
353,255,184636,1,2,0:0:0:0:
364,213,184704,1,8,0:0:0:0:
362,170,184772,2,0,P|343:128|318:102,1,62.5,0|8,0:0|0:0,0:0:0:0:
135,58,184908,5,2,0:1:0:0:
137,95,184977,1,8,0:0:0:0:
139,132,185045,1,0,0:0:0:0:
141,169,185113,1,8,0:0:0:0:
143,206,185181,1,2,0:0:0:0:
145,243,185249,1,8,0:0:0:0:
147,280,185318,2,0,L|123:348,1,62.5,0|8,0:0|0:0,0:0:0:0:
59,201,185454,5,2,0:1:0:0:
40,168,185522,1,8,0:0:0:0:
41,130,185590,2,0,P|53:96|75:72,1,62.5,0|8,0:0|0:0,0:0:0:0:
256,177,185727,5,2,0:1:0:0:
240,217,185795,1,8,0:0:0:0:
210,248,185863,2,0,P|163:257|142:244,1,62.5,0|8,0:0|0:0,0:0:0:0:
168,44,185999,5,2,0:1:0:0:
219,19,186068,1,8,0:0:0:0:
274,26,186136,2,0,P|301:63|309:105,1,62.5,0|8,0:0|0:0,0:0:0:0:
261,229,186272,5,6,0:0:0:0:
269,284,186340,1,8,0:0:0:0:
305,326,186408,1,0,0:0:0:0:
361,334,186477,1,8,0:0:0:0:
413,313,186545,1,2,0:0:0:0:
436,262,186613,1,8,0:0:0:0:
424,207,186681,1,0,0:0:0:0:
380,171,186749,1,8,0:0:0:0:
323,167,186818,1,2,0:1:0:0:
279,192,186886,1,8,0:0:0:0:
249,232,186954,1,0,0:0:0:0:
204,254,187022,1,8,0:0:0:0:
155,241,187090,1,2,0:0:0:0:
121,204,187158,1,8,0:0:0:0:
106,155,187227,2,0,P|112:121|130:95,1,62.5,0|8,0:0|0:0,0:0:0:0:
369,11,187363,5,6,0:1:0:0:
415,41,187431,1,8,0:0:0:0:
428,95,187499,1,0,0:0:0:0:
405,147,187568,1,8,0:0:0:0:
353,168,187636,1,2,0:0:0:0:
302,193,187704,1,8,0:0:0:0:
282,245,187772,1,0,0:0:0:0:
290,300,187840,1,8,0:0:0:0:
332,337,187908,1,2,0:0:0:0:
388,340,187977,1,8,0:0:0:0:
438,315,188045,2,0,P|451:287|449:253,1,62.5,0|8,0:0|0:0,0:0:0:0:
331,91,188181,5,6,0:1:0:0:
294,84,188249,1,8,0:0:0:0:
256,78,188318,1,0,0:0:0:0:
219,72,188386,1,8,0:0:0:0:
181,66,188454,1,2,0:0:0:0:
144,60,188522,1,8,0:0:0:0:
106,54,188590,2,0,L|77:114,1,62.5,0|8,0:0|0:0,0:0:0:0:
69,275,188727,5,6,0:1:0:0:
105,267,188795,1,8,0:0:0:0:
143,258,188863,1,0,0:0:0:0:
179,249,188931,1,8,0:0:0:0:
217,240,188999,1,2,0:0:0:0:
253,231,189068,1,8,0:0:0:0:
290,221,189136,2,0,L|293:154,1,62.5,0|8,0:0|0:0,0:0:0:0:
137,8,189272,5,8,2:0:0:0:
142,57,189340,1,8,2:0:0:0:
147,106,189408,1,8,2:0:0:0:
152,156,189477,1,8,2:0:0:0:
172,171,189545,5,8,0:0:0:0:
166,207,189613,1,8,0:0:0:0:
160,244,189681,1,8,0:0:0:0:
154,281,189749,1,8,0:0:0:0:
133,324,189818,5,8,0:0:0:0:
156,304,189886,1,8,0:0:0:0:
186,297,189954,1,8,0:0:0:0:
215,307,190022,1,8,0:0:0:0:
229,336,190090,6,0,P|316:343|365:236,1,187.5,6|0,0:0|0:0,0:0:0:0:
307,145,190363,1,8,2:0:0:0:
281,162,190431,1,8,2:0:0:0:
266,189,190499,1,8,2:0:0:0:
263,220,190568,1,8,2:0:0:0:
271,249,190636,2,0,P|322:284|451:255,1,187.5,6|0,0:2|0:0,0:0:0:0:
455,115,190908,6,0,L|442:342,1,187.5,4|0,0:0|0:0,0:0:0:0:
368,350,191181,1,8,2:0:0:0:
327,379,191249,1,8,2:0:0:0:
276,375,191318,1,8,2:0:0:0:
237,343,191386,1,8,2:0:0:0:
233,293,191454,6,0,L|254:104,1,187.5,4|0,0:0|0:0,0:0:0:0:
336,0,191727,2,0,L|357:186,1,187.5,4|0,0:2|0:0,0:0:0:0:
512,180,191999,6,0,P|429:147|332:195,1,187.5,4|0,0:0|0:0,0:0:0:0:
280,257,192272,1,8,2:0:0:0:
246,293,192340,1,8,2:0:0:0:
198,306,192408,1,8,2:0:0:0:
149,291,192477,1,8,2:0:0:0:
120,250,192545,6,0,B|97:209|97:209|135:128|244:167,1,187.5,6|0,0:0|0:0,0:0:0:0:
341,253,192818,2,0,B|309:288|309:288|220:278|222:162,1,187.5,4|0,0:2|0:0,0:0:0:0:
297,32,193090,5,14,3:0:0:0:
346,23,193158,1,0,0:0:0:0:
393,39,193227,1,8,0:0:0:0:
424,77,193295,1,0,0:0:0:0:
428,126,193363,1,8,0:0:0:0:
413,173,193431,1,0,0:0:0:0:
373,203,193499,2,0,P|326:213|310:211,1,62.5,8|0,0:0|0:0,0:0:0:0:
184,134,193636,5,12,0:0:0:0:
161,124,193704,1,0,0:0:0:0:
136,125,193772,2,0,P|93:142|74:157,1,62.5,8|0,0:0|0:0,0:0:0:0:
115,323,193908,5,14,0:0:0:0:
164,351,193977,1,0,0:0:0:0:
218,340,194045,1,8,0:0:0:0:
257,299,194113,1,0,0:0:0:0:
255,243,194181,1,8,0:0:0:0:
221,198,194249,1,0,0:0:0:0:
164,193,194318,2,0,P|120:207|100:232,1,62.5,8|0,0:0|0:0,0:0:0:0:
282,373,194454,5,14,0:0:0:0:
313,342,194522,1,0,0:0:0:0:
325,300,194590,2,0,P|324:252|315:229,1,62.5,8|0,0:0|0:0,0:0:0:0:
111,151,194727,5,14,0:0:0:0:
80,190,194795,1,0,0:0:0:0:
74,239,194863,2,0,P|87:286|110:308,1,62.5,8|0,0:0|0:0,0:0:0:0:
366,142,194999,5,14,0:0:0:0:
314,105,195068,1,0,0:0:0:0:
251,105,195136,1,8,0:0:0:0:
201,142,195204,1,0,0:0:0:0:
167,194,195272,1,8,0:0:0:0:
109,216,195340,1,0,0:0:0:0:
50,193,195408,2,0,P|28:168|18:132,1,62.5,8|0,0:0|0:0,0:0:0:0:
190,3,195545,5,6,0:0:0:0:
244,33,195613,1,0,0:0:0:0:
264,91,195681,2,0,P|256:145|234:171,1,62.5,8|0,0:0|0:0,0:0:0:0:
158,293,195818,5,8,2:0:0:0:
222,316,195886,1,8,2:0:0:0:
285,341,195954,1,8,2:0:0:0:
349,364,196022,1,8,2:0:0:0:
375,357,196090,6,0,B|406:300|406:300|390:159,1,187.5,6|0,0:0|0:0,0:0:0:0:
316,125,196362,1,2,0:0:0:0:
306,108,196430,1,8,0:0:0:0:
296,92,196499,2,0,L|300:20,1,62.5,0|8,0:0|0:0,0:0:0:0:
494,112,196635,5,2,0:1:0:0:
467,146,196703,1,8,0:0:0:0:
425,158,196771,1,0,0:0:0:0:
384,143,196840,1,8,0:0:0:0:
342,129,196908,1,2,0:0:0:0:
298,139,196976,1,8,0:0:0:0:
264,167,197044,2,0,P|244:209|248:267,1,62.5,0|8,0:0|0:0,0:0:0:0:
371,347,197180,5,2,0:1:0:0:
415,338,197249,1,8,0:0:0:0:
449,307,197317,2,0,P|458:280|455:227,1,62.5,0|8,0:0|0:0,0:0:0:0:
298,83,197453,5,2,0:1:0:0:
275,121,197521,1,8,0:0:0:0:
275,167,197590,2,0,P|289:191|330:224,1,62.5,0|8,0:0|0:0,0:0:0:0:
472,125,197726,2,0,P|433:132|409:146,1,62.5,2|8,0:2|0:0,0:0:0:0:
353,330,197862,2,0,P|398:292|407:267,1,62.5,2|8,3:2|3:0,3:0:0:0:
306,69,197999,5,6,0:0:0:0:
276,45,198067,1,8,0:0:0:0:
238,41,198135,1,0,0:0:0:0:
202,52,198203,1,8,0:0:0:0:
175,78,198271,1,2,0:0:0:0:
166,114,198340,1,8,0:0:0:0:
176,149,198408,2,0,P|198:181|222:190,1,62.5,0|8,0:0|0:0,0:0:0:0:
356,238,198544,5,6,0:0:0:0:
383,264,198612,1,8,0:0:0:0:
393,301,198680,1,0,0:0:0:0:
387,338,198749,1,8,0:0:0:0:
365,368,198817,1,2,0:0:0:0:
330,382,198885,1,8,0:0:0:0:
294,377,198953,2,0,P|259:359|246:337,1,62.5,0|8,0:0|0:0,0:0:0:0:
231,182,199090,5,2,0:1:0:0:
203,156,199158,1,8,0:0:0:0:
166,147,199226,2,0,P|127:155|98:176,1,62.5,0|8,0:0|0:0,0:0:0:0:
316,202,199362,5,2,0:1:0:0:
322,158,199430,1,8,0:0:0:0:
305,117,199499,2,0,P|271:88|242:83,1,62.5,0|8,0:0|0:0,0:0:0:0:
370,263,199635,5,2,0:1:0:0:
406,239,199703,1,8,0:0:0:0:
427,200,199771,2,0,P|436:152|426:127,1,62.5,0|8,0:0|0:0,0:0:0:0:
304,27,199908,5,6,0:0:0:0:
255,14,199976,1,8,0:0:0:0:
208,31,200044,1,0,0:0:0:0:
181,73,200112,1,8,0:0:0:0:
138,99,200180,1,2,0:0:0:0:
88,103,200249,1,8,0:0:0:0:
45,75,200317,2,0,P|28:44|28:9,1,62.5,0|8,0:0|0:0,0:0:0:0:
264,99,200453,5,6,0:1:0:0:
288,149,200521,1,8,0:0:0:0:
275,203,200590,1,0,0:0:0:0:
226,231,200658,1,8,0:0:0:0:
182,267,200726,1,2,0:0:0:0:
175,322,200794,1,8,0:0:0:0:
201,371,200862,2,0,P|241:380|293:364,1,62.5,0|8,0:0|0:0,0:0:0:0:
435,279,200999,5,2,0:1:0:0:
459,242,201067,1,8,0:0:0:0:
457,198,201135,2,0,P|435:166|408:155,1,62.5,0|8,0:0|0:0,0:0:0:0:
235,165,201271,5,2,0:1:0:0:
226,204,201340,1,8,0:0:0:0:
242,240,201408,2,0,P|271:260|297:261,1,62.5,2|8,0:2|0:0,0:0:0:0:
353,106,201544,2,0,P|338:137|341:177,1,62.5,2|8,0:2|0:0,0:0:0:0:
491,322,201680,2,0,P|479:289|449:263,1,62.5,2|8,0:2|0:0,0:0:0:0:
216,273,201817,5,6,0:0:0:0:
230,314,201885,1,8,0:0:0:0:
261,344,201953,1,0,0:0:0:0:
304,350,202021,1,8,0:0:0:0:
346,339,202090,1,2,0:0:0:0:
375,306,202158,1,8,0:0:0:0:
378,261,202226,2,0,P|367:221|344:199,1,62.5,0|8,0:0|0:0,0:0:0:0:
196,172,202362,5,2,0:1:0:0:
159,147,202430,1,8,0:0:0:0:
145,105,202499,1,0,0:0:0:0:
157,62,202567,1,8,0:0:0:0:
192,36,202635,1,2,0:0:0:0:
235,33,202703,1,8,0:0:0:0:
272,55,202771,2,0,P|289:83|296:118,1,62.5,0|8,0:0|0:0,0:0:0:0:
259,264,202908,5,8,2:0:0:0:
193,284,202976,1,8,2:0:0:0:
127,304,203044,1,8,2:0:0:0:
61,324,203112,1,8,2:0:0:0:
33,326,203180,5,8,0:0:0:0:
42,289,203249,1,8,0:0:0:0:
52,252,203317,1,8,0:0:0:0:
62,216,203385,1,8,0:0:0:0:
94,190,203453,5,8,0:0:0:0:
90,159,203521,1,8,0:0:0:0:
86,127,203590,1,8,0:0:0:0:
83,95,203658,1,8,0:0:0:0:
33,55,203726,6,0,B|65:95|65:95|150:115|186:40,1,187.5,6|0,0:0|0:0,0:0:0:0:
229,0,203999,1,8,2:0:0:0:
275,18,204067,1,8,2:0:0:0:
296,62,204135,1,8,2:0:0:0:
285,110,204203,1,8,2:0:0:0:
245,140,204271,6,0,P|222:211|338:292,1,187.5,4|0,0:2|0:0,0:0:0:0:
464,283,204544,2,0,B|427:251|427:251|230:260,1,187.5,6|0,0:0|0:0,0:0:0:0:
239,320,204817,1,8,2:0:0:0:
189,310,204885,1,8,2:0:0:0:
139,301,204953,1,8,2:0:0:0:
89,292,205021,1,8,2:0:0:0:
44,304,205090,6,0,L|19:110,1,187.5,6|0,0:0|0:0,0:0:0:0:
128,0,205362,2,0,L|110:195,1,187.5,6|0,0:0|0:0,0:0:0:0:
42,261,205635,6,0,B|69:239|149:248|116:290|176:305|248:261,1,187.5,6|0,0:0|0:0,0:0:0:0:
287,243,205908,1,8,2:0:0:0:
297,194,205976,1,8,2:0:0:0:
307,145,206044,1,8,2:0:0:0:
317,96,206112,1,8,2:0:0:0:
306,45,206180,6,0,B|362:25|362:25|498:67,1,187.5,4|0,0:0|0:0,0:0:0:0:
512,178,206453,2,0,B|456:198|456:198|320:156,1,187.5,4|0,0:2|0:0,0:0:0:0:
242,73,206726,5,4,0:0:0:0:
193,61,206794,1,8,0:0:0:0:
146,79,206862,1,0,0:0:0:0:
119,121,206930,1,8,0:0:0:0:
121,171,206999,1,0,0:0:0:0:
149,211,207067,1,8,0:0:0:0:
148,260,207135,1,0,0:0:0:0:
116,298,207203,1,8,0:0:0:0:
69,314,207271,1,4,0:2:0:0:
25,287,207340,1,8,0:0:0:0:
9,238,207408,2,0,P|8:209|37:150,1,62.5,0|8,0:0|0:0,0:0:0:0:
193,53,207544,5,4,0:0:0:0:
249,44,207612,1,8,0:0:0:0:
299,68,207680,1,0,0:0:0:0:
325,118,207749,1,8,0:0:0:0:
370,150,207817,1,0,0:0:0:0:
426,147,207885,1,8,0:0:0:0:
472,116,207953,2,0,P|487:72|486:53,1,62.5,0|8,0:0|0:0,0:0:0:0:
193,33,208090,5,4,0:2:0:0:
130,39,208158,1,8,0:0:0:0:
101,94,208226,1,0,0:0:0:0:
113,155,208294,1,8,0:0:0:0:
163,192,208362,5,4,0:2:0:0:
205,245,208430,1,8,0:0:0:0:
196,314,208499,1,0,0:0:0:0:
139,353,208567,1,8,0:0:0:0:
70,344,208635,5,4,0:0:0:0:
24,284,208703,1,8,0:0:0:0:
33,209,208771,1,0,0:0:0:0:
90,158,208840,1,8,0:0:0:0:
164,160,208908,1,4,0:1:0:0:
218,211,208976,1,8,0:0:0:0:
282,248,209044,1,0,0:0:0:0:
356,242,209112,1,0,0:0:0:0:
422,210,209180,5,8,2:0:0:0:
432,138,209249,1,8,2:0:0:0:
443,68,209317,1,8,2:0:0:0:
452,0,209385,1,8,2:0:0:0:
462,1,209453,5,6,0:0:0:0:
256,192,209523,12,0,211646,0:0:0:0:
164,60,211717,5,8,0:0:0:0:
180,188,211883,1,8,0:0:0:0:
196,317,212050,1,8,0:0:0:0:
45,138,212217,6,0,B|27:170|27:170|40:238,2,100
444,177,212717,5,8,0:0:0:0:
295,122,212883,1,8,0:0:0:0:
145,67,213050,1,8,0:0:0:0:
416,40,213217,6,0,B|445:11|445:11|516:16,2,100
290,247,213717,6,0,L|351:286,1,69.9999978637696,4|0,0:2|0:0,0:0:0:0:
464,165,213884,2,0,L|382:179,1,69.9999978637696,6|0,0:0|0:0,0:0:0:0:
444,351,214051,2,0,L|468:262,1,69.9999978637696,4|0,0:2|0:0,0:0:0:0:
321,149,214217,5,6,0:0:0:0:
269,128,214300,1,0,0:0:0:0:
218,151,214383,1,0,0:0:0:0:
197,203,214467,1,0,0:0:0:0:
151,234,214550,1,0,0:0:0:0:
96,223,214633,1,0,0:0:0:0:
69,173,214717,5,10,0:0:0:0:
75,138,214800,1,0,0:0:0:0:
102,117,214883,1,0,0:0:0:0:
137,113,214967,1,0,0:0:0:0:
167,96,215050,1,0,0:0:0:0:
177,62,215133,1,0,0:0:0:0:
162,29,215217,1,2,0:0:0:0:
128,18,215300,1,0,0:0:0:0:
95,30,215383,5,2,0:2:0:0:
82,47,215467,1,2,0:2:0:0:
79,67,215550,1,2,0:2:0:0:
87,86,215633,1,2,0:2:0:0:
103,99,215717,5,6,0:0:0:0:
142,113,215800,1,0,0:0:0:0:
169,144,215883,1,0,0:0:0:0:
177,185,215967,1,0,0:0:0:0:
158,222,216050,1,0,0:0:0:0:
127,250,216133,1,0,0:0:0:0:
118,291,216217,1,2,0:0:0:0:
130,330,216300,1,0,0:0:0:0:
166,350,216383,1,0,0:0:0:0:
207,342,216467,1,0,0:0:0:0:
238,314,216550,1,0,0:0:0:0:
278,303,216633,1,0,0:0:0:0:
319,312,216717,5,10,0:0:0:0:
300,341,216800,1,0,0:0:0:0:
265,346,216883,1,0,0:0:0:0:
247,315,216967,1,0,0:0:0:0:
257,281,217050,1,0,0:0:0:0:
287,263,217133,1,0,0:0:0:0:
306,233,217217,1,2,0:0:0:0:
303,198,217300,1,0,0:0:0:0:
278,173,217383,1,0,0:0:0:0:
243,164,217467,1,0,0:0:0:0:
218,139,217550,1,0,0:0:0:0:
215,104,217633,1,0,0:0:0:0:
234,74,217717,6,0,L|326:58,1,69.9999978637696,4|0,0:2|0:0,0:0:0:0:
416,215,217883,2,0,L|333:199,1,69.9999978637696,4|0,0:2|0:0,0:0:0:0:
449,8,218050,2,0,L|471:95,1,69.9999978637696,6|0,0:0|0:0,0:0:0:0:
240,221,218217,5,6,0:0:0:0:
270,192,218300,1,0,0:0:0:0:
311,187,218383,1,0,0:0:0:0:
347,208,218467,1,0,0:0:0:0:
362,247,218550,1,0,0:0:0:0:
350,287,218633,1,0,0:0:0:0:
312,306,218716,5,10,0:0:0:0:
284,265,218799,1,0,0:0:0:0:
236,253,218883,1,0,0:0:0:0:
190,271,218967,1,0,0:0:0:0:
167,314,219050,1,0,0:0:0:0:
128,344,219133,1,0,0:0:0:0:
79,337,219217,1,2,0:0:0:0:
49,297,219300,1,0,0:0:0:0:
59,249,219383,1,0,0:0:0:0:
97,218,219467,1,0,0:0:0:0:
110,171,219550,1,0,0:0:0:0:
96,124,219633,1,0,0:0:0:0:
53,98,219717,5,2,0:0:0:0:
16,130,219800,1,0,0:0:0:0:
19,178,219883,1,0,0:0:0:0:
60,204,219967,1,0,0:0:0:0:
107,195,220050,1,0,0:0:0:0:
143,162,220133,1,0,0:0:0:0:
190,148,220216,5,2,0:0:0:0:
223,179,220300,1,0,0:0:0:0:
230,224,220383,1,0,0:0:0:0:
211,266,220467,1,0,0:0:0:0:
171,286,220550,2,0,P|142:282|112:262,1,50
82,116,220717,5,8,2:0:0:0:
107,78,220800,1,8,2:0:0:0:
144,64,220883,1,8,0:0:0:0:
178,70,220967,1,8,0:0:0:0:
199,97,221050,2,0,P|197:136|186:157,1,50,8|8,0:0|0:0,0:0:0:0:
399,95,221217,5,8,2:0:0:0:
426,128,221300,1,8,2:0:0:0:
428,172,221383,1,8,0:0:0:0:
405,205,221467,1,8,0:0:0:0:
368,220,221550,2,0,P|331:218|317:212,1,50,8|8,0:0|0:0,0:0:0:0:
315,33,221717,5,8,0:0:0:0:
320,49,222383,6,0,L|231:65,1,69.9999978637696,6|0,0:2|0:0,0:0:0:0:
114,238,222550,2,0,L|203:254,1,69.9999978637696,6|0,0:2|0:0,0:0:0:0:
392,288,222717,5,14,0:0:0:0:
439,261,222800,1,0,0:0:0:0:
447,206,222883,1,0,0:0:0:0:
414,160,222967,1,0,0:0:0:0:
361,145,223050,1,0,0:0:0:0:
311,167,223133,1,0,0:0:0:0:
280,213,223217,5,2,0:0:0:0:
249,229,223300,1,0,0:0:0:0:
214,224,223383,1,0,0:0:0:0:
191,196,223467,1,0,0:0:0:0:
191,161,223550,1,0,0:0:0:0:
212,133,223633,1,0,0:0:0:0:
251,123,223717,5,2,0:0:0:0:
275,166,223800,1,0,0:0:0:0:
320,185,223883,1,0,0:0:0:0:
369,176,223967,1,0,0:0:0:0:
402,139,224050,1,0,0:0:0:0:
400,89,224133,1,0,0:0:0:0:
366,51,224217,5,2,0:0:0:0:
332,80,224300,1,0,0:0:0:0:
335,124,224383,1,0,0:0:0:0:
367,155,224467,1,0,0:0:0:0:
411,157,224550,1,0,0:0:0:0:
446,129,224633,1,0,0:0:0:0:
451,83,224717,5,10,0:0:0:0:
411,53,224800,1,0,0:0:0:0:
361,61,224883,1,0,0:0:0:0:
323,94,224967,1,0,0:0:0:0:
274,105,225050,1,0,0:0:0:0:
226,88,225133,1,0,0:0:0:0:
205,41,225217,5,2,0:0:0:0:
230,10,225300,1,0,0:0:0:0:
269,7,225383,1,0,0:0:0:0:
301,30,225467,1,0,0:0:0:0:
309,68,225550,1,0,0:0:0:0:
291,103,225633,1,0,0:0:0:0:
260,120,225717,6,0,L|156:98,1,69.9999978637696,6|0,0:2|0:0,0:0:0:0:
52,15,225883,2,0,L|156:-7,1,69.9999978637696,6|0,0:2|0:0,0:0:0:0:
73,213,226050,2,0,L|80:127,1,69.9999978637696,6|0,0:0|0:0,0:0:0:0:
342,168,226216,5,6,0:0:0:0:
308,193,226300,1,0,0:0:0:0:
296,233,226383,1,0,0:0:0:0:
305,274,226467,1,0,0:0:0:0:
339,298,226550,2,0,P|375:309|402:304,1,50
504,134,226717,5,10,0:0:0:0:
464,104,226800,1,0,0:0:0:0:
414,97,226883,1,0,0:0:0:0:
366,115,226967,1,0,0:0:0:0:
335,154,227050,1,0,0:0:0:0:
287,169,227133,1,0,0:0:0:0:
238,154,227217,5,2,0:0:0:0:
211,106,227300,1,0,0:0:0:0:
224,52,227383,1,0,0:0:0:0:
271,23,227467,1,0,0:0:0:0:
323,37,227550,2,0,P|342:71|345:95,1,50
332,268,227717,5,2,0:0:0:0:
305,321,227800,1,0,0:0:0:0:
249,342,227883,1,0,0:0:0:0:
191,323,227967,1,0,0:0:0:0:
171,266,228050,1,0,0:0:0:0:
186,208,228133,1,0,0:0:0:0:
228,165,228216,5,2,0:0:0:0:
245,117,228300,1,0,0:0:0:0:
231,69,228383,1,0,0:0:0:0:
191,39,228466,1,0,0:0:0:0:
140,41,228550,2,0,P|112:55|95:75,1,50
74,266,228717,5,8,2:0:0:0:
116,225,228800,1,8,2:0:0:0:
165,225,228884,1,8,0:0:0:0:
193,259,228967,1,8,0:0:0:0:
196,299,229050,2,0,P|182:337|171:348,1,50,8|8,0:0|0:0,0:0:0:0:
329,56,229216,5,8,2:0:0:0:
365,102,229300,1,8,2:0:0:0:
356,151,229383,1,8,0:0:0:0:
319,177,229467,1,8,0:0:0:0:
278,172,229550,2,0,P|253:161|236:140,1,50,8|8,0:0|0:0,0:0:0:0:
454,182,229716,5,6,0:0:0:0:
487,232,229800,1,8,0:0:0:0:
481,291,229883,1,0,0:0:0:0:
432,325,229966,1,8,0:0:0:0:
372,312,230050,1,0,0:0:0:0:
333,266,230133,1,8,0:0:0:0:
279,238,230216,1,2,0:1:0:0:
219,247,230300,1,8,0:0:0:0:
179,291,230383,1,0,0:0:0:0:
127,320,230466,1,8,0:0:0:0:
67,307,230550,1,0,0:2:0:0:
34,256,230633,1,8,0:0:0:0:
48,198,230716,1,2,0:1:0:0:
92,157,230800,1,8,0:0:0:0:
147,134,230883,1,0,0:0:0:0:
166,77,230966,1,8,0:0:0:0:
146,19,231050,1,0,0:0:0:0:
88,1,231133,1,8,0:0:0:0:
32,22,231216,5,2,0:1:0:0:
17,70,231300,1,8,0:0:0:0:
32,111,231383,1,0,0:1:0:0:
69,123,231466,1,8,0:0:0:0:
102,113,231550,1,0,0:1:0:0:
118,88,231633,1,8,0:0:0:0:
115,67,231716,5,6,0:0:0:0:
70,99,231800,1,8,0:0:0:0:
59,152,231883,1,0,0:0:0:0:
85,199,231966,1,8,0:0:0:0:
135,220,232050,1,0,0:0:0:0:
189,211,232133,1,8,0:0:0:0:
232,177,232217,1,2,0:1:0:0:
285,163,232301,1,8,0:0:0:0:
334,186,232384,1,0,0:0:0:0:
356,236,232467,1,8,0:0:0:0:
345,290,232550,2,0,P|327:329|312:342,1,50,0|8,0:0|0:0,0:0:0:0:
149,159,232716,5,6,0:1:0:0:
175,117,232800,1,8,0:0:0:0:
222,101,232883,1,0,0:0:0:0:
270,116,232966,1,8,0:0:0:0:
298,159,233050,1,0,0:0:0:0:
315,206,233133,1,8,0:0:0:0:
356,236,233217,1,2,0:1:0:0:
401,241,233301,1,8,0:0:0:0:
437,213,233384,1,0,0:0:0:0:
450,176,233467,1,8,0:0:0:0:
434,140,233550,2,0,P|409:112|377:100,1,50,0|8,0:0|0:0,0:0:0:0:
218,190,233716,5,6,0:0:0:0:
198,236,233800,1,8,0:0:0:0:
208,285,233883,1,0,0:0:0:0:
249,314,233966,1,8,0:0:0:0:
299,310,234050,2,0,P|335:298|353:273,1,50,0|8,0:0|0:0,0:0:0:0:
338,88,234217,5,2,0:1:0:0:
289,113,234300,1,8,0:0:0:0:
266,163,234383,2,0,P|273:202|294:224,1,50.0000019073487,0|8,0:2|0:0,0:0:0:0:
423,311,234550,5,0,0:1:0:0:
475,282,234633,1,8,0:0:0:0:
492,224,234716,1,2,0:1:0:0:
463,170,234800,1,8,0:0:0:0:
405,152,234883,1,0,0:1:0:0:
347,168,234966,1,8,0:0:0:0:
308,214,235050,1,0,0:1:0:0:
250,229,235133,1,8,0:0:0:0:
193,209,235216,5,2,0:1:0:0:
163,150,235300,1,8,0:0:0:0:
176,86,235383,1,0,0:1:0:0:
230,50,235466,1,8,0:0:0:0:
294,59,235550,1,0,0:0:0:0:
329,113,235633,1,8,0:0:0:0:
327,178,235717,6,0,B|298:216|298:216|105:185,1,189.999994926453,6|0,0:0|0:0,0:0:0:0:
126,203,236050,1,8,0:0:0:0:
78,68,236217,1,8,0:0:0:0:
255,326,236383,1,8,0:0:0:0:
290,157,236550,1,8,0:0:0:0:
51,304,236717,6,0,B|76:255|76:255|221:232,1,150.000005722046,14|0,0:0|0:0,0:0:0:0:
353,213,237050,1,0,0:0:0:0:
148,0,237217,6,0,B|117:49|117:49|132:184,1,176.666674079895,14|0,0:0|0:0,0:0:0:0:
161,366,237550,1,0,0:0:0:0:
512,168,237717,6,0,B|466:140|396:158|437:160|377:196|299:151,1,200,6|0,0:0|0:0,0:0:0:0:
191,4,238217,2,0,P|201:46|201:125,2,100,10|0|0,0:0|0:0|0:0,0:0:0:0:
54,210,238717,2,0,P|121:167|246:153,1,200,2|0,0:0|0:0,0:0:0:0:
386,304,239217,2,0,P|341:276|287:271,2,100,10|0|0,0:0|0:0|0:0,0:0:0:0:
413,103,239717,6,0,P|398:162|428:318,1,200,2|0,0:0|0:0,0:0:0:0:
178,292,240217,2,0,P|213:274|275:273,2,100,10|0|0,0:0|0:0|0:0,0:0:0:0:
39,150,240717,5,6,0:2:0:0:
212,204,240883,1,0,0:0:0:0:
213,30,241050,1,0,0:0:0:0:
216,225,241217,1,10,0:0:0:0:
512,112,241717,6,0,B|471:76|404:106|428:108|370:153|307:112,1,200,6|0,0:0|0:0,0:0:0:0:
208,0,242217,2,0,P|218:40|218:106,2,100,10|0|0,0:0|0:0|0:0,0:0:0:0:
17,207,242717,2,0,P|83:174|211:182,1,200,2|0,0:0|0:0,0:0:0:0:
268,384,243217,2,0,P|262:332|267:279,2,100,10|0|0,0:0|0:0|0:0,0:0:0:0:
320,181,243717,6,0,P|361:239|491:226,1,200,2|0,0:0|0:0,0:0:0:0:
423,23,244217,2,0,P|410:85|416:135,1,100,10|0,0:0|0:0,0:0:0:0:
324,306,244550,1,0,0:0:0:0:
349,275,244633,1,0,0:0:0:0:
351,235,244717,5,14,0:2:0:0:
156,170,244883,1,0,0:0:0:0:
202,276,245050,1,0,0:0:0:0:
282,55,245217,5,14,0:0:0:0:
308,328,245383,1,0,0:0:0:0:
238,181,245550,1,0,0:0:0:0:
42,324,245717,6,0,B|110:277|110:277|259:300,1,200,6|0,0:0|0:0,0:0:0:0:
418,194,246217,2,0,B|389:233|389:233|398:301,2,100,10|0|0,0:0|0:0|0:0,0:0:0:0:
485,352,246717,2,0,B|436:313|436:313|281:329,1,200,2|0,0:0|0:0,0:0:0:0:
179,158,247217,2,0,B|202:197|202:197|191:272,2,100,10|0|0,0:0|0:0|0:0,0:0:0:0:
413,101,247717,6,0,B|377:53|377:53|215:49,1,200,2|0,0:0|0:0,0:0:0:0:
67,202,248217,2,0,B|93:173|93:173|186:161,2,100,10|0|0,0:0|0:0|0:0,0:0:0:0:
236,271,248717,1,4,0:2:0:0:
219,108,248883,1,0,0:0:0:0:
51,321,249050,1,0,0:0:0:0:
73,288,249133,1,0,0:0:0:0:
111,276,249217,2,0,B|165:247|216:279|190:298|250:334|339:278,1,200,14|0,0:0|0:0,0:0:0:0:
376,13,249717,6,0,P|363:80|465:209,1,200,6|0,0:0|0:0,0:0:0:0:
268,312,250217,2,0,P|334:293|385:304,2,100,10|0|0,0:0|0:0|0:0,0:0:0:0:
251,116,250717,2,0,P|268:223|246:326,1,200,2|0,0:0|0:0,0:0:0:0:
86,65,251217,2,0,P|62:121|61:180,2,100,10|0|0,0:0|0:0|0:0,0:0:0:0:
0,295,251717,6,0,P|62:266|205:272,1,200,2|0,0:0|0:0,0:0:0:0:
355,365,252217,2,0,P|349:309|357:240,2,100,10|0|0,0:0|0:0|0:0,0:0:0:0:
444,79,252717,5,8,2:0:0:0:
466,118,252800,1,8,2:0:0:0:
466,162,252883,2,0,P|444:196|430:205,1,50,8|8,0:0|0:0,0:0:0:0:
302,97,253050,2,0,P|333:103|368:126,1,50,8|8,0:0|0:0,0:0:0:0:
279,305,253217,5,8,2:0:0:0:
258,264,253300,1,8,2:0:0:0:
262,219,253383,2,0,P|273:186|300:164,1,50,8|8,0:0|0:0,0:0:0:0:
423,269,253550,2,0,P|383:292|357:293,1,50,8|8,0:0|0:0,0:0:0:0:
168,291,253717,6,0,L|176:66,1,200,6|0,0:0|0:0,0:0:0:0:
261,28,254217,2,0,B|219:38|204:75|204:75|156:32|65:55,1,200.000007629395,2|0,0:0|0:0,0:0:0:0:
58,224,254717,2,0,B|90:192|90:192|121:206|160:186,1,100.000003814697,10|0,0:0|0:0,0:0:0:0:
306,294,255050,2,0,B|281:266|281:266|251:276|206:255,1,100.000003814697,0|4,0:0|0:2,0:0:0:0:
112,299,255383,1,2,0:0:0:0:
124,366,255550,1,0,0:0:0:0:
285,139,255717,6,0,P|267:202|266:256,1,100,2|0,0:0|0:0,0:0:0:0:
435,98,256050,2,0,P|452:152|455:199,2,100,2|2|0,0:0|0:0|0:0,0:0:0:0:
383,39,256550,1,0,0:0:0:0:
237,280,256717,6,0,B|240:241|291:240|291:240|343:297|450:255,1,200,10|0,0:0|0:0,0:0:0:0:
471,127,257217,2,0,B|421:133|418:185|418:185|465:238|406:323,1,200,2|0,0:0|0:0,0:0:0:0:
232,150,257717,5,6,0:0:0:0:
329,213,257883,1,0,0:0:0:0:
261,309,258050,1,0,0:0:0:0:
156,244,258217,1,2,0:0:0:0:
46,287,258383,2,0,P|32:346|35:392,1,100
316,232,258717,6,0,B|379:244|416:200|416:200|388:148|331:156,1,200.000007629395,10|0,0:0|0:0,0:0:0:0:
36,274,259217,1,2,0:0:0:0:
89,193,259383,2,0,P|87:137|74:69,1,100
310,4,259717,6,0,P|291:62|283:141,1,100,6|0,0:0|0:0,0:0:0:0:
446,243,260050,2,0,P|449:186|429:122,1,100,0|2,0:0|0:0,0:0:0:0:
289,359,260467,1,0,0:0:0:0:
323,337,260550,1,0,0:0:0:0:
336,299,260633,1,0,0:0:0:0:
325,260,260717,1,14,0:0:0:0:
216,204,260883,5,8,2:0:0:0:
168,220,260967,1,8,2:0:0:0:
120,236,261050,1,8,2:0:0:0:
73,252,261133,1,8,2:0:0:0:
31,292,261217,2,0,L|20:217,1,50.0000019073487,8|8,0:0|0:0,0:0:0:0:
18,107,261383,5,8,2:0:0:0:
68,111,261467,1,8,2:0:0:0:
118,116,261550,1,8,2:0:0:0:
168,121,261633,1,8,2:0:0:0:
218,151,261717,6,0,B|278:170|278:170|339:187|365:105,1,150,6|0,0:0|0:0,0:0:0:0:
354,34,262050,2,0,P|356:91|383:147,1,100,0|2,0:0|0:0,0:0:0:0:
428,256,262383,2,0,P|487:235|536:238,1,100
342,383,262717,6,0,B|341:346|305:323|305:323|273:269|315:188,1,200.000007629395,10|0,0:0|0:0,0:0:0:0:
465,43,263217,2,0,P|449:98|417:136,1,100,2|0,0:0|0:0,0:0:0:0:
352,20,263550,1,0,0:0:0:0:
200,211,263717,6,0,P|243:185|324:184,2,100,6|0|2,0:0|0:0|0:0,0:0:0:0:
386,335,264217,1,2,0:0:0:0:
305,368,264383,1,0,0:0:0:0:
319,282,264550,1,0,0:0:0:0:
442,188,264717,5,14,0:0:0:0:
321,267,264883,1,0,0:0:0:0:
209,179,265050,1,0,0:0:0:0:
201,352,265217,5,6,0:0:0:0:
323,251,265383,1,0,0:0:0:0:
435,360,265550,1,0,0:0:0:0:
218,115,265717,5,6,0:0:0:0:
277,338,265883,1,0,0:0:0:0:
118,268,266050,1,0,0:0:0:0:
330,191,266217,2,0,P|261:227|217:223,1,100.000003814697,2|0,0:0|0:0,0:0:0:0:
352,89,266550,1,0,0:0:0:0:
175,67,266717,5,14,0:2:0:0:
221,218,266883,1,0,0:0:0:0:
122,338,267050,1,0,0:0:0:0:
346,319,267217,5,14,0:2:0:0:
221,197,267383,1,0,0:0:0:0:
56,209,267550,1,0,0:0:0:0:
118,0,267717,5,14,0:0:0:0:
219,174,267883,1,2,0:2:0:0:
368,89,268050,1,2,0:2:0:0:
369,293,268217,5,2,0:2:0:0:
216,157,268383,1,2,0:2:0:0:
113,305,268550,1,2,0:2:0:0:
31,131,268717,5,10,0:2:0:0:
225,139,268883,1,2,0:2:0:0:
254,319,269050,1,2,0:2:0:0:
442,224,269217,5,8,2:0:0:0:
414,176,269300,1,8,2:0:0:0:
366,161,269383,1,8,0:0:0:0:
321,171,269467,1,8,0:0:0:0:
293,199,269550,2,0,P|279:239|285:273,1,50.0000019073487,8|8,0:0|0:0,0:0:0:0:
433,77,269717,6,0,B|353:59|353:59|312:69|312:69|220:50,1,200,6|0,0:0|0:0,0:0:0:0:
195,66,270050,1,0,0:0:0:0:
179,36,270133,1,0,0:0:0:0:
191,4,270217,5,8,0:0:0:0:
230,130,270383,1,8,0:0:0:0:
150,237,270550,1,8,0:0:0:0:
172,381,270717,1,8,0:0:0:0:
172,381,271029,5,0,0:0:0:0:
176,361,271092,1,0,0:0:0:0:
180,341,271154,1,0,0:0:0:0:
184,321,271217,5,14,0:0:0:0:
262,177,271342,2,0,P|237:276|276:379,1,200,2|0,0:0|0:0,0:0:0:0:
285,379,271717,5,6,0:0:0:0:
431,243,271883,1,8,2:0:0:0:
399,230,271967,1,8,2:0:0:0:
366,233,272050,1,8,2:0:0:0:
485,333,272217,5,0,0:0:0:0:
429,160,272383,1,0,0:0:0:0:
302,236,272550,1,0,0:0:0:0:
186,176,272717,1,8,2:0:0:0:
172,138,272800,1,8,2:0:0:0:
180,99,272883,2,0,P|196:73|231:52,1,66.6666666666667,8|8,0:0|0:0,0:0:0:0:
364,176,273050,2,0,P|320:188|279:178,1,66.6666666666667,8|8,0:0|0:0,0:0:0:0:
407,14,273217,5,8,2:0:0:0:
413,53,273300,1,8,2:0:0:0:
419,92,273383,2,0,L|432:185,1,66.6666666666667,8|8,0:0|0:0,0:0:0:0:
264,268,273550,2,0,L|273:201,1,66.6666666666667,8|8,0:0|0:0,0:0:0:0:
440,342,273717,6,0,B|421:305|371:310|371:310|316:356|220:303,1,200,6|0,0:0|0:0,0:0:0:0:
229,310,274029,1,0,0:0:0:0:
225,290,274092,1,0,0:0:0:0:
221,270,274154,1,0,0:0:0:0:
218,250,274217,5,8,0:0:0:0:
359,300,274383,1,8,0:0:0:0:
474,125,274550,1,8,0:0:0:0:
340,176,274717,1,8,0:0:0:0:
340,176,275029,5,0,0:0:0:0:
344,156,275092,1,0,0:0:0:0:
348,136,275154,1,0,0:0:0:0:
352,116,275217,5,10,0:0:0:0:
131,202,275383,2,0,B|177:211|206:184|206:184|280:161|323:248,1,200,2|0,0:1|0:0,0:0:0:0:
340,350,275717,6,0,P|335:287|414:190,1,133.333333333333,6|8,0:0|2:0,0:0:0:0:
397,207,275967,1,8,2:0:0:0:
432,204,276050,1,8,2:0:0:0:
426,363,276217,5,8,0:0:0:0:
286,291,276383,1,8,0:0:0:0:
266,296,276467,1,8,0:0:0:0:
247,302,276550,1,8,0:0:0:0:
104,283,276717,5,8,0:0:0:0:
250,226,276883,1,8,0:0:0:0:
382,280,277050,1,8,0:0:0:0:
264,54,277217,5,8,0:0:0:0:
378,265,277383,1,8,0:0:0:0:
489,119,277550,1,8,0:0:0:0:
179,168,277717,6,0,P|161:235|280:310,1,200,6|0,0:0|0:0,0:0:0:0:
289,313,278029,1,0,0:0:0:0:
294,293,278092,1,0,0:0:0:0:
299,273,278154,1,0,0:0:0:0:
304,253,278217,5,8,0:0:0:0:
257,101,278383,1,8,0:0:0:0:
131,182,278550,1,8,0:0:0:0:
0,92,278717,1,8,0:0:0:0:
0,92,279029,5,0,0:0:0:0:
3,111,279092,1,0,0:0:0:0:
6,130,279154,1,0,0:0:0:0:
9,149,279217,5,10,0:0:0:0:
118,17,279383,2,0,P|91:71|96:224,1,200,6|0,0:2|0:0,0:0:0:0:
108,232,279717,5,6,0:0:0:0:
247,361,279883,1,8,2:0:0:0:
233,315,279967,1,8,2:0:0:0:
245,270,280050,1,8,2:0:0:0:
285,246,280133,1,8,2:0:0:0:
331,240,280217,2,0,P|364:253|385:278,1,66.6666666666667,8|8,0:0|0:0,0:0:0:0:
501,121,280383,5,8,2:0:0:0:
461,95,280467,1,8,2:0:0:0:
414,95,280550,2,8,P|381:121|368:152,1,66.6666666666667
132,181,280717,5,8,2:0:0:0:
185,154,280800,1,8,2:0:0:0:
242,170,280883,1,8,2:0:0:0:
266,225,280967,1,8,2:0:0:0:
251,283,281050,1,8,2:0:0:0:
201,316,281133,1,8,2:0:0:0:
140,312,281217,5,8,0:0:0:0:
117,287,281300,1,8,0:0:0:0:
85,276,281383,1,8,0:0:0:0:
51,280,281467,1,8,0:0:0:0:
24,300,281550,2,8,P|16:337|28:372,1,66.6666666666667
293,371,281717,6,0,L|319:122,1,200,6|0,0:0|0:0,0:0:0:0:
327,157,282029,1,0,0:0:0:0:
341,142,282092,1,0,0:0:0:0:
354,127,282154,1,0,0:0:0:0:
368,112,282217,5,8,0:0:0:0:
436,300,282383,1,8,0:0:0:0:
280,252,282550,1,8,0:0:0:0:
149,345,282717,1,8,0:0:0:0:
149,345,283029,5,0,0:0:0:0:
146,324,283092,1,0,0:0:0:0:
143,304,283154,1,0,0:0:0:0:
140,283,283217,5,10,0:0:0:0:
300,371,283383,2,0,P|285:320|375:198,1,200,2|0,0:1|0:0,0:0:0:0:
391,200,283717,5,6,0:0:0:0:
323,21,283883,1,8,2:0:0:0:
298,53,283967,1,8,2:0:0:0:
295,92,284050,1,8,2:0:0:0:
437,117,284217,5,8,0:0:0:0:
306,198,284383,1,8,0:0:0:0:
202,134,284550,1,8,0:0:0:0:
70,347,284717,5,8,0:0:0:0:
257,281,284883,1,8,0:0:0:0:
102,171,285050,1,8,0:0:0:0:
229,16,285217,5,8,0:0:0:0:
216,160,285383,1,8,0:0:0:0:
95,190,285550,1,8,0:0:0:0:
69,22,285717,6,0,P|91:78|92:116,1,66.6666666666667,6|0,0:0|0:0,0:0:0:0:
59,272,286050,2,0,P|49:225|58:187,1,66.6666666666667,0|2,0:0|0:0,0:0:0:0:
172,332,286383,1,8,2:0:0:0:
205,237,286550,1,8,2:0:0:0:
286,341,286717,6,0,B|305:322|292:304|292:304|253:281|191:317,1,133.333333333333,6|8,0:0|2:0,0:0:0:0:
172,332,287383,1,8,2:0:0:0:
205,237,287550,1,8,2:0:0:0:
169,141,287717,6,0,P|131:131|81:133,1,66.6666666666667,6|0,0:0|0:0,0:0:0:0:
22,174,288050,1,0,0:0:0:0:
84,17,288217,2,0,P|100:75|97:103,1,66.6666666666667,2|8,0:0|2:0,0:0:0:0:
190,5,288550,1,8,2:0:0:0:
257,205,288717,6,0,B|241:156|241:156|224:101|264:57,1,133.333333333333,14|8,0:0|2:0,0:0:0:0:
321,26,289217,1,8,2:0:0:0:
400,99,289383,1,8,2:0:0:0:
491,54,289550,1,8,2:0:0:0:
491,240,289717,6,0,P|451:213|428:206,1,66.6666666666667,6|0,0:0|0:0,0:0:0:0:
307,308,290050,2,0,P|352:287|377:283,1,66.6666666666667,0|2,0:0|0:0,0:0:0:0:
210,156,290383,1,8,2:0:0:0:
236,256,290550,1,8,2:0:0:0:
42,186,290717,6,0,B|85:155|85:155|123:186|188:156,1,133.333333333333,6|8,0:0|2:0,0:0:0:0:
210,156,291383,1,8,2:0:0:0:
236,256,291550,1,8,2:0:0:0:
50,337,291717,6,0,P|85:317|130:311,1,66.6666666666667,6|0,0:0|0:0,0:0:0:0:
201,349,292050,1,0,0:0:0:0:
332,304,292217,2,0,P|289:290|257:288,1,66.6666666666667,6|8,0:2|0:0,0:0:0:0:
171,180,292529,5,0,0:0:0:0:
174,197,292592,1,0,0:0:0:0:
177,213,292654,1,0,0:0:0:0:
181,230,292717,5,10,0:0:0:0:
382,209,292883,2,0,P|354:191|299:182,1,66.6666666666667,6|0,0:0|0:0,0:0:0:0:
403,384,293217,2,0,P|388:345|387:318,1,66.6666666666667,2|0,0:0|0:0,0:0:0:0:
415,195,293550,1,0,0:0:0:0:
126,262,293717,6,0,P|152:283|181:324,1,66.6666666666667,6|0,0:0|0:0,0:0:0:0:
294,134,294050,2,0,P|262:161|247:185,1,66.6666666666667,0|2,0:0|0:0,0:0:0:0:
420,52,294383,1,8,2:0:0:0:
401,157,294550,1,8,2:0:0:0:
282,8,294717,6,0,B|282:37|302:57|302:57|280:104|300:154,1,133.333333333333,6|8,0:0|2:0,0:0:0:0:
407,310,295217,1,4,0:2:0:0:
444,225,295383,1,8,2:0:0:0:
406,142,295550,1,8,2:0:0:0:
220,266,295717,6,0,P|250:268|288:261,1,66.6666666666667,6|0,0:0|0:0,0:0:0:0:
196,276,296050,1,0,0:0:0:0:
382,157,296217,2,0,P|344:176|299:177,1,66.6666666666667,2|0,0:0|0:0,0:0:0:0:
399,123,296550,1,0,0:0:0:0:
120,237,296717,5,10,0:0:0:0:
64,153,296883,2,0,P|56:110|61:64,2,66.6666666666667,0|2|0,0:0|0:0|0:0,0:0:0:0:
158,30,297383,2,0,P|151:18|143:-3,1,33.3333333333333,4|4,0:2|0:2,0:0:0:0:
196,127,297550,2,0,P|209:99|209:86,1,33.3333333333333,4|0,0:2|0:0,0:0:0:0:
387,131,297717,6,0,P|377:102|348:68,1,66.6666666666667,6|0,0:0|0:0,0:0:0:0:
445,237,298050,2,0,P|464:198|470:166,1,66.6666666666667,0|2,0:0|0:0,0:0:0:0:
342,307,298383,2,0,P|342:298|346:278,1,16.6666666666667,8|8,2:0|2:0,0:0:0:0:
422,338,298550,1,8,2:0:0:0:
215,219,298717,6,0,B|271:209|271:209|294:246|350:244,1,133.333333333333,6|8,0:0|2:0,0:0:0:0:
359,258,299383,1,8,2:0:0:0:
455,222,299550,1,8,2:0:0:0:
374,66,299717,6,0,P|362:121|359:143,1,66.6666666666667,6|0,0:0|0:0,0:0:0:0:
481,22,300050,2,0,P|487:65|486:94,1,66.6666666666667,0|2,0:0|0:0,0:0:0:0:
338,1,300383,1,8,2:0:0:0:
407,199,300529,5,0,0:0:0:0:
412,177,300592,1,0,0:0:0:0:
417,155,300654,1,0,0:0:0:0:
422,133,300717,5,10,0:0:0:0:
219,48,300883,1,4,0:2:0:0:
202,41,301217,1,2,0:0:0:0:
186,37,301717,6,0,L|193:111,1,41.6666666666667,6|0,0:0|0:0,0:0:0:0:
197,153,301883,2,0,L|204:227,1,41.6666666666667
207,269,302050,2,0,L|214:343,1,41.6666666666667
108,169,302217,6,0,P|106:148|111:127,1,41.6666666666667,2|0,0:2|0:0,0:0:0:0:
233,66,302383,2,0,P|251:75|266:89,1,41.6666666666667,2|0,0:2|0:0,0:0:0:0:
257,223,302550,2,0,P|239:234|219:240,1,41.6666666666667,2|0,0:2|0:0,0:0:0:0:
91,159,302717,5,10,0:2:0:0:
127,149,302800,1,0,0:0:0:0:
163,139,302883,1,0,0:2:0:0:
199,128,302967,1,0,0:0:0:0:
235,118,303050,1,0,0:2:0:0:
271,108,303133,1,0,0:0:0:0:
307,98,303217,5,2,0:1:0:0:
294,137,303300,1,0,0:0:0:0:
306,176,303383,1,2,0:2:0:0:
340,200,303467,1,0,0:0:0:0:
381,202,303550,2,0,P|409:200|426:194,1,41.6666666666667,2|0,0:2|0:0,0:0:0:0:
453,26,303717,5,2,0:1:0:0:
407,5,303800,1,0,0:0:0:0:
357,12,303883,1,0,0:2:0:0:
324,50,303967,1,0,0:0:0:0:
281,76,304050,1,0,0:2:0:0:
231,68,304133,1,0,0:0:0:0:
199,28,304217,6,0,P|189:8|185:-13,1,41.6666666666667,2|0,0:2|0:2,0:0:0:0:
336,60,304383,2,0,P|326:98|311:113,1,41.6666666666667,2|0,0:2|0:0,0:0:0:0:
176,148,304550,2,0,P|207:124|222:122,1,41.6666666666667,2|0,0:2|0:0,0:0:0:0:
349,214,304717,5,10,0:0:0:0:
351,247,304800,1,0,0:0:0:0:
335,276,304883,1,0,0:0:0:0:
307,295,304967,1,0,0:0:0:0:
273,296,305050,1,0,0:0:0:0:
246,276,305133,1,0,0:0:0:0:
234,244,305217,5,2,0:2:0:0:
258,221,305300,1,0,0:0:0:0:
268,185,305383,1,2,0:2:0:0:
250,146,305467,1,0,0:0:0:0:
207,128,305550,2,0,P|186:127|150:135,1,41.6666666666667,2|0,0:2|0:0,0:0:0:0:
29,293,305717,6,0,L|102:279,1,41.6666666666667,6|0,0:0|0:0,0:0:0:0:
144,273,305883,2,0,L|217:259,1,41.6666666666667
258,255,306050,2,0,L|331:241,1,41.6666666666667
126,188,306217,6,0,P|146:186|167:191,1,41.6666666666667,2|0,0:2|0:0,0:0:0:0:
229,313,306383,2,0,P|219:331|205:346,1,41.6666666666667,2|0,0:2|0:0,0:0:0:0:
72,337,306550,2,0,P|60:319|54:299,1,41.6666666666667,2|0,0:2|0:0,0:0:0:0:
351,213,306717,5,10,0:0:0:0:
392,219,306800,1,0,0:0:0:0:
431,207,306883,1,0,0:0:0:0:
459,176,306967,1,0,0:0:0:0:
465,134,307050,1,0,0:0:0:0:
451,94,307133,1,0,0:0:0:0:
417,68,307217,5,2,0:1:0:0:
396,99,307300,1,0,0:0:0:0:
358,116,307383,1,2,0:2:0:0:
312,108,307467,1,0,0:0:0:0:
281,68,307550,2,0,P|274:39|275:17,1,41.6666666666667,2|0,0:2|0:0,0:0:0:0:
494,156,307717,5,6,0:0:0:0:
491,205,307800,1,0,0:0:0:0:
460,244,307883,1,0,0:0:0:0:
411,256,307967,1,0,0:0:0:0:
362,246,308050,1,0,0:0:0:0:
315,262,308133,1,0,0:0:0:0:
289,305,308217,6,0,P|288:334|294:357,1,41.6666666666667,2|0,0:2|0:0,0:0:0:0:
391,230,308383,2,0,P|357:223|341:223,1,41.6666666666667,2|0,0:2|0:0,0:0:0:0:
414,350,308550,2,0,P|443:324|440:299,1,41.6666666666667,2|0,0:2|0:0,0:0:0:0:
444,142,308717,5,8,2:0:0:0:
413,102,308800,1,8,2:0:0:0:
368,90,308883,1,8,0:0:0:0:
327,100,308967,1,8,0:0:0:0:
303,129,309050,2,0,P|291:166|294:185,1,41.6666666666667,8|8,0:0|0:0,0:0:0:0:
209,373,309217,5,8,2:0:0:0:
152,360,309300,1,8,2:0:0:0:
129,306,309383,1,8,0:0:0:0:
135,247,309467,1,8,0:0:0:0:
171,201,309550,2,0,P|201:182|230:173,1,41.6666666666667,8|8,0:0|0:0,0:0:0:0:
450,306,309717,6,0,L|375:298,1,41.6666666666667,6|0,0:0|0:0,0:0:0:0:
334,295,309883,2,0,L|259:287,1,41.6666666666667
218,285,310050,2,0,L|143:277,1,41.6666666666667
384,218,310217,6,0,P|397:233|407:251,1,41.6666666666667,2|0,0:2|0:0,0:0:0:0:
353,369,310383,2,0,P|333:373|312:372,1,41.6666666666667,2|0,0:2|0:0,0:0:0:0:
243,263,310550,2,0,P|249:244|260:226,1,41.6666666666667,2|0,0:2|0:0,0:0:0:0:
458,142,310717,5,10,0:0:0:0:
412,135,310800,1,0,0:0:0:0:
366,128,310883,1,0,0:0:0:0:
320,122,310967,1,0,0:0:0:0:
274,115,311050,1,0,0:0:0:0:
229,107,311133,1,0,0:0:0:0:
183,99,311217,5,4,0:1:0:0:
201,122,311300,1,0,0:0:0:0:
211,158,311383,1,2,0:2:0:0:
200,199,311467,1,0,0:0:0:0:
161,224,311550,2,0,P|132:230|102:229,1,41.6666666666667,2|0,0:2|0:0,0:0:0:0:
293,22,311717,5,6,0:0:0:0:
326,58,311800,1,0,0:0:0:0:
335,106,311883,1,0,0:0:0:0:
315,152,311967,1,0,0:0:0:0:
289,194,312050,1,0,0:0:0:0:
288,243,312133,1,0,0:0:0:0:
311,287,312217,6,0,P|338:311|362:317,1,41.6666666666667,2|0,0:2|0:0,0:0:0:0:
501,190,312383,2,0,P|459:177|422:182,1,41.6666666666667,2|0,0:2|0:0,0:0:0:0:
450,364,312550,2,0,P|481:342|485:333,1,41.6666666666667,2|0,0:2|0:0,0:0:0:0:
355,168,312717,5,10,0:0:0:0:
310,176,312800,1,0,0:0:0:0:
265,184,312883,1,0,0:0:0:0:
219,192,312967,1,0,0:0:0:0:
174,200,313050,1,0,0:0:0:0:
129,208,313133,1,0,0:0:0:0:
83,217,313217,5,2,0:1:0:0:
104,186,313300,1,0,0:0:0:0:
108,148,313383,1,2,0:2:0:0:
91,113,313467,1,0,0:0:0:0:
58,93,313550,2,0,P|35:89|5:93,1,41.6666666666667,2|0,0:2|0:0,0:0:0:0:
19,315,313717,6,0,L|92:301,1,41.6666666666667,6|0,0:0|0:0,0:0:0:0:
133,295,313883,2,0,L|206:281,1,41.6666666666667
248,277,314050,2,0,L|321:263,1,41.6666666666667
74,224,314217,6,0,P|61:240|53:259,1,41.6666666666667,2|0,0:2|0:0,0:0:0:0:
119,371,314383,2,0,P|139:373|160:371,1,41.6666666666667,2|0,0:2|0:0,0:0:0:0:
213,261,314550,2,0,P|205:241|192:225,1,41.6666666666667,2|0,0:2|0:0,0:0:0:0:
324,260,314717,5,10,0:0:0:0:
302,300,314800,1,0,0:0:0:0:
260,319,314883,1,2,0:0:0:0:
213,316,314967,1,0,0:0:0:0:
182,282,315050,1,2,0:0:0:0:
175,236,315133,1,0,0:0:0:0:
199,196,315217,5,2,0:1:0:0:
230,185,315300,1,0,0:0:0:0:
255,157,315383,1,2,0:2:0:0:
257,115,315467,1,0,0:0:0:0:
235,74,315550,2,0,P|208:52|191:47,1,41.6666666666667,2|0,0:2|0:0,0:0:0:0:
24,213,315717,5,2,0:1:0:0:
36,265,315800,1,0,0:0:0:0:
76,299,315883,1,0,0:0:0:0:
129,307,315967,1,0,0:0:0:0:
173,277,316050,2,0,P|196:234|197:210,1,41.6666666666667
319,37,316217,5,8,2:0:0:0:
282,77,316300,1,8,2:0:0:0:
279,126,316383,1,8,0:0:0:0:
299,167,316467,1,8,0:0:0:0:
336,184,316550,2,0,P|364:188|403:182,1,41.6666666666667,8|8,0:0|0:0,0:0:0:0:
506,52,316717,5,8,2:0:0:0:
465,22,316800,1,8,2:0:0:0:
419,22,316883,1,8,0:0:0:0:
385,47,316967,1,8,0:0:0:0:
373,82,317050,2,0,P|374:116|379:127,1,41.6666666666667,8|8,0:0|0:0,0:0:0:0:
456,223,317217,5,8,2:0:0:0:
465,276,317300,1,8,2:0:0:0:
448,322,317383,1,8,0:0:0:0:
409,347,317467,1,8,0:0:0:0:
367,346,317550,2,0,P|346:343|329:332,1,41.6666666666667,8|8,0:0|0:0,0:0:0:0:
263,156,317717,6,0,P|274:222|201:340,1,200,6|2,0:0|0:0,0:0:0:0:
199,340,318550,1,0,0:0:0:0:
388,373,318717,6,0,P|381:335|409:165,1,200,10|2,0:0|0:0,0:0:0:0:
337,226,319550,1,0,0:0:0:0:
511,72,319717,6,0,B|456:42|397:64|422:91|367:106|321:83|321:83|297:156|215:142,1,333.333333333333,6|0,0:0|0:0,0:0:0:0:
78,5,320717,2,0,B|121:33|108:80|108:80|46:101|40:162|40:162|125:146|155:220,1,333.333333333333,10|0,0:0|0:0,0:0:0:0:
39,341,321717,6,0,B|90:309|155:350|111:340|183:371|240:332,1,200,6|2,0:0|0:0,0:0:0:0:
338,192,322717,2,0,P|332:272|266:206,1,200,10|2,0:0|0:0,0:0:0:0:
422,157,323550,1,0,0:0:0:0:
424,384,323717,6,0,P|422:287|440:175,1,200,6|2,0:0|0:0,0:0:0:0:
466,19,324529,5,0,0:0:0:0:
469,36,324592,1,0,0:0:0:0:
471,53,324654,1,0,0:0:0:0:
474,70,324717,5,14,0:0:0:0:
293,25,324883,1,0,0:0:0:0:
314,121,325050,1,0,0:0:0:0:
128,160,325217,5,14,0:0:0:0:
395,217,325383,1,0,0:0:0:0:
366,57,325550,1,4,0:2:0:0:
254,312,325717,6,0,B|189:389|105:314|170:247|170:247|102:297|31:230,1,333.333333333333,6|0,0:0|0:0,0:0:0:0:
33,111,326717,6,0,B|80:86|149:102|108:118|180:147|223:118|223:118|185:71|227:2|297:25,1,333.333333333333,10|0,0:0|0:0,0:0:0:0:
309,170,327717,6,0,B|344:111|413:107|478:156|478:156|393:198|430:290,1,333.333333333333,6|0,0:0|0:0,0:0:0:0:
505,95,328717,2,0,P|410:58|294:85,1,200,10|2,0:0|0:2,0:0:0:0:
292,103,329300,1,0,0:0:0:0:
273,141,329383,1,2,0:2:0:0:
232,158,329467,1,0,0:0:0:0:
188,154,329550,1,2,0:2:0:0:
156,124,329633,1,0,0:0:0:0:
147,71,329717,6,0,L|134:301,1,200,6|2,0:0|0:0,0:0:0:0:
327,336,330717,2,0,P|250:295|122:321,1,200,10|2,0:0|0:0,0:0:0:0:
408,375,331717,6,0,B|450:280|410:181|410:181|377:229|306:210,1,300,6|0,0:0|0:0,0:0:0:0:
294,200,332529,1,0,0:0:0:0:
297,182,332592,1,0,0:0:0:0:
300,165,332654,1,0,0:0:0:0:
301,145,332717,6,0,L|295:49,1,66.6666666666667,14|0,0:0|0:0,0:0:0:0:
208,278,333050,1,0,0:0:0:0:
453,174,333217,5,14,0:0:0:0:
196,72,333383,1,0,0:0:0:0:
230,205,333550,1,0,0:0:0:0:
406,26,333717,6,0,P|389:71|385:106,1,66.6666666666667,6|0,0:0|0:0,0:0:0:0:
275,115,334050,2,0,P|281:163|306:275,1,133.333333333333,2|8,0:0|2:0,0:0:0:0:
291,87,334550,1,8,2:0:0:0:
49,214,334717,6,0,P|113:222|190:185,1,133.333333333333,14|8,2:0|2:0,0:0:0:0:
175,151,335383,1,8,2:0:0:0:
215,243,335550,1,8,2:0:0:0:
157,338,335717,6,0,P|153:284|143:258,1,66.6666666666667,6|0,0:0|0:0,0:0:0:0:
236,384,336050,2,0,P|258:331|253:300,2,66.6666666666667,0|2|0,0:0|0:0|0:0,0:0:0:0:
211,186,336550,1,0,0:0:0:0:
301,351,336717,5,14,0:0:0:0:
405,260,336883,1,0,0:0:0:0:
460,324,337050,1,8,0:0:0:0:
379,331,337217,5,6,0:0:0:0:
469,147,337383,1,8,0:0:0:0:
307,224,337550,1,8,0:0:0:0:
177,88,337717,6,0,P|168:50|172:16,1,66.6666666666667,6|0,0:0|0:0,0:0:0:0:
286,138,338050,2,0,P|254:179|156:207,1,133.333333333333,0|8,0:0|2:0,0:0:0:0:
111,179,338550,1,8,2:0:0:0:
213,303,338717,2,0,P|285:281|356:271,1,133.333333333333,10|8,0:0|2:0,0:0:0:0:
393,286,339383,1,8,2:0:0:0:
371,197,339550,1,8,2:0:0:0:
450,110,339717,6,0,P|448:162|460:190,1,66.6666666666667,6|0,0:0|0:0,0:0:0:0:
333,26,340050,2,0,P|376:44|464:34,1,133.333333333333
235,6,340529,1,0,0:0:0:0:
237,23,340592,1,0,0:0:0:0:
239,40,340654,1,0,0:0:0:0:
241,57,340717,5,10,0:0:0:0:
81,0,340842,2,0,P|59:71|54:116,1,100,4|0,0:1|0:0,0:0:0:0:
98,161,341217,2,0,P|58:143|35:138,2,66.6666666666667,6|0|0,0:2|0:0|0:0,0:0:0:0:
144,312,341717,6,0,B|139:266|173:243|173:243|248:272|308:210,1,200,6|2,0:0|0:0,0:0:0:0:
346,66,342717,2,0,P|358:122|437:174,1,133.333333333333,10|0,0:0|0:0,0:0:0:0:
321,286,343217,2,0,B|371:253|371:253|401:303|481:298,1,166.666666666667,2|0,0:0|0:0,0:0:0:0:
494,355,343717,6,0,P|474:308|478:219,1,133.333333333333,2|0,0:0|0:0,0:0:0:0:
512,89,344217,2,0,P|453:116|372:105,1,133.333333333333,2|0,0:0|0:0,0:0:0:0:
243,0,344717,6,0,L|262:157,1,133.333333333333,14|0,0:0|0:0,0:0:0:0:
140,300,345217,2,0,L|151:156,1,133.333333333333,6|0,0:2|0:0,0:0:0:0:
335,319,345717,6,0,P|262:353|151:324,1,200,6|2,0:0|0:0,0:0:0:0:
48,142,346717,2,0,B|94:107|156:131|122:151|193:178|260:134,1,200,10|2,0:0|0:0,0:0:0:0:
375,19,347717,6,0,P|352:65|345:153,1,133.333333333333,2|0,0:0|0:0,0:0:0:0:
276,254,348217,2,0,P|347:230|398:231,1,100,2|0,0:0|0:0,0:0:0:0:
399,232,348529,1,0,0:0:0:0:
403,249,348592,1,0,0:0:0:0:
407,265,348654,1,0,0:0:0:0:
411,282,348717,5,10,0:0:0:0:
439,88,348883,2,0,P|448:127|462:162,1,66.6666666666667,4|0,0:2|0:0,0:0:0:0:
276,254,349217,2,0,P|324:319|247:338,1,166.666666666667,2|0,0:0|0:0,0:0:0:0:
214,369,349717,6,0,L|187:145,1,200,6|2,0:0|0:0,0:0:0:0:
367,32,350717,2,0,P|297:83|246:76,1,133.333333333333,10|0,0:0|0:0,0:0:0:0:
170,8,351217,2,0,B|196:41|190:78|190:78|155:110|180:188,1,166.666666666667,2|0,0:0|0:0,0:0:0:0:
100,226,351717,6,0,P|163:210|242:218,1,133.333333333333,4|0,0:2|0:0,0:0:0:0:
325,384,352217,2,0,P|309:323|320:236,1,133.333333333333,2|0,0:0|0:0,0:0:0:0:
383,138,352717,6,0,P|400:194|481:236,1,133.333333333333,10|0,0:0|0:0,0:0:0:0:
214,126,353217,2,0,P|286:113|333:20,1,166.666666666667,2|0,0:0|0:0,0:0:0:0:
332,2,353717,6,0,L|127:20,1,200,6|2,0:0|0:0,0:0:0:0:
17,211,354717,2,0,P|77:157|212:181,1,200,10|2,0:0|0:0,0:0:0:0:
279,374,355717,6,0,B|266:331|266:331|284:233,1,133.333333333333,2|0,0:0|0:0,0:0:0:0:
435,89,356217,2,0,B|410:128|410:128|427:233,1,133.333333333333,10|0,0:0|0:0,0:0:0:0:
480,354,356717,2,0,P|445:338|412:336,1,66.6666666666667,4|0,0:2|0:0,0:0:0:0:
289,268,357029,5,0,0:0:0:0:
293,284,357092,1,0,0:0:0:0:
297,300,357154,1,0,0:0:0:0:
301,316,357217,5,10,0:0:0:0:
333,139,357383,1,0,0:0:0:0:
405,208,357550,1,0,0:0:0:0:
200,214,357717,5,6,0:0:0:0:
232,247,357800,1,0,0:0:0:0:
236,293,357883,1,0,0:0:0:0:
211,333,357967,1,0,0:0:0:0:
166,346,358050,1,0,0:0:0:0:
124,325,358133,1,0,0:0:0:0:
108,280,358217,5,10,0:0:0:0:
148,251,358300,1,0,0:0:0:0:
162,203,358383,1,0,0:0:0:0:
141,157,358467,1,0,0:0:0:0:
97,133,358550,5,0,0:0:0:0:
66,168,358633,1,0,0:0:0:0:
75,214,358717,1,2,0:0:0:0:
117,233,358800,1,0,0:0:0:0:
163,227,358883,1,0,0:0:0:0:
202,202,358967,1,0,0:0:0:0:
248,199,359050,1,0,0:0:0:0:
285,225,359133,1,0,0:0:0:0:
299,269,359217,5,10,0:0:0:0:
327,228,359300,1,0,0:0:0:0:
375,215,359383,1,0,0:0:0:0:
421,233,359467,1,0,0:0:0:0:
445,276,359550,1,0,0:0:0:0:
441,325,359633,1,0,0:0:0:0:
410,365,359717,5,6,0:0:0:0:
357,371,359800,1,0,0:0:0:0:
312,342,359883,1,0,0:0:0:0:
268,309,359967,1,0,0:0:0:0:
215,303,360050,1,0,0:0:0:0:
169,330,360133,1,0,0:0:0:0:
142,376,360217,5,10,0:0:0:0:
191,381,360300,1,0,0:0:0:0:
235,358,360383,1,0,0:0:0:0:
256,312,360467,1,0,0:0:0:0:
244,263,360550,1,0,0:0:0:0:
210,226,360633,1,0,0:0:0:0:
162,210,360717,5,2,0:0:0:0:
134,247,360800,1,0,0:0:0:0:
89,259,360883,1,0,0:0:0:0:
47,237,360967,1,0,0:0:0:0:
35,191,361050,1,0,0:0:0:0:
57,150,361133,1,0,0:0:0:0:
100,132,361217,5,10,0:0:0:0:
132,109,361300,1,0,0:0:0:0:
142,70,361383,1,0,0:0:0:0:
132,30,361467,1,0,0:0:0:0:
98,8,361550,1,0,0:0:0:0:
58,8,361633,1,0,0:0:0:0:
23,29,361717,5,6,0:0:0:0:
22,72,361800,1,0,0:0:0:0:
46,107,361883,1,0,0:0:0:0:
87,119,361967,1,0,0:0:0:0:
129,109,362050,1,0,0:0:0:0:
158,77,362133,1,0,0:0:0:0:
167,34,362217,5,10,0:0:0:0:
196,69,362300,1,0,0:0:0:0:
241,78,362383,1,0,0:0:0:0:
284,60,362467,1,0,0:0:0:0:
314,25,362550,1,0,0:0:0:0:
354,2,362633,1,0,0:0:0:0:
400,6,362717,1,2,0:0:0:0:
433,38,362800,1,0,0:0:0:0:
443,83,362883,1,0,0:0:0:0:
425,126,362967,1,0,0:0:0:0:
384,148,363050,1,0,0:0:0:0:
337,142,363133,1,0,0:0:0:0:
304,107,363217,5,10,0:0:0:0:
307,143,363300,1,0,0:0:0:0:
310,179,363383,1,0,0:0:0:0:
314,215,363467,1,0,0:0:0:0:
317,251,363550,1,0,0:0:0:0:
321,287,363633,1,0,0:0:0:0:
325,323,363717,5,6,0:0:0:0:
366,350,363800,1,0,0:0:0:0:
415,346,363883,1,0,0:0:0:0:
447,307,363967,1,0,0:0:0:0:
446,257,364050,1,0,0:0:0:0:
412,219,364133,1,0,0:0:0:0:
362,209,364217,5,10,0:0:0:0:
342,251,364300,1,0,0:0:0:0:
298,268,364383,1,0,0:0:0:0:
252,255,364467,1,0,0:0:0:0:
232,212,364550,2,0,P|229:187|233:156,1,41.6666666666667
404,24,364717,5,8,2:0:0:0:
409,86,364800,1,8,2:0:0:0:
376,134,364883,1,8,0:0:0:0:
323,150,364967,1,8,0:0:0:0:
276,133,365050,2,0,P|252:114|239:94,1,41.6666666666667,8|8,0:0|0:0,0:0:0:0:
391,323,365217,5,8,2:0:0:0:
341,353,365300,1,8,2:0:0:0:
287,346,365383,1,8,0:0:0:0:
256,305,365467,1,8,0:0:0:0:
262,259,365550,2,0,P|268:232|283:212,1,41.6666666666667,8|8,0:0|0:0,0:0:0:0:
483,141,365717,5,6,0:0:0:0:
459,194,365800,1,0,0:0:0:0:
406,219,365883,1,0,0:0:0:0:
347,209,365967,1,0,0:0:0:0:
306,167,366050,1,0,0:0:0:0:
255,137,366133,1,0,0:0:0:0:
196,140,366217,5,10,0:0:0:0:
167,185,366300,1,0,0:0:0:0:
179,237,366383,1,0,0:0:0:0:
222,270,366467,1,0,0:0:0:0:
275,267,366550,1,0,0:0:0:0:
311,227,366633,1,0,0:0:0:0:
353,192,366717,1,2,0:0:0:0:
406,198,366800,1,0,0:0:0:0:
436,242,366883,1,0,0:0:0:0:
432,296,366967,1,0,0:0:0:0:
390,330,367050,1,0,0:0:0:0:
336,325,367133,1,0,0:0:0:0:
307,278,367217,5,10,0:0:0:0:
283,244,367300,1,0,0:0:0:0:
242,233,367383,1,0,0:0:0:0:
200,241,367467,1,0,0:0:0:0:
175,274,367550,1,0,0:0:0:0:
171,315,367633,1,0,0:0:0:0:
188,353,367717,5,6,0:2:0:0:
235,366,367800,1,0,0:0:0:0:
278,341,367883,1,0,0:0:0:0:
295,293,367967,1,0,0:0:0:0:
281,245,368050,1,0,0:0:0:0:
241,214,368133,1,0,0:0:0:0:
191,204,368217,5,10,0:0:0:0:
153,178,368300,1,0,0:0:0:0:
137,135,368383,1,0,0:0:0:0:
152,91,368467,1,0,0:0:0:0:
187,62,368550,1,0,0:0:0:0:
232,62,368633,1,0,0:0:0:0:
270,87,368717,5,2,0:0:0:0:
286,125,368800,1,0,0:0:0:0:
322,144,368883,1,0,0:0:0:0:
364,144,368967,1,0,0:0:0:0:
397,119,369050,1,0,0:0:0:0:
404,78,369133,1,0,0:0:0:0:
384,40,369217,5,10,0:0:0:0:
365,67,369300,1,0,0:0:0:0:
339,80,369383,1,2,0:2:0:0:
313,81,369467,1,0,0:0:0:0:
293,72,369550,1,2,0:2:0:0:
283,58,369633,1,0,0:0:0:0:
283,45,369717,5,6,0:0:0:0:
322,22,369800,1,0,0:0:0:0:
366,31,369883,1,0,0:0:0:0:
393,68,369967,1,0,0:0:0:0:
394,113,370050,1,0,0:0:0:0:
363,146,370133,1,0,0:0:0:0:
319,160,370217,5,10,0:0:0:0:
287,198,370300,1,0,0:0:0:0:
293,247,370383,1,0,0:0:0:0:
328,282,370467,1,0,0:0:0:0:
376,291,370550,1,0,0:0:0:0:
424,278,370633,1,0,0:0:0:0:
453,237,370717,5,2,0:0:0:0:
447,191,370800,1,0,0:0:0:0:
411,162,370883,1,0,0:0:0:0:
365,156,370967,1,0,0:0:0:0:
322,172,371050,1,0,0:0:0:0:
276,164,371133,1,0,0:0:0:0:
245,129,371217,5,10,0:0:0:0:
258,80,371300,1,0,0:0:0:0:
303,59,371383,1,0,0:0:0:0:
351,71,371467,1,0,0:0:0:0:
375,114,371550,1,0,0:0:0:0:
372,163,371633,1,0,0:0:0:0:
335,198,371717,5,6,0:0:0:0:
302,154,371800,1,0,0:0:0:0:
249,139,371883,1,0,0:0:0:0:
197,157,371967,1,0,0:0:0:0:
161,197,372050,1,0,0:0:0:0:
159,250,372133,1,0,0:0:0:0:
189,295,372217,5,6,0:0:0:0:
221,246,372300,1,0,0:0:0:0:
277,231,372383,1,0,0:0:0:0:
330,254,372467,1,0,0:0:0:0:
350,308,372550,2,0,P|341:344|327:360,1,41.6666666666667
197,157,372717,5,8,2:0:0:0:
223,215,372800,1,8,2:0:0:0:
216,272,372883,1,8,0:0:0:0:
173,306,372967,1,8,0:0:0:0:
119,314,373050,2,0,P|89:306|77:294,1,41.6666666666667,8|8,0:0|0:0,0:0:0:0:
32,118,373217,5,8,2:0:0:0:
83,78,373300,1,8,2:0:0:0:
141,78,373383,1,8,0:0:0:0:
184,110,373467,1,8,0:0:0:0:
197,157,373550,2,8,P|195:190|187:209,1,41.6666666666667
16,48,373717,5,6,0:0:0:0:
