osu file format v14

[General]
AudioFilename: audio.mp3
AudioLeadIn: 0
PreviewTime: 34432
Countdown: 0
SampleSet: Drum
StackLeniency: 0.7
Mode: 0
LetterboxInBreaks: 0
WidescreenStoryboard: 1

[Editor]
Bookmarks: 2933,8033,20633,35032,54232,59032,80032,102532,113332,132682,195682,210082,224482,243382,250582,257782,272182,288832,361331,409176,422438,433806,447068,458424,461273,483772,529672
DistanceSpacing: 0.9
BeatDivisor: 6
GridSize: 8
TimelineZoom: 3.099999

[Metadata]
Title:Long Live Our Lifeless King
TitleUnicode:Long Live Our Lifeless King
Artist:Xanthochroid
ArtistUnicode:Xanthochroid
Creator:kerupt
Version:Neverending
Source:
Tags:Blessed He With Boils featured artist fa progressive symphonic black melodic death metal english marathon stream deathstream cinematic
BeatmapID:3548983
BeatmapSetID:1736495

[Difficulty]
HPDrainRate:5
CircleSize:4
OverallDifficulty:9.2
ApproachRate:9.6
SliderMultiplier:2.4
SliderTickRate:1

[Events]
//Background and Video events
0,0,"bg.jpg",0,0
//Break Periods
2,289031,360822
//Storyboard Layer 0 (Background)
//Storyboard Layer 1 (Fail)
//Storyboard Layer 2 (Pass)
//Storyboard Layer 3 (Foreground)
//Storyboard Layer 4 (Overlay)
//Storyboard Sound Samples

[TimingPoints]
1433,300,5,3,1,65,1,0
8033,450.000000000112,4,3,1,65,1,1
8033,-66.6666666666667,4,3,1,65,0,1
11633,-66.6666666666667,4,3,2,65,0,1
13433,-66.6666666666667,4,3,1,65,0,1
17933,-58.8235294117647,4,3,1,65,0,1
18158,-58.8235294117647,4,3,1,5,0,1
18233,-66.6666666666667,4,3,1,65,0,1
18458,-66.6666666666667,4,3,1,5,0,1
18533,-76.9230769230769,4,3,1,65,0,1
18758,-76.9230769230769,4,3,1,5,0,1
18833,-100,4,3,1,65,0,1
20632,300,4,3,1,65,1,0
20632,-133.333333333333,4,2,1,65,0,0
30232,-133.333333333333,4,3,1,65,0,0
32032,-100,4,3,1,65,0,0
44332,-166.666666666667,4,3,1,65,0,0
44632,-100,4,3,1,65,0,0
52057,-100,4,3,1,5,0,0
52132,-100,4,3,1,65,0,0
52357,-100,4,3,1,5,0,0
52432,-100,4,3,1,65,0,0
53932,-166.666666666667,4,3,1,65,0,0
54232,-83.3333333333333,4,3,1,65,0,0
54832,-133.333333333333,4,3,1,65,0,0
58882,-100,4,3,1,65,0,0
68332,-166.666666666667,4,3,1,65,0,0
68632,-100,4,3,1,65,0,0
73657,-100,4,3,1,5,0,0
73732,-100,4,3,1,65,0,0
73957,-100,4,3,1,5,0,0
74032,-100,4,3,1,65,0,0
78232,-133.333333333333,4,3,1,65,0,0
79732,-166.666666666667,4,3,1,65,0,0
80032,450.000000000011,3,3,1,65,1,0
80032,-50,3,3,1,65,0,0
80332,-66.6666666666667,3,3,1,65,0,0
81007,-66.6666666666667,3,3,1,5,0,0
81382,-66.6666666666667,3,3,1,65,0,0
81757,-66.6666666666667,3,3,1,5,0,0
81832,-66.6666666666667,3,3,1,65,0,0
82507,-66.6666666666667,3,3,1,5,0,0
82582,-66.6666666666667,3,3,1,65,0,0
83182,-100,3,3,1,65,0,0
83632,-66.6666666666667,3,3,1,65,0,0
83707,-66.6666666666667,3,3,1,5,0,0
84082,450.000000001125,4,3,1,65,1,0
84082,-66.6666666666667,4,3,1,65,0,0
85882,450.000000001125,3,3,1,65,1,0
86332,-66.6666666666667,3,3,1,65,0,0
91282,-50,3,3,1,65,0,0
91732,-66.6666666666667,3,3,1,65,0,0
92257,-66.6666666666667,3,3,1,5,0,0
92632,-66.6666666666667,3,3,1,65,0,0
93007,-66.6666666666667,3,3,1,5,0,0
93082,-66.6666666666667,3,3,1,65,0,0
94432,-100,3,3,1,65,0,0
94882,-66.6666666666667,3,3,1,65,0,0
94957,-66.6666666666667,3,3,1,5,0,0
95332,450.000000001125,4,3,1,65,1,0
95332,-66.6666666666667,4,3,1,65,0,0
97132,450.000000001125,3,3,1,65,1,0
97582,-66.6666666666667,3,3,1,65,0,0
102982,-133.333333333333,3,2,1,65,0,0
107932,-83.3333333333333,3,3,1,65,0,0
108307,-100,3,3,1,5,0,0
108382,-100,3,3,1,65,0,0
108757,-100,3,3,1,5,0,0
108832,-100,3,3,1,65,0,0
109207,-100,3,3,1,5,0,0
109282,-100,3,3,1,65,0,0
110332,-133.333333333333,3,3,1,65,0,0
110632,-100,3,3,1,65,0,0
111232,-133.333333333333,3,3,1,65,0,0
111532,-100,3,3,1,65,0,0
113332,450.000000001125,4,3,1,65,1,1
113782,-66.6666666666667,4,3,1,65,0,1
118732,-66.6666666666667,4,3,2,65,0,1
122332,-66.6666666666667,4,3,1,65,0,1
127732,-66.6666666666667,4,3,2,65,0,1
130882,-66.6666666666667,4,3,1,65,0,1
131332,450.000000001125,3,3,1,65,1,0
132682,-66.6666666666667,3,3,1,65,0,1
133582,-66.6666666666667,3,3,1,65,0,1
133657,-66.6666666666667,3,3,1,5,0,1
134032,-66.6666666666667,3,3,1,65,0,0
136732,450.000000001125,4,3,1,65,1,0
136732,-66.6666666666667,4,3,1,65,0,0
138532,450.000000001125,3,3,1,65,1,0
138532,-66.6666666666667,3,3,1,65,0,0
143932,-66.6666666666667,3,3,1,65,0,1
145282,-66.6666666666667,3,3,1,65,0,0
149332,-71.4285714285714,3,3,1,65,0,0
150382,-100,3,3,1,65,0,0
150607,-100,3,3,1,5,0,0
150682,-133.333333333333,3,3,1,65,0,0
152857,-133.333333333333,3,3,1,5,0,0
152932,-200,3,3,1,65,0,0
153382,450.000000001125,4,3,1,65,1,0
153382,-133.333333333333,4,3,1,65,0,0
153832,-100,4,3,1,65,0,0
155182,450.000000001125,3,3,1,65,1,0
155182,-66.6666666666667,3,3,1,65,0,1
156082,-66.6666666666667,3,3,1,65,0,1
156157,-66.6666666666667,3,3,1,5,0,1
156532,-66.6666666666667,3,3,1,65,0,0
159232,450.000000001125,4,3,1,65,1,0
159232,-66.6666666666667,4,3,1,65,0,0
161032,450.000000001125,3,3,1,65,1,0
161032,-66.6666666666667,3,3,1,65,0,0
166432,-61.7283950617284,3,3,1,65,0,1
167332,-66.6666666666667,3,3,1,65,0,1
167782,-66.6666666666667,3,3,1,65,0,0
170032,-58.8235294117647,3,3,1,65,0,0
170482,-66.6666666666667,3,3,1,65,0,0
171832,-71.4285714285714,3,3,1,65,0,0
172882,-100,3,3,1,65,0,0
173106,-100,3,3,1,5,0,0
173182,450.000000001125,4,3,1,65,1,0
174982,-200,4,3,1,65,0,0
175357,-100,4,3,1,5,0,0
175432,-200,4,3,1,65,0,0
175882,-133.333333333333,4,3,1,65,0,0
176332,-100,4,3,1,65,0,0
177682,450.000000001125,3,3,1,65,1,0
177682,-58.8235294117647,3,3,1,65,0,1
177982,-58.8235294117647,3,3,1,5,0,1
178132,-58.8235294117647,3,3,1,65,0,1
178582,-66.6666666666667,3,3,1,65,0,0
178657,-66.6666666666667,3,3,1,5,0,0
179032,-76.9230769230769,3,3,1,65,0,1
179857,-76.9230769230769,3,3,1,5,0,0
179932,-100,3,3,1,65,0,0
180307,-100,3,3,1,5,0,0
180382,-66.6666666666667,3,3,1,65,0,1
181432,-66.6666666666667,3,3,1,65,0,0
181732,-83.3333333333333,3,3,1,65,0,1
182632,-83.3333333333333,3,3,1,65,0,0
183082,-83.3333333333333,3,3,1,65,0,1
183532,-66.6666666666667,3,3,1,65,0,1
185332,-66.6666666666667,3,3,1,65,0,0
185782,-66.6666666666667,3,3,1,65,0,1
186157,-66.6666666666667,3,3,1,5,0,1
186232,-66.6666666666667,3,3,1,65,0,1
186682,-66.6666666666667,3,3,1,65,0,0
186757,-66.6666666666667,3,3,1,5,0,0
187132,-76.9230769230769,3,3,1,65,0,1
188032,-76.9230769230769,3,3,1,65,0,0
188482,-66.6666666666667,3,3,1,65,0,1
189532,-66.6666666666667,3,3,1,65,0,0
189832,-66.6666666666667,3,3,1,65,0,1
191032,-66.6666666666667,3,3,1,5,0,1
191182,-66.6666666666667,3,3,1,65,0,1
193432,-66.6666666666667,3,3,1,65,0,0
193882,450.000000001125,4,3,1,65,1,1
193882,-66.6666666666667,4,3,1,65,0,1
195607,-66.6666666666667,4,3,1,65,0,0
195682,450.000000001125,3,3,1,65,1,1
196132,-100,3,3,1,65,0,0
196732,-76.9230769230769,3,3,1,65,0,0
196957,-76.9230769230769,3,3,1,5,0,0
197032,-76.9230769230769,3,3,1,65,0,0
198307,-76.9230769230769,3,3,1,5,0,0
198382,-76.9230769230769,3,3,1,65,0,0
198757,-76.9230769230769,3,3,1,5,0,0
198832,-200,3,3,1,45,0,0
199132,-76.9230769230769,3,3,1,65,0,0
202432,-100,3,3,1,65,0,0
202807,-100,3,3,1,5,0,0
202882,-133.333333333333,3,3,1,65,0,0
209107,-133.333333333333,3,3,1,5,0,0
209182,-133.333333333333,3,3,1,65,0,0
209632,-200,3,3,1,65,0,0
210082,450.000000001125,3,3,1,65,1,0
215482,450.000000001125,4,3,1,65,1,0
217282,450.000000001125,3,3,1,65,1,0
222682,450.000000001125,4,3,1,65,1,0
224482,450.000000001125,3,3,1,65,1,0
225757,-100,3,3,1,5,0,0
225832,-100,3,3,1,65,0,0
227557,-100,3,3,1,5,0,0
227632,-100,3,3,1,65,0,0
231232,-133.333333333333,3,3,1,65,0,0
233632,-100,3,3,1,65,0,0
233857,-100,3,3,1,5,0,0
233932,-100,3,3,1,65,0,0
237007,-100,3,3,1,5,0,0
237082,-66.6666666666667,3,3,1,65,0,0
237982,-133.333333333333,3,3,1,65,0,0
242032,-100,3,3,1,65,0,0
243382,-83.3333333333333,3,3,1,65,0,0
248782,450.000000001125,4,3,1,65,1,0
250582,450.000000001125,5,3,1,65,1,0
250582,-133.333333333333,5,3,1,65,0,0
256807,-133.333333333333,5,3,1,5,0,0
256882,-133.333333333333,5,3,1,65,0,0
257332,-200,5,3,1,65,0,0
257782,450.000000001125,3,3,1,65,1,0
263182,450.000000001125,4,3,1,65,1,0
264982,450.000000001125,3,3,1,65,1,0
270382,450.000000001125,4,3,1,65,1,0
272182,450.000000001125,3,3,1,65,1,0
272182,-83.3333333333333,3,3,1,65,0,0
273082,-100,3,3,1,65,0,0
275257,-100,3,3,1,5,0,0
275332,-100,3,3,1,65,0,0
278932,-133.333333333333,3,3,1,65,0,0
281332,-100,3,3,1,65,0,0
281557,-100,3,3,1,5,0,0
281632,-100,3,3,1,65,0,0
284707,-100,3,3,1,5,0,0
284782,-66.6666666666667,3,3,1,65,0,0
285682,-200,3,3,1,65,0,0
288832,-200,3,3,1,5,0,0
288870,600,3,3,1,65,1,0
290070,521.739130434783,3,3,1,65,1,0
290595,461.538461538462,3,3,1,65,1,0
291056,500,3,3,1,65,1,0
291556,468.75,3,3,1,65,1,0
292024,461.538461538462,3,3,1,65,1,0
292485,468.75,3,3,1,65,1,0
292953,451.127819548872,3,3,1,65,1,0
293404,491.803278688525,3,3,1,65,1,0
293895,480,3,3,1,65,1,0
294375,472.44094488189,3,3,1,65,1,0
294847,413.793103448276,3,3,1,65,1,0
295260,500,3,3,1,65,1,0
295760,487.804878048781,3,3,1,65,1,0
296247,461.538461538462,3,3,1,65,1,0
296708,500,3,3,1,65,1,0
297208,487.804878048781,3,3,1,65,1,0
297695,480,3,3,1,65,1,0
298175,468.75,3,3,1,65,1,0
298643,441.176470588235,3,3,1,65,1,0
299084,480,3,3,1,65,1,0
299564,458.015267175573,3,3,1,65,1,0
300022,483.870967741935,3,3,1,65,1,0
300505,521.739130434783,3,3,1,65,1,0
301026,413.793103448276,3,3,1,65,1,0
301439,487.80487804878,3,3,1,65,1,0
301926,300,3,3,1,65,1,0
302059,504.201680672269,3,3,1,65,1,0
302563,352.941176470588,3,3,1,65,1,0
302915,447.761194029851,3,3,1,65,1,0
303362,461.538461538462,3,3,1,65,1,0
303823,487.80487804878,3,3,1,65,1,0
304310,483.870967741935,3,3,1,65,1,0
304793,472.440944881889,3,3,1,65,1,0
305265,447.76119402985,3,3,1,65,1,0
305712,487.80487804878,3,3,1,65,1,0
306199,500,3,3,1,65,1,0
306699,480,3,3,1,65,1,0
307179,483.870967741935,3,3,1,65,1,0
307662,447.761194029851,3,3,1,65,1,0
308109,476.190476190476,3,3,1,65,1,0
308585,483.870967741935,3,3,1,65,1,0
309068,431.654676258993,3,3,1,65,1,0
309499,468.75,3,3,1,65,1,0
309967,491.803278688524,3,3,1,65,1,0
310458,483.870967741935,3,3,1,65,1,0
310941,480,3,3,1,65,1,0
311421,468.75,3,3,1,65,1,0
311889,465.116279069767,3,3,1,65,1,0
312354,491.803278688525,3,3,1,65,1,0
312845,468.75,3,3,1,65,1,0
313313,468.75,3,3,1,65,1,0
313781,472.44094488189,3,3,1,65,1,0
314253,476.190476190476,3,3,1,65,1,0
314729,480,3,3,1,65,1,0
315209,500,3,3,1,65,1,0
315709,483.870967741935,3,3,1,65,1,0
316191,468.75,3,3,1,65,1,0
316659,413.793103448276,3,3,1,65,1,0
317072,472.44094488189,3,3,1,65,1,0
317544,487.80487804878,3,3,1,65,1,0
318031,480,3,3,1,65,1,0
318511,480,3,3,1,65,1,0
318991,521.739130434783,3,3,1,65,1,0
319512,444.444444444444,3,3,1,65,1,0
319956,472.44094488189,3,3,1,65,1,0
320428,480,3,3,1,65,1,0
320908,468.75,3,3,1,65,1,0
321376,480,3,3,1,65,1,0
321856,495.867768595041,3,3,1,65,1,0
322351,500,3,3,1,65,1,0
322851,454.545454545454,3,3,1,65,1,0
323305,461.538461538461,3,3,1,65,1,0
323766,468.75,3,3,1,65,1,0
324234,612.244897959183,3,3,1,65,1,0
324846,454.545454545455,3,3,1,65,1,0
325300,480,3,3,1,65,1,0
326260,324.324324324324,3,3,1,65,1,0
326584,461.538461538462,3,3,1,65,1,0
327045,508.474576271187,3,3,1,65,1,0
327553,465.116279069768,3,3,1,65,1,0
328018,468.75,3,3,1,65,1,0
328486,465.116279069768,3,3,1,65,1,0
328951,495.867768595042,3,3,1,65,1,0
329446,487.804878048781,3,3,1,65,1,0
329933,428.571428571429,3,3,1,65,1,0
330361,491.803278688525,3,3,1,65,1,0
330852,454.545454545455,3,3,1,65,1,0
331306,483.870967741936,3,3,1,65,1,0
331789,458.015267175573,3,3,1,65,1,0
332247,468.750000000001,3,3,1,65,1,0
332715,480.000000000001,3,3,1,65,1,0
333195,472.44094488189,3,3,1,65,1,0
333667,491.803278688525,3,3,1,65,1,0
334158,480,3,3,1,65,1,0
334638,491.803278688525,3,3,1,65,1,0
335129,428.571428571429,3,3,1,65,1,0
335557,472.44094488189,3,3,1,65,1,0
336029,480,3,3,1,65,1,0
336509,487.804878048781,3,3,1,65,1,0
336996,458.015267175573,3,3,1,65,1,0
337454,487.804878048781,3,3,1,65,1,0
337941,487.804878048781,3,3,1,65,1,0
338428,468.75,3,3,1,65,1,0
338896,504.201680672269,3,3,1,65,1,0
339400,461.538461538461,3,3,1,65,1,0
339861,521.739130434782,3,3,1,65,1,0
340382,431.654676258993,3,3,1,65,1,0
340813,447.761194029851,3,3,1,65,1,0
341260,487.804878048781,3,3,1,65,1,0
341747,487.804878048781,3,3,1,65,1,0
342234,434.782608695652,3,3,1,65,1,0
342668,495.867768595042,3,3,1,65,1,0
343163,461.538461538462,3,3,1,65,1,0
343624,468.750000000001,3,3,1,65,1,0
344092,480.000000000001,3,3,1,65,1,0
344572,461.538461538462,3,3,1,65,1,0
345033,472.44094488189,3,3,1,65,1,0
345505,468.750000000001,3,3,1,65,1,0
345973,483.870967741936,3,3,1,65,1,0
346456,500.000000000001,3,3,1,65,1,0
346956,468.750000000001,3,3,1,65,1,0
347424,428.571428571429,3,3,1,65,1,0
347852,487.804878048781,3,3,1,65,1,0
348339,483.870967741936,3,3,1,65,1,0
348822,500.000000000001,3,3,1,65,1,0
349322,428.571428571429,3,3,1,65,1,0
349750,500.000000000001,3,3,1,65,1,0
350250,480.000000000001,3,3,1,65,1,0
350730,500.000000000001,3,3,1,65,1,0
351230,521.739130434784,3,3,1,65,1,0
351751,431.654676258994,3,3,1,65,1,0
352182,480.000000000001,3,3,1,65,1,0
352662,468.750000000001,3,3,1,65,1,0
353130,444.444444444445,3,3,1,65,1,0
353574,451.127819548873,3,3,1,65,1,0
354025,480.000000000001,3,3,1,65,1,0
354505,495.867768595042,3,3,1,65,1,0
355000,461.538461538462,3,3,1,65,1,0
355461,465.116279069768,3,3,1,65,1,0
355926,480.000000000001,3,3,1,65,1,0
356406,444.444444444445,3,3,1,65,1,0
356850,521.739130434784,3,3,1,65,1,0
357371,468.750000000001,3,3,1,65,1,0
357839,444.444444444445,3,3,1,65,1,0
358283,480.000000000001,3,3,1,65,1,0
358763,468.750000000001,3,3,1,65,1,0
359231,465.116279069769,3,3,1,65,1,0
359696,487.804878048782,3,3,1,65,1,0
360183,500.000000000001,3,3,1,65,1,0
360683,324.324324324325,3,3,1,65,1,0
361331,480.000000000001,3,3,1,30,1,0
361331,-250,3,3,0,30,0,0
362771,468.750000000001,3,2,0,30,1,0
362771,-250,3,2,0,30,0,0
365583,451.127819548873,3,2,0,30,1,0
365583,-250,3,2,0,30,0,0
366485,512.820512820514,3,2,0,30,1,0
366997,500.000000000001,3,2,0,30,1,0
367497,480.000000000001,3,2,0,30,1,0
367497,-250,3,2,0,30,0,0
368937,461.538461538463,3,2,0,30,1,0
368937,-250,3,2,0,30,0,0
369860,472.440944881891,3,2,0,30,1,0
370332,-250,3,2,0,30,0,0
372694,483.870967741937,3,2,0,30,1,0
372694,-250,3,2,0,30,0,0
374629,454.545454545456,3,2,0,30,1,0
375083,472.440944881891,3,2,0,30,1,0
375083,-250,3,2,0,30,0,0
376027,465.116279069769,3,2,0,30,1,0
376492,480.000000000001,3,2,0,30,1,0
376492,-200,3,2,0,30,0,0
377932,465.116279069769,3,2,0,30,1,0
377932,-200,3,2,0,30,0,0
380257,500.000000000001,3,2,0,30,1,0
380757,458.015267175574,3,2,0,30,1,0
380757,-200,3,2,0,30,0,0
381673,500.000000000001,3,2,0,30,1,0
382173,491.803278688526,3,2,0,30,1,0
382664,454.545454545456,3,2,0,30,1,0
382664,-200,3,2,0,30,0,0
384027,483.870967741937,3,2,0,30,1,0
384027,-200,3,2,0,30,0,0
385478,480.000000000001,3,2,0,30,1,0
385478,-200,3,2,0,30,0,0
385958,428.571428571429,3,2,0,30,1,0
386386,465.116279069768,3,2,0,30,1,0
386386,-200,3,2,0,30,0,0
387316,500.000000000001,3,2,0,30,1,0
387816,-200,3,2,0,30,0,0
388816,454.545454545456,3,2,0,30,1,0
388816,-200,3,2,0,30,0,0
389725,500.000000000001,3,2,0,30,1,0
390225,444.444444444445,3,2,0,30,1,0
390225,-200,3,2,0,30,0,0
391113,521.739130434784,3,2,0,30,1,0
391634,480.000000000001,3,2,0,30,1,0
391634,-200,3,2,0,30,0,0
393074,454.545454545456,3,2,0,30,1,0
393074,-200,3,2,0,30,0,0
393983,491.803278688526,3,2,0,30,1,0
394474,480.000000000001,3,2,0,30,1,0
394474,-200,3,2,0,30,0,0
395914,468.750000000001,3,2,0,30,1,0
395914,-200,3,2,0,30,0,0
399195,472.440944881891,3,2,0,30,1,0
399195,-200,3,2,0,30,0,0
400612,480.000000000001,3,2,0,30,1,0
400612,-200,3,2,0,30,0,0
403972,480.000000000001,3,2,0,30,1,0
403972,-200,3,2,0,30,0,0
404932,428.571428571429,3,2,0,30,1,0
405360,444.444444444445,3,2,0,30,1,0
405360,-200,3,2,0,30,0,0
406248,489.915897770883,3,2,0,30,1,0
409024,-100,3,2,1,5,0,0
409176,473.684210526565,4,3,1,65,1,0
409176,-76.9230769230769,4,3,1,65,0,1
412965,-66.6666666666667,4,3,1,65,0,1
416754,473.684210526565,3,3,2,65,1,1
417227,-76.9230769230769,3,3,2,65,0,1
420069,-66.6666666666667,3,3,2,65,0,1
422438,-66.6666666666667,3,3,1,65,0,1
423069,-76.9230769230769,3,3,1,65,0,0
428280,-66.6666666666667,3,3,1,65,0,0
428754,-76.9230769230769,3,3,1,65,0,0
433806,473.684210526565,4,3,1,65,1,1
434279,-76.9230769230769,4,3,1,65,0,1
437595,-66.6666666666667,4,3,1,65,0,1
441384,473.684210526565,3,3,2,65,1,1
441857,-76.9230769230769,3,3,2,65,0,1
447068,-76.9230769230769,3,3,1,65,0,0
447226,-66.6666666666667,3,3,1,65,0,0
447699,-76.9230769230769,3,3,1,65,0,0
452910,-66.6666666666667,3,3,1,65,0,0
453384,-76.9230769230769,3,3,1,65,0,0
458424,473.684210526565,3,3,1,65,1,0
458424,-66.6666666666667,3,3,1,65,0,0
461273,450.000000000011,3,3,1,65,1,0
461273,-58.8235294117647,3,3,1,65,0,0
461723,-100,3,3,1,65,0,0
462173,-66.6666666666667,3,3,1,65,0,0
462248,-66.6666666666667,3,3,1,5,0,0
462623,-66.6666666666667,3,3,1,65,0,0
463073,-66.6666666666667,3,3,1,65,0,0
463748,-66.6666666666667,3,3,1,5,0,0
463823,-66.6666666666667,3,3,1,65,0,0
464423,-100,3,3,1,65,0,0
464873,-66.6666666666667,3,3,1,65,0,0
464948,-66.6666666666667,3,3,1,5,0,0
465323,450.000000000011,4,3,1,65,1,0
465323,-66.6666666666667,4,3,1,65,0,0
465773,-76.9230769230769,4,3,1,65,0,0
466673,-100,4,3,1,65,0,0
467122,450.000000000011,3,3,1,65,1,0
470272,-66.6666666666667,3,3,1,65,0,0
472972,-100,3,3,1,65,0,0
473422,-66.6666666666667,3,3,1,65,0,0
473497,-66.6666666666667,3,3,1,5,0,0
473872,-66.6666666666667,3,3,1,65,0,0
475672,-100,3,3,1,65,0,0
476122,-66.6666666666667,3,3,1,65,0,0
476197,-66.6666666666667,3,3,1,5,0,0
476572,450.000000000011,4,3,1,65,1,0
476572,-66.6666666666667,4,3,1,65,0,0
478372,450.000000000011,3,3,1,65,1,0
478822,-66.6666666666667,3,3,1,65,0,0
483772,-50,3,3,1,65,0,0
484222,-66.6666666666667,3,3,1,65,0,0
484747,-66.6666666666667,3,3,1,5,0,0
485122,-66.6666666666667,3,3,1,65,0,0
487822,450.000000000011,4,3,1,65,1,0
487822,-66.6666666666667,4,3,1,65,0,0
489622,450.000000000011,3,3,1,65,1,0
490072,-66.6666666666667,3,3,1,65,0,0
500422,-71.4285714285714,3,3,1,65,0,0
501472,-83.3333333333333,3,3,1,65,0,0
501772,-133.333333333333,3,3,1,65,0,0
503947,-133.333333333333,3,3,1,5,0,0
504022,-200,3,3,1,65,0,0
504472,450.000000000011,4,3,1,65,1,0
504472,-133.333333333333,4,3,1,65,0,0
504922,-100,4,3,1,65,0,0
506272,450.000000000011,3,3,1,65,1,0
506272,-66.6666666666667,3,3,1,65,0,0
507247,-66.6666666666667,3,3,1,5,0,0
507622,-66.6666666666667,3,3,1,65,0,0
510322,450.000000000011,4,3,1,65,1,0
510322,-66.6666666666667,4,3,1,65,0,0
512122,450.000000000011,3,3,1,65,1,0
512572,-66.6666666666667,3,3,1,65,0,0
517522,-61.7283950617284,3,3,1,65,0,0
518422,-66.6666666666667,3,3,1,65,0,0
521122,-58.8235294117647,3,3,1,65,0,0
522922,-71.4285714285714,3,3,1,65,0,0
523972,-100,3,3,1,65,0,0
524197,-100,3,3,1,5,0,0
524272,-100,3,3,1,65,0,0
526072,-200,3,3,1,65,0,0
526447,-200,3,3,1,5,0,0
526522,-200,3,3,1,65,0,0
526972,-133.333333333333,3,3,1,65,0,0
527422,-100,3,3,1,65,0,0
528772,-76.9230769230769,3,3,1,65,0,0
529672,-133.333333333333,3,3,1,65,0,0
531022,-133.333333333333,3,3,1,55,0,0
532372,-133.333333333333,3,3,1,45,0,0
533722,-133.333333333333,3,3,1,35,0,0
534172,-133.333333333333,3,3,1,25,0,0
534622,-133.333333333333,3,3,1,15,0,0
535072,-133.333333333333,3,3,1,5,0,0

[Colours]
Combo1 : 227,174,94
Combo2 : 125,77,77
Combo3 : 103,115,169
Combo4 : 139,156,86

[HitObjects]
258,143,2933,6,0,L|249:208,1,60,2|0,0:0|2:0,0:0:0:0:
142,235,3083,2,0,L|149:175,1,60,2|0,0:0|2:0,0:0:0:0:
284,301,3233,1,0,0:0:0:0:
62,54,3383,6,0,B|102:26|102:26|187:53,1,120,2|0,0:0|0:0,0:0:0:0:
357,209,3683,2,0,B|316:181|316:181|231:208,1,120,2|0,0:0|0:0,0:0:0:0:
62,362,3983,2,0,B|102:334|102:334|187:361,2,120,2|0|0,0:0|0:0|0:0,0:0:0:0:
292,308,4433,5,2,0:0:0:0:
292,308,4508,1,0,0:0:0:0:
292,308,4583,1,0,0:0:0:0:
149,175,4733,1,0,0:0:0:0:
340,97,4883,6,0,P|367:147|355:213,1,120,2|0,0:0|0:0,0:0:0:0:
62,362,5183,2,0,P|35:312|47:246,1,120,2|0,0:0|0:0,0:0:0:0:
169,47,5483,1,2,0:0:0:0:
416,64,5933,5,8,0:1:0:0:
454,124,6008,1,8,0:1:0:0:
431,192,6083,1,8,0:1:0:0:
371,220,6158,1,8,0:1:0:0:
315,196,6233,1,8,0:1:0:0:
296,151,6308,1,8,0:1:0:0:
309,117,6383,5,10,0:0:0:0:
356,153,6458,1,8,0:0:0:0:
358,206,6533,1,8,0:0:0:0:
321,245,6608,1,8,0:0:0:0:
267,253,6683,2,0,P|244:222|246:180,1,60,6|4,0:0|0:0,0:0:0:0:
145,159,6833,2,0,P|163:135|167:106,1,60,4|4,0:0|0:0,0:0:0:0:
224,20,6983,1,6,0:0:0:0:
39,300,8033,5,14,0:1:0:0:
81,342,8108,1,0,0:0:0:0:
140,333,8183,1,0,0:0:0:0:
177,286,8258,1,0,0:0:0:0:
174,226,8333,1,0,0:0:0:0:
132,182,8408,1,0,0:0:0:0:
72,185,8483,5,10,0:1:0:0:
88,221,8558,1,0,0:0:0:0:
121,241,8633,1,0,0:0:0:0:
160,239,8708,1,0,0:0:0:0:
191,214,8783,1,0,0:0:0:0:
203,177,8858,1,0,0:0:0:0:
191,139,8933,5,10,0:1:0:0:
149,182,9008,1,0,0:0:0:0:
160,239,9083,1,0,0:0:0:0:
202,281,9158,1,0,0:0:0:0:
261,277,9233,1,0,0:0:0:0:
303,235,9308,1,0,0:0:0:0:
304,175,9383,5,10,0:1:0:0:
267,191,9458,1,0,0:0:0:0:
246,224,9533,1,0,0:0:0:0:
247,263,9608,1,0,0:0:0:0:
269,296,9683,1,0,0:0:0:0:
306,311,9758,1,0,0:0:0:0:
344,303,9833,5,10,0:1:0:0:
311,253,9908,1,0,0:0:0:0:
251,246,9983,1,0,0:0:0:0:
199,277,10058,1,0,0:0:0:0:
167,328,10133,1,0,0:0:0:0:
111,350,10208,1,0,0:0:0:0:
54,329,10283,5,10,0:1:0:0:
74,295,10358,1,0,0:0:0:0:
112,287,10433,1,0,0:0:0:0:
145,308,10508,1,0,0:0:0:0:
152,346,10583,1,0,0:0:0:0:
131,378,10658,1,0,0:0:0:0:
92,384,10733,6,0,L|84:324,1,60.0000022888185,8|8,2:1|2:1,2:1:0:0:
52,180,10883,2,0,L|107:203,1,60.0000022888185,8|8,2:1|2:1,2:1:0:0:
248,247,11033,2,0,L|200:283,1,60.0000022888185,8|8,2:1|2:1,2:1:0:0:
192,100,11183,5,8,2:1:0:0:
234,58,11258,1,8,2:1:0:0:
293,60,11333,1,8,2:1:0:0:
336,101,11408,1,8,2:1:0:0:
376,144,11483,1,8,2:1:0:0:
436,144,11558,1,8,2:1:0:0:
465,93,11633,5,6,0:2:0:0:
425,56,11708,1,8,0:1:0:0:
371,58,11783,1,2,0:2:0:0:
336,101,11858,1,8,0:1:0:0:
339,154,11933,1,2,0:2:0:0:
376,193,12008,1,8,0:1:0:0:
402,239,12083,1,2,0:2:0:0:
397,292,12158,1,8,0:1:0:0:
356,328,12233,1,2,0:2:0:0:
302,320,12308,1,8,0:1:0:0:
273,273,12383,1,2,0:2:0:0:
280,213,12458,1,8,0:1:0:0:
330,183,12533,6,0,P|346:209|346:243,1,60.0000022888185,2|8,0:2|0:1,0:0:0:0:
235,315,12683,2,0,P|248:288|278:272,1,60.0000022888185,2|8,0:2|0:1,0:0:0:0:
395,333,12833,2,0,P|365:334|336:316,1,60.0000022888185,2|8,0:2|0:1,0:2:0:0:
111,232,12983,5,2,0:2:0:0:
113,212,13058,1,8,0:1:0:0:
115,192,13133,1,2,0:2:0:0:
118,172,13208,1,8,0:1:0:0:
120,152,13283,1,2,0:2:0:0:
123,132,13358,1,8,0:1:0:0:
125,112,13433,6,0,B|183:80|231:131|231:131|231:137|231:137|283:200|341:180,1,240.000009155274,4|0,0:2|0:0,0:0:0:0:
379,55,13883,1,12,0:1:0:0:
115,235,14033,1,0,0:0:0:0:
115,235,14183,1,0,0:0:0:0:
256,352,14333,6,0,B|264:308|297:285|297:285|264:111,1,240.000009155274,4|0,0:2|0:0,0:0:0:0:
197,0,14783,1,12,0:1:0:0:
383,58,14933,1,0,0:0:0:0:
383,58,15083,1,0,0:0:0:0:
115,235,15233,6,0,B|71:253|41:200|41:200|96:111|199:187,1,240.000009155274,4|0,0:2|0:0,0:0:0:0:
256,352,15683,1,12,0:1:0:0:
310,241,15833,1,0,0:0:0:0:
310,241,15983,1,0,0:0:0:0:
432,348,16133,5,12,0:2:0:0:
465,322,16208,1,0,0:0:0:0:
476,281,16283,1,0,0:0:0:0:
466,240,16358,1,0,0:0:0:0:
435,211,16433,1,0,0:0:0:0:
400,187,16508,1,0,0:0:0:0:
377,150,16583,1,10,0:1:0:0:
377,107,16658,1,0,0:0:0:0:
394,67,16733,1,0,0:0:0:0:
434,53,16808,1,0,0:0:0:0:
474,62,16883,1,0,0:0:0:0:
501,94,16958,1,0,0:0:0:0:
496,135,17033,6,0,B|446:123|446:123|321:199|321:199|272:186,1,240.000009155274,4|0,0:2|0:0,0:0:0:0:
63,133,17483,1,12,0:1:0:0:
250,18,17633,1,0,0:0:0:0:
250,18,17783,1,0,0:0:0:0:
189,288,17933,6,0,B|151:226|151:226|182:83,1,204.000003890991,12|0,0:2|0:0,0:0:0:0:
250,18,18233,6,0,P|275:85|386:74,1,180.000006866455,6|0,0:1|0:0,0:0:0:0:
414,23,18533,6,0,B|396:61|413:102|426:80|455:123|426:174,1,155.999992858887,2|0,0:1|0:0,0:0:0:0:
456,270,18833,6,0,B|399:240|346:276|369:284|317:322|281:328|281:328|158:272|254:123|356:219|370:272|291:411|167:401|79:355|79:355|96:286|163:288,1,800,4|0,0:2|2:0,0:0:0:0:
355,178,20632,6,0,B|375:210|375:210|355:277,1,90.0000034332277,6|0,3:1|0:0,0:0:0:0:
271,319,20932,2,0,B|251:287|251:287|271:219,1,90.0000034332277,2|0,0:1|0:0,0:0:0:0:
373,182,21232,2,0,B|393:214|393:214|373:281,1,90.0000034332277,10|0,0:1|0:0,0:0:0:0:
289,323,21532,2,0,B|269:291|269:291|289:223,1,90.0000034332277,2|0,0:1|0:0,0:0:0:0:
391,186,21832,2,0,B|411:218|411:218|391:285,1,90.0000034332277,2|0,3:1|0:0,0:0:0:0:
307,327,22132,2,0,B|287:295|287:295|307:227,1,90.0000034332277,2|0,0:1|0:0,0:0:0:0:
101,139,22432,5,10,0:1:0:0:
286,46,22582,1,0,0:0:0:0:
201,188,22732,5,2,0:1:0:0:
160,32,22882,1,0,0:0:0:0:
28,261,23032,6,0,L|123:249,1,90.0000034332277,2|0,3:1|0:0,0:0:0:0:
190,149,23332,2,0,L|100:138,1,90.0000034332277,2|0,0:1|0:0,0:0:0:0:
32,281,23632,2,0,L|127:269,1,90.0000034332277,10|0,0:1|0:0,0:0:0:0:
194,169,23932,2,0,L|104:158,1,90.0000034332277,2|0,0:1|0:0,0:0:0:0:
39,300,24232,2,0,L|134:288,1,90.0000034332277,2|0,3:1|0:0,0:0:0:0:
201,188,24532,2,0,L|111:177,1,90.0000034332277,2|0,0:1|0:0,0:0:0:0:
334,374,24832,5,10,0:1:0:0:
374,139,24982,1,0,0:0:0:0:
279,296,25132,5,2,0:1:0:0:
465,223,25282,1,0,0:0:0:0:
214,104,25432,6,0,P|193:156|206:198,1,90.0000034332277,2|0,3:1|0:0,0:0:0:0:
279,296,25732,2,0,P|300:244|287:202,1,90.0000034332277,2|0,0:1|0:0,0:0:0:0:
224,112,26032,2,0,P|203:164|216:206,1,90.0000034332277,10|0,0:1|0:0,0:0:0:0:
289,304,26332,2,0,P|310:252|297:210,1,90.0000034332277,2|0,0:1|0:0,0:0:0:0:
234,120,26632,2,0,P|213:172|226:214,1,90.0000034332277,2|0,3:1|0:0,0:0:0:0:
299,312,26932,2,0,P|320:260|307:218,1,90.0000034332277,2|0,0:1|0:0,0:0:0:0:
10,315,27232,5,10,0:1:0:0:
200,187,27382,1,0,0:0:0:0:
77,207,27532,5,2,0:1:0:0:
148,334,27682,1,0,0:0:0:0:
234,120,27832,6,0,B|206:101|206:101|138:120,1,90.0000034332277,2|0,3:1|0:0,0:0:0:0:
77,207,28132,2,0,B|105:226|105:226|173:207,1,90.0000034332277,2|0,0:1|0:0,0:0:0:0:
240,107,28432,2,0,B|212:88|212:88|144:107,1,90.0000034332277,10|0,0:1|0:0,0:0:0:0:
83,194,28732,2,0,B|111:213|111:213|179:194,1,90.0000034332277,2|0,0:1|0:0,0:0:0:0:
246,94,29032,2,0,B|218:75|218:75|150:94,1,90.0000034332277,2|0,3:1|0:0,0:0:0:0:
89,181,29332,2,0,B|117:200|117:200|185:181,1,90.0000034332277,2|0,0:1|0:0,0:0:0:0:
299,312,29632,5,8,2:1:0:0:
356,354,29707,1,8,2:1:0:0:
423,347,29782,1,8,2:1:0:0:
454,292,29857,1,8,2:1:0:0:
436,236,29932,5,8,3:0:0:0:
428,231,30007,1,8,3:0:0:0:
422,224,30082,1,4,3:0:0:0:
419,215,30157,1,4,3:0:0:0:
419,206,30232,5,4,0:2:0:0:
498,171,30382,1,0,0:0:0:0:
317,88,30532,5,2,0:1:0:0:
410,112,30682,1,0,0:0:0:0:
323,209,30832,5,10,0:1:0:0:
317,190,30982,1,0,0:0:0:0:
198,249,31132,5,2,0:1:0:0:
216,149,31282,1,0,0:0:0:0:
306,316,31432,5,2,0:1:0:0:
223,338,31582,1,0,0:0:0:0:
323,209,31732,5,2,0:1:0:0:
414,254,31882,1,0,0:0:0:0:
99,309,32032,6,0,B|72:272|72:272|92:195,1,120,10|0,0:1|0:0,0:0:0:0:
301,75,32332,2,0,B|328:112|328:112|308:189,1,120,2|0,0:1|0:0,0:0:0:0:
36,86,32632,5,2,0:1:0:0:
126,61,32782,1,0,0:0:0:0:
135,170,32932,5,2,0:1:0:0:
109,164,33082,1,0,0:0:0:0:
211,128,33232,5,10,0:1:0:0:
232,226,33382,1,0,0:0:0:0:
329,81,33532,5,2,0:1:0:0:
301,75,33682,1,8,0:1:0:0:
345,294,33832,5,8,0:0:0:0:
374,290,33907,1,8,0:0:0:0:
404,286,33982,1,8,0:0:0:0:
434,283,34057,1,8,0:0:0:0:
464,279,34132,6,0,P|476:252|470:217,3,60,4|4|4|4,0:0|0:0|0:0|0:0,0:0:0:0:
418,64,34432,5,8,0:1:0:0:
376,10,34507,1,8,0:1:0:0:
308,4,34582,1,8,0:1:0:0:
256,44,34657,1,8,0:1:0:0:
250,97,34732,1,8,0:0:0:0:
276,135,34807,1,8,0:0:0:0:
319,140,34882,2,0,L|333:56,1,60,4|4,0:0|0:0,0:0:0:0:
63,22,35032,5,6,0:1:0:0:
34,47,35107,1,0,0:0:0:0:
30,83,35182,1,0,0:0:0:0:
37,114,35257,1,0,0:0:0:0:
55,140,35332,1,2,0:2:0:0:
80,156,35407,1,0,0:0:0:0:
103,176,35482,1,0,0:2:0:0:
118,202,35557,1,0,0:0:0:0:
118,232,35632,1,10,0:2:0:0:
106,259,35707,1,0,0:0:0:0:
81,274,35782,1,0,0:2:0:0:
52,268,35857,1,0,0:0:0:0:
39,241,35932,2,0,P|66:220|93:220,3,60,2|0|0|0,0:2|0:0|0:2|0:0,0:0:0:0:
172,320,36232,5,2,0:2:0:0:
190,296,36307,1,0,0:0:0:0:
218,287,36382,1,0,0:2:0:0:
247,291,36457,1,0,0:0:0:0:
271,307,36532,1,2,0:2:0:0:
285,333,36607,1,0,0:0:0:0:
303,356,36682,1,0,0:2:0:0:
328,371,36757,1,0,0:0:0:0:
357,376,36832,1,10,0:2:0:0:
390,359,36907,1,0,0:0:0:0:
400,324,36982,1,2,0:2:0:0:
387,290,37057,1,0,0:0:0:0:
355,271,37132,1,2,0:2:0:0:
335,239,37207,1,0,0:0:0:0:
328,200,37282,1,2,0:2:0:0:
347,168,37357,1,0,0:0:0:0:
384,156,37432,1,2,0:2:0:0:
415,164,37507,1,0,0:0:0:0:
439,181,37582,1,0,0:2:0:0:
451,208,37657,1,0,0:0:0:0:
448,237,37732,1,2,0:2:0:0:
432,257,37807,1,0,0:0:0:0:
412,261,37882,1,0,0:2:0:0:
401,255,37957,1,0,0:0:0:0:
398,243,38032,6,0,P|422:221|473:235,3,60,10|0|0|0,0:2|0:0|0:2|0:0,0:0:0:0:
512,136,38332,1,2,0:2:0:0:
512,136,38407,1,0,0:0:0:0:
511,135,38482,2,0,P|481:131|460:111,1,60,0|0,0:2|0:0,0:0:0:0:
339,27,38632,5,2,0:2:0:0:
289,39,38707,1,0,0:0:0:0:
266,84,38782,1,0,0:2:0:0:
277,128,38857,1,0,0:0:0:0:
306,160,38932,2,0,P|329:127|331:101,1,60,2|0,0:2|0:0,0:0:0:0:
145,44,39082,1,0,0:2:0:0:
145,44,39157,1,0,0:0:0:0:
145,44,39232,2,0,L|155:126,3,60,10|0|2|0,0:2|0:0|0:2|0:1,0:0:0:0:
211,209,39532,5,2,0:2:0:0:
197,273,39607,1,0,0:0:0:0:
143,300,39682,1,2,0:2:0:0:
90,288,39757,1,0,0:0:0:0:
63,249,39832,5,6,0:1:0:0:
91,232,39907,1,0,0:0:0:0:
122,237,39982,1,0,0:0:0:0:
147,258,40057,1,0,0:0:0:0:
163,286,40132,1,2,0:2:0:0:
192,301,40207,1,0,0:0:0:0:
224,301,40282,1,0,0:0:0:0:
249,285,40357,1,0,0:0:0:0:
258,256,40432,1,10,0:2:0:0:
253,226,40507,1,0,0:0:0:0:
228,209,40582,1,0,0:0:0:0:
198,208,40657,1,0,0:0:0:0:
177,229,40732,6,0,L|186:304,3,60,2|0|0|0,0:2|0:0|0:0|0:0,0:0:0:0:
361,352,41032,1,2,0:2:0:0:
403,339,41107,1,0,0:0:0:0:
421,299,41182,1,0,0:0:0:0:
417,262,41257,1,0,0:0:0:0:
396,231,41332,1,2,0:2:0:0:
366,210,41407,1,0,0:0:0:0:
338,186,41482,1,0,0:2:0:0:
323,153,41557,1,0,0:0:0:0:
323,111,41632,1,10,0:2:0:0:
346,76,41707,1,0,0:0:0:0:
388,64,41782,1,2,0:2:0:0:
429,70,41857,1,0,0:0:0:0:
459,99,41932,1,2,0:2:0:0:
470,139,42007,1,0,0:0:0:0:
462,180,42082,1,2,0:2:0:0:
430,207,42157,1,0,0:0:0:0:
388,214,42232,1,2,0:2:0:0:
356,196,42307,1,0,0:0:0:0:
332,169,42382,1,0,0:2:0:0:
296,156,42457,1,0,0:0:0:0:
260,160,42532,1,2,0:2:0:0:
235,186,42607,1,0,0:0:0:0:
230,221,42682,1,0,0:2:0:0:
244,253,42757,1,0,0:0:0:0:
275,270,42832,1,10,0:2:0:0:
310,265,42907,1,0,0:0:0:0:
336,241,42982,1,0,0:2:0:0:
345,206,43057,1,0,0:0:0:0:
329,173,43132,1,2,0:2:0:0:
296,156,43207,1,0,0:0:0:0:
260,160,43282,1,0,0:2:0:0:
235,186,43357,1,0,0:0:0:0:
199,208,43432,1,2,0:2:0:0:
157,200,43507,1,0,0:0:0:0:
129,168,43582,1,0,0:2:0:0:
123,126,43657,1,0,0:0:0:0:
137,93,43732,1,2,0:2:0:0:
169,78,43807,1,0,0:0:0:0:
197,87,43882,2,0,L|205:160,1,60,0|0,0:2|0:0,0:0:0:0:
285,192,44032,5,8,2:1:0:0:
279,230,44107,1,8,2:1:0:0:
275,270,44182,1,8,2:1:0:0:
269,308,44257,1,8,2:1:0:0:
229,369,44332,6,0,L|223:321,3,35.9999989013672,8|8|4|4,0:0|0:0|0:0|0:0,0:0:0:0:
90,248,44632,5,6,0:1:0:0:
116,204,44707,1,0,0:3:0:0:
164,191,44782,1,0,0:3:0:0:
210,201,44857,1,0,0:3:0:0:
240,238,44932,1,2,0:2:0:0:
275,270,45007,1,0,0:3:0:0:
322,274,45082,1,2,0:2:0:0:
363,248,45157,1,0,0:3:0:0:
376,201,45232,1,10,0:2:0:0:
361,155,45307,1,0,0:0:0:0:
320,129,45382,1,2,0:2:0:0:
272,133,45457,1,0,0:0:0:0:
236,165,45532,1,2,0:2:0:0:
225,211,45607,1,0,0:0:0:0:
193,247,45682,1,2,0:2:0:0:
147,263,45757,1,0,0:0:0:0:
99,253,45832,1,2,0:2:0:0:
70,214,45907,1,0,0:0:0:0:
65,166,45982,1,2,0:2:0:0:
89,124,46057,1,0,0:0:0:0:
124,101,46132,1,2,0:2:0:0:
143,63,46207,1,0,0:0:0:0:
139,21,46282,1,2,0:2:0:0:
108,1,46357,1,0,0:0:0:0:
72,4,46432,1,10,0:2:0:0:
44,27,46507,1,0,0:0:0:0:
39,62,46582,1,2,0:2:0:0:
50,89,46657,1,0,0:0:0:0:
76,103,46732,1,2,0:2:0:0:
105,101,46807,1,0,0:0:0:0:
121,83,46882,1,2,0:2:0:0:
120,65,46957,1,0,0:0:0:0:
111,56,47032,5,2,0:2:0:0:
70,81,47107,1,0,0:0:0:0:
62,128,47182,1,2,0:2:0:0:
81,171,47257,1,0,0:0:0:0:
125,187,47332,1,2,0:2:0:0:
172,180,47407,1,0,0:0:0:0:
206,146,47482,1,2,0:2:0:0:
246,120,47557,1,0,0:0:0:0:
293,122,47632,1,10,0:2:0:0:
327,145,47707,1,0,0:0:0:0:
342,184,47782,1,2,0:2:0:0:
334,225,47857,1,0,0:0:0:0:
303,254,47932,1,2,0:2:0:0:
267,256,48007,1,2,0:2:0:0:
244,236,48082,1,10,0:2:0:0:
243,212,48157,1,2,0:2:0:0:
256,200,48232,6,0,B|317:167|391:218|346:250|407:316|472:287,1,240,2|10,0:2|0:2,0:0:0:0:
512,58,48682,2,0,L|373:75,1,120,0|2,0:0|0:2,0:0:0:0:
282,317,48982,5,8,0:1:0:0:
170,32,49132,1,8,0:1:0:0:
91,202,49282,1,8,0:1:0:0:
276,97,49432,6,0,B|292:143|321:161|321:161|274:346,1,240,6|2,0:1|0:1,0:0:0:0:
165,365,49882,1,0,0:0:0:0:
91,202,50032,1,10,0:1:0:0:
117,198,50182,1,0,0:0:0:0:
10,284,50332,2,0,B|-18:243|-18:243|0:163,1,120,2|0,0:1|0:0,0:0:0:0:
67,39,50632,6,0,B|118:5|176:43|176:43|176:53|176:53|228:114|287:92,1,240,2|2,0:1|0:1,0:0:0:0:
315,14,51082,1,0,0:0:0:0:
371,242,51232,1,10,0:1:0:0:
150,160,51382,1,0,0:0:0:0:
428,58,51532,2,0,B|456:99|456:99|438:179,1,120,2|0,0:1|0:0,0:0:0:0:
270,366,51832,6,0,L|248:187,1,180,2|0,0:1|2:0,0:0:0:0:
274,95,52132,2,0,P|252:157|141:152,1,180,2|0,0:1|0:0,0:0:0:0:
27,250,52432,2,0,B|-1:209|-1:209|17:129,1,120,10|0,0:1|0:0,0:0:0:0:
127,33,52732,2,0,B|155:74|155:74|137:154,1,120,2|0,0:1|0:0,0:0:0:0:
151,324,53032,5,8,0:1:0:0:
187,372,53107,1,8,0:1:0:0:
245,370,53182,1,0,0:0:0:0:
275,332,53257,1,0,0:0:0:0:
269,296,53332,2,0,P|246:276|209:274,3,60,8|8|4|4,0:0|0:0|0:0|0:0,0:0:0:0:
288,179,53632,5,8,0:0:0:0:
310,176,53707,1,8,0:0:0:0:
332,173,53782,1,8,0:0:0:0:
354,170,53857,1,8,0:0:0:0:
401,208,53932,6,0,L|365:203,3,35.9999989013672,4|4|4|4,0:0|0:0|0:0|0:0,0:0:0:0:
431,137,54232,6,0,B|463:154|463:154|469:152|469:152|504:169|504:169|406:183|406:183|404:179|404:179|298:194,1,287.999991210938,6|2,0:1|0:1,0:0:0:0:
137,51,54682,1,0,0:0:0:0:
50,200,54832,2,0,P|28:163|37:109,1,90.0000034332277,10|0,0:1|0:0,0:0:0:0:
156,40,55132,2,0,P|177:76|168:130,1,90.0000034332277,2|0,0:1|0:0,0:0:0:0:
66,191,55432,2,0,P|44:154|54:100,1,90.0000034332277,2|0,0:1|0:0,0:0:0:0:
172,31,55732,2,0,P|193:67|183:121,1,90.0000034332277,2|0,0:1|0:0,0:0:0:0:
301,196,56032,5,10,0:1:0:0:
75,92,56182,1,0,0:0:0:0:
325,101,56332,5,2,0:1:0:0:
171,225,56482,1,0,0:0:0:0:
384,356,56632,6,0,L|395:260,1,90.0000034332277,2|0,0:1|0:0,0:0:0:0:
301,196,56932,2,0,L|290:285,1,90.0000034332277,2|0,0:1|0:0,0:0:0:0:
393,365,57232,2,0,L|404:269,1,90.0000034332277,10|0,0:1|0:0,0:0:0:0:
310,205,57532,2,0,L|299:294,1,90.0000034332277,2|0,0:1|0:0,0:0:0:0:
402,374,57832,2,0,L|413:278,1,90.0000034332277,2|0,0:1|0:0,0:0:0:0:
319,214,58132,2,0,L|308:303,1,90.0000034332277,2|0,0:1|0:0,0:0:0:0:
512,93,58432,5,8,0:1:0:0:
470,39,58507,1,8,0:1:0:0:
402,33,58582,1,8,0:1:0:0:
350,73,58657,1,8,0:1:0:0:
344,126,58732,1,8,0:0:0:0:
370,164,58807,1,8,0:0:0:0:
413,169,58882,2,0,L|427:85,1,60,4|4,0:0|0:0,0:0:0:0:
214,31,59032,5,6,0:1:0:0:
182,13,59107,1,0,0:0:0:0:
146,12,59182,1,0,0:0:0:0:
112,25,59257,1,0,0:0:0:0:
91,54,59332,1,2,0:2:0:0:
82,89,59407,1,0,0:0:0:0:
91,123,59482,1,0,0:0:0:0:
113,150,59557,1,0,0:0:0:0:
148,160,59632,1,10,0:2:0:0:
184,149,59707,1,0,0:0:0:0:
195,121,59782,1,0,0:0:0:0:
186,98,59857,1,0,0:0:0:0:
170,88,59932,6,0,P|150:116|152:152,3,60,2|0|0|0,0:2|0:0|0:0|0:0,0:0:0:0:
43,261,60232,1,2,0:2:0:0:
68,301,60307,1,0,0:0:0:0:
113,317,60382,1,0,0:0:0:0:
159,305,60457,1,0,0:0:0:0:
193,271,60532,1,2,0:2:0:0:
219,231,60607,1,0,0:0:0:0:
259,217,60682,1,0,0:0:0:0:
301,221,60757,1,0,0:0:0:0:
344,241,60832,1,10,0:2:0:0:
370,280,60907,1,0,0:0:0:0:
365,327,60982,1,2,0:2:0:0:
339,367,61057,1,0,0:0:0:0:
292,379,61132,1,2,0:2:0:0:
251,367,61207,1,0,0:0:0:0:
226,333,61282,1,2,0:2:0:0:
207,295,61357,1,0,0:0:0:0:
184,266,61432,1,2,0:2:0:0:
150,252,61507,1,0,0:0:0:0:
114,255,61582,1,0,0:0:0:0:
84,279,61657,1,0,0:0:0:0:
76,309,61732,1,2,0:2:0:0:
81,331,61807,1,0,0:0:0:0:
96,347,61882,1,0,0:0:0:0:
115,353,61957,1,0,0:0:0:0:
132,350,62032,6,0,P|142:316|133:280,3,60,10|0|0|0,0:2|0:0|0:0|0:0,0:0:0:0:
220,263,62332,1,2,0:2:0:0:
218,248,62407,1,0,0:0:0:0:
216,233,62482,2,0,L|207:161,1,60,0|0,0:2|0:2,0:2:0:0:
69,140,62632,1,2,0:2:0:0:
104,94,62707,1,0,0:2:0:0:
159,84,62782,1,0,0:2:0:0:
206,112,62857,1,0,0:2:0:0:
230,153,62932,1,2,0:2:0:0:
253,185,63007,1,0,0:2:0:0:
295,188,63082,1,0,0:2:0:0:
326,166,63157,1,0,0:2:0:0:
331,131,63232,1,10,0:2:0:0:
316,105,63307,1,0,0:2:0:0:
285,96,63382,1,2,0:2:0:0:
261,105,63457,1,0,0:2:0:0:
248,125,63532,6,0,L|254:207,3,60,2|0|2|0,0:2|0:2|0:2|0:2,0:2:0:0:
414,345,63832,1,6,0:1:0:0:
479,333,63907,1,0,0:0:0:0:
503,278,63982,1,0,0:0:0:0:
478,223,64057,1,0,0:0:0:0:
425,208,64132,1,2,0:2:0:0:
378,235,64207,1,0,0:0:0:0:
360,285,64282,1,0,0:2:0:0:
332,322,64357,1,0,0:0:0:0:
292,334,64432,1,10,0:2:0:0:
253,315,64507,1,0,0:0:0:0:
238,276,64582,1,0,0:2:0:0:
243,240,64657,1,0,0:0:0:0:
272,218,64732,1,2,0:2:0:0:
301,221,64807,1,0,0:0:0:0:
315,239,64882,1,0,0:2:0:0:
317,256,64957,1,0,0:0:0:0:
311,266,65032,5,2,0:2:0:0:
270,278,65107,1,0,0:0:0:0:
231,260,65182,1,0,0:0:0:0:
214,221,65257,1,0,0:0:0:0:
216,179,65332,1,2,0:2:0:0:
243,146,65407,1,0,0:0:0:0:
283,136,65482,1,0,0:0:0:0:
323,145,65557,1,0,0:0:0:0:
351,176,65632,1,10,0:2:0:0:
386,208,65707,1,0,0:0:0:0:
433,211,65782,1,0,0:0:0:0:
476,190,65857,1,0,0:0:0:0:
491,144,65932,1,2,0:2:0:0:
481,96,66007,1,0,0:0:0:0:
448,69,66082,1,0,0:0:0:0:
406,65,66157,1,0,0:0:0:0:
369,86,66232,1,2,0:2:0:0:
354,125,66307,1,0,0:0:0:0:
360,161,66382,1,0,0:0:0:0:
387,184,66457,1,0,0:0:0:0:
422,184,66532,1,2,0:2:0:0:
449,160,66607,1,0,0:0:0:0:
449,124,66682,1,0,0:0:0:0:
423,98,66757,1,0,0:0:0:0:
387,96,66832,1,10,0:2:0:0:
359,119,66907,1,0,0:0:0:0:
356,154,66982,1,0,0:0:0:0:
373,185,67057,1,0,0:0:0:0:
396,211,67132,1,2,0:2:0:0:
408,246,67207,1,0,0:0:0:0:
405,282,67282,1,0,0:0:0:0:
383,312,67357,1,0,0:0:0:0:
352,320,67432,1,2,0:2:0:0:
324,308,67507,1,0,0:0:0:0:
311,280,67582,1,0,0:0:0:0:
317,257,67657,1,0,0:0:0:0:
332,248,67732,1,2,0:2:0:0:
343,249,67807,1,0,0:0:0:0:
350,258,67882,2,0,L|340:334,1,60
266,374,68032,5,8,2:1:0:0:
228,368,68107,1,8,2:1:0:0:
188,364,68182,1,8,2:1:0:0:
150,358,68257,1,8,2:1:0:0:
89,318,68332,6,0,L|136:312,3,35.9999989013672,8|8|4|4,0:0|0:0|0:0|0:0,0:0:0:0:
178,186,68632,5,6,0:1:0:0:
216,157,68707,1,0,0:0:0:0:
263,161,68782,1,0,0:0:0:0:
302,187,68857,1,0,0:0:0:0:
315,232,68932,1,2,0:2:0:0:
303,278,69007,1,0,0:0:0:0:
264,306,69082,1,2,0:2:0:0:
216,304,69157,1,0,0:0:0:0:
183,269,69232,1,10,0:2:0:0:
185,221,69307,1,0,0:0:0:0:
215,183,69382,1,2,0:2:0:0:
241,142,69457,1,0,0:0:0:0:
244,94,69532,1,2,0:2:0:0:
219,52,69607,1,0,0:0:0:0:
176,30,69682,1,2,0:2:0:0:
128,34,69757,1,0,0:0:0:0:
89,63,69832,1,2,0:2:0:0:
79,109,69907,1,0,0:0:0:0:
94,154,69982,1,2,0:2:0:0:
129,186,70057,1,0,0:0:0:0:
176,194,70132,1,2,0:2:0:0:
220,175,70207,1,0,0:0:0:0:
245,134,70282,1,2,0:2:0:0:
289,116,70357,1,0,0:0:0:0:
336,120,70432,1,10,0:2:0:0:
375,147,70507,1,0,0:0:0:0:
394,190,70582,1,2,0:2:0:0:
386,237,70657,1,0,0:0:0:0:
360,270,70732,1,2,0:2:0:0:
324,276,70807,1,0,0:0:0:0:
299,258,70882,1,2,0:2:0:0:
294,234,70957,1,0,0:0:0:0:
307,222,71032,5,2,0:2:0:0:
344,241,71107,1,0,0:0:0:0:
357,280,71182,1,2,0:2:0:0:
347,320,71257,1,0,0:0:0:0:
310,351,71332,1,2,0:2:0:0:
262,349,71407,1,0,0:0:0:0:
226,317,71482,1,2,0:2:0:0:
216,269,71557,1,0,0:0:0:0:
233,224,71632,1,10,0:2:0:0:
229,170,71707,1,0,0:0:0:0:
190,131,71782,1,2,0:2:0:0:
136,122,71857,1,0,0:0:0:0:
89,150,71932,1,2,0:2:0:0:
73,201,72007,1,0,0:0:0:0:
88,252,72082,1,2,0:2:0:0:
133,280,72157,1,0,0:0:0:0:
180,270,72232,5,2,0:2:0:0:
154,236,72307,1,0,0:0:0:0:
113,224,72382,1,0,0:0:0:0:
72,234,72457,1,0,0:0:0:0:
45,266,72532,1,2,0:2:0:0:
42,301,72607,1,2,0:2:0:0:
52,335,72682,1,2,0:2:0:0:
76,351,72757,1,2,0:2:0:0:
105,348,72832,5,8,0:1:0:0:
190,131,72982,1,8,0:1:0:0:
291,309,73132,1,8,0:0:0:0:
291,309,73282,1,4,0:0:0:0:
443,48,73432,6,0,B|432:27|403:15|403:15|398:23|398:23|277:50,1,180,4|0,0:2|0:0,0:0:0:0:
190,131,73732,2,0,P|266:133|357:207,1,180,2|0,0:1|0:0,0:0:0:0:
378,279,74032,1,10,0:1:0:0:
378,279,74182,1,0,0:0:0:0:
187,374,74332,2,0,B|159:333|159:333|181:238,1,120,2|0,0:1|0:0,0:0:0:0:
89,228,74632,6,0,B|143:197|201:249|201:249|207:251|207:251|233:313|293:309,1,240,6|2,0:1|0:1,0:0:0:0:
348,192,75082,1,0,0:0:0:0:
464,265,75232,2,0,B|456:325|456:325|460:330|460:330|453:384,1,120,10|0,0:1|0:0,0:0:0:0:
335,181,75532,2,0,B|342:120|342:120|346:116|346:116|353:62,1,120,2|0,0:1|0:0,0:0:0:0:
174,264,75832,5,2,0:1:0:0:
291,309,75982,1,0,0:0:0:0:
231,127,76132,1,2,0:1:0:0:
201,133,76282,1,0,0:0:0:0:
72,337,76432,1,10,0:1:0:0:
52,225,76582,1,0,0:0:0:0:
174,264,76732,1,2,0:1:0:0:
170,287,76882,1,0,0:0:0:0:
40,214,77032,5,2,0:1:0:0:
114,108,77182,2,0,B|167:114|167:114|169:118|169:118|230:126,1,120,8|2,0:1|0:1,0:0:0:0:
378,143,77482,1,0,0:0:0:0:
291,309,77632,2,0,P|265:261|282:200,1,120,10|0,0:1|0:0,0:0:0:0:
481,0,77932,2,0,P|507:48|490:109,1,120,2|8,0:1|0:1,0:0:0:0:
378,143,78232,5,6,0:1:0:0:
335,41,78382,2,0,L|379:46,2,45.0000017166138,8|8|8,0:0|0:0|0:0,0:0:0:0:
385,159,78682,1,8,0:0:0:0:
230,126,78832,5,4,0:0:0:0:
258,121,78982,1,4,0:0:0:0:
134,30,79132,5,8,2:1:0:0:
132,41,79207,1,8,2:1:0:0:
131,51,79282,2,0,L|124:106,1,45.0000017166138,8|8,0:3|0:3,2:1:0:0:
53,163,79432,5,8,2:1:0:0:
59,200,79507,1,8,2:1:0:0:
63,240,79582,1,8,2:1:0:0:
69,278,79657,1,8,2:1:0:0:
109,339,79732,6,0,L|114:291,3,35.9999989013672,8|8|4|4,0:0|0:0|0:0|0:0,0:0:0:0:
217,215,80032,6,0,B|188:250|188:250|327:233,1,160,6|0,0:1|0:0,0:0:0:0:
335,264,80257,1,0,0:0:0:0:
335,264,80332,2,0,L|342:204,1,60.0000022888184
258,121,80482,5,4,0:0:0:0:
339,101,80632,1,4,0:0:0:0:
419,76,80782,1,4,0:0:0:0:
134,30,80932,6,0,L|125:101,1,60.0000022888184,12|0,0:2|2:0,0:0:0:0:
5,257,81382,6,0,B|73:208|154:274|112:310|192:398|290:329,1,300.000011444092,6|0,0:1|2:0,0:0:0:0:
366,296,81832,1,8,2:1:0:0:
364,310,81907,1,8,2:1:0:0:
362,325,81982,2,0,L|354:388,3,60.0000022888184,8|8|4|4,0:0|0:0|0:0|0:0,0:0:0:0:
469,354,82282,2,0,L|446:167,1,180.000006866455,12|0,0:2|2:0,0:0:0:0:
455,153,82582,1,8,2:1:0:0:
362,41,82732,6,0,P|334:91|277:100,1,120.000004577637,6|0,0:1|0:0,0:0:0:0:
152,168,83032,1,0,0:0:0:0:
152,168,83107,1,0,0:0:0:0:
152,168,83182,6,0,L|159:108,1,40,4|0,0:0|2:0,0:0:0:0:
155,27,83332,2,0,L|202:63,1,40,4|0,0:0|2:0,0:0:0:0:
276,100,83482,2,0,L|220:123,1,40,4|0,0:0|2:0,0:0:0:0:
50,325,83632,6,0,L|42:265,1,60.0000022888184,12|0,0:2|2:0,0:0:0:0:
52,243,84082,6,0,P|111:297|166:293,1,120.000004577637,6|8,0:1|2:1,0:0:0:0:
239,330,84307,1,8,2:1:0:0:
241,316,84382,1,8,2:1:0:0:
243,302,84457,1,8,2:1:0:0:
245,287,84532,2,0,L|253:224,1,60.0000022888184,8|8,0:0|0:0,0:0:0:0:
163,187,84682,2,0,L|156:128,3,60.0000022888184,4|4|4|4,0:0|0:0|0:0|0:0,0:0:0:0:
336,29,84982,5,8,0:0:0:0:
381,43,85057,1,8,0:0:0:0:
406,79,85132,1,8,0:0:0:0:
403,115,85207,1,8,0:0:0:0:
385,147,85282,1,8,0:0:0:0:
357,159,85357,1,8,0:0:0:0:
328,148,85432,2,0,P|345:112|376:96,5,60.0000022888184,4|4|4|4|4|4,0:0|0:0|0:0|0:0|0:0|0:0,0:0:0:0:
476,194,85882,5,6,0:1:0:0:
472,220,85957,1,0,0:0:0:0:
469,246,86032,1,0,0:0:0:0:
466,273,86107,1,0,0:0:0:0:
463,299,86182,1,0,0:0:0:0:
459,326,86257,1,0,0:0:0:0:
456,352,86332,2,0,L|445:264,5,60.0000022888184,10|0|0|0|0|0,0:1|0:0|0:0|0:0|0:0|0:0,0:0:0:0:
328,148,86782,2,0,L|320:207,5,60.0000022888184,10|0|0|0|0|0,0:1|0:0|0:0|0:0|0:0|0:0,0:0:0:0:
267,334,87232,1,10,0:1:0:0:
242,354,87307,1,0,0:0:0:0:
206,354,87382,1,0,0:0:0:0:
177,331,87457,1,0,0:0:0:0:
170,295,87532,1,0,0:0:0:0:
185,262,87607,1,0,0:0:0:0:
218,248,87682,6,0,B|314:260|314:260|333:279|333:279|460:293,1,240.000009155274,10|0,0:1|0:0,0:0:0:0:
382,74,88132,1,10,0:1:0:0:
242,354,88282,1,0,0:0:0:0:
130,130,88432,1,0,0:0:0:0:
119,275,88582,5,14,0:1:0:0:
145,271,88657,1,0,0:0:0:0:
171,268,88732,1,0,0:0:0:0:
198,265,88807,1,0,0:0:0:0:
224,262,88882,1,0,0:0:0:0:
251,258,88957,1,0,0:0:0:0:
277,255,89032,2,0,L|189:244,5,60.0000022888184,10|0|0|0|0|0,0:1|0:0|0:0|0:0|0:0|0:0,0:0:0:0:
130,130,89482,2,0,L|189:122,5,60.0000022888184,10|0|0|0|0|0,0:1|0:0|0:0|0:0|0:0|0:0,0:0:0:0:
385,101,89932,1,10,0:1:0:0:
362,128,90007,1,0,0:3:0:0:
327,135,90082,1,0,0:3:0:0:
294,117,90157,1,0,0:3:0:0:
281,82,90232,1,0,0:3:0:0:
290,48,90307,1,0,0:3:0:0:
320,27,90382,6,0,P|334:55|330:86,1,60.0000022888184,8|8,0:1|2:1,0:0:0:0:
260,244,90532,2,0,P|245:215|249:184,3,60.0000022888184,8|8|8|8,2:1|2:1|2:1|2:1,2:0:0:0:
441,212,90832,5,8,0:0:0:0:
438,231,90907,1,8,0:0:0:0:
436,251,90982,1,8,0:0:0:0:
433,271,91057,1,8,0:0:0:0:
431,291,91132,1,8,0:0:0:0:
428,311,91207,1,8,0:0:0:0:
426,331,91282,6,0,B|387:285|387:285|396:209|396:209|400:205|400:205|414:98,1,240,6|0,0:1|0:0,0:0:0:0:
460,25,91582,1,0,0:0:0:0:
460,25,91657,1,0,0:0:0:0:
459,25,91732,6,0,P|423:71|361:77,2,120.000004577637,4|4|4,0:0|0:0|0:0,0:0:0:0:
196,181,92182,2,0,L|187:109,1,60.0000022888184,12|0,0:2|0:0,0:0:0:0:
27,230,92632,6,0,B|60:203|87:211|87:211|91:208|91:208|152:290|219:304|219:304|221:310|221:310|248:277|300:280,1,300.000011444092,6|0,0:1|0:0,0:0:0:0:
362,325,93082,2,0,L|354:384,1,60.0000022888184,8|8,2:1|2:1,2:0:0:0:
478,340,93232,1,8,0:0:0:0:
475,321,93307,1,8,0:0:0:0:
473,301,93382,1,4,0:0:0:0:
470,281,93457,1,4,0:0:0:0:
468,261,93532,1,12,0:2:0:0:
81,346,93982,5,4,0:2:0:0:
317,200,94132,1,0,0:0:0:0:
111,127,94282,1,0,0:0:0:0:
111,127,94357,1,0,0:0:0:0:
111,127,94432,6,0,L|116:174,1,40,4|0,0:0|2:0,0:0:0:0:
134,256,94582,2,0,L|172:227,1,40,4|0,0:0|2:0,0:0:0:0:
234,171,94732,2,0,L|189:152,1,40,4|0,0:0|2:0,0:0:0:0:
15,87,94882,6,0,L|23:158,1,60.0000022888184,12|0,0:2|0:0,0:0:0:0:
38,311,95332,6,0,P|97:257|152:261,1,120.000004577637,6|10,0:1|2:1,0:0:0:0:
215,384,95557,1,8,2:1:0:0:
217,370,95632,1,8,2:1:0:0:
219,355,95707,1,8,2:1:0:0:
221,341,95782,2,0,L|229:278,1,60.0000022888184,8|0,0:0|0:0,0:0:0:0:
317,200,95932,2,0,L|324:259,3,60.0000022888184,8|0|8|0,0:0|0:0|0:0|0:0,0:0:0:0:
433,376,96232,5,8,0:0:0:0:
478,367,96307,1,8,0:0:0:0:
504,328,96382,1,8,0:0:0:0:
504,289,96457,1,8,0:0:0:0:
482,258,96532,1,8,0:0:0:0:
454,246,96607,1,8,0:0:0:0:
425,257,96682,2,0,P|442:293|473:309,5,60.0000022888184,4|4|4|4|4|4,0:0|0:0|0:0|0:0|0:0|0:0,0:0:0:0:
324,259,97132,5,6,0:1:0:0:
321,232,97207,1,0,0:0:0:0:
317,205,97282,1,0,0:0:0:0:
314,178,97357,1,0,0:0:0:0:
311,153,97432,1,0,0:0:0:0:
308,125,97507,1,0,0:0:0:0:
304,99,97582,2,0,P|331:78|372:76,5,60.0000022888184,10|0|0|0|0|0,0:1|0:0|0:0|0:0|0:0|0:0,0:0:0:0:
206,233,98032,2,0,P|176:226|154:207,5,60.0000022888184,10|0|0|0|0|0,0:1|0:0|0:0|0:0|0:0|0:0,0:0:0:0:
23,63,98482,1,10,0:1:0:0:
46,36,98557,1,0,0:3:0:0:
81,29,98632,1,0,0:3:0:0:
114,47,98707,1,0,0:3:0:0:
127,82,98782,1,0,0:3:0:0:
118,116,98857,1,0,0:3:0:0:
87,129,98932,5,10,0:1:0:0:
215,23,99082,1,0,0:0:0:0:
304,99,99232,1,0,0:0:0:0:
206,233,99382,5,10,0:1:0:0:
214,137,99532,1,0,0:0:0:0:
220,42,99682,1,0,0:0:0:0:
87,129,99832,5,14,0:1:0:0:
90,155,99907,1,0,0:0:0:0:
93,183,99982,1,0,0:0:0:0:
96,210,100057,1,0,0:0:0:0:
100,234,100132,1,0,0:0:0:0:
103,262,100207,1,0,0:0:0:0:
106,289,100282,2,0,P|137:302|177:294,5,60.0000022888184,10|0|0|0|0|0,0:1|0:0|0:0|0:0|0:0|0:0,0:0:0:0:
272,188,100732,2,0,P|301:187|328:200,5,60.0000022888184,10|0|0|0|0|0,0:1|0:0|0:0|0:0|0:0|0:0,0:0:0:0:
451,343,101182,1,10,0:1:0:0:
428,370,101257,1,0,0:3:0:0:
393,377,101332,1,0,0:3:0:0:
360,359,101407,1,0,0:3:0:0:
347,324,101482,1,0,0:3:0:0:
356,290,101557,1,0,0:3:0:0:
387,277,101632,6,0,L|396:356,1,60.0000022888184,8|8,0:1|2:1,0:0:0:0:
488,257,101782,2,0,L|495:197,3,60.0000022888184,8|8|8|8,2:1|2:1|2:1|2:1,0:0:0:0:
428,76,102082,5,8,0:0:0:0:
423,105,102157,1,8,0:0:0:0:
408,131,102232,1,8,0:0:0:0:
384,149,102307,1,8,0:0:0:0:
356,157,102382,1,8,0:0:0:0:
326,154,102457,1,8,0:0:0:0:
302,134,102532,1,6,0:1:0:0:
311,121,102982,6,0,B|323:144|323:144|313:190,2,60.0000022888184,2|2|2,0:2|0:2|3:2,0:0:0:0:
387,277,103432,1,10,0:2:0:0:
197,248,103582,2,0,B|186:274|186:274|197:309,1,60.0000022888184,2|2,3:2|0:2,0:0:0:0:
271,380,103882,5,2,3:2:0:0:
387,277,104032,2,0,L|319:268,1,60.0000022888184,2|2,0:2|0:2,0:0:0:0:
258,184,104332,2,0,L|317:176,2,60.0000022888184,2|2|2,0:2|0:2|0:2,0:0:0:0:
374,87,104782,1,10,0:2:0:0:
464,144,104932,1,2,3:2:0:0:
463,151,105007,1,2,3:2:0:0:
462,158,105082,1,2,3:2:0:0:
461,166,105157,1,2,3:2:0:0:
460,173,105232,6,0,L|449:260,1,60.0000022888184,2|2,0:2|0:2,0:0:0:0:
327,269,105532,1,2,0:2:0:0:
258,184,105682,2,0,L|251:124,2,60.0000022888184,2|2|2,0:2|0:2|0:2,0:0:0:0:
374,87,106132,1,10,0:2:0:0:
239,2,106282,1,2,0:2:0:0:
176,78,106432,1,2,0:2:0:0:
80,15,106582,6,0,B|68:35|68:35|78:76,1,60.0000022888184,2|2,3:2|0:2,0:0:0:0:
111,145,106882,1,2,0:2:0:0:
143,222,107032,2,0,B|152:246|152:246|136:281,1,60.0000022888184,2|2,0:2|3:2,0:0:0:0:
73,384,107257,1,2,3:2:0:0:
73,384,107332,2,0,L|66:328,1,30.0000011444092,2|2,3:2|3:2,0:0:0:0:
10,297,107482,5,10,3:1:0:0:
240,176,107632,1,2,3:1:0:0:
10,297,107782,1,2,3:1:0:0:
76,69,107932,6,0,B|49:135|83:194|104:162|141:243|114:300,1,239.999992675781,4|0,0:2|0:0,0:0:0:0:
10,297,108382,6,0,B|49:336|49:336|165:306,1,160,6|0,0:1|0:0,0:0:0:0:
258,334,108832,5,14,0:1:0:0:
240,176,108982,2,0,P|281:235|341:228,1,120,0|0,0:1|0:0,0:0:0:0:
425,355,109282,6,0,P|359:260|385:146,2,240,6|4|12,0:1|2:1|2:1,0:0:0:0:
435,346,110332,2,0,L|375:353,1,60.0000022888184,0|0,0:0|2:0,0:0:0:0:
185,311,110632,6,0,B|151:257|180:185|203:219|245:140|205:78,1,240,6|4,0:1|2:1,0:0:0:0:
261,15,111232,2,0,L|320:7,1,60.0000022888184,0|0,2:0|2:0,2:0:0:0:
474,90,111532,5,8,0:1:0:0:
510,130,111607,1,8,0:1:0:0:
502,183,111682,1,8,0:0:0:0:
465,216,111757,1,8,0:0:0:0:
418,214,111832,1,4,0:0:0:0:
387,184,111907,1,4,0:0:0:0:
385,146,111982,2,0,L|413:142,1,20,8|8,0:1|0:1,0:0:0:0:
96,87,113332,5,10,0:1:0:0:
128,63,113407,1,0,0:0:0:0:
167,63,113482,1,0,0:0:0:0:
200,84,113557,1,0,0:0:0:0:
215,120,113632,1,0,0:0:0:0:
206,159,113707,1,0,0:0:0:0:
173,181,113782,2,0,P|154:157|153:128,5,60.0000022888184,10|0|0|0|0|0,0:1|0:0|0:0|0:0|0:0|0:0,0:0:0:0:
137,284,114232,5,10,0:1:0:0:
168,319,114307,1,0,0:0:0:0:
215,323,114382,1,0,0:0:0:0:
254,294,114457,1,0,0:0:0:0:
282,257,114532,1,0,0:0:0:0:
328,243,114607,1,0,0:0:0:0:
374,256,114682,2,0,L|366:320,5,60.0000022888184,10|0|0|0|0|0,0:1|0:0|0:0|0:0|0:0|0:0,0:0:0:0:
468,113,115132,5,10,0:1:0:0:
449,67,115207,1,0,0:0:0:0:
410,48,115282,1,0,0:0:0:0:
368,50,115357,1,0,0:0:0:0:
334,77,115432,1,0,0:0:0:0:
327,119,115507,1,0,0:0:0:0:
344,157,115582,1,10,0:1:0:0:
378,167,115657,1,0,0:0:0:0:
404,152,115732,1,0,0:0:0:0:
407,128,115807,1,0,0:0:0:0:
399,117,115882,2,0,L|332:109,1,60.0000022888184
237,40,116032,6,0,P|220:68|221:119,1,60.0000022888184,10|0,0:1|0:0,0:0:0:0:
160,195,116182,2,0,P|155:165|140:139,1,60.0000022888184,8|0,0:1|0:0,0:0:0:0:
65,81,116332,2,0,P|48:109|49:160,1,60.0000022888184,8|0,0:1|0:0,0:0:0:0:
85,320,116482,5,10,0:1:0:0:
124,356,116557,1,0,0:0:0:0:
177,349,116632,1,8,0:1:0:0:
210,306,116707,1,0,0:0:0:0:
260,285,116782,1,8,0:1:0:0:
311,302,116857,1,0,0:0:0:0:
329,352,116932,2,0,P|305:377|266:378,5,60.0000022888184,10|0|0|0|0|0,0:1|0:0|0:0|0:0|0:0|0:0,0:0:0:0:
160,195,117382,5,10,0:1:0:0:
192,171,117457,1,0,0:0:0:0:
231,171,117532,1,0,0:0:0:0:
264,192,117607,1,0,0:0:0:0:
279,228,117682,1,0,0:0:0:0:
270,267,117757,1,0,0:0:0:0:
237,289,117832,2,0,P|218:265|217:236,5,60.0000022888184,10|0|0|0|0|0,0:1|0:0|0:0|0:0|0:0|0:0,0:0:0:0:
348,140,118282,5,10,0:1:0:0:
374,83,118357,1,8,0:1:0:0:
355,23,118432,1,8,0:1:0:0:
296,4,118507,1,8,0:1:0:0:
244,20,118582,1,8,0:1:0:0:
226,64,118657,1,8,0:1:0:0:
240,103,118732,5,6,0:1:0:0:
266,78,118807,1,8,0:1:0:0:
301,73,118882,1,2,0:2:0:0:
335,83,118957,1,8,0:1:0:0:
362,106,119032,1,2,0:2:0:0:
377,138,119107,1,8,0:1:0:0:
379,173,119182,1,2,0:2:0:0:
365,206,119257,1,8,0:1:0:0:
339,230,119332,1,2,0:2:0:0:
310,237,119407,1,8,0:1:0:0:
280,229,119482,1,2,0:2:0:0:
259,206,119557,1,8,0:1:0:0:
258,182,119632,1,2,0:2:0:0:
274,164,119707,1,8,0:1:0:0:
298,164,119782,1,2,0:2:0:0:
314,180,119857,1,8,0:1:0:0:
313,197,119932,1,2,0:2:0:0:
305,206,120007,1,8,0:1:0:0:
293,204,120082,2,0,L|283:128,1,60.0000022888184,2|8,0:2|0:1,0:0:0:0:
187,73,120232,1,2,0:2:0:0:
187,73,120307,1,8,0:1:0:0:
187,73,120382,2,0,L|179:132,1,60.0000022888184,2|0,0:2|0:1,0:0:0:0:
95,252,120532,5,2,0:2:0:0:
114,282,120607,1,8,0:1:0:0:
148,291,120682,1,2,0:2:0:0:
183,284,120757,1,8,0:1:0:0:
208,258,120832,1,2,0:2:0:0:
241,244,120907,1,8,0:1:0:0:
276,251,120982,1,2,0:2:0:0:
301,276,121057,1,8,0:1:0:0:
307,311,121132,1,2,0:2:0:0:
291,343,121207,1,8,0:1:0:0:
261,363,121282,1,2,0:2:0:0:
225,359,121357,1,8,0:1:0:0:
202,330,121432,2,0,L|210:262,1,60.0000022888184,2|8,0:2|0:1,0:0:0:0:
95,252,121582,2,0,L|90:193,3,60.0000022888184,2|8|2|8,0:2|0:1|0:2|0:1,0:0:0:0:
158,108,121882,5,2,0:2:0:0:
197,78,121957,1,8,0:1:0:0:
245,82,122032,1,2,0:2:0:0:
279,115,122107,1,8,0:1:0:0:
300,158,122182,1,2,0:2:0:0:
343,179,122257,1,8,0:1:0:0:
386,162,122332,5,12,0:2:0:0:
363,127,122407,1,0,0:0:0:0:
326,114,122482,1,0,0:0:0:0:
289,125,122557,1,0,0:0:0:0:
264,154,122632,1,0,0:0:0:0:
260,194,122707,1,0,0:0:0:0:
285,226,122782,2,0,P|306:202|306:168,5,60.0000022888184,10|0|0|0|0|0,0:1|0:1|0:0|0:0|0:0|0:0,0:0:0:0:
129,52,123232,5,10,0:1:0:0:
160,87,123307,1,0,0:0:0:0:
207,91,123382,1,0,0:0:0:0:
246,62,123457,1,0,0:0:0:0:
274,25,123532,1,0,0:0:0:0:
320,11,123607,1,0,0:0:0:0:
366,24,123682,2,0,L|373:88,5,60.0000022888184,10|0|0|0|0|0,0:1|0:0|0:0|0:0|0:0|0:0,0:0:0:0:
379,218,124132,5,10,0:1:0:0:
356,261,124207,1,0,0:0:0:0:
315,281,124282,1,0,0:0:0:0:
270,276,124357,1,0,0:0:0:0:
239,247,124432,1,0,0:0:0:0:
231,205,124507,1,0,0:0:0:0:
248,169,124582,1,10,0:1:0:0:
283,159,124657,1,0,0:0:0:0:
307,174,124732,1,0,0:0:0:0:
311,197,124807,1,0,0:0:0:0:
304,209,124882,2,0,L|237:217,1,60.0000022888184
90,271,125032,6,0,P|74:245|69:216,1,60.0000022888184,10|0,0:1|0:0,0:0:0:0:
171,121,125182,2,0,P|157:147|134:166,1,60.0000022888184,8|0,0:1|0:0,0:0:0:0:
0,126,125332,2,0,P|29:124|57:135,1,60.0000022888184,8|0,0:1|0:0,0:0:0:0:
186,282,125482,5,10,0:1:0:0:
222,330,125557,1,0,0:0:0:0:
280,341,125632,1,8,0:1:0:0:
328,316,125707,1,0,0:0:0:0:
367,278,125782,1,8,0:1:0:0:
421,278,125857,1,0,0:0:0:0:
463,310,125932,6,0,L|470:372,3,60.0000022888184,10|0|0|0,0:1|0:0|0:0|0:0,0:0:0:0:
262,241,126232,2,0,L|269:181,1,60.0000022888184
440,62,126382,1,10,0:1:0:0:
465,76,126457,1,0,0:0:0:0:
475,103,126532,1,0,0:0:0:0:
465,131,126607,1,0,0:0:0:0:
441,147,126682,1,0,0:0:0:0:
411,142,126757,1,0,0:0:0:0:
391,121,126832,2,0,P|413:99|456:97,5,60.0000022888184,10|0|0|0|0|0,0:1|0:0|0:0|0:0|0:0|0:0,0:0:0:0:
279,40,127282,5,8,0:1:0:0:
220,26,127357,1,8,0:1:0:0:
165,50,127432,1,8,0:1:0:0:
145,106,127507,1,8,0:1:0:0:
161,163,127582,1,8,0:1:0:0:
211,195,127657,1,8,0:1:0:0:
268,177,127732,5,4,0:2:0:0:
240,152,127807,1,8,0:1:0:0:
204,145,127882,1,0,0:0:0:0:
169,157,127957,1,8,0:1:0:0:
145,185,128032,1,2,0:2:0:0:
138,222,128107,1,8,0:1:0:0:
152,256,128182,1,2,0:2:0:0:
181,279,128257,1,8,0:1:0:0:
217,284,128332,1,2,0:2:0:0:
252,273,128407,1,8,0:1:0:0:
279,248,128482,1,2,0:2:0:0:
315,241,128557,1,8,0:1:0:0:
350,253,128632,1,2,0:2:0:0:
374,281,128707,1,8,0:1:0:0:
381,318,128782,1,2,0:2:0:0:
367,352,128857,1,8,0:1:0:0:
338,375,128932,1,2,0:2:0:0:
302,380,129007,1,8,0:1:0:0:
269,366,129082,2,0,L|276:306,1,60.0000022888184,2|8,0:2|0:1,0:0:0:0:
382,288,129232,1,2,0:2:0:0:
382,288,129307,1,8,0:1:0:0:
382,288,129382,2,0,L|375:229,1,60.0000022888184,2|8,0:2|0:1,0:0:0:0:
444,132,129532,5,2,0:2:0:0:
425,102,129607,1,8,0:1:0:0:
391,93,129682,1,2,0:2:0:0:
356,100,129757,1,8,0:1:0:0:
331,126,129832,1,2,0:2:0:0:
298,140,129907,1,8,0:1:0:0:
263,133,129982,1,2,0:2:0:0:
238,108,130057,1,8,0:1:0:0:
232,73,130132,1,2,0:2:0:0:
248,41,130207,1,8,0:1:0:0:
278,21,130282,1,2,0:2:0:0:
314,25,130357,1,8,0:1:0:0:
337,54,130432,2,0,L|329:122,1,60.0000022888184,2|8,0:2|0:1,0:0:0:0:
225,158,130582,2,0,L|232:217,3,60.0000022888184,2|8|2|8,0:2|0:1|0:2|0:1,0:0:0:0:
331,308,130882,5,8,0:1:0:0:
303,348,130957,1,8,2:1:0:0:
256,354,131032,1,8,2:1:0:0:
215,329,131107,1,8,2:1:0:0:
179,295,131182,1,8,2:1:0:0:
133,284,131257,1,8,2:1:0:0:
93,310,131332,5,8,0:0:0:0:
117,360,131407,1,8,0:0:0:0:
169,383,131482,1,8,0:0:0:0:
227,366,131557,1,8,0:0:0:0:
263,321,131632,1,8,0:0:0:0:
265,264,131707,1,8,0:0:0:0:
232,217,131782,5,4,0:0:0:0:
179,295,131932,1,4,0:0:0:0:
95,193,132082,5,8,2:1:0:0:
318,117,132232,1,8,2:1:0:0:
155,57,132382,5,4,0:0:0:0:
232,217,132532,1,4,0:0:0:0:
399,40,132682,6,0,B|355:-1|355:-1|169:52,1,240.000009155274,4|0,0:2|0:0,0:0:0:0:
159,61,133057,1,0,0:0:0:0:
159,61,133132,1,4,0:0:0:0:
232,217,133282,1,4,0:0:0:0:
318,117,133432,1,4,0:0:0:0:
392,331,133582,2,0,L|328:323,1,60.0000022888184,12|0,0:2|0:0,0:0:0:0:
485,237,134032,6,0,B|409:182|281:273|378:308|247:405|167:348,1,360.000013732911,6|2,0:1|0:1,0:0:0:0:
33,291,134632,1,0,0:0:0:0:
208,186,134782,1,0,0:0:0:0:
60,65,134932,2,0,B|44:117|44:117|75:185,1,120.000004577637,10|0,0:1|0:0,0:0:0:0:
182,356,135232,1,0,0:0:0:0:
331,322,135382,6,0,B|367:265|326:182|309:228|273:152|307:86,1,240.000009155274,2|0,0:1|0:0,0:0:0:0:
372,19,135832,1,2,0:1:0:0:
441,127,135982,1,0,0:0:0:0:
489,39,136132,1,0,0:0:0:0:
310,156,136282,2,0,L|302:96,1,60.0000022888184,10|0,0:1|2:0,0:0:0:0:
441,235,136432,1,0,0:0:0:0:
441,235,136582,1,0,0:0:0:0:
332,323,136732,6,0,B|283:303|283:303|156:374|156:374|100:355,1,240.000009155274,2|0,0:1|0:0,0:0:0:0:
17,311,137182,1,2,0:1:0:0:
151,250,137332,1,0,0:0:0:0:
36,194,137482,1,0,0:0:0:0:
181,51,137632,6,0,B|187:105|187:105|192:113|192:113|199:168,2,120.000004577637,10|0|0,0:1|0:0|0:0,0:0:0:0:
447,323,138082,2,0,B|453:267|453:267|458:263|458:263|465:206,2,120.000004577637,10|0|0,0:1|0:0|0:0,0:0:0:0:
275,16,138532,5,14,0:1:0:0:
301,20,138607,1,0,0:0:0:0:
327,23,138682,1,0,0:0:0:0:
354,26,138757,1,0,0:0:0:0:
380,29,138832,1,0,0:0:0:0:
407,33,138907,1,0,0:0:0:0:
433,36,138982,2,0,P|443:66|440:97,5,60.0000022888184,10|0|0|0|0|0,0:1|0:0|0:0|0:0|0:0|0:0,0:0:0:0:
324,147,139432,2,0,P|314:177|316:208,5,60.0000022888184,10|0|0|0|0|0,0:1|0:0|0:0|0:0|0:0|0:0,0:0:0:0:
386,303,139882,1,10,0:1:0:0:
411,323,139957,1,0,0:0:0:0:
447,323,140032,1,0,0:0:0:0:
476,300,140107,1,0,0:0:0:0:
483,264,140182,1,0,0:0:0:0:
468,231,140257,1,0,0:0:0:0:
435,217,140332,6,0,B|337:229|337:229|318:253|318:253|189:271,1,240.000009155274,10|0,0:1|0:0,0:0:0:0:
65,384,140782,2,0,B|23:322|23:322|63:160,1,240.000009155274,10|0,0:1|0:0,0:0:0:0:
188,110,141232,5,14,0:1:0:0:
192,136,141307,1,0,0:0:0:0:
195,162,141382,1,0,0:0:0:0:
198,189,141457,1,0,0:0:0:0:
201,215,141532,1,0,0:0:0:0:
205,242,141607,1,0,0:0:0:0:
208,268,141682,2,0,P|231:283|271:279,5,60.0000022888184,10|0|0|0|0|0,0:1|0:0|0:0|0:0|0:0|0:0,0:0:0:0:
325,152,142132,2,0,P|348:137|388:141,5,60.0000022888184,10|0|0|0|0|0,0:1|0:0|0:0|0:0|0:0|0:0,0:0:0:0:
476,316,142582,1,10,0:1:0:0:
453,343,142657,1,0,0:3:0:0:
418,350,142732,1,0,0:3:0:0:
385,332,142807,1,0,0:3:0:0:
372,297,142882,1,0,0:3:0:0:
381,263,142957,1,0,0:3:0:0:
411,242,143032,6,8,L|418:304,1,60.0000022888184,8|8,2:1|2:1,2:1:0:0:
318,211,143182,2,8,L|325:151,3,60.0000022888184,8|8|8|8,2:1|2:1|2:1|2:1,2:1:0:0:
468,58,143482,5,8,0:0:0:0:
469,67,143557,1,8,0:0:0:0:
470,77,143632,1,8,0:0:0:0:
471,87,143707,1,8,0:0:0:0:
472,97,143782,1,8,0:0:0:0:
474,107,143857,1,8,0:0:0:0:
475,117,143932,6,0,B|433:153|433:153|240:113,1,240.000009155274,4|2,0:2|0:2,0:0:0:0:
65,73,144382,1,2,0:2:0:0:
216,11,144532,1,2,0:2:0:0:
141,183,144682,1,2,0:2:0:0:
65,73,144832,2,0,L|137:63,1,60.0000022888184,10|0,0:2|2:0,0:0:0:0:
256,119,144982,1,2,0:2:0:0:
256,119,145132,1,2,0:2:0:0:
382,29,145282,6,0,B|418:85|377:168|360:122|324:198|358:264,1,240.000009155274,2|2,0:2|0:2,0:0:0:0:
488,224,145732,1,2,0:2:0:0:
438,351,145882,1,2,0:2:0:0:
363,268,146032,1,2,0:2:0:0:
237,330,146182,2,8,B|210:287|210:287|233:198,1,120.000004577637,10|2,0:2|0:2,0:0:0:0:
256,119,146482,1,2,0:2:0:0:
382,29,146632,6,0,P|369:131|223:99,1,240.000009155274,2|2,0:2|0:2,0:0:0:0:
176,9,147082,1,2,0:2:0:0:
124,138,147232,1,2,0:2:0:0:
38,68,147382,1,2,0:2:0:0:
167,228,147532,2,0,L|239:217,1,60.0000022888184,10|0,0:2|2:0,0:0:0:0:
260,122,147682,1,2,0:2:0:0:
260,122,147832,1,2,0:2:0:0:
38,277,147982,6,0,B|13:244|13:244|31:167,1,120.000004577637,14|0,0:1|0:2,0:0:0:0:
124,138,148282,1,0,0:2:0:0:
220,328,148432,2,0,B|245:295|245:295|225:218,1,120.000004577637,12|0,0:1|0:2,0:0:0:0:
164,36,148732,1,0,0:2:0:0:
38,277,148882,5,14,0:1:0:0:
260,122,149032,1,0,0:2:0:0:
38,68,149182,1,0,0:1:0:0:
225,218,149332,6,0,B|279:182|358:247|358:247|390:260|494:218|434:81|257:142|356:247|358:247|358:247|409:331|488:295,1,559.999982910157,4|0,0:2|0:0,0:0:0:0:
272,319,150232,1,10,0:1:0:0:
478,76,150382,2,0,B|444:51|444:51|357:77,1,120
298,170,150682,6,0,P|334:90|305:7,2,180.000006866455,6|2|10,0:1|2:1|2:1,0:0:0:0:
220,85,151732,1,0,0:0:0:0:
154,211,151882,1,0,0:0:0:0:
38,33,152032,5,2,0:1:0:0:
132,87,152182,1,0,0:0:0:0:
54,177,152332,1,0,0:0:0:0:
142,245,152482,2,0,B|194:222|247:254|216:270|261:310|296:294,1,150.000005722046,6|0,0:1|0:0,0:0:0:0:
334,245,152932,6,0,L|330:213,5,20,2|0|0|0|0|0,2:1|2:0|2:0|2:0|2:0|2:0,2:0:0:0:
394,325,153382,2,0,L|390:354,5,30.0000011444092,10|0|0|0|0|0,2:1|2:0|2:0|2:0|2:0|2:0,2:0:0:0:
473,268,153832,2,0,L|467:225,5,40,2|0|0|0|0|0,2:1|2:0|2:0|2:0|2:0|2:0,2:0:0:0:
436,130,154282,5,2,3:1:0:0:
422,127,154357,1,0,2:0:0:0:
409,125,154432,1,0,2:0:0:0:
396,123,154507,1,0,2:0:0:0:
383,121,154582,1,0,2:0:0:0:
369,118,154657,1,0,2:0:0:0:
336,77,154732,5,2,3:1:0:0:
313,80,154807,1,0,2:0:0:0:
292,84,154882,1,0,2:0:0:0:
273,87,154957,1,0,2:0:0:0:
253,90,155032,1,0,2:0:0:0:
230,95,155107,1,0,2:0:0:0:
180,35,155182,6,0,B|145:87|145:87|186:202,1,180.000006866455,4|0,0:2|0:0,0:0:0:0:
117,261,155482,1,0,0:0:0:0:
117,261,155557,1,0,0:0:0:0:
117,261,155632,1,4,0:0:0:0:
283,322,155782,1,4,0:0:0:0:
203,384,155932,1,4,0:0:0:0:
298,310,156082,2,0,L|288:234,1,60.0000022888184,12|0,0:2|0:0,0:0:0:0:
39,74,156532,6,0,B|97:46|136:87|136:87|142:84|142:84|191:162|259:140,1,240.000009155274,6|0,3:1|3:0,3:0:0:0:
318,43,156982,1,2,0:1:0:0:
386,180,157132,1,0,0:0:0:0:
448,78,157282,1,0,0:0:0:0:
497,288,157432,2,0,B|465:315|465:315|367:282,1,120.000004577637,10|0,0:1|0:0,0:0:0:0:
290,250,157732,1,0,0:0:0:0:
166,373,157882,6,0,P|143:312|161:250,2,120.000004577637,2|0|0,0:1|0:0|0:0,0:0:0:0:
278,137,158332,2,0,P|301:198|283:260,2,120.000004577637,2|0|0,0:1|0:0|0:0,0:0:0:0:
40,39,158782,1,10,0:1:0:0:
102,171,158932,1,0,0:0:0:0:
153,78,159082,1,0,0:0:0:0:
94,192,159232,6,0,B|185:180|185:180|225:216|225:216|333:202,1,240.000009155274,2|0,0:1|0:0,0:0:0:0:
489,174,159682,1,2,0:1:0:0:
380,97,159832,1,0,0:0:0:0:
467,38,159982,1,0,0:0:0:0:
274,0,160132,6,0,B|251:41|251:41|282:128,1,120.000004577637,10|0,0:1|0:0,0:0:0:0:
318,203,160432,1,0,0:0:0:0:
467,38,160582,2,0,B|490:79|490:79|459:166,1,120.000004577637,10|0,0:1|0:0,0:0:0:0:
409,290,160882,1,0,0:0:0:0:
224,356,161032,5,14,0:1:0:0:
198,352,161107,1,0,0:0:0:0:
172,349,161182,1,0,0:0:0:0:
145,346,161257,1,0,0:0:0:0:
119,343,161332,1,0,0:0:0:0:
92,339,161407,1,0,0:0:0:0:
66,336,161482,2,0,P|56:306|59:275,5,60.0000022888184,10|0|0|0|0|0,0:1|0:0|0:0|0:0|0:0|0:0,0:0:0:0:
188,237,161932,2,0,P|198:207|196:176,5,60.0000022888184,10|0|0|0|0|0,0:1|0:0|0:0|0:0|0:0|0:0,0:0:0:0:
116,88,162382,1,10,0:1:0:0:
91,68,162457,1,0,0:0:0:0:
55,68,162532,1,0,0:0:0:0:
26,91,162607,1,0,0:0:0:0:
19,127,162682,1,0,0:0:0:0:
34,160,162757,1,0,0:0:0:0:
67,174,162832,6,0,B|191:158,1,120.000004577637,10|0,0:1|0:0,0:0:0:0:
289,273,163132,1,0,0:0:0:0:
377,33,163282,2,0,B|257:18,1,120.000004577637,10|0,0:1|0:0,0:0:0:0:
194,134,163582,1,0,0:0:0:0:
397,191,163732,5,14,0:1:0:0:
393,165,163807,1,0,0:0:0:0:
390,139,163882,1,0,0:0:0:0:
387,112,163957,1,0,0:0:0:0:
384,86,164032,1,0,0:0:0:0:
380,59,164107,1,0,0:0:0:0:
377,33,164182,2,0,P|354:18|314:22,5,60.0000022888184,10|0|0|0|0|0,0:1|0:0|0:0|0:0|0:0|0:0,0:0:0:0:
248,119,164632,2,0,P|225:134|185:130,5,60.0000022888184,10|0|0|0|0|0,0:1|0:0|0:0|0:0|0:0|0:0,0:0:0:0:
30,34,165082,1,10,0:1:0:0:
53,7,165157,1,0,0:3:0:0:
88,0,165232,1,0,0:3:0:0:
121,18,165307,1,0,0:3:0:0:
134,53,165382,1,0,0:3:0:0:
125,87,165457,1,0,0:3:0:0:
95,108,165532,6,8,P|79:81|83:46,1,60.0000022888184,8|8,2:1|2:1,2:1:0:0:
248,119,165682,1,8,2:1:0:0:
242,163,165757,1,8,2:1:0:0:
237,208,165832,1,8,2:1:0:0:
231,252,165907,1,8,2:1:0:0:
207,270,165982,5,8,0:0:0:0:
208,287,166057,1,8,0:0:0:0:
211,305,166132,1,8,0:0:0:0:
213,322,166207,1,8,0:0:0:0:
214,339,166282,1,4,0:0:0:0:
217,357,166357,1,4,0:0:0:0:
200,384,166432,6,0,B|162:372|145:339|145:339|138:325|137:311|137:311|131:311|131:311|136:308|136:308|133:269|158:241|158:241|168:230|179:224|179:224|177:218|177:218|181:222|181:222|216:204|252:216|252:216|266:220|276:228|276:228|281:224|281:224|278:230|278:230|298:245|307:270,1,389.486565342827,6|2,0:1|0:2,0:0:0:0:
393,222,167032,1,2,0:2:0:0:
358,348,167182,1,2,0:2:0:0:
477,274,167332,2,0,B|503:323|503:323|483:388,2,120.000004577637,10|2|2,0:2|0:2|0:2,0:0:0:0:
504,85,167782,6,0,B|455:52|400:95|400:95|400:103|400:103|344:167|296:143,1,240.000009155274,2|2,0:2|0:2,0:0:0:0:
221,54,168232,1,2,0:2:0:0:
161,221,168382,1,2,0:2:0:0:
89,110,168532,1,2,0:2:0:0:
0,301,168682,2,0,P|53:348|112:332,1,120.000004577637,10|2,0:2|0:2,0:0:0:0:
154,241,168982,1,2,0:2:0:0:
304,384,169132,6,0,B|337:320|337:320|297:147,1,240.000009155274,2|2,0:2|0:2,0:0:0:0:
118,18,169582,2,0,L|103:137,2,120.000004577637,2|2|2,0:2|0:2|0:2,0:0:0:0:
154,241,170032,2,0,B|212:199|278:255|278:255|287:249|287:249|347:336|409:308,1,272.000005187988,14|2,0:1|0:2,0:0:0:0:
451,227,170482,5,14,0:1:0:0:
209,344,170632,1,0,0:0:0:0:
299,156,170782,1,0,0:0:0:0:
386,314,170932,5,12,0:1:0:0:
154,241,171082,1,0,0:0:0:0:
410,106,171232,1,0,0:0:0:0:
304,384,171382,5,14,0:1:0:0:
216,85,171532,1,0,0:0:0:0:
103,332,171682,1,0,0:0:0:0:
451,227,171832,6,0,B|397:191|318:256|318:256|286:269|182:227|242:90|419:151|320:256|318:256|318:256|267:340|188:304,1,559.999982910157,4|0,0:2|0:0,0:0:0:0:
96,70,172732,1,10,0:1:0:0:
96,70,172882,2,0,L|215:84,1,120
324,4,173182,6,0,B|288:68|330:128|347:97|384:189|305:261|305:261|241:199|272:143,1,400,6|0,0:1|2:0,0:0:0:0:
420,34,174082,5,10,0:1:0:0:
215,84,174232,1,0,0:0:0:0:
378,170,174382,1,0,0:0:0:0:
324,4,174532,5,2,0:1:0:0:
266,155,174682,1,0,0:0:0:0:
206,71,174832,1,0,0:0:0:0:
135,141,174982,2,0,L|148:251,1,100,2|0,0:1|0:0,0:0:0:0:
206,296,175432,6,0,L|203:315,5,20,2|0|0|0|0|0,2:1|2:0|2:0|2:0|2:0|2:0,2:0:0:0:
293,384,175882,2,0,L|289:354,5,30.0000011444092,8|0|0|0|0|0,2:1|2:0|2:0|2:0|2:0|2:0,2:0:0:0:
377,267,176332,2,0,L|372:306,5,40,2|0|0|0|0|0,2:1|2:0|2:0|2:0|2:0|2:0,2:0:0:0:
472,148,176782,5,8,2:1:0:0:
436,114,176857,1,8,2:1:0:0:
388,107,176932,1,8,2:1:0:0:
345,127,177007,1,8,2:1:0:0:
324,170,177082,1,8,2:1:0:0:
287,201,177157,1,8,2:1:0:0:
243,200,177232,5,8,0:0:0:0:
259,172,177307,1,8,0:0:0:0:
289,162,177382,1,8,0:0:0:0:
324,170,177457,1,4,0:0:0:0:
336,199,177532,1,4,0:0:0:0:
332,230,177607,1,4,0:0:0:0:
309,252,177682,6,0,B|286:201|286:201|385:215|385:215|390:225|390:225|465:237|465:237|471:234|471:234|506:240,1,272.000005187988,4|0,0:2|0:0,0:0:0:0:
289,354,178132,1,2,0:2:0:0:
266,356,178207,1,2,0:2:0:0:
244,359,178282,1,2,0:2:0:0:
221,362,178357,1,2,0:2:0:0:
199,365,178432,1,2,0:2:0:0:
176,367,178507,1,2,0:2:0:0:
154,370,178582,2,0,L|161:310,1,60.0000022888184,8|0,0:2|0:0,0:0:0:0:
49,128,179032,6,0,B|99:78|156:113|156:113|269:143|297:75|239:-10|158:3|86:124|212:265|357:189,1,571.999973815919,6|0,0:1|0:0,0:0:0:0:
386,143,179932,2,0,L|361:341,1,200,10|0,0:1|0:0,0:0:0:0:
291,384,180382,5,2,0:1:0:0:
482,349,180532,2,0,B|503:305|503:305|476:222,1,120.000004577637,2|0,0:1|0:0,0:0:0:0:
512,84,180832,5,2,0:1:0:0:
335,198,180982,1,0,0:0:0:0:
480,237,181132,5,2,0:1:0:0:
351,38,181282,1,0,0:0:0:0:
241,259,181432,5,2,0:1:0:0:
426,151,181582,1,0,0:0:0:0:
74,35,181732,6,0,B|18:113|112:180|112:180|190:227|280:105|149:18|77:136|112:181|112:181|158:248|121:294,1,575.999982421876,12|2,0:2|2:1,0:0:0:0:
61,360,183082,5,10,0:1:0:0:
27,339,183157,1,0,0:0:0:0:
15,301,183232,1,0,0:0:0:0:
30,265,183307,1,0,0:0:0:0:
65,247,183382,1,0,0:0:0:0:
103,255,183457,1,0,0:0:0:0:
126,286,183532,2,0,P|106:307|78:315,5,60.0000022888184,10|0|0|0|0|0,0:1|0:0|0:0|0:0|0:0|0:0,0:0:0:0:
40,134,183982,5,10,0:1:0:0:
66,110,184057,1,0,0:0:0:0:
101,109,184132,1,0,0:0:0:0:
131,127,184207,1,0,0:0:0:0:
150,157,184282,1,0,0:0:0:0:
181,174,184357,1,0,0:0:0:0:
216,165,184432,2,0,L|223:104,1,60.0000022888184,10|0,0:1|0:0,0:0:0:0:
315,31,184582,2,0,L|322:90,3,60.0000022888184
471,214,184882,5,10,0:1:0:0:
495,182,184957,1,0,0:0:0:0:
483,143,185032,1,0,0:0:0:0:
444,132,185107,1,0,0:0:0:0:
413,159,185182,2,0,L|420:223,1,60.0000022888184
326,304,185332,5,8,2:1:0:0:
279,342,185407,1,8,2:1:0:0:
219,336,185482,1,8,2:1:0:0:
177,293,185557,1,8,2:1:0:0:
124,264,185632,1,8,2:1:0:0:
64,274,185707,1,8,2:1:0:0:
30,323,185782,6,0,B|77:384|77:384|114:135,1,300.000011444092,4|0,0:2|0:0,0:0:0:0:
38,17,186232,1,2,0:2:0:0:
12,31,186307,1,2,0:2:0:0:
0,57,186382,1,2,0:2:0:0:
6,86,186457,1,2,0:2:0:0:
29,105,186532,1,2,0:2:0:0:
59,105,186607,1,2,0:2:0:0:
82,88,186682,2,0,P|53:72|15:72,1,60.0000022888184,8|0,2:1|0:0,0:0:0:0:
124,272,187132,6,0,B|201:219|285:307|285:307|320:321|435:275|369:124|174:191|283:307|285:307|285:307|356:409|447:362,1,623.999971435548,6|10,0:1|2:1,0:0:0:0:
182,373,188482,5,2,0:1:0:0:
453,165,188632,2,0,B|483:209|483:209|456:292,1,120.000004577637,2|0,0:1|0:0,0:0:0:0:
82,90,188932,5,2,0:1:0:0:
320,198,189082,1,0,0:0:0:0:
124,272,189232,5,2,0:1:0:0:
219,19,189382,1,0,0:0:0:0:
341,345,189532,5,2,0:1:0:0:
24,196,189682,1,0,0:0:0:0:
366,21,189832,6,0,B|425:79|385:150|385:150|366:214|509:293|540:138|471:82|360:93|331:198|354:284|354:284|271:352|191:276|290:165|354:284|354:284|404:371|485:342,1,960.000036621095,14|0,0:1|2:0,0:0:0:0:
295,99,191182,5,12,0:1:0:0:
250,68,191257,1,0,0:0:0:0:
196,71,191332,1,0,0:0:0:0:
164,106,191407,1,0,0:0:0:0:
161,153,191482,1,0,0:0:0:0:
185,187,191557,1,0,0:0:0:0:
220,192,191632,2,0,L|227:128,5,60.0000022888184,10|0|0|0|0|0,0:1|0:0|0:0|0:0|0:0|0:0,0:0:0:0:
92,244,192082,2,0,L|99:303,5,60.0000022888184,10|0|0|0|0|0,0:1|0:0|0:0|0:0|0:0|0:0,0:0:0:0:
322,379,192532,5,10,0:1:0:0:
361,364,192607,1,0,0:0:0:0:
384,329,192682,1,0,0:0:0:0:
377,287,192757,1,0,0:0:0:0:
343,261,192832,1,0,0:0:0:0:
307,266,192907,1,0,0:0:0:0:
285,294,192982,2,0,P|312:323|339:325,1,60.0000022888184,10|0,0:1|0:0,0:0:0:0:
398,217,193132,2,0,P|359:225|344:248,1,60.0000022888184
409,354,193282,2,0,P|420:316|408:291,1,60.0000022888184
379,87,193432,5,10,2:1:0:0:
338,57,193507,1,8,2:1:0:0:
289,59,193582,1,8,2:1:0:0:
251,90,193657,1,8,2:1:0:0:
227,132,193732,1,8,2:1:0:0:
186,158,193807,1,8,2:1:0:0:
137,150,193882,6,0,L|128:82,1,60.0000022888184,6|8,0:1|0:1,0:0:0:0:
322,152,194032,1,2,0:2:0:0:
322,152,194107,1,8,0:1:0:0:
322,152,194182,2,0,L|314:211,1,60.0000022888184,2|8,0:2|0:1,0:0:0:0:
211,329,194332,5,2,0:2:0:0:
163,372,194407,1,8,0:1:0:0:
103,364,194482,1,2,0:2:0:0:
66,323,194557,1,8,0:1:0:0:
66,275,194632,1,2,0:2:0:0:
96,245,194707,1,8,0:1:0:0:
131,245,194782,5,2,0:2:0:0:
108,287,194857,1,8,0:1:0:0:
62,302,194932,1,2,0:2:0:0:
17,283,195007,1,8,0:1:0:0:
0,237,195082,1,2,0:2:0:0:
15,191,195157,1,8,0:1:0:0:
57,169,195232,6,0,P|72:196|72:232,1,60.0000022888184,2|8,0:2|0:1,0:0:0:0:
103,364,195382,2,0,P|118:338|149:320,1,60.0000022888184,2|8,0:2|0:1,0:0:0:0:
248,228,195532,2,0,P|218:227|187:209,1,60.0000022888184,2|8,0:2|0:1,0:0:0:0:
140,79,195682,5,6,0:2:0:0:
161,64,196132,2,0,L|166:107,5,40,0|0|0|0|2|0,3:0|2:0|2:0|2:0|2:2|2:0,2:0:0:0:
62,174,196582,5,8,0:1:0:0:
62,174,196732,2,0,B|104:149|164:182|129:200|175:236|211:219,1,155.999992858887,2|0,0:2|2:0,0:0:0:0:
270,169,197032,2,0,B|297:202|297:202|267:288,1,103.999995239258,4|2,0:1|2:1,0:0:0:0:
378,365,197332,2,0,B|351:332|351:332|381:246,1,103.999995239258,2|0,0:2|2:0,0:0:0:0:
409,190,197632,1,2,0:2:0:0:
409,190,197782,1,2,0:2:0:0:
467,285,197932,1,8,0:1:0:0:
511,70,198082,2,0,B|440:78|440:78|437:85|437:85|349:95,1,155.999992858887,2|0,0:2|0:0,0:0:0:0:
275,47,198382,6,0,P|312:152|201:149,1,259.999988098145,2|0,0:1|0:0,0:0:0:0:
140,80,198832,2,0,L|137:99,3,20,0|0|0|0,2:0|2:0|2:0|2:0,2:0:0:0:
105,179,199132,5,2,0:2:0:0:
253,63,199282,1,8,0:1:0:0:
24,7,199432,2,0,L|37:114,1,103.999995239258,2|0,0:2|2:0,0:0:0:0:
24,293,199732,6,0,B|79:253|142:302|106:318|167:365|224:336,3,207.999990478516,2|2|2|2,3:1|2:2|2:2|2:0,0:0:0:0:
305,235,200782,2,0,L|202:249,1,103.999995239258,8|2,2:1|2:2,0:0:0:0:
414,340,201082,6,0,B|416:302|450:274|450:274|409:123,1,207.999990478516,6|2,0:1|2:1,0:0:0:0:
464,9,201532,2,0,P|447:106|346:96,1,207.999990478516,8|0,0:1|2:0,0:0:0:0:
272,26,201982,6,0,B|251:64|251:64|276:144,2,103.999995239258,4|2|2,0:2|2:2|2:2,0:0:0:0:
218,216,202432,2,0,P|148:149|52:160,1,200,8|0,0:1|2:0,0:0:0:0:
0,98,202882,6,0,L|22:280,2,180.000006866455,6|2|2,0:1|2:1|2:1,0:0:0:0:
283,381,204232,2,0,L|304:202,1,180.000006866455,10|2,2:1|2:1,2:0:0:0:
144,38,205132,6,0,P|204:101|288:85,2,180.000006866455,6|2|2,3:1|2:1|2:1,2:0:0:0:
487,221,206482,2,0,P|402:204|342:267,1,180.000006866455,10|2,2:1|2:1,2:0:0:0:
98,373,207382,5,6,0:1:0:0:
98,373,207832,2,0,B|54:316|54:316|89:203,1,180.000006866455,10|2,2:1|3:1,2:0:0:0:
343,267,208732,2,0,B|378:221|378:221|350:131,1,150.000005722046,10|0,0:1|2:0,2:0:0:0:
168,36,209182,5,8,2:1:0:0:
149,59,209257,1,8,2:1:0:0:
146,88,209332,1,8,2:1:0:0:
161,114,209407,1,8,2:1:0:0:
187,127,209482,1,8,2:1:0:0:
216,124,209557,1,8,2:1:0:0:
239,105,209632,6,0,L|235:73,5,20,8|8|8|4|4|4,0:0|0:0|0:0|0:0|0:0|0:0,0:0:0:0:
350,132,210082,5,6,0:1:0:0:
366,122,210157,1,0,0:0:0:0:
385,123,210232,1,0,0:0:0:0:
404,131,210307,1,0,0:0:0:0:
415,146,210382,1,0,0:0:0:0:
419,165,210457,1,0,0:0:0:0:
417,184,210532,1,10,0:2:0:0:
407,201,210607,1,0,0:0:0:0:
391,211,210682,1,2,0:2:0:0:
371,217,210757,1,0,0:0:0:0:
352,212,210832,1,2,0:2:0:0:
337,198,210907,1,0,0:0:0:0:
332,179,210982,2,0,P|345:162|375:154,5,40,10|0|2|0|2|0,0:2|0:2|0:2|0:2|0:2|0:2,0:2:0:0:
345,304,211432,5,10,0:2:0:0:
329,317,211507,1,0,0:0:0:0:
310,323,211582,1,2,0:2:0:0:
289,325,211657,1,0,0:0:0:0:
270,320,211732,1,2,0:2:0:0:
253,306,211807,1,0,0:0:0:0:
239,292,211882,1,10,0:2:0:0:
225,277,211957,1,0,0:0:0:0:
207,267,212032,1,2,0:2:0:0:
187,265,212107,1,0,0:0:0:0:
167,268,212182,1,2,0:2:0:0:
149,278,212257,1,0,0:0:0:0:
140,295,212332,2,0,L|144:334,5,40,10|0|2|0|2|0,0:2|0:0|0:2|0:0|0:2|0:0,0:0:0:0:
46,218,212782,5,10,0:2:0:0:
56,202,212857,1,0,0:0:0:0:
74,193,212932,1,2,0:2:0:0:
94,191,213007,1,0,0:0:0:0:
111,199,213082,1,2,0:2:0:0:
124,214,213157,1,0,0:0:0:0:
131,232,213232,1,10,0:2:0:0:
130,251,213307,1,0,0:0:0:0:
120,268,213382,1,2,0:2:0:0:
106,283,213457,1,0,0:0:0:0:
87,287,213532,1,2,0:2:0:0:
67,282,213607,1,0,0:0:0:0:
53,268,213682,2,0,P|66:247|91:238,5,40,10|0|2|0|2|0,0:2|0:0|0:2|0:0|0:2|0:0,0:0:0:0:
100,96,214132,5,10,0:2:0:0:
118,78,214207,1,0,0:0:0:0:
143,71,214282,1,2,0:2:0:0:
169,76,214357,1,0,0:0:0:0:
189,92,214432,1,2,0:2:0:0:
204,113,214507,1,0,0:0:0:0:
225,127,214582,1,10,0:2:0:0:
250,131,214657,1,0,0:0:0:0:
274,122,214732,1,2,0:2:0:0:
291,101,214807,1,0,0:0:0:0:
292,75,214882,1,2,0:2:0:0:
277,53,214957,1,0,0:0:0:0:
250,45,215032,2,0,L|243:97,5,40,10|0|2|0|2|0,0:2|0:0|0:2|0:0|0:2|0:0,0:0:0:0:
160,150,215482,5,10,0:2:0:0:
163,179,215557,1,0,0:0:0:0:
167,208,215632,1,2,0:2:0:0:
170,237,215707,1,0,0:0:0:0:
174,266,215782,1,2,0:2:0:0:
177,295,215857,1,0,0:0:0:0:
181,324,215932,2,0,P|202:338|222:340,5,40,10|0|2|0|2|0,0:2|0:0|0:2|0:0|0:2|0:0,0:0:0:0:
315,272,216382,5,10,0:2:0:0:
344,259,216457,1,0,0:0:0:0:
375,269,216532,1,2,0:2:0:0:
392,294,216607,1,0,0:0:0:0:
397,326,216682,1,2,0:2:0:0:
379,352,216757,1,0,0:0:0:0:
352,369,216832,2,0,P|342:343|347:321,5,40,10|0|2|0|2|0,0:2|0:0|0:2|0:0|0:2|0:0,0:0:0:0:
388,183,217282,5,10,0:2:0:0:
397,167,217357,1,0,0:0:0:0:
415,158,217432,1,2,0:2:0:0:
435,157,217507,1,0,0:0:0:0:
452,165,217582,1,2,0:2:0:0:
465,179,217657,1,0,0:0:0:0:
472,197,217732,1,10,0:2:0:0:
471,216,217807,1,0,0:0:0:0:
461,233,217882,1,2,0:2:0:0:
447,248,217957,1,0,0:0:0:0:
428,253,218032,1,2,0:2:0:0:
408,247,218107,1,0,0:0:0:0:
394,233,218182,2,0,P|398:211|420:190,5,40,10|0|2|0|2|0,0:2|0:0|0:2|0:0|0:2|0:0,0:0:0:0:
359,76,218632,5,10,0:2:0:0:
343,63,218707,1,0,0:0:0:0:
323,57,218782,1,2,0:2:0:0:
303,57,218857,1,0,0:0:0:0:
283,61,218932,1,2,0:2:0:0:
266,72,219007,1,0,0:0:0:0:
254,88,219082,2,0,L|258:127,5,40,10|0|2|0|2|0,0:2|0:0|0:2|0:0|0:2|0:0,0:0:0:0:
161,222,219532,5,10,0:2:0:0:
151,237,219607,1,0,0:0:0:0:
133,246,219682,1,2,0:2:0:0:
113,249,219757,1,0,0:0:0:0:
96,241,219832,1,2,0:2:0:0:
83,225,219907,1,0,0:0:0:0:
76,207,219982,1,10,0:2:0:0:
77,188,220057,1,0,0:0:0:0:
87,171,220132,1,2,0:2:0:0:
101,156,220207,1,0,0:0:0:0:
120,152,220282,1,2,0:2:0:0:
140,157,220357,1,0,0:0:0:0:
154,171,220432,2,0,P|141:192|116:201,5,40,10|0|2|0|2|0,0:2|0:0|0:2|0:0|0:2|0:0,0:0:0:0:
200,288,220882,5,10,0:2:0:0:
229,291,220957,1,0,0:0:0:0:
258,295,221032,1,2,0:2:0:0:
287,298,221107,1,0,0:0:0:0:
316,302,221182,1,2,0:2:0:0:
345,305,221257,1,0,0:0:0:0:
374,309,221332,2,0,P|386:334|384:358,5,40,10|0|2|0|2|0,0:2|0:0|0:2|0:0|0:2|0:0,0:0:0:0:
460,237,221782,5,10,0:2:0:0:
455,208,221857,1,0,0:0:0:0:
439,185,221932,1,2,0:2:0:0:
416,168,222007,1,0,0:0:0:0:
390,162,222082,1,2,0:2:0:0:
362,166,222157,1,0,0:0:0:0:
337,180,222232,1,10,0:2:0:0:
320,202,222307,1,0,0:0:0:0:
313,227,222382,1,2,0:2:0:0:
314,255,222457,1,0,0:0:0:0:
328,280,222532,1,2,0:2:0:0:
349,299,222607,1,0,0:0:0:0:
374,309,222682,2,0,L|378:269,5,40,10|0|0|0|0|0,0:2|0:0|0:2|0:0|0:0|0:0,0:0:0:0:
248,128,223132,5,14,0:2:0:0:
414,17,223282,1,8,2:1:0:0:
442,43,223357,1,8,2:1:0:0:
436,81,223432,1,8,2:1:0:0:
402,98,223507,1,8,2:1:0:0:
368,81,223582,6,8,P|384:66|411:63,1,40
492,187,223732,2,0,P|472:181|458:167,3,40,8|8|8|8,0:0|0:0|0:0|0:0,0:0:0:0:
378,269,224032,5,4,0:0:0:0:
353,294,224107,1,4,0:0:0:0:
319,306,224182,1,4,0:0:0:0:
283,302,224257,1,4,0:0:0:0:
258,280,224332,1,4,0:0:0:0:
253,252,224407,1,4,0:0:0:0:
261,228,224482,6,0,B|287:256|314:262|314:262|239:355|131:298|180:268|91:221|0:272,1,400,6|0,0:1|0:0,0:0:0:0:
73,384,225382,1,10,2:1:0:0:
151,324,225532,2,0,L|135:196,1,120,0|0,0:0|2:0,0:0:0:0:
100,48,225832,6,0,P|77:148|179:139,2,240,2|2|10,0:1|2:1|2:1,0:0:0:0:
449,112,227182,6,0,B|437:207|437:207|444:212|444:212|432:315,1,200,6|0,0:1|0:0,0:0:0:0:
365,362,227632,1,2,0:1:0:0:
325,339,227707,1,0,0:0:0:0:
313,296,227782,1,0,0:0:0:0:
335,255,227857,1,0,0:0:0:0:
378,243,227932,1,0,0:0:0:0:
419,264,228007,1,0,0:0:0:0:
432,307,228082,1,10,0:1:0:0:
170,123,228382,5,8,2:1:0:0:
170,123,228532,2,0,B|120:193|120:193|186:357,2,240,6|2|10,3:1|2:1|2:1,2:0:0:0:
473,256,229882,6,0,P|410:301|333:286,1,160,6|0,0:1|2:0,0:0:0:0:
243,207,230332,2,0,P|305:160|381:175,1,160,2|0,0:1|2:0,0:0:0:0:
449,42,230782,1,10,0:1:0:0:
449,42,230932,2,0,P|417:65|379:57,1,80,2|0,0:1|2:0,0:0:0:0:
248,29,231232,6,0,L|269:207,2,180.000006866455,2|2|10,0:1|2:1|2:1,0:0:0:0:
46,273,232582,6,0,B|120:220|213:280|161:312|250:388|320:345,1,300.000011444092,2|0,0:1|0:0,0:0:0:0:
381,272,233482,1,10,0:1:0:0:
473,327,233632,2,0,B|496:284|496:284|470:205,1,120
439,125,233932,6,0,B|511:186|511:186|372:167|372:167|368:176|368:176|211:153,1,400,6|0,0:1|2:0,0:0:0:0:
82,256,234832,2,0,P|38:189|55:106,1,160,10|0,0:1|2:0,0:0:0:0:
215,153,235282,6,0,B|266:227|266:227|215:401,1,240,2|2,0:1|2:1,0:0:0:0:
223,371,236032,1,0,0:0:0:0:
82,256,236182,2,0,L|177:244,1,80,10|0,0:1|0:0,0:0:0:0:
47,348,236482,1,8,2:1:0:0:
215,153,236632,6,0,B|280:127|309:170|309:170|317:171|317:171|360:227|410:205,1,200,6|0,0:1|0:0,0:0:0:0:
464,172,237082,2,0,L|471:110,1,60.0000022888184,8|8,2:1|2:1,0:0:0:0:
387,72,237232,1,8,0:0:0:0:
386,64,237307,1,8,0:0:0:0:
385,57,237382,1,4,0:0:0:0:
384,49,237457,1,4,0:0:0:0:
383,42,237532,1,8,0:1:0:0:
87,259,237832,5,8,2:1:0:0:
87,259,237982,2,0,P|133:194|117:91,2,180.000006866455,4|2|10,3:2|2:1|2:1,2:0:0:0:
222,363,239332,6,0,L|364:345,1,120.000004577637,6|0,0:1|2:0,0:0:0:0:
441,254,239782,2,0,L|298:236,1,120.000004577637,2|0,2:1|3:1,2:0:0:0:
258,138,240232,1,10,2:1:0:0:
258,138,240382,2,0,L|329:129,1,60.0000022888184,0|0,0:0|2:0,2:0:0:0:
433,58,240682,6,0,B|469:109|469:109|441:229,1,180.000006866455,6|2,0:1|2:1,0:0:0:0:
262,142,241432,1,0,0:0:0:0:
262,142,241582,2,0,B|236:105|236:105|256:20,1,120.000004577637,8|0,2:1|2:0,2:0:0:0:
323,258,242032,6,0,B|254:226|188:280|231:308|167:363|101:339,1,240,4|2,0:1|2:1,0:0:0:0:
23,242,242632,1,0,0:0:0:0:
22,233,242707,1,0,0:0:0:0:
21,223,242782,1,0,0:0:0:0:
20,213,242857,1,0,0:0:0:0:
19,203,242932,2,0,P|52:174|96:173,1,80,10|0,0:1|0:0,0:0:0:0:
131,255,243232,1,8,0:1:0:0:
309,84,243382,6,0,B|319:117|349:134|349:134|319:272,1,191.999994140625,4|0,0:2|2:0,0:0:0:0:
380,325,243832,1,8,0:0:0:0:
292,382,243982,1,4,0:0:0:0:
230,311,244132,1,4,0:0:0:0:
142,350,244282,2,0,L|130:254,1,95.9999970703126,8|4,0:1|0:0,0:0:0:0:
67,146,244582,1,0,0:0:0:0:
67,146,244657,1,0,0:0:0:0:
67,146,244732,6,0,B|118:117|158:139|158:139|200:196|254:181,1,191.999994140625,4|4,0:0|0:0,0:0:0:0:
293,112,245182,1,8,0:0:0:0:
372,172,245332,1,4,0:0:0:0:
398,69,245482,1,4,0:0:0:0:
465,236,245632,2,0,L|476:140,2,95.9999970703126,8|4|8,0:1|0:0|0:0,0:0:0:0:
396,366,246082,5,6,0:1:0:0:
283,312,246232,2,0,P|320:276|370:272,1,95.9999970703126,8|8,2:1|0:0,0:0:0:0:
476,140,246532,2,0,P|439:176|389:180,1,95.9999970703126,4|4,0:0|0:0,0:0:0:0:
293,112,246832,1,4,0:0:0:0:
294,100,246907,1,4,0:0:0:0:
295,88,246982,1,8,0:1:0:0:
210,34,247132,1,8,0:0:0:0:
160,122,247282,1,8,0:0:0:0:
72,35,247432,6,0,B|35:79|35:79|80:212,1,191.999994140625,6|8,0:1|0:0,0:0:0:0:
27,304,247882,1,4,0:0:0:0:
100,359,248032,1,8,0:0:0:0:
151,272,248182,1,4,0:0:0:0:
239,352,248332,2,0,L|253:239,1,95.9999970703126,8|4,0:1|0:0,0:0:0:0:
261,161,248632,1,8,0:0:0:0:
422,208,248782,6,0,P|385:237|342:233,2,80,4|8|4,0:2|0:0|0:0,0:0:0:0:
512,364,249232,2,0,P|482:337|443:334,1,80,8|4,0:1|0:0,0:0:0:0:
238,352,249532,1,0,0:0:0:0:
239,363,249607,1,0,0:0:0:0:
242,374,249682,1,4,0:0:0:0:
342,322,249832,1,4,0:0:0:0:
251,256,249982,1,8,0:0:0:0:
351,202,250132,5,8,0:1:0:0:
242,374,250282,1,4,0:0:0:0:
141,131,250432,1,8,0:1:0:0:
251,256,250582,6,0,B|166:266|166:266|163:271|163:271|71:283,2,180.000006866455,6|2|2,3:1|2:1|2:1,2:0:0:0:
427,54,251932,2,0,B|342:43|342:43|338:48|338:48|250:37,1,180.000006866455,10|2,2:1|2:1,2:0:0:0:
395,354,252832,6,0,P|431:275|384:203,2,180.000006866455,6|2|2,3:1|2:1|2:1,2:0:0:0:
82,126,254182,2,0,P|35:198|72:277,1,180.000006866455,10|2,2:1|2:1,2:0:0:0:
419,66,255082,5,6,0:1:0:0:
419,66,255532,2,0,B|362:110|362:110|249:75,1,180.000006866455,10|2,2:1|0:1,0:0:0:0:
71,276,256432,2,0,B|116:240|116:240|207:268,1,150.000005722046,10|0,2:1|2:0,2:0:0:0:
275,336,256882,5,8,2:1:0:0:
294,313,256957,1,8,2:1:0:0:
297,284,257032,1,8,2:1:0:0:
282,258,257107,1,8,2:1:0:0:
256,245,257182,1,8,2:1:0:0:
227,248,257257,1,8,2:1:0:0:
204,267,257332,6,0,L|207:297,5,20,8|8|8|4|4|4,0:0|0:0|0:0|0:0|0:0|0:0,0:0:0:0:
97,346,257782,5,14,0:1:0:0:
81,356,257857,1,0,0:0:0:0:
61,356,257932,1,2,0:2:0:0:
42,349,258007,1,0,0:0:0:0:
30,334,258082,1,2,0:2:0:0:
25,317,258157,1,0,0:0:0:0:
27,296,258232,1,10,0:2:0:0:
35,279,258307,1,0,0:0:0:0:
51,268,258382,1,2,0:2:0:0:
70,261,258457,1,0,0:0:0:0:
89,265,258532,1,2,0:2:0:0:
105,279,258607,1,0,0:0:0:0:
111,297,258682,2,0,P|94:310|63:313,5,40,10|0|2|0|2|0,0:2|0:0|0:2|0:0|0:2|0:0,0:0:0:0:
130,172,259132,5,10,0:2:0:0:
147,161,259207,1,0,0:0:0:0:
167,157,259282,1,2,0:2:0:0:
188,157,259357,1,0,0:0:0:0:
206,165,259432,1,2,0:2:0:0:
221,181,259507,1,0,0:0:0:0:
233,196,259582,1,10,0:2:0:0:
245,213,259657,1,0,0:0:0:0:
262,225,259732,1,2,0:2:0:0:
282,229,259807,1,0,0:0:0:0:
302,229,259882,1,2,0:2:0:0:
321,221,259957,1,0,0:0:0:0:
332,205,260032,2,0,L|327:164,5,40,10|0|2|0|2|0,0:2|0:0|0:2|0:0|0:2|0:0,0:0:0:0:
350,29,260482,5,10,0:2:0:0:
331,24,260557,1,0,0:0:0:0:
312,31,260632,1,2,0:2:0:0:
296,43,260707,1,0,0:0:0:0:
290,61,260782,1,2,0:2:0:0:
292,81,260857,1,0,0:0:0:0:
299,99,260932,1,10,0:2:0:0:
313,111,261007,1,0,0:0:0:0:
333,116,261082,1,2,0:2:0:0:
353,117,261157,1,0,0:0:0:0:
369,106,261232,1,2,0:2:0:0:
380,89,261307,1,0,0:0:0:0:
380,69,261382,2,0,P|355:63|331:74,5,40,10|0|2|0|2|0,0:2|0:0|0:2|0:0|0:2|0:0,0:0:0:0:
261,154,261832,5,10,0:2:0:0:
243,172,261907,1,0,0:0:0:0:
218,179,261982,1,2,0:2:0:0:
192,174,262057,1,0,0:0:0:0:
172,158,262132,1,2,0:2:0:0:
157,137,262207,1,0,0:0:0:0:
136,123,262282,1,10,0:2:0:0:
111,119,262357,1,0,0:0:0:0:
87,128,262432,1,2,0:2:0:0:
70,149,262507,1,0,0:0:0:0:
69,175,262582,1,2,0:2:0:0:
84,197,262657,1,0,0:0:0:0:
111,205,262732,2,0,L|117:152,5,40,10|0|2|0|2|0,0:2|0:0|0:2|0:0|0:2|0:0,0:0:0:0:
254,97,263182,5,10,0:2:0:0:
258,125,263257,1,0,0:0:0:0:
261,154,263332,1,2,0:2:0:0:
265,183,263407,1,0,0:0:0:0:
268,212,263482,1,2,0:2:0:0:
272,241,263557,1,0,0:0:0:0:
275,270,263632,2,0,P|258:288|239:295,5,40,10|0|2|0|2|0,0:2|0:0|0:2|0:0|0:2|0:0,0:0:0:0:
131,268,264082,5,10,0:2:0:0:
102,255,264157,1,0,0:0:0:0:
71,265,264232,1,2,0:2:0:0:
54,290,264307,1,0,0:0:0:0:
49,322,264382,1,2,0:2:0:0:
67,348,264457,1,0,0:0:0:0:
94,365,264532,2,0,P|103:339|98:317,5,40,10|0|2|0|2|0,0:2|0:0|0:2|0:0|0:2|0:0,0:0:0:0:
204,223,264982,5,10,0:2:0:0:
213,207,265057,1,0,0:0:0:0:
231,198,265132,1,2,0:2:0:0:
251,197,265207,1,0,0:0:0:0:
268,205,265282,1,2,0:2:0:0:
281,219,265357,1,0,0:0:0:0:
288,237,265432,1,10,0:2:0:0:
287,256,265507,1,0,0:0:0:0:
277,273,265582,1,2,0:2:0:0:
263,288,265657,1,0,0:0:0:0:
244,293,265732,1,2,0:2:0:0:
224,287,265807,1,0,0:0:0:0:
210,273,265882,2,0,P|214:251|236:230,5,40,10|0|2|0|2|0,0:2|0:0|0:2|0:0|0:2|0:0,0:0:0:0:
319,354,266332,5,10,0:2:0:0:
334,367,266407,1,0,0:0:0:0:
354,373,266482,1,2,0:2:0:0:
374,373,266557,1,0,0:0:0:0:
394,369,266632,1,2,0:2:0:0:
411,358,266707,1,0,0:0:0:0:
423,342,266782,2,0,L|418:302,5,40,10|0|2|0|2|0,0:2|0:0|0:2|0:0|0:2|0:0,0:0:0:0:
424,176,267232,5,10,0:2:0:0:
441,172,267307,1,0,0:0:0:0:
460,178,267382,1,2,0:2:0:0:
477,190,267457,1,0,0:0:0:0:
483,208,267532,1,2,0:2:0:0:
481,229,267607,1,0,0:0:0:0:
473,246,267682,1,10,0:2:0:0:
459,259,267757,1,0,0:0:0:0:
440,264,267832,1,2,0:2:0:0:
419,264,267907,1,0,0:0:0:0:
403,254,267982,1,2,0:2:0:0:
392,237,268057,1,0,0:0:0:0:
392,216,268132,2,0,P|413:204|440:206,5,40,10|0|2|0|2|0,0:2|0:0|0:2|0:0|0:2|0:0,0:0:0:0:
475,101,268582,5,10,0:2:0:0:
446,98,268657,1,0,0:0:0:0:
417,94,268732,1,2,0:2:0:0:
388,91,268807,1,0,0:0:0:0:
359,87,268882,1,2,0:2:0:0:
330,84,268957,1,0,0:0:0:0:
301,80,269032,2,0,P|289:55|291:31,5,40,10|0|2|0|2|0,0:2|0:0|0:2|0:0|0:2|0:0,0:0:0:0:
229,166,269482,5,10,0:2:0:0:
200,161,269557,1,0,0:0:0:0:
177,145,269632,1,2,0:2:0:0:
160,122,269707,1,0,0:0:0:0:
154,96,269782,1,2,0:2:0:0:
158,68,269857,1,0,0:0:0:0:
172,43,269932,1,10,0:2:0:0:
194,26,270007,1,0,0:0:0:0:
219,19,270082,1,2,0:2:0:0:
247,20,270157,1,0,0:0:0:0:
272,34,270232,1,2,0:2:0:0:
291,55,270307,1,0,0:0:0:0:
301,80,270382,2,0,L|261:84,5,40,10|0|2|0|2|0,0:2|0:0|0:2|0:0|0:2|0:0,0:0:0:0:
124,213,270832,5,8,2:1:0:0:
147,254,270907,1,8,2:1:0:0:
193,266,270982,1,8,2:1:0:0:
232,247,271057,1,8,2:1:0:0:
267,221,271132,1,8,2:1:0:0:
306,224,271207,1,8,2:1:0:0:
337,248,271282,6,8,P|344:266|341:286,1,40
271,372,271432,2,8,P|263:353|266:333,3,40
456,254,271732,5,0,0:1:0:0:
437,217,271807,1,4,0:0:0:0:
399,208,271882,1,4,0:0:0:0:
363,212,271957,1,4,0:0:0:0:
338,234,272032,1,4,0:0:0:0:
333,262,272107,1,4,0:0:0:0:
341,286,272182,6,0,B|361:254|382:242|382:242|284:168|195:248|251:267|163:344|91:304,1,383.99998828125,4|0,0:2|2:2,0:2:0:0:
0,200,272932,1,0,0:0:0:0:
105,114,273082,1,10,0:1:0:0:
105,114,273232,2,0,L|25:104,1,80,0|0,3:1|2:0,0:0:0:0:
185,18,273532,6,0,P|211:96|369:69,2,240,2|2|10,3:1|2:1|2:1,2:0:0:0:
136,306,274882,6,0,B|124:210|124:210|115:207|115:207|103:104,1,200,2|0,0:1|0:0,0:0:0:0:
170,56,275332,1,2,0:1:0:0:
210,77,275407,1,0,0:0:0:0:
223,120,275482,1,0,0:0:0:0:
203,162,275557,1,0,0:0:0:0:
160,175,275632,1,0,0:0:0:0:
119,155,275707,1,0,0:0:0:0:
104,113,275782,1,10,0:1:0:0:
348,313,276232,6,0,B|278:363|278:363|114:297,2,240,4|2|10,0:2|2:1|2:1,0:0:0:0:
490,119,277432,5,8,2:1:0:0:
490,119,277582,2,0,P|440:80|338:106,1,160,2|0,0:1|2:0,0:0:0:0:
265,174,278032,2,0,P|314:212|416:186,1,160,2|0,0:1|2:0,0:0:0:0:
512,308,278482,1,10,0:1:0:0:
512,308,278632,2,0,P|487:288|436:301,1,80,0|0,0:1|2:0,0:0:0:0:
346,349,278932,6,0,L|368:171,2,180.000006866455,2|2|10,0:1|2:1|2:1,0:0:0:0:
416,36,280282,6,0,B|337:-11|239:64|303:83|220:165|147:127,1,300.000011444092,6|0,0:1|0:0,0:0:0:0:
51,82,281182,1,10,2:1:0:0:
51,82,281332,2,0,B|28:125|28:125|54:204,1,120
129,224,281632,6,0,B|48:277|-56:160|87:23|250:198,1,400,6|0,0:1|2:0,0:0:0:0:
316,269,282532,2,0,L|306:348,1,80,10|0,0:1|2:0,0:0:0:0:
191,353,282832,1,8,0:1:0:0:
454,305,282982,6,0,L|426:67,1,240,6|2,0:1|2:1,0:0:0:0:
425,66,283732,1,0,0:0:0:0:
312,15,283882,2,0,L|302:94,1,80,10|0,2:1|0:0,0:0:0:0:
312,15,284332,6,0,P|318:98|227:78,1,200,6|0,0:1|0:0,0:0:0:0:
48,172,284782,2,0,L|40:110,1,60.0000022888184,10|8,2:1|2:1,0:0:0:0:
125,72,284932,1,8,0:0:0:0:
126,64,285007,1,8,0:0:0:0:
127,57,285082,1,4,0:0:0:0:
128,49,285157,1,4,0:0:0:0:
129,42,285232,1,10,0:1:0:0:
454,305,285682,6,0,B|383:340|253:211|363:120|363:120|446:186|378:269|378:269|307:300|247:276|269:239|153:214|78:288|126:384|203:389|230:337,1,840,4|0,0:2|2:0,0:0:0:0:
68,112,361331,6,0,P|128:126|241:61,1,192,2|0,2:0|2:0,2:0:0:0:
453,256,362771,2,0,P|376:201|283:210,1,192
111,355,364177,6,0,B|85:310|104:252|126:276|147:209|119:161,1,192,2|0,0:0|0:0,0:0:0:0:
296,27,365583,2,0,B|322:71|303:129|281:105|260:172|283:210,1,192
428,298,366997,5,2,0:0:0:0:
428,298,367497,2,0,P|401:323|368:327,1,64
284,212,367977,1,2,0:0:0:0:
195,345,368457,1,0,0:0:0:0:
78,180,368937,6,0,P|70:259|143:227,1,192,2|0,0:0|0:0,0:0:0:0:
225,175,370332,2,0,L|213:79,1,96
409,138,371277,2,0,P|416:58|343:90,1,192,2|0,0:0|0:0,0:0:0:0:
213,79,372694,2,0,L|225:175,1,96
385,287,373661,6,0,B|330:264|284:296|284:296|242:351|208:339,1,192,2|0,0:0|0:0,0:0:0:0:
62,383,375083,2,0,B|35:324|35:324|65:200,1,192,2|0,0:0|0:0,0:0:0:0:
108,40,376492,6,0,P|150:142|260:125,1,240,2|0,0:0|0:0,0:0:0:0:
499,193,377932,2,0,P|389:175|346:278,1,240
231,363,379327,6,0,L|260:120,1,240,2|0,0:0|0:0,0:0:0:0:
0,0,380757,2,0,L|29:238,1,240
133,330,382173,5,2,0:0:0:0:
133,330,382664,2,0,P|165:300|205:295,1,80
277,379,383118,1,2,0:0:0:0:
340,271,383573,1,0,0:0:0:0:
434,355,384027,6,0,P|478:283|445:120,1,240,2|0,0:0|0:0,0:0:0:0:
340,68,385478,2,0,P|320:111|340:189,1,120
273,276,386386,6,0,B|222:252|160:294|160:294|120:362|61:355,1,240,2|0,0:0|0:0,0:0:0:0:
87,141,387816,2,0,L|182:152,1,80
233,27,388316,2,0,L|153:36,1,80
366,221,388816,6,0,P|380:120|282:145,1,240,2|0,0:0|0:0,0:0:0:0:
64,355,390225,2,0,P|49:254|147:279,1,240
287,368,391634,6,0,B|325:315|325:315|281:141,1,240,2|0,0:0|0:0,0:0:0:0:
44,278,393074,2,0,B|5:225|5:225|49:51,1,240
132,198,394474,6,0,B|195:168|263:220|218:235|280:295|344:267,1,240,2|0,0:0|0:0,0:0:0:0:
504,37,395914,2,0,B|441:7|372:59|417:74|355:134|292:106,1,240
110,31,397320,5,2,0:0:0:0:
110,31,397789,2,0,L|119:110,1,80
51,206,398257,1,2,0:0:0:0:
216,255,398726,1,0,0:0:0:0:
137,326,399195,6,0,P|84:221|118:109,1,240,2|0,0:0|0:0,0:0:0:0:
229,43,400612,2,0,P|251:84|237:163,1,120
358,325,401572,6,0,B|312:364|312:364|133:325,1,240,2|0,0:0|0:0,0:0:0:0:
243,154,403012,2,0,L|252:233,1,80
122,159,403492,2,0,L|131:79,1,80
263,0,403972,6,0,P|287:52|456:57,1,240,2|0,0:0|0:0,0:0:0:0:
252,233,405360,2,0,P|140:209|65:296,1,240
256,192,406411,12,0,409024,0:0:0:0:
97,129,409176,5,14,0:1:0:0:
126,98,409254,1,0,0:0:0:0:
168,96,409333,1,0,0:0:0:0:
206,115,409412,1,0,0:0:0:0:
234,147,409491,1,0,0:0:0:0:
276,156,409570,1,0,0:0:0:0:
312,135,409649,2,0,P|318:110|312:71,5,51.999997619629,10|0|0|0|0|0,0:1|0:0|0:0|0:0|0:0|0:0,0:0:0:0:
435,158,410123,1,10,0:1:0:0:
473,174,410201,1,0,0:0:0:0:
490,216,410280,1,0,0:0:0:0:
474,256,410359,1,0,0:0:0:0:
435,276,410438,1,0,0:0:0:0:
394,264,410517,1,0,0:0:0:0:
370,227,410597,6,0,L|438:218,1,51.999997619629,10|0,0:1|0:0,0:0:0:0:
351,353,410754,2,0,L|282:344,1,51.999997619629,8|0,0:1|0:0,0:0:0:0:
224,162,410912,2,0,L|292:153,1,51.999997619629,8|0,0:1|0:0,0:0:0:0:
106,349,411070,5,10,0:1:0:0:
66,334,411148,1,0,0:3:0:0:
46,296,411227,1,0,0:3:0:0:
57,255,411306,1,0,0:3:0:0:
92,232,411385,1,0,0:3:0:0:
134,239,411464,1,0,0:3:0:0:
161,272,411544,2,0,P|126:295|102:295,5,51.999997619629,10|0|0|0|0|0,0:1|0:0|0:0|0:0|0:0|0:0,0:0:0:0:
224,162,412018,1,10,0:1:0:0:
257,135,412096,1,0,0:0:0:0:
298,139,412175,1,0,0:0:0:0:
333,163,412254,1,0,0:0:0:0:
357,198,412333,1,0,0:0:0:0:
397,213,412412,1,0,0:0:0:0:
436,197,412491,6,0,P|445:173|444:134,1,51.999997619629,10|0,0:1|0:0,0:0:0:0:
340,56,412649,2,0,P|355:75|389:95,1,51.999997619629,8|0,0:1|0:0,0:0:0:0:
510,43,412807,2,0,P|485:46|451:66,1,51.999997619629,8|0,0:1|0:0,0:0:0:0:
280,236,412965,5,14,0:1:0:0:
235,279,413044,1,0,0:0:0:0:
177,277,413123,1,0,0:0:0:0:
137,240,413202,1,0,0:0:0:0:
133,192,413281,1,0,0:0:0:0:
157,150,413360,1,0,0:0:0:0:
204,147,413439,2,0,L|212:215,5,60.0000022888184,10|0|0|0|0|0,0:1|0:0|0:0|0:0|0:0|0:0,0:0:0:0:
370,350,413912,1,10,0:1:0:0:
421,365,413991,1,0,0:0:0:0:
466,335,414070,1,0,0:0:0:0:
477,283,414149,1,0,0:0:0:0:
450,235,414228,1,0,0:0:0:0:
396,226,414307,1,0,0:0:0:0:
362,268,414386,6,0,P|386:289|423:295,1,60.0000022888184,10|0,0:1|0:0,0:0:0:0:
503,136,414544,2,0,P|473:136|447:150,1,60.0000022888184,8|0,0:1|0:0,0:0:0:0:
347,282,414702,2,0,P|371:303|408:309,1,60.0000022888184,8|0,0:1|0:0,0:0:0:0:
340,56,414860,5,14,0:1:0:0:
294,26,414939,1,0,0:0:0:0:
240,30,415018,1,0,0:0:0:0:
204,70,415097,1,0,0:0:0:0:
176,116,415176,1,0,0:0:0:0:
126,135,415254,1,0,0:0:0:0:
75,114,415333,2,0,L|67:50,5,60.0000022888184,10|0|0|0|0|0,0:1|0:0|0:0|0:0|0:0|0:0,0:0:0:0:
277,122,415807,1,10,0:1:0:0:
274,157,415885,1,0,0:0:0:0:
272,192,415964,1,0,0:0:0:0:
269,227,416043,1,0,0:0:0:0:
266,262,416122,1,0,0:0:0:0:
263,297,416201,1,0,0:0:0:0:
258,332,416280,5,8,2:1:0:0:
313,357,416360,1,8,2:1:0:0:
369,336,416439,1,8,2:1:0:0:
388,279,416518,1,8,2:1:0:0:
364,223,416597,2,0,L|300:230,1,60.0000022888184,8|8,2:1|2:1,0:0:0:0:
137,167,416754,5,6,0:1:0:0:
110,196,416832,1,8,0:1:0:0:
107,235,416911,1,2,0:2:0:0:
123,271,416990,1,8,0:1:0:0:
153,297,417069,1,2,0:2:0:0:
165,333,417148,1,8,0:1:0:0:
153,372,417227,2,0,P|122:373|93:359,1,51.999997619629,2|8,0:2|0:1,0:0:0:0:
255,242,417385,2,0,P|283:228|315:232,3,51.999997619629,2|8|2|8,0:2|0:1|0:2|0:1,0:0:0:0:
434,272,417701,1,2,0:2:0:0:
469,244,417780,1,8,0:1:0:0:
477,199,417859,1,2,0:2:0:0:
461,157,417938,1,8,0:1:0:0:
428,125,418017,1,2,0:2:0:0:
425,76,418096,1,8,0:1:0:0:
459,40,418175,5,2,0:2:0:0:
481,64,418253,1,8,0:1:0:0:
483,98,418332,1,2,0:2:0:0:
463,125,418411,1,8,0:1:0:0:
430,137,418490,1,2,0:2:0:0:
398,126,418569,1,8,0:1:0:0:
379,95,418648,6,0,P|405:79|426:77,1,51.999997619629,2|8,0:2|0:1,0:0:0:0:
347,208,418806,2,0,P|321:204|300:189,3,51.999997619629,2|8|2|8,0:2|0:1|0:2|0:1,0:0:0:0:
272,75,419122,1,2,0:2:0:0:
236,44,419201,1,8,0:1:0:0:
189,40,419280,1,2,0:2:0:0:
152,69,419359,1,8,0:1:0:0:
118,101,419438,1,2,0:2:0:0:
72,110,419517,1,8,0:1:0:0:
32,84,419596,5,2,0:2:0:0:
75,57,419674,1,8,0:1:0:0:
126,62,419753,1,2,0:2:0:0:
163,96,419832,1,8,0:1:0:0:
172,146,419911,1,2,0:2:0:0:
149,192,419990,1,8,0:1:0:0:
103,214,420069,2,0,P|88:184|90:154,1,60.0000022888184,2|8,0:2|0:1,0:0:0:0:
217,251,420227,2,0,P|232:281|230:311,3,60.0000022888184,2|8|2|8,0:2|0:2|0:2|0:2,0:2:0:0:
284,178,420543,1,2,0:2:0:0:
326,144,420622,1,8,0:1:0:0:
379,147,420701,1,2,0:2:0:0:
418,183,420780,1,8,0:1:0:0:
419,231,420859,1,2,0:2:0:0:
395,266,420938,1,8,0:1:0:0:
353,269,421017,5,2,0:2:0:0:
398,232,421095,1,8,0:1:0:0:
456,239,421174,1,2,0:2:0:0:
490,286,421253,1,8,0:1:0:0:
479,343,421332,1,2,0:2:0:0:
430,374,421411,1,8,0:1:0:0:
374,359,421490,6,0,P|392:327|423:317,1,60.0000022888184,2|8,0:2|0:1,0:0:0:0:
512,239,421648,2,0,P|483:247|455:238,3,60.0000022888184,2|8|2|8,0:2|0:1|0:2|0:1,0:0:0:0:
325,144,421964,1,2,0:2:0:0:
302,97,422043,1,8,0:1:0:0:
320,55,422122,1,2,0:2:0:0:
356,43,422201,1,8,0:1:0:0:
386,54,422280,1,2,0:2:0:0:
397,74,422359,1,8,0:1:0:0:
391,97,422438,5,4,0:2:0:0:
204,13,422596,2,0,B|178:54|178:54|207:135,2,120.000004577637,0|0|2,2:0|2:0|2:2,2:0:0:0:
55,199,423069,2,0,L|61:147,2,51.999997619629,2|0|2,2:2|2:0|2:2,2:0:0:0:
110,352,423385,6,0,L|213:339,1,103.999995239258,10|2,2:2|2:2,2:0:0:0:
244,338,423622,1,0,2:0:0:0:
244,338,423701,1,2,2:2:0:0:
202,121,423859,2,0,L|305:133,1,103.999995239258,2|2,2:2|2:2,2:0:0:0:
334,142,424096,1,0,2:0:0:0:
334,142,424175,1,2,2:2:0:0:
408,264,424332,5,2,0:2:0:0:
487,138,424490,2,0,L|494:190,2,51.999997619629,2|0|2,2:2|2:0|2:2,2:0:0:0:
326,39,424806,2,0,P|299:82|304:133,1,103.999995239258,2|2,2:2|2:2,2:0:0:0:
334,142,425043,1,0,2:0:0:0:
334,142,425122,1,2,2:2:0:0:
254,217,425280,5,10,2:2:0:0:
408,264,425438,1,0,2:0:0:0:
234,371,425596,1,2,2:2:0:0:
125,278,425754,6,0,L|131:329,3,51.999997619629,2|2|2|2,2:2|2:2|2:2|2:2,2:2:0:0:
21,281,426069,1,2,2:2:0:0:
21,281,426148,1,2,2:2:0:0:
21,281,426227,6,0,P|-5:237|0:186,1,103.999995239258,2|2,3:2|2:0,2:0:0:0:
29,178,426464,1,0,2:0:0:0:
29,178,426543,1,2,2:0:0:0:
144,26,426701,2,0,P|170:69|165:120,1,103.999995239258,2|2,2:0|2:0,2:0:0:0:
136,129,426938,1,0,2:0:0:0:
136,129,427017,1,2,2:0:0:0:
254,217,427175,1,10,2:0:0:0:
333,47,427332,2,0,L|281:53,2,51.999997619629,2|0|2,2:0|2:0|2:0,2:0:0:0:
460,103,427648,5,2,2:0:0:0:
373,167,427806,1,0,2:0:0:0:
497,226,427964,1,2,3:2:0:0:
176,384,428122,5,6,0:1:0:0:
254,217,428280,2,0,B|280:258|280:258|251:339,2,120.000004577637,2|2|2,2:0|2:0|2:0,2:0:0:0:
79,293,428754,2,0,L|85:344,2,51.999997619629,2|0|2,2:0|2:0|2:0,2:0:0:0:
17,190,429069,2,0,B|49:164|49:164|118:179,1,103.999995239258,10|2,2:0|2:0,2:0:0:0:
137,190,429306,1,0,2:0:0:0:
137,190,429385,1,2,2:0:0:0:
245,57,429543,2,0,B|213:83|213:83|144:68,1,103.999995239258,2|2,2:0|2:0,2:0:0:0:
128,65,429780,1,0,2:0:0:0:
128,65,429859,1,2,2:0:0:0:
254,217,430017,5,2,3:2:0:0:
357,123,430175,2,0,L|363:174,2,51.999997619629,2|0|2,2:0|2:0|2:0,2:0:0:0:
468,358,430491,2,0,P|494:314|489:263,1,103.999995239258,2|2,2:0|2:0,2:0:0:0:
460,255,430728,1,0,2:0:0:0:
460,255,430807,1,2,2:0:0:0:
254,217,430965,5,10,2:0:0:0:
347,295,431123,1,0,2:0:0:0:
165,384,431281,1,2,2:0:0:0:
165,384,431439,6,0,L|151:276,1,103.999995239258,2|2,2:0|2:0,2:0:0:0:
151,258,431676,1,0,2:0:0:0:
151,258,431755,1,2,2:0:0:0:
75,116,431912,2,0,P|111:151|162:156,1,103.999995239258,2|2,2:0|2:0,2:0:0:0:
177,129,432149,1,0,2:0:0:0:
177,129,432228,1,2,2:0:0:0:
281,53,432385,2,0,P|317:17|368:12,1,103.999995239258,2|2,2:0|2:0,2:0:0:0:
383,40,432622,1,0,2:0:0:0:
383,40,432701,1,2,2:0:0:0:
321,162,432860,1,10,2:0:0:0:
438,231,433017,2,0,L|444:179,2,51.999997619629,2|0|2,2:0|2:0|2:0,2:0:0:0:
263,374,433332,5,2,2:0:0:0:
345,313,433490,1,2,2:0:0:0:
218,237,433648,1,2,2:0:0:0:
366,322,433807,5,14,0:1:0:0:
396,303,433884,1,0,0:0:0:0:
405,268,433963,1,0,0:0:0:0:
390,234,434042,1,0,0:0:0:0:
358,217,434121,1,0,0:0:0:0:
322,223,434200,1,0,0:0:0:0:
301,252,434279,2,0,P|327:278|352:282,5,51.999997619629,10|0|0|0|0|0,0:1|0:0|0:0|0:0|0:0|0:0,0:0:0:0:
324,123,434753,1,10,0:1:0:0:
289,98,434831,1,0,0:0:0:0:
248,105,434910,1,0,0:0:0:0:
215,131,434989,1,0,0:0:0:0:
193,168,435068,1,0,0:0:0:0:
154,185,435147,1,0,0:0:0:0:
114,172,435226,6,0,P|102:149|100:110,1,51.999997619629,10|0,0:1|0:0,0:0:0:0:
200,25,435384,2,0,P|186:45|152:67,1,51.999997619629,8|0,0:1|0:0,0:0:0:0:
30,24,435542,2,0,P|55:25|90:43,1,51.999997619629,8|0,0:1|0:0,0:0:0:0:
272,222,435701,5,10,0:1:0:0:
301,252,435779,1,0,0:3:0:0:
344,255,435858,1,0,0:3:0:0:
377,228,435937,1,0,0:3:0:0:
384,187,436016,1,0,0:3:0:0:
361,151,436095,1,0,0:3:0:0:
319,140,436175,2,0,P|312:181|321:203,5,51.999997619629,10|0|0|0|0|0,0:1|0:0|0:0|0:0|0:0|0:0,0:0:0:0:
202,328,436648,1,10,0:1:0:0:
163,343,436726,1,0,0:0:0:0:
122,325,436805,1,0,0:0:0:0:
105,286,436884,1,0,0:0:0:0:
118,244,436963,1,0,0:0:0:0:
156,224,437042,1,0,0:0:0:0:
195,238,437122,6,0,L|186:306,1,51.999997619629,10|0,0:1|0:0,0:0:0:0:
314,190,437279,2,0,L|305:121,1,51.999997619629,8|0,0:1|0:0,0:0:0:0:
164,62,437437,2,0,L|155:130,1,51.999997619629,8|0,0:1|0:0,0:0:0:0:
321,318,437596,5,14,0:1:0:0:
366,361,437675,1,0,0:0:0:0:
424,359,437754,1,0,0:0:0:0:
464,322,437833,1,0,0:0:0:0:
468,274,437912,1,0,0:0:0:0:
444,232,437991,1,0,0:0:0:0:
397,229,438070,2,0,L|388:297,5,60.0000022888184,10|0|0|0|0|0,0:1|0:0|0:0|0:0|0:0|0:0,0:0:0:0:
307,138,438543,1,10,0:1:0:0:
286,87,438622,1,0,0:0:0:0:
233,74,438701,1,0,0:0:0:0:
185,97,438780,1,0,0:0:0:0:
171,148,438859,1,0,0:0:0:0:
195,195,438938,1,0,0:0:0:0:
250,199,439017,6,0,L|242:136,1,60.0000022888184,14|0,0:1|0:0,0:0:0:0:
157,277,439174,2,0,L|149:336,1,60.0000022888184,8|0,0:1|0:0,0:0:0:0:
35,267,439332,2,0,L|27:207,1,60.0000022888184,8|0,0:1|0:0,0:0:0:0:
57,76,439490,5,14,0:1:0:0:
102,33,439569,1,0,0:0:0:0:
161,33,439648,1,0,0:0:0:0:
203,71,439727,1,0,0:0:0:0:
236,104,439806,1,0,0:0:0:0:
283,107,439884,1,0,0:0:0:0:
325,84,439963,2,0,L|328:25,5,60.0000022888184,10|0|0|0|0|0,0:1|0:0|0:0|0:0|0:0|0:0,0:0:0:0:
494,172,440437,1,10,0:1:0:0:
481,218,440515,1,0,0:0:0:0:
440,242,440594,1,0,0:0:0:0:
394,232,440673,1,0,0:0:0:0:
372,195,440752,1,0,0:0:0:0:
379,159,440831,1,0,0:0:0:0:
404,143,440910,5,10,0:1:0:0:
439,192,440990,1,8,2:1:0:0:
429,251,441069,1,8,2:1:0:0:
381,287,441148,1,8,2:1:0:0:
327,277,441227,2,0,L|319:216,1,60.0000022888184,8|8,2:1|2:1,0:0:0:0:
242,139,441384,5,4,0:1:0:0:
206,120,441462,1,8,0:1:0:0:
164,128,441541,1,2,0:2:0:0:
132,154,441620,1,8,0:1:0:0:
112,188,441699,1,2,0:2:0:0:
77,205,441778,1,8,0:1:0:0:
38,201,441857,2,0,P|26:172|30:140,1,51.999997619629,2|8,0:2|0:1,0:0:0:0:
140,63,442015,2,0,P|150:86|151:112,3,51.999997619629,2|8|2|8,0:2|0:1|0:2|0:1,0:0:0:0:
278,235,442331,1,2,0:2:0:0:
315,251,442409,1,8,0:1:0:0:
354,237,442488,1,2,0:2:0:0:
376,201,442567,1,8,0:1:0:0:
409,176,442647,1,2,0:2:0:0:
450,179,442726,1,8,0:1:0:0:
469,215,442805,5,2,0:2:0:0:
440,233,442883,1,8,0:1:0:0:
407,231,442962,1,2,0:2:0:0:
380,210,443041,1,8,0:1:0:0:
370,176,443120,1,2,0:2:0:0:
381,145,443199,1,8,0:1:0:0:
409,124,443278,6,0,P|419:151|414:179,1,51.999997619629,2|8,0:2|0:1,0:3:0:0:
322,300,443436,2,0,P|311:272|316:244,3,51.999997619629,2|8|2|8,0:2|0:1|0:2|0:1,0:0:0:0:
253,153,443752,1,2,0:2:0:0:
217,122,443831,1,8,0:1:0:0:
170,118,443910,1,2,0:2:0:0:
133,147,443989,1,8,0:1:0:0:
99,179,444068,1,2,0:2:0:0:
53,188,444147,1,8,0:1:0:0:
13,162,444226,5,2,0:2:0:0:
56,135,444304,1,8,0:1:0:0:
107,140,444383,1,2,0:2:0:0:
144,174,444462,1,8,0:1:0:0:
153,224,444541,1,2,0:2:0:0:
130,270,444620,1,8,0:1:0:0:
84,292,444699,2,0,P|69:262|76:229,1,51.999997619629,2|8,0:2|0:1,0:0:0:0:
129,126,444857,2,0,P|144:156|137:189,3,51.999997619629,2|8|2|8,0:2|0:1|0:2|0:1,0:0:0:0:
227,269,445173,1,2,0:2:0:0:
269,303,445252,1,8,0:1:0:0:
322,300,445331,1,2,0:2:0:0:
361,264,445410,1,8,0:1:0:0:
362,216,445489,1,2,0:2:0:0:
338,181,445568,1,8,0:1:0:0:
301,176,445647,5,2,0:2:0:0:
315,233,445725,1,8,0:1:0:0:
361,264,445804,1,2,0:2:0:0:
417,256,445883,1,8,0:1:0:0:
449,215,445962,1,2,0:2:0:0:
446,163,446041,1,8,0:1:0:0:
411,130,446120,6,0,P|395:150|392:178,1,51.999997619629,2|8,0:2|0:1,0:0:0:0:
326,282,446278,2,0,P|326:256|314:233,3,51.999997619629,2|8|2|8,0:2|0:1|0:2|0:1,0:0:0:0:
221,99,446594,1,2,0:2:0:0:
177,67,446673,1,8,0:1:0:0:
125,72,446752,1,2,0:2:0:0:
99,107,446831,1,8,0:1:0:0:
100,145,446910,1,2,0:2:0:0:
118,171,446989,1,8,0:1:0:0:
143,173,447068,5,4,0:2:0:0:
298,45,447226,2,0,B|326:89|326:89|298:172,2,120.000004577637,2|2|2,2:0|2:0|2:0,2:0:0:0:
460,228,447699,2,0,L|454:176,2,51.999997619629,2|0|2,2:0|2:0|2:0,2:0:0:0:
438,63,448015,2,0,L|335:50,1,103.999995239258,8|2,2:1|2:0,2:0:0:0:
302,48,448252,1,0,2:0:0:0:
302,48,448331,1,2,2:0:0:0:
313,257,448489,2,0,L|210:245,1,103.999995239258,2|2,2:0|2:0,2:0:0:0:
178,242,448726,1,0,2:0:0:0:
178,242,448805,1,2,2:0:0:0:
104,120,448962,5,2,3:2:0:0:
25,246,449120,2,0,L|18:194,2,51.999997619629,2|0|2,2:0|2:0|2:0,2:0:0:0:
186,345,449436,2,0,P|213:302|208:251,1,103.999995239258,2|2,2:0|2:0,2:0:0:0:
178,242,449673,1,0,2:0:0:0:
178,242,449752,1,2,2:0:0:0:
252,172,449910,5,10,2:0:0:0:
104,120,450068,1,2,2:0:0:0:
266,32,450226,1,2,2:0:0:0:
266,32,450384,6,0,L|252:140,1,103.999995239258,2|2,2:0|2:0,2:0:0:0:
252,172,450621,1,0,2:0:0:0:
252,172,450700,1,2,2:0:0:0:
491,103,450857,2,0,P|517:147|512:198,1,103.999995239258,2|2,3:2|2:0,2:0:0:0:
483,206,451094,1,0,2:0:0:0:
483,206,451173,1,2,2:0:0:0:
368,358,451331,2,0,P|342:315|347:264,1,103.999995239258,2|2,2:0|2:0,2:0:0:0:
376,255,451568,1,0,2:0:0:0:
376,255,451647,1,2,2:0:0:0:
258,167,451805,1,10,2:0:0:0:
179,337,451962,2,0,L|231:331,2,51.999997619629,2|0|2,2:0|2:0|2:0,2:0:0:0:
48,241,452278,5,2,2:2:0:0:
32,220,452356,1,2,2:2:0:0:
31,195,452435,1,2,2:2:0:0:
45,173,452514,1,2,2:2:0:0:
69,164,452593,1,2,2:2:0:0:
94,171,452672,1,2,2:2:0:0:
110,190,452751,5,2,0:1:0:0:
196,75,452910,2,0,B|155:49|155:49|74:78,2,120.000004577637,2|0|2,2:2|2:0|2:2,2:0:0:0:
333,15,453384,2,0,L|339:66,2,51.999997619629,2|0|2,2:2|2:0|2:2,2:0:0:0:
474,184,453699,2,0,B|442:210|442:210|373:195,1,103.999995239258,10|2,2:2|2:2,2:0:0:0:
354,193,453936,1,0,2:0:0:0:
354,193,454015,1,2,2:2:0:0:
267,327,454173,2,0,B|299:301|299:301|368:316,1,103.999995239258,2|2,2:2|2:2,2:0:0:0:
389,325,454410,1,0,2:0:0:0:
389,325,454489,1,2,2:2:0:0:
258,167,454647,5,6,3:1:0:0:
155,261,454805,2,0,L|149:210,2,51.999997619629,2|0|2,2:2|2:0|2:2,2:0:0:0:
44,26,455121,2,0,P|18:70|23:121,1,103.999995239258,2|2,2:2|2:2,2:0:0:0:
52,129,455358,1,0,2:0:0:0:
52,129,455437,1,2,2:2:0:0:
258,167,455595,5,10,2:2:0:0:
165,89,455753,1,2,2:2:0:0:
347,0,455911,1,2,2:2:0:0:
347,0,456069,6,0,L|361:108,1,103.999995239258,2|2,2:2|2:2,2:0:0:0:
369,133,456306,1,0,2:0:0:0:
369,133,456385,1,2,2:2:0:0:
437,268,456542,2,0,P|401:233|350:228,1,103.999995239258,6|2,3:2|2:2,2:0:0:0:
335,255,456779,1,0,2:0:0:0:
335,255,456858,1,2,2:2:0:0:
231,331,457015,2,0,P|195:367|144:372,1,103.999995239258,2|2,2:2|2:2,2:0:0:0:
129,344,457252,1,0,2:0:0:0:
129,344,457331,1,2,2:2:0:0:
191,222,457490,1,10,2:2:0:0:
74,153,457647,2,0,L|68:205,2,51.999997619629,2|0|2,2:2|2:0|2:2,2:0:0:0:
167,12,457962,5,10,2:2:0:0:
236,130,458120,1,2,2:2:0:0:
294,42,458278,1,2,2:2:0:0:
442,247,458424,5,6,0:1:0:0:
424,312,458502,1,8,0:0:0:0:
366,343,458581,1,8,0:0:0:0:
306,338,458660,1,8,0:0:0:0:
263,296,458739,1,8,0:0:0:0:
257,236,458818,1,8,0:0:0:0:
286,190,458897,5,8,0:1:0:0:
318,232,458976,1,4,0:0:0:0:
310,285,459055,1,4,0:0:0:0:
268,320,459134,1,4,0:0:0:0:
213,321,459213,1,4,0:0:0:0:
179,278,459292,1,4,0:0:0:0:
176,230,459371,2,0,L|250:239,1,60.0000022888184,8|4,0:1|0:0,0:0:0:0:
143,377,459529,2,0,L|83:384,3,60.0000022888184,4|4|4|4,0:0|0:0|0:0|0:0,0:0:0:0:
25,109,459845,5,8,0:0:0:0:
47,73,459924,1,8,0:0:0:0:
87,66,460002,1,8,0:0:0:0:
126,79,460081,1,8,0:0:0:0:
151,112,460160,1,8,0:0:0:0:
147,153,460239,1,8,0:0:0:0:
122,179,460318,5,8,0:1:0:0:
97,148,460396,1,4,0:0:0:0:
94,109,460475,1,4,0:0:0:0:
115,75,460554,1,4,0:0:0:0:
150,67,460633,1,4,0:0:0:0:
185,74,460712,1,4,0:0:0:0:
201,98,460792,2,0,P|181:122|150:128,1,60.0000022888184,8|4,0:1|0:0,0:0:0:0:
268,29,460950,2,0,P|296:36|315:59,3,60.0000022888184,4|4|4|4,0:0|0:0|0:0|0:0,0:0:0:0:
442,54,461273,6,0,B|479:20|479:20|459:183,1,204.000003890991,4|0,0:2|0:3,0:3:0:0:
411,270,461573,1,0,0:0:0:0:
411,270,461648,1,0,0:0:0:0:
411,270,461723,6,0,L|363:275,1,40,4|0,0:0|2:0,0:0:0:0:
273,258,461873,2,0,L|301:296,1,40,4|0,0:0|2:0,0:0:0:0:
331,384,462023,2,0,L|349:339,1,40,4|0,0:0|2:0,0:0:0:0:
460,172,462173,6,0,L|380:181,1,60.0000022888184,12|0,0:2|0:0,0:0:0:0:
411,270,462623,6,0,B|351:245|314:288|314:288|308:285|308:285|263:365|194:347,1,240.000009155274,6|0,3:1|2:0,3:0:0:0:
94,181,463073,1,8,2:1:0:0:
129,196,463148,1,8,2:1:0:0:
146,232,463223,1,8,0:0:0:0:
134,269,463298,1,8,0:0:0:0:
101,289,463373,1,4,0:0:0:0:
62,282,463448,1,4,0:0:0:0:
39,251,463523,6,0,L|63:57,1,180.000006866455,12|0,0:2|0:0,0:0:0:0:
101,164,463823,1,8,2:0:0:0:
366,44,463973,5,6,0:1:0:0:
336,23,464048,1,0,0:0:0:0:
300,19,464123,1,0,0:0:0:0:
266,33,464198,1,0,0:0:0:0:
245,62,464273,1,0,0:0:0:0:
222,90,464348,1,0,0:0:0:0:
185,94,464423,6,0,L|180:53,1,40,4|0,0:3|2:0,0:0:0:0:
266,146,464573,2,0,L|233:170,1,40,4|0,0:3|2:0,0:0:0:0:
270,49,464723,2,0,L|307:65,1,40,4|0,0:3|2:0,0:0:0:0:
101,164,464873,6,0,L|94:105,1,60.0000022888184,12|0,0:2|2:0,0:0:0:0:
260,345,465323,6,0,L|252:286,1,60.0000022888184,6|0,0:1|2:0,0:0:0:0:
371,290,465473,1,8,2:1:0:0:
418,252,465548,1,8,2:1:0:0:
417,192,465623,1,8,2:1:0:0:
376,161,465698,1,8,2:1:0:0:
334,164,465773,6,0,P|325:195|331:227,1,51.999997619629,8|0,0:0|0:0,0:0:0:0:
496,299,465923,2,0,P|505:268|499:236,1,51.999997619629,8|0,0:0|0:0,0:0:0:0:
347,172,466073,2,0,P|338:203|344:235,1,51.999997619629,8|0,0:0|0:0,0:0:0:0:
477,40,466223,5,8,0:0:0:0:
451,26,466298,1,8,0:0:0:0:
421,29,466373,1,8,0:0:0:0:
399,43,466448,1,8,0:0:0:0:
381,62,466523,1,8,0:0:0:0:
358,72,466598,1,8,0:0:0:0:
332,69,466673,2,4,L|326:25,1,40
444,122,466823,2,4,L|440:162,3,40
359,238,467122,5,6,0:1:0:0:
329,260,467197,1,0,0:0:0:0:
294,258,467272,1,0,0:0:0:0:
263,238,467347,1,0,0:0:0:0:
233,217,467422,1,0,0:0:0:0:
197,216,467497,1,0,0:0:0:0:
165,232,467572,1,10,0:1:0:0:
153,265,467647,1,0,0:0:0:0:
162,298,467722,1,0,0:0:0:0:
189,316,467797,1,0,0:0:0:0:
224,316,467872,1,0,0:0:0:0:
250,291,467947,1,0,0:0:0:0:
243,256,468022,2,0,L|172:247,5,40,10|0|0|0|0|0,0:1|0:0|0:0|0:0|0:0|0:0,0:0:0:0:
105,165,468472,5,10,0:1:0:0:
69,137,468547,1,0,0:0:0:0:
62,93,468622,1,0,0:0:0:0:
81,53,468697,1,0,0:0:0:0:
122,38,468772,1,0,0:0:0:0:
168,51,468847,1,0,0:0:0:0:
191,98,468922,5,10,0:1:0:0:
0,191,469072,1,0,0:0:0:0:
103,247,469222,1,0,0:0:0:0:
62,93,469372,5,10,0:1:0:0:
194,303,469522,1,0,0:0:0:0:
280,49,469672,1,0,0:0:0:0:
416,205,469822,5,14,0:1:0:0:
404,263,469897,1,0,0:0:0:0:
365,303,469972,1,0,0:0:0:0:
309,299,470047,1,0,0:0:0:0:
275,258,470122,1,0,0:0:0:0:
279,210,470197,1,0,0:0:0:0:
313,183,470272,2,0,P|331:213|327:252,1,60.0000022888184,10|0,0:1|0:0,0:0:0:0:
213,358,470422,2,0,P|195:328|199:289,3,60.0000022888184
57,308,470722,5,10,0:1:0:0:
60,282,470797,1,0,0:0:0:0:
63,256,470872,1,0,0:0:0:0:
66,230,470947,1,0,0:0:0:0:
69,204,471022,1,0,0:0:0:0:
72,178,471097,1,0,0:0:0:0:
52,147,471172,5,10,0:1:0:0:
80,116,471247,1,0,0:0:0:0:
121,119,471322,1,0,0:0:0:0:
155,142,471397,1,0,0:0:0:0:
179,175,471472,1,0,0:0:0:0:
218,190,471547,1,0,0:0:0:0:
257,174,471622,5,10,0:1:0:0:
217,130,471697,1,8,2:1:0:0:
159,120,471772,1,8,2:1:0:0:
108,148,471847,1,8,2:1:0:0:
85,203,471922,1,8,2:1:0:0:
102,259,471997,1,8,2:1:0:0:
150,293,472072,6,8,P|167:260|167:226,1,60.0000022888184,8|8,0:1|0:0,0:0:0:0:
238,118,472222,2,8,P|242:147|257:174,1,60.0000022888184
384,328,472372,1,4,0:0:0:0:
384,328,472447,1,4,0:0:0:0:
384,328,472522,6,0,B|348:357|348:357|366:217,1,180.000006866455,4|0,0:2|0:0,0:0:0:0:
503,89,472822,1,0,0:0:0:0:
503,89,472897,1,0,0:0:0:0:
503,89,472972,6,0,L|445:96,1,40,4|0,0:3|2:0,0:0:0:0:
371,110,473122,2,0,L|395:141,1,40,4|0,0:0|2:0,0:0:0:0:
455,213,473272,2,0,L|470:176,1,40,4|0,0:0|2:0,0:0:0:0:
449,10,473422,6,0,L|389:17,1,60.0000022888184,12|0,0:2|0:0,0:0:0:0:
63,205,473872,6,0,B|122:181|158:224|158:224|165:222|165:222|208:303|277:286,1,240.000009155274,6|0,3:1|2:0,3:0:0:0:
455,213,474322,2,8,L|447:276,1,60.0000022888184,8|8,2:1|2:1,2:1:0:0:
363,373,474472,1,8,0:0:0:0:
361,358,474547,1,8,0:0:0:0:
359,343,474622,1,4,0:0:0:0:
357,328,474697,1,4,0:0:0:0:
356,314,474772,1,10,0:1:0:0:
394,33,475222,6,0,P|349:113|259:105,1,180.000006866455,4|0,0:2|0:0,0:0:0:0:
146,180,475522,1,0,0:0:0:0:
146,180,475597,1,0,0:0:0:0:
146,180,475672,6,0,L|153:120,1,40,4|0,0:0|2:0,0:0:0:0:
149,39,475822,2,0,L|196:75,1,40,4|0,0:0|2:0,0:0:0:0:
270,112,475972,2,0,L|214:135,1,40,4|0,0:0|2:0,0:0:0:0:
29,260,476122,6,0,L|21:200,1,60.0000022888184,12|0,0:2|0:0,0:0:0:0:
52,243,476572,6,0,P|111:297|166:293,1,120.000004577637,6|8,0:1|2:1,0:0:0:0:
239,330,476797,1,8,2:1:0:0:
241,316,476872,1,8,2:1:0:0:
243,302,476947,1,8,2:1:0:0:
245,287,477022,2,0,L|253:224,1,60.0000022888184,8|0,0:0|0:0,0:0:0:0:
156,128,477172,2,0,L|163:187,3,60.0000022888184
336,29,477472,5,8,0:0:0:0:
376,45,477547,1,8,0:0:0:0:
401,79,477622,1,8,0:0:0:0:
403,115,477697,1,8,0:0:0:0:
385,147,477772,1,8,0:0:0:0:
357,159,477847,1,8,0:0:0:0:
328,148,477922,2,4,P|345:112|376:96,5,60.0000022888184
476,194,478372,5,6,0:1:0:0:
472,220,478447,1,0,0:0:0:0:
469,246,478522,1,0,0:0:0:0:
466,273,478597,1,0,0:0:0:0:
463,299,478672,1,0,0:0:0:0:
459,326,478747,1,0,0:0:0:0:
456,352,478822,2,0,P|428:371|385:368,5,60.0000022888184,10|0|0|0|0|0,0:1|0:0|0:0|0:0|0:0|0:0,0:0:0:0:
306,225,479272,2,0,P|335:228|359:246,5,60.0000022888184,10|0|0|0|0|0,0:1|0:0|0:0|0:0|0:0|0:0,0:0:0:0:
267,334,479722,1,10,0:1:0:0:
242,354,479797,1,0,0:0:0:0:
206,354,479872,1,0,0:0:0:0:
177,331,479947,1,0,0:0:0:0:
170,295,480022,1,0,0:0:0:0:
185,262,480097,1,0,0:0:0:0:
218,248,480172,6,0,B|314:260|314:260|333:279|333:279|460:293,1,240.000009155274,10|0,0:1|0:0,0:0:0:0:
369,96,480622,1,10,0:1:0:0:
242,354,480772,1,0,0:0:0:0:
130,130,480922,1,0,0:0:0:0:
119,275,481072,5,14,0:1:0:0:
145,271,481147,1,0,0:0:0:0:
171,268,481222,1,0,0:0:0:0:
198,265,481297,1,0,0:0:0:0:
224,262,481372,1,0,0:0:0:0:
251,258,481447,1,0,0:0:0:0:
277,255,481522,2,0,L|189:244,5,60.0000022888184,10|0|0|0|0|0,0:1|0:0|0:0|0:0|0:0|0:0,0:0:0:0:
130,130,481972,2,0,L|189:122,5,60.0000022888184,10|0|0|0|0|0,0:1|0:0|0:0|0:0|0:0|0:0,0:0:0:0:
385,101,482422,1,10,0:1:0:0:
362,128,482497,1,0,0:3:0:0:
327,135,482572,1,0,0:3:0:0:
294,117,482647,1,0,0:3:0:0:
281,82,482722,1,0,0:3:0:0:
290,48,482797,1,0,0:3:0:0:
320,27,482872,6,8,P|334:55|330:86,1,60.0000022888184,8|8,2:1|2:1,2:1:0:0:
269,219,483022,2,8,P|255:192|258:163,3,60.0000022888184,8|8|8|8,2:1|2:1|2:1|2:1,2:1:0:0:
386,230,483322,5,8,0:0:0:0:
405,268,483397,1,8,0:0:0:0:
392,301,483472,1,8,0:0:0:0:
368,319,483547,1,4,0:0:0:0:
343,319,483622,1,4,0:0:0:0:
330,307,483697,1,4,0:0:0:0:
325,291,483772,6,0,B|355:252|355:252|257:270|257:270|253:278|253:278|161:298,1,240,4|0,0:2|0:0,0:0:0:0:
120,366,484072,1,0,0:0:0:0:
120,366,484147,1,0,0:0:0:0:
119,365,484222,6,0,P|146:313|126:254,2,120.000004577637,4|4|4,0:0|0:0|0:0,0:0:0:0:
47,139,484672,2,0,L|119:148,1,60.0000022888184,12|0,0:2|0:0,0:0:0:0:
27,237,485122,6,0,B|103:182|231:273|134:308|265:405|345:348,1,360.000013732911,6|2,0:1|0:1,0:0:0:0:
479,291,485722,1,0,0:0:0:0:
304,186,485872,1,0,0:0:0:0:
452,65,486022,2,0,B|468:117|468:117|437:185,1,120.000004577637,8|0,0:1|0:0,0:0:0:0:
329,356,486322,1,0,0:0:0:0:
181,322,486472,6,0,B|145:265|186:182|203:228|239:152|205:86,1,240.000009155274,2|0,0:1|0:0,0:0:0:0:
140,19,486922,1,2,0:1:0:0:
71,127,487072,1,0,0:0:0:0:
23,39,487222,1,0,0:0:0:0:
201,156,487372,2,0,L|209:96,1,60.0000022888184,10|0,0:1|2:0,0:0:0:0:
71,235,487522,1,0,0:0:0:0:
71,235,487672,1,0,0:0:0:0:
180,323,487822,6,0,B|229:303|229:303|298:312|356:374|356:374|412:355,1,240.000009155274,2|0,0:1|0:0,0:0:0:0:
482,304,488272,1,2,0:1:0:0:
361,250,488422,1,0,0:0:0:0:
475,193,488572,1,0,0:0:0:0:
312,27,488722,6,0,P|288:80|305:137,2,120.000004577637,10|0|0,0:1|0:0|0:0,0:0:0:0:
482,304,489172,2,0,P|498:247|475:193,2,120.000004577637,10|0|0,0:1|0:0|0:0,0:0:0:0:
383,361,489622,5,14,0:1:0:0:
356,364,489697,1,0,0:0:0:0:
330,367,489772,1,0,0:0:0:0:
303,371,489847,1,0,0:0:0:0:
277,374,489922,1,0,0:0:0:0:
250,377,489997,1,0,0:0:0:0:
224,380,490072,2,0,P|214:350|216:319,5,60.0000022888184,10|0|0|0|0|0,0:1|0:0|0:0|0:0|0:0|0:0,0:0:0:0:
294,210,490522,2,0,P|304:240|302:271,5,60.0000022888184,10|0|0|0|0|0,0:1|0:0|0:0|0:0|0:0|0:0,0:0:0:0:
126,303,490972,1,10,0:1:0:0:
101,323,491047,1,0,0:0:0:0:
65,323,491122,1,0,0:0:0:0:
36,300,491197,1,0,0:0:0:0:
29,264,491272,1,0,0:0:0:0:
44,231,491347,1,0,0:0:0:0:
77,217,491422,6,0,B|175:229|175:229|194:253|194:253|323:271,1,240.000009155274,10|0,0:1|0:0,0:0:0:0:
453,160,491872,2,0,B|463:203|495:222|495:222|455:384,1,240.000009155274,10|0,0:1|0:0,0:0:0:0:
303,268,492322,5,10,0:1:0:0:
300,241,492397,1,0,0:0:0:0:
297,215,492472,1,0,0:0:0:0:
293,188,492547,1,0,0:0:0:0:
290,162,492622,1,0,0:0:0:0:
287,135,492697,1,0,0:0:0:0:
284,109,492772,2,0,P|302:88|342:83,5,60.0000022888184,10|0|0|0|0|0,0:1|0:0|0:0|0:0|0:0|0:0,0:0:0:0:
194,210,493222,2,0,P|164:210|139:195,5,60.0000022888184,10|0|0|0|0|0,0:1|0:0|0:0|0:0|0:0|0:0,0:0:0:0:
11,57,493672,1,10,0:1:0:0:
34,16,493747,1,0,0:3:0:0:
79,9,493822,1,0,0:3:0:0:
109,28,493897,1,0,0:3:0:0:
122,63,493972,1,0,0:3:0:0:
113,97,494047,1,0,0:3:0:0:
83,118,494122,6,8,L|76:56,1,60.0000022888184,8|8,2:1|2:1,2:1:0:0:
201,151,494272,2,8,L|194:211,3,60.0000022888184,8|8|8|8,2:1|2:1|2:1|2:1,2:1:0:0:
110,318,494572,5,8,0:0:0:0:
95,344,494647,1,8,0:0:0:0:
72,353,494722,1,8,0:0:0:0:
48,346,494797,1,4,0:0:0:0:
36,332,494872,1,4,0:0:0:0:
33,314,494947,1,4,0:0:0:0:
37,296,495022,6,0,B|136:283|136:283|169:309|169:309|292:294,1,240.000009155274,4|2,0:2|0:2,0:0:0:0:
475,250,495472,1,2,0:2:0:0:
306,190,495622,1,2,0:2:0:0:
381,362,495772,1,2,0:2:0:0:
475,250,495922,2,0,L|403:240,1,60.0000022888184,10|0,0:2|2:2,0:2:0:0:
266,298,496072,1,2,0:2:0:0:
266,298,496222,1,2,0:2:0:0:
381,362,496372,6,0,B|417:306|376:223|359:269|323:193|357:127,1,240.000009155274,2|2,0:2|0:2,0:2:0:0:
454,40,496822,1,2,0:2:0:0:
483,177,496972,1,2,0:2:0:0:
352,136,497122,1,2,0:2:0:0:
454,40,497272,2,0,B|481:83|481:83|458:172,2,120.000004577637,10|2|2,0:2|0:2|0:2,0:2:0:0:
384,268,497722,6,0,B|330:229|275:267|275:267|229:345|171:327,1,240.000009155274,2|2,0:2|0:2,0:2:0:0:
66,378,498172,1,2,0:2:0:0:
112,246,498322,1,2,0:2:0:0:
178,329,498472,1,2,0:2:0:0:
2,287,498622,2,0,L|10:227,1,60.0000022888184,10|0,0:2|2:2,0:2:0:0:
27,139,498772,1,0,0:0:0:0:
27,139,498922,1,0,0:0:0:0:
130,49,499072,6,0,P|181:19|239:30,1,120.000004577637,14|0,0:1|0:2,0:0:0:0:
352,136,499372,1,0,0:2:0:0:
178,329,499522,2,0,P|229:358|287:347,1,120.000004577637,14|0,0:1|0:2,0:0:0:0:
198,127,499822,1,0,0:2:0:0:
397,331,499972,5,14,0:1:0:0:
249,51,500122,1,0,0:2:0:0:
133,242,500272,1,0,0:1:0:0:
439,251,500422,6,0,B|385:215|306:280|306:280|274:293|170:251|230:114|407:175|308:280|306:280|306:280|255:364|176:328,1,559.999982910157,4|0,0:2|0:0,0:0:0:0:
133,242,501322,1,10,0:1:0:0:
39,309,501472,2,0,L|27:213,1,95.9999970703126,0|0,3:0|2:0,2:0:0:0:
205,128,501772,6,0,P|118:132|59:67,2,180.000006866455,2|2|10,0:1|2:1|0:1,0:0:0:0:
259,35,502822,1,0,0:0:0:0:
357,267,502972,1,0,0:0:0:0:
332,132,503122,5,2,0:1:0:0:
192,245,503272,1,0,0:0:0:0:
419,338,503422,1,0,0:0:0:0:
357,267,503572,2,0,B|303:247|252:283|284:297|242:340|206:326,1,150.000005722046,6|0,0:1|0:0,0:0:0:0:
192,245,504022,6,0,L|196:213,5,20,2|0|0|0|0|0,2:1|2:1|2:1|2:1|2:1|2:1,2:1:0:0:
134,328,504472,2,0,L|138:357,5,30.0000011444092,10|0|0|0|0|0,3:1|2:1|2:1|2:1|2:1|2:1,2:1:0:0:
37,271,504922,2,0,L|43:228,5,40,2|0|0|0|0|0,2:1|2:1|2:1|2:1|2:1|2:1,2:1:0:0:
76,130,505372,5,0,0:1:0:0:
90,127,505447,1,0,2:0:0:0:
103,125,505522,1,0,2:0:0:0:
116,123,505597,1,0,2:0:0:0:
129,121,505672,1,0,2:0:0:0:
143,118,505747,1,0,2:0:0:0:
176,77,505822,5,2,0:1:0:0:
199,80,505897,1,0,2:0:0:0:
220,84,505972,1,0,2:0:0:0:
239,87,506047,1,0,2:0:0:0:
259,90,506122,1,0,2:0:0:0:
282,95,506197,1,0,2:0:0:0:
324,36,506272,6,0,B|338:151|338:151|342:154|342:154|358:285,1,240.000009155274,4|0,0:2|0:0,0:0:0:0:
357,272,506647,1,0,0:0:0:0:
357,272,506722,1,4,0:0:0:0:
229,322,506872,1,4,0:0:0:0:
327,382,507022,1,4,0:0:0:0:
214,310,507172,2,0,L|224:234,1,60.0000022888184,12|0,0:2|0:0,0:0:0:0:
473,74,507622,6,0,B|415:46|376:87|376:87|370:84|370:84|321:162|253:140,1,240.000009155274,6|0,3:1|3:0,3:0:0:0:
194,43,508072,1,2,0:1:0:0:
126,180,508222,1,0,0:0:0:0:
64,78,508372,1,0,0:0:0:0:
15,288,508522,2,0,B|47:315|47:315|145:282,1,120.000004577637,10|0,0:1|0:0,0:0:0:0:
222,250,508822,1,0,0:0:0:0:
346,373,508972,6,0,P|369:312|351:250,2,120.000004577637,2|0|0,0:1|0:0|0:0,0:0:0:0:
234,137,509422,2,0,P|211:198|229:260,2,120.000004577637,2|0|0,0:1|0:0|0:0,0:0:0:0:
472,39,509872,1,10,0:1:0:0:
410,171,510022,1,0,0:0:0:0:
359,78,510172,1,0,0:0:0:0:
418,192,510322,6,0,B|327:180|327:180|287:216|287:216|179:202,1,240.000009155274,2|0,0:1|0:0,0:0:0:0:
23,174,510772,1,2,0:1:0:0:
132,97,510922,1,0,0:0:0:0:
52,50,511072,1,0,0:0:0:0:
238,0,511222,6,0,P|262:51|230:128,1,120.000004577637,10|0,0:1|0:0,0:0:0:0:
193,204,511522,1,0,0:0:0:0:
31,63,511672,2,0,P|7:114|39:191,2,120.000004577637,10|0|0,0:1|0:0|0:0,0:0:0:0:
193,204,512122,5,14,0:1:0:0:
189,230,512197,1,0,0:0:0:0:
186,256,512272,1,0,0:0:0:0:
183,283,512347,1,0,0:0:0:0:
180,309,512422,1,0,0:0:0:0:
176,336,512497,1,0,0:0:0:0:
173,362,512572,2,0,P|144:383|111:382,5,60.0000022888184,10|0|0|0|0|0,0:1|0:0|0:0|0:0|0:0|0:0,0:0:0:0:
21,265,513022,2,0,P|50:244|83:245,5,60.0000022888184,10|0|0|0|0|0,0:1|0:0|0:0|0:0|0:0|0:0,0:0:0:0:
279,155,513472,1,10,0:1:0:0:
299,180,513547,1,0,0:0:0:0:
299,216,513622,1,0,0:0:0:0:
276,245,513697,1,0,0:0:0:0:
240,252,513772,1,0,0:0:0:0:
207,237,513847,1,0,0:0:0:0:
193,204,513922,6,0,B|209:80,1,120.000004577637,10|0,0:1|0:0,0:0:0:0:
389,241,514222,1,0,0:0:0:0:
458,0,514372,2,0,B|473:120,1,120.000004577637,10|0,0:1|0:0,0:0:0:0:
378,257,514672,1,0,0:0:0:0:
208,84,514822,5,14,0:1:0:0:
234,88,514897,1,0,0:0:0:0:
260,91,514972,1,0,0:0:0:0:
287,94,515047,1,0,0:0:0:0:
313,97,515122,1,0,0:0:0:0:
340,101,515197,1,0,0:0:0:0:
366,104,515272,2,0,P|377:132|374:166,5,60.0000022888184,10|0|0|0|0|0,0:1|0:0|0:0|0:0|0:0|0:0,0:0:0:0:
271,265,515722,2,0,P|260:237|263:203,5,60.0000022888184,10|0|0|0|0|0,0:1|0:0|0:0|0:0|0:0|0:0,0:0:0:0:
208,84,516172,1,10,0:1:0:0:
188,53,516247,1,0,0:3:0:0:
150,50,516322,1,0,0:3:0:0:
117,68,516397,1,0,0:3:0:0:
104,103,516472,1,0,0:3:0:0:
113,137,516547,1,0,0:3:0:0:
143,158,516622,6,8,P|159:131|155:96,1,60.0000022888184,8|8,2:1|2:1,2:1:0:0:
0,130,516772,1,8,2:1:0:0:
8,173,516847,1,8,2:1:0:0:
15,218,516922,1,8,2:1:0:0:
23,261,516997,1,8,2:1:0:0:
51,276,517072,5,8,0:0:0:0:
50,293,517147,1,8,0:0:0:0:
47,311,517222,1,8,0:0:0:0:
45,328,517297,1,4,0:0:0:0:
44,345,517372,1,4,0:0:0:0:
41,363,517447,1,4,0:0:0:0:
40,384,517522,6,0,B|2:372|-15:339|-15:339|-22:325|-23:311|-23:311|-29:310|-29:310|-24:308|-24:308|-27:269|-2:241|-2:241|8:230|19:224|19:224|17:218|17:218|22:222|22:222|57:204|92:216|92:216|106:221|116:229|116:229|121:225|121:225|119:231|119:231|138:246|146:268|146:268|147:271,1,388.357430160728,6|2,0:1|0:2,0:0:0:0:
180,366,518122,1,2,0:2:0:0:
238,285,518272,1,2,0:2:0:0:
329,370,518422,2,0,B|355:321|355:321|323:234,2,120.000004577637,10|2|2,0:2|0:2|0:2,0:2:0:0:
8,85,518872,6,0,B|64:50|112:95|112:95|167:174|223:153,1,240.000009155274,2|2,0:2|0:2,0:2:0:0:
291,54,519322,1,2,0:2:0:0:
351,221,519472,1,2,0:2:0:0:
423,110,519622,1,2,0:2:0:0:
512,301,519772,2,0,P|459:348|400:332,1,120.000004577637,10|2,0:2|0:2,0:2:0:0:
358,241,520072,1,2,0:2:0:0:
208,384,520222,6,0,B|175:320|175:320|215:147,1,240.000009155274,2|2,0:2|0:2,0:2:0:0:
392,12,520672,2,0,L|407:131,2,120.000004577637,2|2|2,0:2|0:2|0:2,0:2:0:0:
358,241,521122,2,0,B|298:201|234:259|234:259|225:253|225:253|168:342|105:316,1,272.000005187988,10|2,0:2|0:2,0:2:0:0:
23,84,521572,6,0,B|65:52|65:52|167:80,1,136.000002593994,6|2,0:1|0:2,0:0:0:0:
212,156,521872,1,2,0:2:0:0:
128,322,522022,2,0,B|170:354|170:354|272:326,1,136.000002593994,4|2,0:1|0:2,0:2:0:0:
358,241,522322,1,2,0:2:0:0:
212,156,522472,5,14,0:1:0:0:
341,381,522622,1,0,0:2:0:0:
433,91,522772,1,8,0:1:0:0:
473,233,522922,6,0,B|419:269|340:204|340:204|308:191|204:233|264:370|441:309|342:204|340:204|340:204|289:120|210:156,1,559.999982910157,4|0,0:2|0:0,0:0:0:0:
119,223,523822,1,10,0:1:0:0:
6,136,523972,2,0,L|20:255,1,120,0|0,0:0|2:0,0:0:0:0:
13,278,524272,6,0,B|88:207|247:273|135:334|284:430|381:356,1,400,2|0,0:1|2:0,0:0:0:0:
512,308,525172,5,10,0:1:0:0:
309,247,525322,1,0,0:0:0:0:
477,169,525472,1,0,0:0:0:0:
360,368,525622,5,2,0:1:0:0:
262,157,525772,1,0,0:0:0:0:
168,335,525922,1,0,0:0:0:0:
83,237,526072,2,0,L|193:224,1,100,2|0,0:1|0:0,0:0:0:0:
262,157,526522,6,0,L|265:176,5,20,0|0|0|0|0|0,2:0|2:0|2:0|2:0|2:0|2:0,2:0:0:0:
168,335,526972,2,0,L|172:305,5,30.0000011444092,8|0|0|0|0|0,2:1|2:0|2:0|2:0|2:0|2:0,2:0:0:0:
77,197,527422,2,0,L|82:236,5,40,2|0|0|0|0|0,2:1|2:0|2:0|2:0|2:0|2:0,2:0:0:0:
36,100,527872,5,4,0:2:0:0:
79,67,527947,1,0,0:0:0:0:
131,72,528022,1,0,0:0:0:0:
174,95,528097,1,0,0:0:0:0:
195,138,528172,1,0,0:0:0:0:
232,169,528247,1,0,0:0:0:0:
276,168,528322,5,4,0:1:0:0:
260,140,528397,1,8,0:0:0:0:
230,130,528472,1,8,0:0:0:0:
195,138,528547,1,8,0:0:0:0:
183,167,528622,1,8,0:0:0:0:
187,198,528697,1,8,0:0:0:0:
210,220,528772,6,0,P|225:190|222:165,1,51.999997619629,4|4,0:2|0:0,0:0:0:0:
174,95,528922,2,0,P|160:72|159:47,1,51.999997619629,4|4,0:0|0:0,0:0:0:0:
248,0,529072,1,4,0:0:0:0:
248,0,529147,1,4,0:0:0:0:
248,0,529222,1,10,0:1:0:0:
224,252,529672,6,0,B|276:221|317:268|317:268|271:373|100:297|100:297|51:285|-4:351|49:420|102:410|148:331|100:297|100:297|-62:219|37:20|37:20|118:-14|203:19|262:175|138:198|138:198|73:73|220:34|319:87|277:114|374:194|483:128|485:52|469:-60|323:-50|312:13|311:43|265:123|407:85|438:251|438:251|515:210|476:148,1,2160.00008239746,6|0,0:1|2:0,2:0:0:0:
