osu file format v14

[General]
AudioFilename: audio.mp3
AudioLeadIn: 0
PreviewTime: 244259
Countdown: 0
SampleSet: None
StackLeniency: 0.7
Mode: 0
LetterboxInBreaks: 0
WidescreenStoryboard: 0

[Editor]
Bookmarks: 18263,36264,46626,55353,79354,96534,125172,152171,172626,193351,210806,227169,244624,244714,244805,244987,245078,245169,245350,245441,245623,245714,245896,245987,246169,246259,246441,246532,246623,246805,246896,247078,247169,247350,247532,247623,247805,247896,247987,248169,248259,248441,248623,248714,248896,248987,249169,249350,249441,249532,249714,249805,249987,250169,250259,250441,250532,250714,250805,250987,251169,251259,251350,251441,251532,251623,251714,251805,251896,252078,252259,252350,252532,252623,252805,252987,253169,253259,253532,253714,253805,253987,254169,254259,254441,254532,254623,254714,254805,254896,254987,255078,255259,255350,255441,255532,255623,255714,255805,255896,256078,256169,256259,256350,256441,256532,256623,256714,256805,256987,257078,257259,257441,257532,257623,257714,276260,293714,312260,320987,338987,356714,374168,382896
DistanceSpacing: 0.4
BeatDivisor: 3
GridSize: 32
TimelineZoom: 1.749997

[Metadata]
Title:In Putris Stagnum
TitleUnicode:In Putris Stagnum
Artist:Xanthochroid
ArtistUnicode:Xanthochroid
Creator:Mun
Version:Neverending
Source:
Tags:ItsWinter blessed he with boils symphonic epic black metal marathon dark melodic english deathstreams
BeatmapID:2026764
BeatmapSetID:968625

[Difficulty]
HPDrainRate:6
CircleSize:4.2
OverallDifficulty:9.5
ApproachRate:9.9
SliderMultiplier:2
SliderTickRate:1

[Events]
//Background and Video events
0,0,"putris.jpg",0,0
//Break Periods
2,244823,257249
//Storyboard Layer 0 (Background)
//Storyboard Layer 1 (Fail)
//Storyboard Layer 2 (Pass)
//Storyboard Layer 3 (Foreground)
//Storyboard Sound Samples

[TimingPoints]
810,272.727272727273,4,3,10,70,1,0
1356,-100,6,3,1,70,0,0
2992,-100,4,3,1,65,0,0
9264,-100,4,3,8,65,0,0
9537,-100,4,3,10,65,0,0
10082,-100,4,3,1,65,0,0
16354,-100,4,3,8,65,0,0
16627,-100,4,3,9,65,0,0
16900,-100,4,3,1,65,0,0
17172,-100,4,3,8,65,0,0
17445,-100,4,3,1,65,0,0
17717,-100,4,3,8,65,0,0
17991,-100,4,3,10,65,0,0
18059,-100,4,3,9,65,0,0
18263,-200,4,3,10,65,0,0
18741,-200,4,3,1,5,0,0
18809,-100,6,3,1,65,0,0
26991,-100,4,3,10,65,0,0
27536,-100,4,3,1,65,0,0
34082,-100,4,3,8,65,0,0
34354,-100,4,3,9,65,0,0
34627,-100,4,3,1,65,0,0
34900,-100,4,3,8,65,0,0
35172,-100,4,3,9,65,0,0
35445,-100,4,3,10,65,0,0
35718,-250,4,3,1,65,0,0
36195,-250,4,3,1,5,0,0
36263,545.454545454546,4,3,1,65,1,0
36263,-250,4,3,1,65,0,0
36808,530.973451327434,4,2,0,25,1,0
36808,-250.000000000001,4,2,0,25,0,0
37338,517.241379310345,4,2,0,25,1,0
37338,-250.000000000001,4,2,0,25,0,0
37855,550.45871559633,4,2,0,25,1,0
37855,-250.000000000001,4,2,0,25,0,0
38405,530.973451327434,4,2,0,25,1,0
38405,-250.000000000001,4,2,0,25,0,0
39466,571.428571428571,4,2,0,25,1,0
40037,545.454545454546,4,2,0,25,1,0
40037,-250.000000000001,4,2,0,25,0,0
40582,521.739130434783,4,2,0,25,1,0
40582,-250.000000000001,4,2,0,25,0,0
41103,545.454545454546,4,2,0,25,1,0
41103,-250.000000000001,4,2,0,25,0,0
42193,535.714285714286,4,2,0,25,1,0
42193,-250.000000000001,4,2,0,25,0,0
42728,638.297872340426,4,2,0,25,1,0
42728,-250.000000000001,4,2,0,25,0,0
43366,526.315789473684,4,2,0,25,1,0
43366,-250.000000000001,4,2,0,25,0,0
43892,540.540540540541,4,2,0,25,1,0
43892,-250.000000000001,4,2,0,25,0,0
44432,566.037735849057,4,2,0,25,1,0
44432,-250.000000000001,4,2,0,25,0,0
44998,545.454545454546,4,2,0,25,1,0
46626,363.636363636364,6,2,0,100,1,0
46626,-250,6,2,1,40,0,0
52080,-250,6,3,16,50,0,0
52444,-250,6,2,1,50,0,0
53171,-250,6,3,15,50,0,0
53535,-250,6,2,1,50,0,0
54262,-250,6,3,15,50,0,0
54376,-250,6,3,16,50,0,0
54626,-250,6,3,15,50,0,0
54739,-250,6,3,16,50,0,0
56444,-250,6,3,15,50,0,0
56807,-250,6,3,16,50,0,0
57535,-250,6,3,15,50,0,0
57898,-250,6,3,16,50,0,0
58626,-250,6,3,15,50,0,0
58989,363.636363636364,3,3,16,50,1,0
58989,-250,6,3,16,50,0,0
60079,-250,6,3,15,50,0,0
60442,-250,6,3,16,50,0,0
61170,363.636363636364,4,3,16,50,1,0
61170,-250,4,3,16,50,0,0
61897,-250,6,3,15,50,0,0
62260,-250,6,3,16,50,0,0
62625,363.636363636364,3,3,16,50,1,0
62625,-142.857142857143,3,3,16,50,0,0
63352,-142.857142857143,3,3,17,50,0,0
63715,-142.857142857143,3,3,16,50,0,0
66625,-142.857142857143,3,3,15,50,0,0
67352,-142.857142857143,3,3,16,50,0,0
68079,-142.857142857143,3,3,15,50,0,0
68443,-142.857142857143,3,3,16,50,0,0
69170,-142.857142857143,3,3,15,50,0,0
69897,-142.857142857143,3,3,16,50,0,0
70261,337.078651685393,3,3,15,50,1,0
70261,-250.000000000001,3,3,15,50,0,0
70373,-250.000000000001,3,3,16,50,0,0
70598,-250.000000000001,3,3,15,50,0,0
70710,-250.000000000001,3,3,16,50,0,0
71314,342.857142857143,3,3,16,50,1,0
71314,-142.857142857143,3,3,16,50,0,0
72342,-142.857142857143,3,3,16,5,0,0
72442,363.636363636364,3,3,16,50,1,0
72443,-142.857142857143,3,3,16,50,0,0
73534,363.636363636364,4,3,15,50,1,0
73534,-125,4,3,15,50,0,0
73897,-125,4,3,16,50,0,0
74988,-100,4,3,15,50,0,0
75352,-100,4,3,16,50,0,0
77170,-100,4,3,15,50,0,0
77534,-100,4,3,16,50,0,0
78261,-100,4,3,15,50,0,0
78443,-100,4,3,16,50,0,0
78624,-100,4,3,17,50,0,0
79354,272.727272727273,5,3,1,67,1,0
79354,-125,5,3,1,67,0,0
83444,272.727272727273,6,3,1,66,1,0
84534,-100,6,3,8,66,0,0
84807,-100,6,3,9,66,0,0
85081,272.727272727273,5,3,1,66,1,0
85081,-125,5,3,1,66,0,0
85490,-125,5,3,10,66,0,0
85626,-125,5,3,1,66,0,0
86853,-125,5,3,10,66,0,0
86990,-125,5,3,1,66,0,0
87535,-125,5,3,10,66,0,0
87808,-125,5,3,1,66,0,0
89171,272.727272727273,6,3,1,66,1,0
89580,-100,6,3,10,66,0,0
89989,-100,6,3,1,66,0,0
90193,-100,6,2,1,5,0,0
90261,-100,6,3,8,66,0,0
90534,-100,6,3,9,66,0,0
90808,272.727272727273,5,3,1,66,1,0
90808,-125,5,3,1,66,0,0
92512,-100,5,2,1,5,0,0
92580,-125,5,3,1,66,0,0
94898,272.727272727273,6,3,1,66,1,0
95988,-100,6,3,9,66,0,0
96261,-100,6,3,10,66,0,0
96534,272.727272727273,5,3,1,66,1,0
100624,272.727272727273,6,3,1,66,1,0
102261,272.727272727273,5,3,1,66,1,0
106351,272.727272727273,6,3,1,66,1,0
106623,-100,6,3,8,66,0,0
106896,-100,6,3,9,66,0,0
107169,-100,6,3,1,66,0,0
107441,-100,6,3,9,66,0,0
107714,-100,6,3,10,66,0,0
107987,-100,6,3,1,66,0,0
107988,272.727272727273,5,3,1,66,1,0
112078,272.727272727273,6,3,1,66,1,0
113168,-100,6,3,9,66,0,0
113441,-100,6,3,10,66,0,0
113715,272.727272727273,5,3,1,66,1,0
117805,272.727272727273,6,3,1,66,1,0
118214,-100,6,3,10,66,0,0
118350,-100,6,3,1,66,0,0
119168,-100,6,3,8,66,0,0
119442,272.727272727273,5,3,1,66,1,0
123192,-100,5,2,1,5,0,0
123260,-100,5,3,1,66,0,0
123532,272.727272727273,6,3,1,66,1,0
124077,-100,6,3,8,66,0,0
124350,-100,6,3,9,66,0,0
124622,-100,6,3,1,66,0,0
124895,-100,6,3,10,66,0,0
125169,272.727272727273,5,3,1,66,1,0
129262,272.727272727273,6,3,1,66,1,0
130899,272.727272727273,5,3,1,66,1,0
134989,272.727272727273,6,3,1,66,1,0
135398,-100,6,3,8,66,0,0
135534,-100,6,3,10,66,0,0
135807,-100,6,3,1,66,0,0
136079,-100,6,3,8,66,0,0
136352,-100,6,3,10,66,0,0
136626,272.727272727273,3,3,1,68,1,0
142626,-100,3,3,8,68,0,0
142898,-100,3,3,9,68,0,0
143171,-100,3,3,1,68,0,1
151626,-100,3,3,8,68,0,1
151898,-100,3,3,9,68,0,1
152171,-100,3,3,1,68,0,1
154626,-100,3,3,1,68,0,0
160626,-100,3,3,8,68,0,0
160898,-100,3,3,1,68,0,0
161171,-100,3,3,1,68,0,1
168807,-100,3,3,8,68,0,1
169080,-100,3,3,9,68,0,1
169353,-100,3,3,1,68,0,1
169626,-100,3,3,9,68,0,1
169898,-100,3,3,10,68,0,1
170171,-100,3,3,1,68,0,1
172626,272.727272727273,4,3,10,70,1,0
174807,-100,4,3,10,71,0,0
175353,-100,4,3,1,71,0,0
182716,-100,4,3,8,70,0,0
182989,-100,4,3,1,70,0,0
183261,-100,4,3,9,70,0,0
183534,-100,4,3,10,70,0,0
184079,-100,4,3,1,70,0,0
190624,-100,4,3,8,70,0,0
190897,-100,4,3,9,70,0,0
191169,-100,4,3,1,70,0,0
191442,-100,4,3,8,70,0,0
191715,-100,4,3,1,70,0,0
191987,-100,4,3,8,70,0,0
192260,-100,4,3,1,70,0,0
192465,-100,4,3,10,5,0,0
192533,-100,4,3,1,70,0,0
192737,-100,4,3,10,5,0,0
192806,-333.333333333333,4,3,10,76,0,0
193283,-333.333333333333,4,3,10,5,0,0
193351,-100,4,3,1,77,0,0
199078,-100,4,3,8,77,0,0
199351,-100,4,3,1,77,0,0
199624,-100,4,3,9,77,0,0
199897,-100,4,3,1,77,0,0
200169,-100,4,3,10,77,0,0
200237,-100,4,3,1,77,0,0
200306,-100,4,3,10,77,0,0
200374,-100,4,3,1,77,0,0
200442,-100,4,3,10,77,0,0
200510,-100,4,3,1,77,0,0
200578,-100,4,3,10,77,0,0
200646,-100,4,3,1,77,0,0
200715,-100,4,3,9,77,0,0
200783,-100,4,3,1,77,0,0
200851,-100,4,3,9,77,0,0
200919,-100,4,3,1,77,0,0
200987,-100,4,3,1,77,0,0
201192,-100,4,3,1,5,0,0
201260,-100,4,3,1,77,0,0
201465,-100,4,3,1,5,0,0
201533,-333.333333333333,4,3,10,100,0,0
202010,-333.333333333333,4,3,10,5,0,0
202078,-333.333333333333,4,3,1,100,0,0
204260,-100,4,3,1,100,0,0
204806,-100,4,3,8,100,0,0
205078,-100,4,3,10,100,0,0
205147,-100,4,3,1,5,0,0
205215,-100,4,3,10,100,0,0
205283,-100,4,3,1,5,0,0
205351,-100,4,3,1,100,0,0
209715,-100,4,3,1,100,0,0
209919,-100,4,3,1,5,0,0
209987,-100,4,3,1,100,0,0
210192,-100,4,3,1,5,0,0
210260,-333.333333333333,4,3,10,100,0,0
210737,-333.333333333333,4,3,10,5,0,0
210806,-100,4,3,1,65,0,0
216806,-100,4,3,8,64,0,0
217078,-100,4,3,1,64,0,0
217351,-100,4,3,9,64,0,0
217624,-100,4,3,10,64,0,0
217897,-100,4,3,1,64,0,0
218169,-100,4,3,10,64,0,0
218442,-100,4,3,1,64,0,0
218647,-100,4,3,1,5,0,0
218715,-100,4,3,1,69,0,0
218919,-100,4,3,1,5,0,0
218987,-333.333333333333,4,3,1,71,0,0
219465,-333.333333333333,4,3,1,5,0,0
219533,-100,4,3,1,66,0,0
222260,-100,4,3,8,68,0,0
222533,-100,4,3,1,68,0,0
223624,-100,4,3,10,68,0,0
223897,-100,4,3,1,68,0,0
227033,-100,4,2,0,5,0,0
227169,363.636363636364,3,3,17,45,1,0
227169,-200,3,3,17,45,0,0
227532,-200,3,3,15,35,0,0
228078,-200,3,3,17,50,0,0
228259,-200,3,3,16,50,0,0
228532,-200,3,3,16,5,0,0
228623,-200,3,3,17,50,0,0
228805,-200,3,3,15,50,0,0
228987,-200,3,3,16,50,0,0
229169,-200,3,3,17,50,0,0
229714,-200,3,3,16,50,0,0
229896,-200,3,3,15,50,0,0
230078,-200,3,3,16,50,0,0
230259,-200,3,3,15,50,0,0
230441,-200,3,3,16,50,0,0
230623,-200,3,3,15,50,0,0
230805,-200,3,3,16,50,0,0
230987,-200,3,3,15,50,0,0
231169,-200,3,3,17,50,0,0
231350,-200,3,3,16,50,0,0
231532,-200,3,3,17,50,0,0
231714,-200,3,3,15,50,0,0
231896,-200,3,3,16,50,0,0
232623,-200,3,3,15,50,0,0
232987,-200,3,3,16,50,0,0
233350,-200,3,3,15,50,0,0
233714,-200,3,3,17,50,0,0
234078,-200,3,3,16,50,0,0
234259,-200,3,3,15,50,0,0
234441,-200,3,3,16,50,0,0
235350,-200,3,3,15,50,0,0
235896,-200,3,3,17,50,0,0
236987,-200,3,3,16,50,0,0
237259,-200,3,3,16,5,0,0
237350,-200,3,3,16,50,0,0
237532,-200,3,3,15,50,0,0
237714,-200,3,3,16,50,0,0
237896,-200,3,3,17,50,0,0
238441,-200,3,3,16,50,0,0
238623,-200,3,3,15,50,0,0
238805,-200,3,3,16,50,0,0
238987,-200,3,3,15,50,0,0
239169,-200,3,3,16,50,0,0
239714,-200,3,3,15,50,0,0
239896,-200,3,3,16,50,0,0
240078,-200,3,3,15,50,0,0
240259,-200,3,3,17,50,0,0
240623,-200,3,3,16,50,0,0
241350,-200,3,3,15,50,0,0
241714,-200,3,3,16,50,0,0
241896,-200,3,3,15,50,0,0
242259,-200,3,3,16,50,0,0
242441,-200,3,3,17,50,0,0
242987,-200,3,3,16,50,0,0
243532,-200,3,3,15,50,0,0
244259,-200,3,3,16,50,0,0
244441,-200,3,3,15,50,0,0
244623,-200,3,3,17,50,0,0
257714,-200,3,3,16,50,0,0
258441,-200,3,3,15,50,0,0
258623,-200,3,3,16,50,0,0
258805,-200,3,3,17,50,0,0
259350,-200,3,3,16,50,0,0
259532,-200,3,3,15,50,0,0
259714,-200,3,3,16,50,0,0
259896,-200,3,3,15,50,0,0
260805,-200,3,3,16,50,0,0
261532,-200,3,3,15,50,0,0
261714,-200,3,3,16,50,0,0
262078,-200,3,3,17,50,0,0
262259,-200,3,3,16,50,0,0
262623,-200,3,3,15,50,0,0
262805,-200,3,3,16,50,0,0
263169,-200,3,3,16,50,0,0
263714,-200,3,3,16,50,0,0
264259,-200,3,3,15,50,0,0
264623,-200,3,3,16,50,0,0
264805,-200,3,3,15,50,0,0
264987,-200,3,3,17,50,0,0
265169,-200,3,3,16,50,0,0
265350,-200,3,3,15,50,0,0
265896,-200,3,3,16,50,0,0
266441,-200,3,3,15,50,0,0
266623,-200,3,3,16,50,0,0
266805,-200,3,3,17,50,0,0
266987,-200,3,3,15,50,0,0
267169,-200,3,3,16,50,0,0
267351,-200,3,3,17,50,0,0
267896,-200,3,3,16,50,0,0
268078,-200,3,3,15,50,0,0
268259,-200,3,3,16,50,0,0
268623,-200,3,3,15,50,0,0
268987,-200,3,3,16,50,0,0
269714,-200,3,3,17,50,0,0
270078,-200,3,3,16,50,0,0
270259,-200,3,3,15,50,0,0
270441,-200,3,3,16,50,0,0
270623,-200,3,3,15,50,0,0
270805,-200,3,3,17,50,0,0
271169,-200,3,3,16,50,0,0
271350,-200,3,3,15,50,0,0
271532,-200,3,3,17,50,0,0
271714,-200,3,3,16,50,0,0
271896,-200,3,3,17,50,0,0
272259,-200,3,3,16,50,0,0
272987,-200,3,3,15,50,0,0
273350,-200,3,3,16,50,0,0
274078,-200,3,3,17,50,0,0
274441,-200,3,3,16,50,0,0
274623,-200,3,3,15,50,0,0
274805,-200,3,3,16,50,0,0
274987,-200,3,3,15,50,0,0
275532,-200,3,3,17,50,0,0
275714,-200,3,3,16,50,0,0
275896,-200,3,3,17,50,0,0
276078,-200,3,3,16,50,0,0
276259,-200,3,3,17,50,0,0
276623,-200,3,3,16,50,0,0
276805,-200,3,3,15,50,0,0
276987,-200,3,3,16,50,0,0
277350,-200,3,3,15,50,0,0
277805,-200,3,3,15,5,0,0
277896,-200,3,3,15,50,0,0
278078,-200,3,3,16,50,0,0
278441,-200,3,3,17,50,0,0
278805,-200,3,3,16,50,0,0
278987,-200,3,3,15,50,0,0
279169,-200,3,3,16,50,0,0
279532,-200,3,3,15,50,0,0
279896,-200,3,3,16,50,0,0
280078,-200,3,3,15,50,0,0
280623,-200,3,3,17,50,0,0
280805,-200,3,3,16,50,0,0
281350,-200,3,3,15,50,0,0
281532,-200,3,3,16,50,0,0
281714,-200,3,3,15,50,0,0
282078,-200,3,3,16,50,0,0
282805,-200,3,3,17,50,0,0
283169,-200,3,3,16,50,0,0
283350,-200,3,3,15,50,0,0
283532,-200,3,3,16,50,0,0
283896,-200,3,3,15,50,0,0
284009,-200,3,3,17,50,0,0
284123,-200,3,3,16,50,0,0
284259,-200,3,3,17,50,0,0
284487,-200,3,3,16,50,0,0
284623,-200,3,3,17,50,0,0
284714,-200,3,3,16,50,0,0
284987,-200,3,3,17,50,0,0
285350,-200,3,3,16,50,0,0
285532,-200,3,3,15,50,0,0
285714,-200,3,3,16,50,0,0
285896,-200,3,3,17,50,0,0
286078,-200,3,3,15,50,0,0
286441,-200,3,3,16,50,0,0
287169,-200,3,3,17,50,0,0
287350,-200,3,3,16,50,0,0
287714,-200,3,3,15,50,0,0
287896,-200,3,3,16,50,0,0
288259,-200,3,3,17,50,0,0
288441,-200,3,3,16,50,0,0
288623,-200,3,3,15,50,0,0
288987,-200,3,3,16,50,0,0
289350,-200,3,3,17,50,0,0
289532,-200,3,3,16,50,0,0
289896,-200,3,3,15,50,0,0
290078,-200,3,3,16,50,0,0
290441,-200,3,3,15,50,0,0
290805,-200,3,3,16,50,0,0
290987,-200,3,3,15,50,0,0
291169,-200,3,3,16,50,0,0
291532,-200,3,3,15,50,0,0
291714,-200,3,3,16,50,0,0
292623,-200,3,3,17,50,0,0
292737,-200,3,3,16,50,0,0
292851,-200,3,3,15,50,0,0
292987,-200,3,3,17,50,0,0
293100,-200,3,3,16,50,0,0
293214,-200,3,3,15,50,0,0
293350,-200,3,3,17,50,0,0
293464,-200,3,3,16,50,0,0
293578,-200,3,3,15,50,0,0
293714,-200,3,3,1,50,0,0
294805,-125,3,3,1,50,0,0
320623,-125,3,3,10,50,0,0
320987,272.727272727273,3,3,1,68,1,0
327532,-100,3,3,1,68,0,1
335987,-100,3,3,8,68,0,1
336259,-100,3,3,9,68,0,1
336532,-100,3,3,1,68,0,1
338987,-100,3,3,1,68,0,0
344305,-100,3,3,10,68,0,0
344441,-100,3,3,1,68,0,0
344987,-100,3,3,9,68,0,0
345259,-100,3,3,10,68,0,0
345532,-100,3,3,1,68,0,1
347987,272.727272727273,4,3,1,100,1,0
347987,-333.333333333333,4,3,1,100,0,0
348464,-333.333333333333,4,3,10,5,0,0
348532,-66.6666666666667,4,3,10,65,0,1
348668,-66.6666666666667,4,3,10,5,0,1
348805,-100,4,3,1,68,0,0
355896,-100,4,3,8,68,0,0
356168,-100,4,3,9,68,0,0
356441,-100,4,3,10,68,0,0
357259,-100,6,3,1,68,0,1
364350,-100,4,3,1,68,0,0
364896,-100,4,3,8,68,0,0
365168,-100,4,3,9,68,0,0
365441,-333.333333333333,4,3,1,68,0,0
365918,-333.333333333333,4,3,1,5,0,0
365987,-66.6666666666667,4,3,1,68,0,0
366191,-66.6666666666667,4,3,1,5,0,0
366259,-100,4,3,1,68,0,0
373623,-100,4,3,8,68,0,0
373896,-100,4,3,9,68,0,0
374168,-100,4,3,10,68,0,0
374714,-100,6,3,1,68,0,1
382009,-100,4,3,1,5,0,1
382077,-100,4,3,1,68,0,1
382350,-100,4,3,8,72,0,1
382623,-100,4,3,9,72,0,1
382896,-100,4,3,10,72,0,0

[Colours]
Combo1 : 128,128,128
Combo2 : 215,57,57
Combo3 : 191,164,164
Combo4 : 174,81,81

[HitObjects]
302,230,810,5,0,0:0:0:0:
302,230,878,1,0,0:0:0:0:
302,230,946,1,0,0:0:0:0:
455,167,1083,1,0,0:0:0:0:
335,371,1219,1,0,0:0:0:0:
365,107,1356,6,0,L|370:52,3,50,4|8|0|8,0:0|0:0|0:0|0:0,0:0:0:0:
282,143,1628,1,2,0:0:0:0:
284,152,1696,1,8,0:0:0:0:
286,161,1765,1,0,0:0:0:0:
288,170,1833,1,8,0:0:0:0:
290,179,1901,5,2,0:0:0:0:
267,198,1969,1,8,0:0:0:0:
237,201,2037,1,0,0:0:0:0:
207,192,2106,1,8,0:0:0:0:
188,168,2174,1,2,0:0:0:0:
166,147,2242,1,8,0:0:0:0:
136,140,2310,1,0,0:0:0:0:
107,147,2378,1,8,0:0:0:0:
84,166,2446,5,6,0:2:0:0:
74,205,2515,1,8,0:0:0:0:
93,239,2583,1,0,0:0:0:0:
130,252,2651,1,8,0:0:0:0:
169,244,2719,1,2,0:0:0:0:
195,214,2787,1,8,0:0:0:0:
199,173,2856,1,0,0:0:0:0:
176,139,2924,1,8,0:0:0:0:
137,127,2992,5,2,0:0:0:0:
173,160,3060,1,8,0:0:0:0:
222,162,3128,1,0,0:0:0:0:
260,130,3196,1,8,0:0:0:0:
309,130,3264,1,2,0:0:0:0:
348,159,3332,1,8,0:0:0:0:
361,206,3400,1,0,0:0:0:0:
343,252,3468,1,8,0:0:0:0:
301,277,3536,5,2,0:0:0:0:
318,234,3605,1,8,0:0:0:0:
355,209,3673,1,0,0:0:0:0:
399,213,3741,1,8,0:0:0:0:
437,236,3809,1,2,0:0:0:0:
459,274,3877,1,8,0:0:0:0:
456,318,3945,1,0,0:0:0:0:
430,355,4014,1,8,0:0:0:0:
386,367,4082,5,2,0:0:0:0:
375,349,4150,1,8,0:0:0:0:
367,331,4218,1,0,0:0:0:0:
361,312,4287,1,8,0:0:0:0:
357,292,4354,1,2,0:0:0:0:
355,273,4422,1,8,0:0:0:0:
354,253,4492,1,0,0:0:0:0:
357,233,4559,1,8,0:0:0:0:
361,213,4627,1,2,0:0:0:0:
369,195,4696,1,8,0:0:0:0:
375,176,4764,1,0,0:0:0:0:
380,157,4832,1,8,0:0:0:0:
383,137,4900,1,2,0:0:0:0:
384,117,4968,1,8,0:0:0:0:
383,97,5036,1,0,0:0:0:0:
380,78,5105,1,8,0:0:0:0:
374,58,5173,6,0,P|341:65|312:59,7,50,2|8|0|8|2|8|0|8,0:0|0:0|0:0|0:0|0:0|0:0|0:0|0:0,0:0:0:0:
309,147,5719,2,0,P|276:136|254:116,7,50,2|8|0|8|2|8|0|8,0:0|0:0|0:0|0:0|0:0|0:0|0:0|0:0,0:0:0:0:
215,51,6264,5,2,0:0:0:0:
223,69,6332,1,8,0:0:0:0:
227,88,6401,1,0,0:0:0:0:
227,107,6469,1,8,0:0:0:0:
222,131,6537,1,2,0:0:0:0:
210,152,6605,1,8,0:0:0:0:
192,169,6673,1,0,0:0:0:0:
162,177,6742,1,8,0:0:0:0:
135,199,6810,5,2,0:0:0:0:
120,236,6878,1,8,0:0:0:0:
129,279,6946,1,0,0:0:0:0:
167,311,7014,1,8,0:0:0:0:
221,307,7082,1,2,0:0:0:0:
254,256,7151,1,8,0:0:0:0:
231,195,7219,1,0,0:0:0:0:
167,180,7287,1,8,0:0:0:0:
119,224,7355,5,2,0:0:0:0:
158,231,7423,1,8,0:0:0:0:
198,228,7492,1,0,0:0:0:0:
235,213,7560,1,8,0:0:0:0:
266,188,7628,1,2,0:0:0:0:
282,151,7696,1,8,0:0:0:0:
286,111,7764,1,0,0:0:0:0:
276,72,7832,1,8,0:0:0:0:
252,39,7901,5,2,0:0:0:0:
236,64,7969,1,8,0:0:0:0:
228,93,8037,1,0,0:0:0:0:
230,123,8105,1,8,0:0:0:0:
240,150,8173,1,2,0:0:0:0:
259,174,8241,1,8,0:0:0:0:
283,191,8310,1,0,0:0:0:0:
312,199,8378,1,8,0:0:0:0:
342,198,8446,5,2,0:0:0:0:
360,191,8514,1,8,0:0:0:0:
379,188,8582,1,0,0:0:0:0:
399,190,8651,1,8,0:0:0:0:
417,197,8719,2,0,P|442:224|459:259,3,50,2|8|0|8,0:0|0:0|0:0|0:0,0:0:0:0:
343,318,8992,5,8,2:0:0:0:
338,268,9060,1,8,2:0:0:0:
333,218,9128,1,8,2:0:0:0:
328,168,9196,1,8,2:0:0:0:
344,152,9264,5,0,0:0:0:0:
351,117,9332,1,0,0:0:0:0:
359,82,9401,1,0,0:0:0:0:
368,48,9469,1,0,0:0:0:0:
382,38,9537,5,0,0:0:0:0:
352,39,9605,1,0,0:0:0:0:
322,39,9673,1,0,0:0:0:0:
501,95,9810,1,0,0:0:0:0:
237,149,9946,1,0,0:0:0:0:
478,384,10082,6,0,B|494:334|494:334|484:272,1,100,6|0,0:0|0:0,0:0:0:0:
384,182,10354,1,2,0:1:0:0:
335,179,10422,1,8,0:0:0:0:
291,202,10491,1,0,0:0:0:0:
264,243,10559,1,8,0:0:0:0:
219,266,10627,1,2,0:1:0:0:
169,260,10695,1,8,0:0:0:0:
133,225,10763,1,0,0:0:0:0:
121,175,10832,1,8,0:0:0:0:
141,129,10900,1,2,0:1:0:0:
182,102,10968,1,8,0:0:0:0:
231,100,11036,1,0,0:0:0:0:
274,126,11104,1,8,0:0:0:0:
298,170,11173,5,2,0:1:0:0:
279,176,11241,1,8,0:0:0:0:
259,180,11310,1,0,0:0:0:0:
239,181,11378,1,8,0:0:0:0:
219,179,11446,1,2,0:1:0:0:
200,175,11514,1,8,0:0:0:0:
181,168,11583,1,0,0:0:0:0:
163,159,11651,1,8,0:0:0:0:
146,148,11720,1,2,0:1:0:0:
127,141,11788,1,8,0:0:0:0:
107,138,11856,1,0,0:0:0:0:
88,136,11924,1,8,0:0:0:0:
68,138,11992,1,2,0:1:0:0:
48,142,12060,1,8,0:0:0:0:
29,149,12129,1,0,0:0:0:0:
13,159,12197,1,8,0:0:0:0:
0,174,12265,5,2,0:1:0:0:
12,182,12333,1,8,0:0:0:0:
25,190,12400,1,0,0:0:0:0:
39,195,12470,1,8,0:0:0:0:
53,198,12537,1,2,0:1:0:0:
68,199,12605,1,8,0:0:0:0:
83,199,12674,1,0,0:0:0:0:
98,196,12742,1,8,0:0:0:0:
112,191,12810,1,2,0:1:0:0:
125,184,12878,1,8,0:0:0:0:
137,175,12946,1,0,0:0:0:0:
148,165,13014,1,8,0:0:0:0:
158,153,13083,1,2,0:1:0:0:
165,140,13151,1,8,0:0:0:0:
171,126,13219,1,0,0:0:0:0:
175,112,13287,1,8,0:0:0:0:
176,97,13356,6,0,L|114:81,3,50,2|8|0|8,0:1|0:0|0:1|0:0,0:0:0:0:
249,182,13627,2,0,L|311:166,3,50,2|8|0|8,0:1|0:0|0:1|0:0,0:0:0:0:
177,261,13900,5,2,0:1:0:0:
147,262,13968,1,8,0:0:0:0:
117,258,14036,1,0,0:0:0:0:
88,249,14104,1,8,0:0:0:0:
62,234,14172,1,2,0:1:0:0:
39,216,14240,1,8,0:0:0:0:
19,193,14309,1,0,0:0:0:0:
8,165,14377,1,8,0:0:0:0:
7,135,14445,5,2,0:1:0:0:
42,115,14513,1,8,0:0:0:0:
82,110,14581,1,0,0:0:0:0:
120,118,14650,1,8,0:0:0:0:
157,134,14718,1,2,0:1:0:0:
197,135,14786,1,8,0:0:0:0:
234,123,14854,1,0,0:0:0:0:
260,93,14922,1,8,0:0:0:0:
271,54,14991,6,0,L|253:-2,3,50,2|8|0|8,0:1|0:0|0:0|0:0,0:0:0:0:
323,152,15264,2,0,L|305:208,3,50,2|8|2|8,0:1|0:0|0:1|0:0,0:0:0:0:
381,83,15537,5,2,0:1:0:0:
429,74,15605,1,8,0:0:0:0:
473,95,15673,1,0,0:0:0:0:
497,138,15741,1,8,0:0:0:0:
492,187,15810,2,0,P|464:196|435:199,1,50,2|8,0:1|0:0,0:0:0:0:
264,265,15946,2,0,P|292:273|321:276,1,50,0|8,0:0|0:0,0:0:0:0:
391,10,16082,1,14,0:0:0:0:
391,10,16355,6,0,L|316:26,3,50
292,102,16627,2,0,L|243:91,3,50,0|0|0|0,0:0|0:0|0:0|0:0,0:0:0:0:
139,15,16900,5,8,2:0:0:0:
148,64,16968,1,8,2:0:0:0:
157,113,17036,1,8,2:0:0:0:
166,161,17104,1,8,2:0:0:0:
175,209,17173,2,0,P|213:191|232:180,3,50
81,154,17445,5,8,2:0:0:0:
72,203,17513,1,8,2:0:0:0:
63,252,17581,1,8,2:0:0:0:
54,300,17649,1,8,2:0:0:0:
45,348,17719,2,0,P|7:330|-12:319,3,50
135,291,17991,5,0,0:0:0:0:
168,282,18060,1,0,0:0:0:0:
202,288,18128,1,0,0:0:0:0:
227,311,18196,1,0,0:0:0:0:
239,342,18263,6,0,L|215:149,1,175,6|0,0:0|0:0,0:0:0:0:
197,136,18809,6,0,L|373:111,1,150,14|0,0:0|0:0,0:0:0:0:
470,26,19082,1,2,0:0:0:0:
427,40,19150,1,8,0:0:0:0:
388,16,19218,1,0,0:0:0:0:
349,1,19286,1,8,0:0:0:0:
305,13,19354,1,2,0:0:0:0:
288,54,19422,1,8,0:0:0:0:
299,97,19491,1,0,0:0:0:0:
337,120,19559,1,8,0:0:0:0:
372,146,19627,1,2,0:0:0:0:
385,188,19695,1,8,0:0:0:0:
375,231,19763,1,0,0:0:0:0:
347,267,19832,1,8,0:0:0:0:
302,274,19900,5,2,0:0:0:0:
261,245,19968,1,8,0:0:0:0:
211,236,20036,1,0,0:0:0:0:
164,254,20104,1,8,0:0:0:0:
139,297,20172,1,2,0:0:0:0:
148,346,20241,1,8,0:0:0:0:
188,374,20309,1,0,0:0:0:0:
235,357,20377,1,8,0:0:0:0:
256,312,20445,5,2,0:0:0:0:
233,262,20513,1,8,0:0:0:0:
185,233,20582,1,0,0:0:0:0:
157,185,20650,1,8,0:0:0:0:
165,130,20718,1,2,0:0:0:0:
205,93,20786,1,8,0:0:0:0:
259,83,20854,1,0,0:0:0:0:
304,113,20922,1,8,0:0:0:0:
317,166,20991,5,2,0:0:0:0:
258,177,21059,1,8,0:0:0:0:
210,140,21127,1,0,0:0:0:0:
218,80,21195,1,8,0:0:0:0:
268,48,21263,1,2,0:0:0:0:
328,42,21332,1,8,0:0:0:0:
378,73,21400,1,0,0:0:0:0:
405,126,21468,1,8,0:0:0:0:
402,185,21536,5,2,0:0:0:0:
361,235,21604,1,8,0:0:0:0:
350,298,21672,1,0,0:0:0:0:
378,357,21741,1,8,0:0:0:0:
441,369,21809,1,2,0:0:0:0:
495,333,21877,1,8,0:0:0:0:
504,268,21945,1,0,0:0:0:0:
467,214,22013,1,8,0:0:0:0:
403,197,22082,1,2,0:0:0:0:
342,221,22150,1,8,0:0:0:0:
301,271,22218,1,0,0:0:0:0:
258,320,22286,1,8,0:0:0:0:
194,335,22354,1,2,0:0:0:0:
132,313,22422,1,8,0:0:0:0:
111,250,22491,1,0,0:0:0:0:
123,186,22559,1,8,0:0:0:0:
173,144,22627,5,2,0:0:0:0:
181,156,22695,1,8,0:0:0:0:
186,169,22763,1,0,0:0:0:0:
188,183,22832,1,8,0:0:0:0:
187,197,22900,1,2,0:0:0:0:
184,211,22968,1,8,0:0:0:0:
179,225,23036,1,0,0:0:0:0:
173,238,23104,1,8,0:0:0:0:
164,249,23173,6,0,L|139:190,3,50,2|8|0|8,0:0|0:0|0:0|0:0,0:0:0:0:
34,327,23445,2,0,L|59:268,3,50,2|8|0|8,0:0|0:0|0:0|0:0,0:0:0:0:
160,354,23718,5,2,0:0:0:0:
169,357,23786,1,8,0:0:0:0:
178,358,23854,1,0,0:0:0:0:
187,358,23922,1,8,0:0:0:0:
196,356,23991,1,2,0:0:0:0:
205,353,24059,1,8,0:0:0:0:
214,348,24127,1,0,0:0:0:0:
222,342,24195,1,8,0:0:0:0:
228,334,24263,5,2,0:0:0:0:
240,326,24332,1,8,0:0:0:0:
254,320,24400,1,0,0:0:0:0:
268,316,24468,1,8,0:0:0:0:
282,316,24536,1,2,0:0:0:0:
296,316,24604,1,8,0:0:0:0:
310,319,24672,1,0,0:0:0:0:
323,325,24741,1,8,0:0:0:0:
335,333,24809,5,2,0:0:0:0:
364,351,24877,1,8,0:0:0:0:
398,356,24945,1,0,0:0:0:0:
432,350,25013,1,8,0:0:0:0:
461,329,25082,1,2,0:0:0:0:
475,297,25150,1,8,0:0:0:0:
476,262,25218,1,0,0:0:0:0:
466,228,25286,1,8,0:0:0:0:
442,201,25354,1,2,0:0:0:0:
410,186,25422,1,8,0:0:0:0:
381,164,25491,1,0,0:0:0:0:
363,133,25559,1,8,0:0:0:0:
363,98,25627,1,2,0:0:0:0:
377,66,25695,1,8,0:0:0:0:
404,44,25763,1,0,0:0:0:0:
438,35,25832,1,8,0:0:0:0:
472,39,25900,6,0,L|480:91,1,50,4|8,0:1|0:0,0:0:0:0:
387,283,26036,1,0,0:0:0:0:
384,287,26104,1,8,0:0:0:0:
380,290,26172,1,2,0:0:0:0:
376,293,26241,1,8,0:0:0:0:
372,296,26309,1,0,0:0:0:0:
367,298,26377,1,8,0:0:0:0:
362,299,26445,6,0,L|343:194,1,100,12|0,0:0|0:0,0:0:0:0:
324,22,26718,5,0,0:0:0:0:
289,31,26786,1,0,0:0:0:0:
254,39,26855,1,0,0:0:0:0:
220,46,26923,1,0,0:0:0:0:
204,37,26991,5,0,0:0:0:0:
218,64,27059,1,0,0:0:0:0:
232,91,27127,1,0,0:0:0:0:
96,34,27263,1,0,0:0:0:0:
395,73,27400,1,0,0:0:0:0:
76,147,27536,6,0,L|108:312,1,150,4|0,0:0|0:0,0:0:0:0:
178,358,27809,1,2,0:1:0:0:
227,365,27877,1,8,0:0:0:0:
275,353,27945,1,0,0:0:0:0:
310,317,28013,1,8,0:0:0:0:
320,267,28082,1,2,0:1:0:0:
304,219,28150,1,8,0:0:0:0:
266,186,28218,1,0,0:0:0:0:
245,140,28286,1,8,0:0:0:0:
252,90,28354,1,2,0:1:0:0:
282,50,28422,1,8,0:0:0:0:
329,31,28491,1,0,0:0:0:0:
377,40,28559,1,8,0:0:0:0:
414,72,28627,5,2,0:1:0:0:
425,110,28695,1,8,0:0:0:0:
416,148,28763,1,0,0:0:0:0:
387,176,28832,1,8,0:0:0:0:
361,206,28900,1,2,0:1:0:0:
355,245,28968,1,8,0:0:0:0:
361,284,29036,1,0,0:0:0:0:
380,318,29104,1,8,0:0:0:0:
416,334,29172,1,2,0:1:0:0:
456,328,29241,1,8,0:0:0:0:
485,301,29309,1,0,0:0:0:0:
495,262,29377,1,8,0:0:0:0:
481,224,29445,1,2,0:1:0:0:
448,201,29513,1,8,0:0:0:0:
407,196,29582,1,0,0:0:0:0:
369,209,29650,1,8,0:0:0:0:
342,238,29718,5,2,0:1:0:0:
349,225,29786,1,8,0:0:0:0:
353,210,29854,1,0,0:0:0:0:
354,195,29922,1,8,0:0:0:0:
351,180,29991,1,2,0:1:0:0:
346,165,30059,1,8,0:0:0:0:
337,152,30127,1,0,0:0:0:0:
328,139,30195,1,8,0:0:0:0:
322,125,30263,1,2,0:1:0:0:
319,109,30332,1,8,0:0:0:0:
319,94,30400,1,0,0:0:0:0:
322,79,30468,1,8,0:0:0:0:
329,65,30536,1,2,0:1:0:0:
338,53,30604,1,8,0:0:0:0:
349,43,30672,1,0,0:0:0:0:
362,36,30741,1,8,0:0:0:0:
376,35,30809,6,0,L|392:104,3,50,2|8|0|8,0:1|0:0|0:0|0:0,0:0:0:0:
244,109,31082,2,0,L|228:178,3,50,2|8|0|8,0:1|0:0|0:0|0:0,0:0:0:0:
350,197,31354,1,2,0:1:0:0:
354,206,31422,1,8,0:0:0:0:
357,215,31491,1,0,0:0:0:0:
359,224,31559,1,8,0:0:0:0:
359,233,31627,1,2,0:1:0:0:
358,242,31695,1,8,0:0:0:0:
356,251,31763,1,0,0:0:0:0:
352,260,31832,1,8,0:0:0:0:
347,268,31900,5,2,0:1:0:0:
341,297,31968,1,8,0:0:0:0:
351,325,32036,1,0,0:0:0:0:
371,346,32104,1,8,0:0:0:0:
399,355,32172,1,2,0:1:0:0:
429,350,32241,1,8,0:0:0:0:
454,334,32309,1,0,0:0:0:0:
468,307,32377,1,8,0:0:0:0:
471,277,32445,1,2,0:1:0:0:
461,248,32513,1,8,0:0:0:0:
439,226,32582,1,0,0:0:0:0:
424,200,32650,1,8,0:0:0:0:
419,170,32718,1,2,0:1:0:0:
424,140,32786,1,8,0:0:0:0:
438,113,32854,1,0,0:0:0:0:
460,93,32922,1,8,0:0:0:0:
489,85,32991,5,2,0:1:0:0:
474,98,33059,1,8,0:0:0:0:
455,105,33127,1,0,0:0:0:0:
435,108,33195,1,0,0:0:0:0:
415,107,33263,1,2,0:1:0:0:
395,102,33332,1,0,0:0:0:0:
377,93,33400,1,0,0:0:0:0:
362,79,33468,1,0,0:0:0:0:
353,60,33536,6,0,L|365:189,1,100,12|0,0:0|0:0,0:0:0:0:
398,316,33809,1,8,0:2:0:0:
348,321,33877,1,8,0:2:0:0:
298,327,33945,1,8,0:2:0:0:
249,333,34013,1,8,0:2:0:0:
225,304,34082,5,0,0:0:0:0:
195,309,34150,1,0,0:0:0:0:
166,315,34218,1,0,0:0:0:0:
136,321,34286,1,0,0:0:0:0:
113,345,34354,5,0,0:0:0:0:
83,342,34422,1,0,0:0:0:0:
53,340,34490,1,0,0:0:0:0:
23,338,34560,1,0,0:0:0:0:
1,315,34627,5,8,2:0:0:0:
8,265,34695,1,8,2:0:0:0:
15,216,34763,1,8,2:0:0:0:
22,166,34831,1,8,2:0:0:0:
64,142,34900,5,0,0:0:0:0:
58,112,34968,1,0,0:0:0:0:
52,83,35036,1,0,0:0:0:0:
46,53,35104,1,0,0:0:0:0:
30,26,35172,5,0,0:0:0:0:
54,31,35240,1,0,0:0:0:0:
78,36,35310,1,0,0:0:0:0:
103,42,35378,1,0,0:0:0:0:
134,75,35446,5,0,0:0:0:0:
153,70,35514,1,0,0:0:0:0:
172,65,35582,1,0,0:0:0:0:
192,61,35650,1,0,0:0:0:0:
221,33,35718,6,0,L|232:180,1,140,4|0,2:1|0:0,0:0:0:0:
239,324,36263,6,0,P|236:301|211:247,1,80,12|2,0:0|0:0,0:0:0:0:
388,304,37338,2,0,P|366:295|307:292,1,80,2|2,0:0|0:0,0:0:0:0:
90,237,38405,6,0,P|111:228|178:223,1,80,2|2,0:0|0:0,0:0:0:0:
315,292,39466,5,2,0:0:0:0:
388,100,40001,1,0,0:0:0:0:
388,100,40037,1,2,0:0:0:0:
388,100,40582,6,0,P|353:108|308:101,1,80,2|2,0:0|0:0,0:0:0:0:
251,32,41648,5,2,0:0:0:0:
178,89,42148,1,0,0:0:0:0:
178,89,42194,1,2,0:0:0:0:
314,104,42728,5,2,0:0:0:0:
77,39,43286,1,0,0:0:0:0:
77,39,43366,1,2,0:0:0:0:
241,154,43892,1,2,0:0:0:0:
4,374,44432,5,0,0:0:0:0:
119,340,44998,1,0,0:0:0:0:
119,340,45543,1,0,0:0:0:0:
4,374,46088,1,0,0:0:0:0:
201,64,46626,6,0,P|205:117|199:149,1,80,4|0,0:0|0:0,0:0:0:0:
200,143,47353,1,2,0:0:0:0:
248,241,47716,2,0,P|263:204|287:172,2,80,0|0|2,0:0|0:0|0:0,0:0:0:0:
393,91,48807,2,0,P|353:96|313:91,1,80
313,91,49535,1,2,0:0:0:0:
120,142,49898,2,0,P|159:137|199:142,2,80,0|0|2,0:0|0:0|0:0,0:0:0:0:
4,284,50989,5,0,3:0:0:0:
4,284,51353,2,0,P|46:275|85:275,1,80,0|2,0:0|0:0,0:0:0:0:
181,367,52080,2,0,P|139:358|100:358,2,80,0|0|2,0:0|0:0|0:0,0:0:0:0:
333,289,53171,2,0,P|291:298|252:298,2,80,0|0|2,0:0|0:0|0:0,0:0:0:0:
164,280,54262,5,0,0:0:0:0:
164,280,54383,2,0,L|164:307,1,26.6666666666667
90,242,54626,5,0,0:0:0:0:
84,257,54747,2,0,L|84:284,1,26.6666666666667
223,213,54989,5,0,0:0:0:0:
228,229,55110,1,0,0:0:0:0:
234,246,55232,1,0,0:0:0:0:
243,270,55353,6,0,P|261:231|262:186,2,80
336,158,56444,2,0,P|311:122|272:99,2,80
282,21,57535,2,0,P|239:24|199:46,2,80
359,103,58626,2,0,P|386:110|405:107,1,40
406,104,58898,1,0,0:0:0:0:
430,98,58989,6,0,P|410:74|392:23,2,80
512,167,60079,2,0,P|492:191|474:242,2,80
346,236,61170,5,0,0:0:0:0:
346,236,61533,2,0,P|357:267|358:277,1,40
258,360,61897,2,0,P|269:326|274:280,1,80
53,231,62625,6,0,P|106:240|199:211,1,139.999995727539
189,218,63170,1,0,0:0:0:0:
273,282,63352,1,4,0:0:0:0:
465,231,63715,6,0,P|397:216|341:174,1,139.999995727539
323,83,64261,2,0,P|255:97|199:139,1,139.999995727539
273,282,64806,5,0,0:0:0:0:
273,282,65170,1,0,0:0:0:0:
231,338,65352,2,0,P|186:328|89:341,1,139.999995727539
0,271,65897,2,0,P|35:275|77:270,1,69.9999978637696
207,223,66261,1,0,0:0:0:0:
172,226,66352,1,0,0:0:0:0:
139,213,66443,1,0,0:0:0:0:
116,186,66534,1,0,0:0:0:0:
105,152,66625,1,0,0:0:0:0:
465,220,66988,6,0,P|395:232|321:210,1,139.999995727539
329,214,67534,1,0,0:0:0:0:
375,335,67715,1,0,0:0:0:0:
375,335,68079,6,0,P|347:317|243:289,1,139.999995727539
204,231,68625,2,0,P|159:253|136:278,2,69.9999978637696
218,356,69170,1,0,0:0:0:0:
31,260,69715,1,0,0:0:0:0:
31,260,69897,2,0,P|47:221|46:154,1,104.999996795654
4,82,70261,5,0,0:0:0:0:
4,82,70373,2,0,L|31:82,1,26.6666666666667
114,26,70598,5,0,0:0:0:0:
114,26,70710,2,0,L|85:26,1,26.6666666666667
176,96,70935,5,0,0:0:0:0:
179,105,71047,1,0,0:0:0:0:
183,114,71159,1,0,0:0:0:0:
251,77,71314,6,0,P|276:96|449:110,1,209.999993591309
506,185,71999,2,0,P|462:202|394:278,1,139.999995727539
401,303,72443,2,0,P|357:249|293:223,2,139.999995727539
142,320,73534,6,0,P|193:309|308:324,1,160
299,320,74079,1,0,0:0:0:0:
203,213,74261,2,0,P|160:225|44:215,1,160
315,49,74988,6,0,P|283:118|297:248,1,200
365,308,75534,2,0,P|289:314|183:391,1,200
189,383,75988,1,0,0:0:0:0:
1,288,76352,6,0,P|29:302|192:246,1,200
181,260,76806,1,0,0:0:0:0:
181,260,76988,1,0,0:0:0:0:
277,285,77170,2,0,P|250:240|244:78,1,200
238,95,77715,1,0,0:0:0:0:
138,109,77897,6,0,P|156:54|193:16,1,100
107,221,78261,2,0,P|68:177|51:119,1,100
62,39,78624,1,0,0:0:0:0:
345,126,78988,1,0,0:0:0:0:
165,320,79354,6,0,P|186:257|160:170,1,160,14|2,0:0|0:0,0:0:0:0:
35,161,79763,1,0,0:0:0:0:
138,166,79899,1,2,0:0:0:0:
185,73,80035,1,0,0:0:0:0:
345,325,80172,6,0,L|173:313,1,160,10|2,0:0|0:0,0:0:0:0:
105,305,80581,1,8,0:0:0:0:
413,366,80717,2,0,B|451:349|451:349|484:309,1,80,2|0,0:0|0:0,0:0:0:0:
500,217,80990,5,2,0:0:0:0:
467,144,81126,1,0,0:0:0:0:
338,246,81263,5,2,0:0:0:0:
345,325,81399,1,0,0:0:0:0:
431,57,81535,6,0,P|370:45|267:81,1,160,10|2,0:0|0:0,0:0:0:0:
227,135,81944,1,0,0:0:0:0:
43,20,82081,2,0,P|110:21|145:39,1,80,2|0,0:0|0:0,0:0:0:0:
71,258,82354,5,2,0:0:0:0:
39,184,82490,1,0,0:0:0:0:
202,250,82626,5,2,0:0:0:0:
170,324,82762,1,0,0:0:0:0:
198,75,82899,6,0,L|304:72,1,80,10|0,0:0|0:0,0:0:0:0:
118,186,83172,2,0,L|12:183,1,80,2|0,0:0|0:0,0:0:0:0:
374,87,83444,5,6,0:0:0:0:
297,334,83580,2,0,B|268:210|268:210|324:140,2,200
416,121,84262,5,8,2:0:0:0:
397,74,84330,1,8,2:0:0:0:
352,51,84398,1,8,2:0:0:0:
303,60,84466,1,8,2:0:0:0:
268,95,84534,5,0,0:0:0:0:
319,181,84671,1,0,0:0:0:0:
33,90,84807,5,0,0:0:0:0:
67,19,84944,1,0,0:0:0:0:
197,177,85081,6,0,P|135:196|31:167,1,160,4|2,0:1|0:0,0:0:0:0:
234,270,85490,2,0,P|232:312|205:367,2,80,0|2|0,0:0|0:1|0:0,0:0:0:0:
221,143,85899,2,0,B|191:166|191:166|252:139|323:163,1,160,10|2,0:1|0:2,0:0:0:0:
351,299,86308,1,2,0:2:0:0:
432,178,86444,5,10,0:1:0:0:
438,154,86512,1,8,0:0:0:0:
440,129,86581,1,8,0:0:0:0:
440,105,86649,1,8,0:0:0:0:
433,81,86717,2,0,L|336:65,1,80,2|0,0:1|0:0,0:0:0:0:
191,166,86990,2,0,L|288:150,1,80,2|0,0:1|0:0,0:0:0:0:
76,36,87262,6,0,P|57:106|91:210,1,160,10|0,0:1|0:0,0:0:0:0:
152,268,87671,1,0,0:0:0:0:
245,39,87808,2,0,L|148:23,1,80,4|0,0:1|0:0,0:0:0:0:
279,213,88081,5,2,0:2:0:0:
305,125,88217,1,0,0:0:0:0:
162,19,88353,5,2,0:2:0:0:
167,111,88489,1,0,0:0:0:0:
401,47,88626,6,0,P|333:22|253:48,1,160,10|2,0:1|0:1,0:0:0:0:
296,136,89035,1,0,0:0:0:0:
499,33,89171,5,6,0:0:0:0:
242,270,89307,2,0,B|234:181|234:181|224:167|224:167|213:57,2,200,0|0|0,0:0|0:0|0:0,0:0:0:0:
427,297,89989,2,0,P|418:237|320:216,1,150,6|0,0:0|0:0,0:0:0:0:
326,216,90261,5,0,0:0:0:0:
337,187,90330,1,0,0:0:0:0:
338,157,90398,1,0,0:0:0:0:
329,128,90466,1,0,0:0:0:0:
286,94,90534,5,0,0:0:0:0:
279,75,90602,1,0,0:0:0:0:
281,54,90671,1,0,0:0:0:0:
293,38,90739,1,0,0:0:0:0:
335,17,90808,6,0,L|171:30,1,160,4|2,0:1|0:0,0:0:0:0:
55,108,91217,1,0,0:0:0:0:
149,33,91353,1,2,0:0:0:0:
210,137,91489,1,0,0:0:0:0:
44,121,91626,6,0,B|10:169|10:169|26:269,1,160,10|2,0:0|0:0,0:0:0:0:
61,351,92035,1,8,0:0:0:0:
204,73,92171,5,6,0:0:0:0:
115,193,92308,2,0,P|170:178|248:202,1,120,0|0,0:0|0:0,0:0:0:0:
242,202,92580,2,0,L|230:296,2,80,0|2|0,0:0|0:0|0:0,0:0:0:0:
334,83,92989,2,0,L|322:-11,1,80,10|0,0:0|0:0,0:0:0:0:
255,215,93262,1,2,0:0:0:0:
277,223,93330,1,0,0:0:0:0:
300,223,93398,1,0,0:0:0:0:
323,216,93467,1,0,0:0:0:0:
342,201,93535,6,0,P|379:186|431:199,1,80,6|0,0:0|0:0,0:0:0:0:
474,273,93808,5,2,0:0:0:0:
441,359,93944,1,0,0:0:0:0:
303,384,94080,5,2,0:0:0:0:
285,293,94216,1,0,0:0:0:0:
427,194,94353,6,0,L|346:177,1,80,10|0,0:0|0:0,0:0:0:0:
114,135,94626,2,0,L|195:118,1,80,4|0,0:2|0:0,0:0:0:0:
430,21,94898,6,0,P|433:83|410:124,1,100,6|0,0:0|0:0,0:0:0:0:
182,223,95170,2,0,P|221:194|270:187,1,100,2|0,0:0|0:0,0:0:0:0:
482,336,95443,2,0,P|437:317|407:278,1,100,2|0,0:0|0:0,0:0:0:0:
216,123,95716,5,8,2:0:0:0:
233,87,95784,1,8,2:0:0:0:
266,66,95852,1,8,2:0:0:0:
305,58,95920,1,8,2:0:0:0:
323,74,95988,5,0,0:0:0:0:
350,87,96057,1,0,0:0:0:0:
379,88,96125,1,0,0:0:0:0:
407,79,96193,1,0,0:0:0:0:
422,66,96261,6,0,P|416:109|423:140,1,50,0|0,0:0|0:0,0:0:0:0:
458,214,96398,2,0,P|464:257|457:288,1,50,0|0,0:0|0:0,0:0:0:0:
382,349,96534,6,0,P|324:361|260:325,1,100,6|0,0:0|0:0,0:0:0:0:
223,257,96806,1,2,0:1:0:0:
195,246,96874,1,8,0:0:0:0:
164,247,96943,1,0,0:0:0:0:
137,261,97011,1,8,0:0:0:0:
122,287,97079,1,2,0:1:0:0:
120,316,97147,1,8,0:0:0:0:
137,340,97215,1,0,0:0:0:0:
166,347,97284,1,8,0:0:0:0:
193,335,97352,2,0,P|191:297|183:273,3,50,2|8|0|8,0:1|0:0|0:0|0:0,0:0:0:0:
73,221,97624,2,0,P|75:183|83:159,3,50,2|8|0|8,0:1|0:0|0:0|0:0,0:0:0:0:
242,76,97897,5,2,0:1:0:0:
222,30,97965,1,8,0:0:0:0:
180,4,98033,1,0,0:0:0:0:
131,6,98101,1,8,0:0:0:0:
91,36,98169,1,2,0:1:0:0:
76,83,98237,1,8,0:0:0:0:
89,130,98306,1,0,0:0:0:0:
127,160,98374,1,8,0:0:0:0:
154,200,98442,1,2,0:1:0:0:
157,250,98510,1,8,0:0:0:0:
133,293,98578,1,0,0:0:0:0:
90,318,98646,1,8,0:0:0:0:
41,317,98715,2,0,L|26:243,3,50,2|8|0|8,0:1|0:0|0:0|0:0,0:0:0:0:
152,369,98988,2,0,L|167:295,3,50,2|8|0|8,0:1|0:0|0:0|0:0,0:0:0:0:
286,222,99261,5,2,0:1:0:0:
279,235,99329,1,8,0:0:0:0:
276,249,99397,1,0,0:0:0:0:
275,263,99465,1,8,0:0:0:0:
279,277,99534,5,2,0:1:0:0:
318,269,99602,1,8,0:0:0:0:
357,271,99670,1,0,0:0:0:0:
390,291,99738,1,8,0:0:0:0:
416,320,99806,5,2,0:1:0:0:
421,285,99874,1,0,0:0:0:0:
425,249,99943,1,0,0:0:0:0:
428,214,100011,1,0,0:0:0:0:
432,179,100079,2,0,L|450:242,3,50,2|0|0|0,0:1|0:0|0:0|0:0,0:0:0:0:
330,304,100352,2,0,L|312:367,3,50,2|0|0|0,0:1|0:0|0:0|0:0,0:0:0:0:
244,297,100624,5,2,0:1:0:0:
247,247,100692,1,0,0:0:0:0:
251,197,100760,1,0,0:0:0:0:
255,147,100828,1,0,0:0:0:0:
274,120,100896,5,2,0:1:0:0:
267,90,100964,1,0,0:0:0:0:
260,61,101032,1,0,0:0:0:0:
253,32,101100,1,0,0:0:0:0:
227,5,101169,5,2,0:1:0:0:
220,23,101237,1,8,0:0:0:0:
213,42,101305,1,0,0:0:0:0:
206,61,101373,1,8,0:0:0:0:
186,88,101442,5,2,0:1:0:0:
235,81,101510,1,8,0:0:0:0:
285,75,101578,1,0,0:0:0:0:
334,68,101646,1,8,0:0:0:0:
355,46,101714,5,2,0:1:0:0:
384,49,101782,1,8,0:0:0:0:
414,53,101850,1,0,0:0:0:0:
444,57,101918,1,8,0:0:0:0:
486,47,101987,2,0,L|473:103,3,50,2|8|0|8,0:1|0:0|0:0|0:0,0:0:0:0:
336,151,102260,5,6,0:0:0:0:
334,200,102329,1,8,0:0:0:0:
358,243,102397,1,0,0:0:0:0:
402,266,102465,1,8,0:0:0:0:
451,261,102533,1,2,0:1:0:0:
478,219,102601,1,8,0:0:0:0:
471,168,102670,1,0,0:0:0:0:
435,133,102738,1,8,0:0:0:0:
385,132,102806,1,2,0:1:0:0:
337,159,102874,1,8,0:0:0:0:
285,177,102942,1,0,0:0:0:0:
230,167,103011,1,8,0:0:0:0:
188,131,103079,5,2,0:1:0:0:
169,181,103147,1,8,0:0:0:0:
125,213,103215,1,0,0:0:0:0:
71,213,103283,1,8,0:0:0:0:
26,183,103351,1,2,0:1:0:0:
7,132,103419,1,8,0:0:0:0:
20,80,103488,1,0,0:0:0:0:
61,44,103556,1,8,0:0:0:0:
115,38,103624,6,0,P|126:63|121:110,1,50,2|8,0:1|0:0,0:0:0:0:
68,202,103761,1,0,0:0:0:0:
72,241,103829,1,8,0:0:0:0:
97,271,103897,1,2,0:1:0:0:
134,283,103965,1,8,0:0:0:0:
173,278,104033,1,0,0:0:0:0:
207,257,104101,1,8,0:0:0:0:
232,225,104170,1,2,0:1:0:0:
267,207,104238,1,8,0:0:0:0:
306,203,104306,1,0,0:0:0:0:
344,214,104374,1,8,0:0:0:0:
374,239,104442,2,0,L|361:293,3,50,2|8|0|8,0:1|0:0|0:0|0:0,0:0:0:0:
487,158,104715,2,0,L|500:212,3,50,2|8|0|8,0:1|0:0|0:0|0:0,0:0:0:0:
405,30,104988,5,2,0:1:0:0:
397,42,105056,1,8,0:0:0:0:
393,56,105124,1,0,0:0:0:0:
391,70,105192,1,8,0:0:0:0:
392,85,105261,5,2,0:1:0:0:
353,75,105329,1,8,0:0:0:0:
313,81,105397,1,0,0:0:0:0:
281,106,105465,1,8,0:0:0:0:
264,142,105533,5,2,0:1:0:0:
259,107,105601,1,8,0:0:0:0:
252,71,105670,1,0,0:0:0:0:
247,36,105738,1,8,0:0:0:0:
242,1,105806,2,0,L|230:75,3,50,2|8|0|8,0:1|0:0|0:0|0:0,0:0:0:0:
93,104,106079,2,0,L|108:183,3,50,2|8|0|8,0:1|0:0|0:0|0:0,0:0:0:0:
229,226,106351,6,0,L|209:355,1,100,14|0,0:0|0:0,0:0:0:0:
90,373,106623,5,0,0:0:0:0:
87,358,106691,1,0,0:0:0:0:
84,343,106760,1,0,0:0:0:0:
81,328,106828,1,0,0:0:0:0:
100,306,106896,5,0,0:0:0:0:
101,296,106964,1,0,0:0:0:0:
103,286,107032,1,0,0:0:0:0:
105,276,107101,1,0,0:0:0:0:
93,254,107169,5,8,2:0:0:0:
147,262,107237,1,8,2:0:0:0:
201,270,107305,1,8,2:0:0:0:
255,278,107373,1,8,2:0:0:0:
291,298,107441,5,0,0:0:0:0:
285,278,107510,1,0,0:0:0:0:
281,258,107578,1,0,0:0:0:0:
276,238,107646,1,0,0:0:0:0:
255,219,107714,5,0,0:0:0:0:
261,205,107782,1,0,0:0:0:0:
267,191,107851,1,0,0:0:0:0:
273,177,107919,1,0,0:0:0:0:
301,155,107987,6,0,B|274:141|274:141|203:133,1,100,6|0,0:0|0:0,0:0:0:0:
66,222,108260,5,2,0:0:0:0:
147,262,108397,1,0,0:0:0:0:
112,75,108533,5,2,0:0:0:0:
27,104,108669,1,0,0:0:0:0:
319,153,108806,6,0,L|334:33,1,100,10|0,0:0|0:0,0:0:0:0:
256,4,109078,1,2,0:0:0:0:
412,266,109215,5,0,0:0:0:0:
419,252,109283,1,0,0:0:0:0:
418,239,109351,2,0,P|364:229|313:243,1,100,2|0,0:0|0:0,0:0:0:0:
222,361,109624,5,2,0:0:0:0:
149,308,109760,1,0,0:0:0:0:
230,143,109897,5,2,0:0:0:0:
319,153,110033,1,0,0:0:0:0:
69,254,110169,6,0,P|80:212|91:140,1,100,10|0,0:0|0:0,0:0:0:0:
209,45,110442,2,0,P|220:87|231:159,1,100,2|0,0:0|0:0,0:0:0:0:
222,361,110715,5,6,0:0:0:0:
283,296,110851,1,0,0:0:0:0:
433,328,110988,5,2,0:0:0:0:
418,239,111124,1,0,0:0:0:0:
244,53,111260,5,2,0:0:0:0:
229,142,111396,1,0,0:0:0:0:
512,165,111533,6,0,B|472:148|472:148|396:149,1,100,10|0,0:0|0:0,0:0:0:0:
327,170,111806,1,10,0:0:0:0:
510,378,111942,1,8,0:0:0:0:
229,142,112078,5,14,0:0:0:0:
382,91,112214,2,0,B|416:149|416:149|381:300,2,200,2|0|0,0:0|0:0|0:0,0:0:0:0:
273,261,112896,6,0,B|286:360,1,100,14|0,0:0|0:0,0:0:0:0:
447,142,113168,1,0,0:0:0:0:
440,128,113237,1,0,0:0:0:0:
433,114,113305,1,0,0:0:0:0:
426,100,113373,1,0,0:0:0:0:
400,88,113441,5,0,0:0:0:0:
402,78,113509,1,0,0:0:0:0:
405,68,113578,1,0,0:0:0:0:
408,58,113646,1,0,0:0:0:0:
426,31,113714,6,0,B|444:63|444:63|431:147,1,100,6|0,0:0|0:0,0:0:0:0:
280,129,113987,5,2,0:1:0:0:
257,41,114124,1,0,0:0:0:0:
374,229,114260,5,2,0:0:0:0:
350,317,114397,1,0,0:0:0:0:
94,251,114533,6,0,L|223:227,1,100,10|0,0:0|0:0,0:0:0:0:
257,41,114805,2,0,L|159:22,1,100,2|0,0:0|0:0,0:0:0:0:
262,384,115078,6,0,P|277:330|253:263,1,100,2|0,0:0|0:0,0:0:0:0:
16,190,115351,5,2,0:1:0:0:
4,279,115487,1,0,0:0:0:0:
185,107,115624,5,2,0:2:0:0:
158,21,115760,1,0,0:0:0:0:
168,296,115896,6,0,L|268:287,1,100,10|0,0:1|0:0,0:0:0:0:
444,89,116169,1,2,0:2:0:0:
413,127,116237,1,2,0:2:0:0:
366,143,116305,1,2,0:2:0:0:
318,133,116373,1,2,0:2:0:0:
281,100,116442,6,0,B|242:90|242:90|176:109,1,100,6|0,0:0|0:0,0:0:0:0:
268,287,116715,5,2,0:2:0:0:
302,204,116851,1,0,3:0:0:0:
110,297,116987,5,2,0:2:0:0:
134,384,117124,1,0,0:0:0:0:
184,106,117260,6,0,B|85:122|85:122|18:220,1,200,10|0,0:1|0:0,0:0:0:0:
391,152,117669,1,8,0:0:0:0:
378,137,117737,1,8,0:0:0:0:
365,123,117805,6,0,B|363:85|363:85|418:7,1,100,6|0,0:0|0:0,0:0:0:0:
259,270,118077,2,0,B|292:287|292:287|332:374,1,100,2|0,0:0|0:0,0:0:0:0:
184,106,118350,2,0,B|152:126|152:126|57:117,1,100,2|0,0:0|0:0,0:0:0:0:
392,242,118623,6,0,L|491:238,1,100,14|0,0:0|0:0,0:0:0:0:
184,106,118895,1,8,2:0:0:0:
134,99,118964,1,8,2:0:0:0:
84,92,119032,1,8,2:0:0:0:
34,85,119100,1,8,2:0:0:0:
4,91,119168,5,0,0:0:0:0:
11,110,119236,1,0,0:0:0:0:
18,130,119305,1,0,0:0:0:0:
26,149,119373,1,0,0:0:0:0:
33,167,119442,6,0,B|45:209|45:209|32:290,1,100,6|0,0:0|0:0,0:0:0:0:
190,197,119714,5,2,0:0:0:0:
184,106,119851,1,0,0:0:0:0:
340,256,119987,5,2,0:0:0:0:
318,344,120124,1,0,0:0:0:0:
140,27,120260,6,0,B|196:19|196:19|238:31,1,100,10|0,0:0|0:0,0:0:0:0:
321,63,120532,1,8,0:0:0:0:
442,0,120669,1,8,0:0:0:0:
199,296,120805,6,0,L|189:196,1,100,6|0,0:0|0:0,0:0:0:0:
321,63,121078,5,2,0:0:0:0:
283,144,121214,1,0,0:0:0:0:
475,307,121351,5,2,0:0:0:0:
456,219,121487,1,0,0:0:0:0:
122,236,121623,6,0,B|155:276|155:276|211:301,1,100,10|0,0:0|0:0,0:0:0:0:
373,106,121896,2,0,B|321:115|321:115|273:150,1,100,4|0,0:2|0:0,0:0:0:0:
368,384,122169,2,0,B|386:335|386:335|379:274,1,100,10|0,0:0|0:0,0:0:0:0:
213,77,122442,5,2,0:0:0:0:
184,162,122578,1,0,0:0:0:0:
373,106,122714,5,2,0:0:0:0:
344,21,122850,1,0,0:0:0:0:
34,146,122987,6,0,L|193:163,1,150,10|0,0:0|0:0,0:0:0:0:
201,297,123260,2,0,L|268:281,1,50,8|0,0:0|0:0,0:0:0:0:
298,184,123396,2,0,L|365:200,1,50,8|0,0:0|0:0,0:0:0:0:
385,273,123532,5,14,0:0:0:0:
388,282,123600,1,8,0:0:0:0:
389,291,123668,1,8,0:0:0:0:
388,300,123736,1,8,0:0:0:0:
371,313,123804,5,8,2:0:0:0:
368,268,123872,1,8,2:0:0:0:
365,223,123941,1,8,2:0:0:0:
362,178,124009,1,8,2:0:0:0:
331,154,124077,5,0,0:0:0:0:
336,124,124145,1,0,0:0:0:0:
341,94,124213,1,0,0:0:0:0:
346,64,124282,1,0,0:0:0:0:
366,33,124350,5,0,0:0:0:0:
377,49,124418,1,0,0:0:0:0:
364,64,124486,1,0,0:0:0:0:
348,51,124554,1,0,0:0:0:0:
366,33,124622,5,8,2:0:0:0:
414,46,124691,1,8,2:0:0:0:
461,59,124759,1,8,2:0:0:0:
509,72,124827,1,8,2:0:0:0:
494,101,124895,5,0,0:0:0:0:
496,125,124963,1,0,0:0:0:0:
498,150,125032,1,0,0:0:0:0:
501,174,125100,1,0,0:0:0:0:
505,198,125169,2,0,L|451:155,3,50,6|0|0|0,0:0|0:0|0:0|0:0,0:0:0:0:
375,190,125441,5,2,0:1:0:0:
353,210,125509,1,8,0:0:0:0:
343,238,125578,1,0,0:0:0:0:
347,267,125646,1,8,0:0:0:0:
360,293,125714,1,2,0:1:0:0:
357,322,125782,1,8,0:0:0:0:
336,343,125850,1,0,0:0:0:0:
305,343,125919,1,8,0:0:0:0:
282,323,125987,6,0,L|210:318,3,50,2|8|0|8,0:1|0:0|0:0|0:0,0:0:0:0:
163,254,126259,2,0,L|91:259,3,50,2|8|0|8,0:1|0:0|0:0|0:0,0:0:0:0:
12,337,126532,5,2,0:1:0:0:
43,298,126600,1,8,0:0:0:0:
59,249,126669,1,0,0:0:0:0:
47,200,126737,1,8,0:0:0:0:
23,155,126805,1,2,0:1:0:0:
13,105,126873,1,8,0:0:0:0:
36,60,126941,1,0,0:0:0:0:
82,41,127009,1,8,0:0:0:0:
129,59,127078,1,2,0:1:0:0:
146,105,127146,1,8,0:0:0:0:
131,152,127214,1,0,0:0:0:0:
87,176,127282,1,8,0:0:0:0:
41,156,127350,6,0,P|3:141|-8:137,3,50,2|8|0|8,0:1|0:0|0:0|0:0,0:0:0:0:
152,228,127623,2,0,P|190:213|201:209,3,50,2|8|0|8,0:1|0:0|0:0|0:0,0:0:0:0:
78,321,127896,5,2,0:1:0:0:
69,315,127964,1,8,0:0:0:0:
59,311,128032,1,0,0:0:0:0:
49,308,128100,1,8,0:0:0:0:
38,308,128169,5,2,0:1:0:0:
68,291,128237,1,8,0:0:0:0:
102,286,128305,1,0,0:0:0:0:
136,288,128373,1,8,0:0:0:0:
166,305,128441,1,2,0:1:0:0:
198,317,128509,1,8,0:0:0:0:
233,316,128578,1,0,0:0:0:0:
262,297,128646,1,8,0:0:0:0:
283,269,128714,2,0,L|278:213,3,50,2|8|0|8,0:1|0:0|0:0|0:0,0:0:0:0:
341,327,128987,2,0,L|336:376,3,50,2|8|0|8,0:1|0:0|0:0|0:0,0:0:0:0:
422,293,129259,5,6,0:1:0:0:
419,243,129330,1,8,0:0:0:0:
415,193,129398,1,0,0:0:0:0:
411,143,129466,1,8,0:0:0:0:
392,116,129534,5,2,0:1:0:0:
399,86,129602,1,8,0:0:0:0:
406,57,129671,1,0,0:0:0:0:
413,28,129739,1,8,0:0:0:0:
439,1,129807,5,2,0:1:0:0:
446,19,129875,1,8,0:0:0:0:
453,38,129943,1,0,0:0:0:0:
460,57,130012,1,8,0:0:0:0:
480,84,130080,5,2,0:1:0:0:
431,77,130148,1,8,0:0:0:0:
381,71,130216,1,0,0:0:0:0:
332,64,130284,1,8,0:0:0:0:
311,42,130352,5,2,0:1:0:0:
282,45,130421,1,8,0:0:0:0:
252,49,130489,1,0,0:0:0:0:
222,53,130557,1,8,0:0:0:0:
180,43,130625,2,0,L|193:99,1,50,2|8,0:1|0:0,0:0:0:0:
259,230,130762,2,0,L|272:174,1,50,0|8,0:1|0:0,0:0:0:0:
115,150,130899,5,6,0:0:0:0:
91,194,130967,1,8,0:0:0:0:
99,243,131035,1,0,0:0:0:0:
134,278,131103,1,8,0:0:0:0:
182,288,131171,1,2,0:1:0:0:
229,271,131239,1,8,0:0:0:0:
259,230,131308,1,0,0:0:0:0:
308,224,131376,1,8,0:0:0:0:
347,254,131444,1,2,0:1:0:0:
353,303,131512,1,0,0:0:0:0:
320,340,131580,1,0,0:0:0:0:
269,341,131649,1,0,0:0:0:0:
235,303,131717,5,2,0:1:0:0:
283,314,131785,1,8,0:0:0:0:
331,326,131853,1,0,0:0:0:0:
379,338,131921,1,8,0:0:0:0:
427,350,131989,1,2,0:1:0:0:
475,335,132058,1,8,0:0:0:0:
496,290,132126,2,0,P|492:261|464:222,1,50,0|8,0:0|0:0,0:0:0:0:
219,226,132262,5,2,0:1:0:0:
219,226,132330,1,8,0:0:0:0:
219,226,132399,1,0,0:0:0:0:
184,190,132467,1,8,0:0:0:0:
197,141,132535,1,2,0:1:0:0:
242,120,132603,1,8,0:0:0:0:
289,136,132671,1,0,0:0:0:0:
336,120,132739,1,8,0:0:0:0:
352,72,132808,1,2,0:1:0:0:
331,26,132876,1,8,0:0:0:0:
282,14,132944,1,0,0:0:0:0:
239,40,133012,1,8,0:0:0:0:
190,51,133080,6,0,P|147:48|115:36,3,50,2|8|0|8,0:1|0:0|0:0|0:0,0:0:0:0:
275,223,133353,2,0,P|318:220|350:208,3,50,2|8|0|8,0:1|0:0|0:0|0:0,0:0:0:0:
82,102,133626,5,2,0:1:0:0:
36,123,133694,1,0,0:0:0:0:
17,169,133762,1,0,0:0:0:0:
31,216,133830,1,0,0:0:0:0:
72,244,133899,1,2,0:1:0:0:
121,236,133967,1,0,0:0:0:0:
156,201,134035,1,0,0:0:0:0:
205,203,134103,1,0,0:0:0:0:
237,241,134171,1,2,0:1:0:0:
227,289,134239,1,0,0:0:0:0:
181,311,134308,1,0,0:0:0:0:
134,291,134376,1,0,0:0:0:0:
121,236,134444,2,0,L|122:162,3,50,2|0|0|0,0:1|0:0|0:0|0:0,0:0:0:0:
188,116,134717,2,0,L|188:67,3,50,2|0|0|0,0:1|0:0|0:0|0:0,0:0:0:0:
162,0,134989,6,0,P|240:35|293:25,1,100,14|0,0:0|0:0,0:0:0:0:
349,10,135261,1,2,0:2:0:0:
115,114,135398,1,0,0:0:0:0:
251,203,135534,1,0,0:0:0:0:
253,193,135602,1,0,0:0:0:0:
254,183,135670,1,0,0:0:0:0:
255,172,135739,1,0,0:0:0:0:
255,162,135807,5,8,2:0:0:0:
232,88,135943,1,8,2:0:0:0:
376,175,136079,5,0,0:0:0:0:
353,249,136215,1,0,0:0:0:0:
250,361,136352,5,0,0:0:0:0:
227,287,136488,1,0,0:0:0:0:
340,81,136626,6,0,B|285:122|285:122|148:88,1,200,6|2,0:0|0:0,0:0:0:0:
82,62,137035,1,0,0:0:0:0:
154,186,137171,2,0,P|151:253|124:298,1,100,2|0,0:0|0:0,0:0:0:0:
15,361,137444,6,0,B|91:356|91:356|120:367|120:367|240:359,1,200,10|2,0:0|0:0,0:0:0:0:
293,351,137853,1,0,0:0:0:0:
123,181,137989,2,0,L|126:306,1,100,2|0,0:0|0:0,0:0:0:0:
310,358,138262,6,0,B|345:272|345:272|326:165,1,200,2|2,0:0|0:0,0:0:0:0:
308,67,138671,1,0,0:0:0:0:
223,13,138807,2,0,P|170:0|92:27,1,100,2|0,0:0|0:0,0:0:0:0:
444,129,139080,5,10,0:0:0:0:
195,356,139216,2,0,P|244:363|292:350,1,100,0|2,0:0|0:0,0:0:0:0:
253,228,139489,1,0,0:0:0:0:
86,335,139626,5,10,0:0:0:0:
381,288,139762,1,8,0:0:0:0:
66,340,139898,6,0,P|60:249|111:128,1,200,6|2,0:0|0:0,0:0:0:0:
266,219,140307,2,0,L|149:221,2,100,0|2|0,0:0|0:0|0:0,0:0:0:0:
359,142,140716,6,0,L|476:144,1,100,10|0,0:0|0:0,0:0:0:0:
286,340,140989,1,2,0:0:0:0:
270,240,141126,1,0,0:0:0:0:
450,284,141262,5,2,0:0:0:0:
434,384,141399,1,0,0:0:0:0:
338,149,141535,6,0,P|321:75|445:19,1,200,2|2,0:0|0:0,0:0:0:0:
494,65,141944,1,0,0:0:0:0:
246,12,142080,2,0,L|126:29,1,100,2|0,0:0|0:0,0:0:0:0:
11,49,142353,5,8,2:0:0:0:
25,75,142421,1,8,2:0:0:0:
39,101,142489,1,8,2:0:0:0:
53,127,142557,1,8,2:0:0:0:
50,144,142626,5,0,0:0:0:0:
37,152,142694,1,0,0:0:0:0:
25,160,142762,1,0,0:0:0:0:
12,168,142830,1,0,0:0:0:0:
1,189,142898,5,0,0:0:0:0:
45,195,142966,1,0,0:0:0:0:
90,201,143035,1,0,0:0:0:0:
134,207,143103,1,0,0:0:0:0:
150,226,143171,5,6,0:1:0:0:
176,183,143239,1,0,0:0:0:0:
222,164,143307,1,0,0:0:0:0:
272,163,143376,1,0,0:0:0:0:
313,189,143444,1,2,0:1:0:0:
361,184,143512,1,8,0:0:0:0:
396,149,143580,1,0,0:0:0:0:
401,100,143648,1,8,0:0:0:0:
373,60,143716,1,2,0:1:0:0:
327,45,143785,1,8,0:0:0:0:
281,63,143853,1,0,0:0:0:0:
258,106,143921,1,8,0:0:0:0:
272,163,143989,6,0,P|277:195|273:241,3,50,2|8|0|8,0:1|0:0|0:0|0:0,0:0:0:0:
184,253,144262,2,0,P|179:285|183:331,3,50,2|8|0|8,0:1|0:0|0:0|0:0,0:0:0:0:
298,331,144535,2,0,P|303:363|299:409,3,50,2|8|0|8,0:1|0:0|0:0|0:0,0:0:0:0:
191,243,144807,5,2,0:1:0:0:
240,230,144876,1,8,0:0:0:0:
289,233,144944,1,0,0:0:0:0:
333,255,145012,1,8,0:0:0:0:
365,292,145080,1,2,0:1:0:0:
414,300,145148,1,8,0:0:0:0:
454,271,145216,1,0,0:0:0:0:
461,220,145285,1,8,0:0:0:0:
430,180,145353,1,2,0:1:0:0:
380,171,145421,1,8,0:0:0:0:
342,138,145489,1,0,0:0:0:0:
325,91,145557,1,8,0:0:0:0:
338,42,145626,6,0,P|361:93|360:137,2,66.6666666666667,6|0|0,0:0|0:0|0:0,0:0:0:0:
246,101,145898,2,0,P|246:134|236:166,2,66.6666666666667,2|0|0,0:0|0:0|0:0,0:0:0:0:
149,111,146171,2,0,P|116:156|77:177,1,66.6666666666667,2|0,0:0|0:0,0:0:0:0:
26,199,146353,1,0,0:0:0:0:
2,108,146444,5,10,0:0:0:0:
42,109,146535,1,0,0:0:0:0:
78,125,146626,1,0,0:0:0:0:
103,155,146716,1,2,0:0:0:0:
111,194,146807,1,0,0:0:0:0:
134,226,146898,1,0,0:0:0:0:
171,238,146989,6,0,P|211:234|259:205,1,66.6666666666667,2|0,0:0|0:0,0:0:0:0:
317,86,147171,1,0,0:0:0:0:
307,184,147262,6,0,P|286:210|259:229,2,66.6666666666667,2|0|0,0:0|0:1|0:1,0:0:0:0:
427,238,147535,2,0,P|396:250|362:252,2,66.6666666666667,2|0|0,0:0|0:1|0:1,0:0:0:0:
503,344,147807,2,0,P|470:338|440:324,1,66.6666666666667,2|0,0:1|0:1,0:0:0:0:
319,100,147989,1,0,0:0:0:0:
436,61,148080,5,10,0:0:0:0:
455,110,148171,1,0,0:0:0:0:
445,162,148262,1,0,0:0:0:0:
404,196,148353,1,2,0:0:0:0:
351,234,148443,1,0,0:0:0:0:
342,298,148534,1,0,0:0:0:0:
382,349,148625,1,4,0:1:0:0:
447,356,148716,1,8,0:0:0:0:
497,314,148807,1,8,0:0:0:0:
501,249,148898,6,0,P|472:239|412:245,2,66.6666666666667,6|0|0,0:0|0:0|0:0,0:0:0:0:
245,185,149171,2,0,P|215:195|155:189,2,66.6666666666667,2|0|0,0:0|0:0|0:0,0:0:0:0:
364,158,149444,2,0,P|393:142|426:136,1,66.6666666666667,2|0,0:0|0:0,0:0:0:0:
511,266,149626,1,0,0:0:0:0:
426,226,149716,5,10,0:0:0:0:
427,160,149806,1,0,0:0:0:0:
471,112,149899,1,0,0:0:0:0:
474,48,149989,1,2,0:0:0:0:
421,13,150080,1,0,0:0:0:0:
364,42,150171,1,0,0:0:0:0:
360,105,150262,1,2,0:0:0:0:
312,152,150353,1,0,0:0:0:0:
246,138,150444,1,0,0:0:0:0:
216,78,150535,5,2,0:0:0:0:
268,119,150626,1,0,0:0:0:0:
262,184,150716,1,0,0:0:0:0:
218,234,150807,6,0,P|172:243|136:237,1,66.6666666666667,2|0,0:0|0:0,0:0:0:0:
113,169,150989,1,0,0:0:0:0:
229,249,151080,6,0,P|224:295|202:340,1,66.6666666666667,2|0,0:0|0:0,0:0:0:0:
83,379,151262,1,0,0:0:0:0:
201,338,151353,6,0,P|227:331|272:337,3,50,8|8|8|8,2:0|2:0|2:0|2:0,0:0:0:0:
359,328,151626,5,0,0:0:0:0:
346,289,151694,1,0,0:0:0:0:
333,251,151762,1,0,0:0:0:0:
321,212,151830,1,0,0:0:0:0:
306,200,151898,6,0,P|272:216|228:219,1,50,0|0,0:0|0:0,0:0:0:0:
352,113,152035,2,0,P|377:119|402:120,1,50,0|0,0:0|0:0,0:0:0:0:
271,41,152171,6,0,P|214:31|161:51,1,100,4|0,0:1|0:0,0:0:0:0:
139,155,152444,1,2,0:1:0:0:
88,173,152512,1,8,0:0:0:0:
40,151,152580,1,0,0:0:0:0:
22,100,152648,1,8,0:0:0:0:
46,52,152716,1,2,0:1:0:0:
97,36,152784,1,8,0:0:0:0:
144,61,152853,1,0,0:0:0:0:
167,109,152921,1,8,0:0:0:0:
152,161,152989,5,2,0:1:0:0:
145,219,153057,1,8,0:0:0:0:
180,265,153125,1,0,0:0:0:0:
238,274,153193,1,8,0:0:0:0:
286,241,153261,1,2,0:1:0:0:
297,183,153329,1,8,0:0:0:0:
272,128,153398,1,0,0:0:0:0:
263,68,153466,1,8,0:0:0:0:
293,15,153535,1,2,0:1:0:0:
351,1,153603,1,8,0:0:0:0:
404,27,153671,1,0,0:0:0:0:
418,85,153739,1,8,0:0:0:0:
385,135,153807,5,2,0:1:0:0:
355,193,153876,1,8,0:0:0:0:
366,256,153944,1,0,0:0:0:0:
417,295,154012,1,8,0:0:0:0:
481,285,154080,1,2,0:1:0:0:
511,227,154148,1,8,0:0:0:0:
485,167,154216,1,0,0:0:0:0:
425,137,154285,1,8,0:0:0:0:
360,145,154353,1,2,0:1:0:0:
307,182,154421,1,8,0:0:0:0:
248,210,154489,1,0,0:0:0:0:
184,195,154557,1,8,0:0:0:0:
143,143,154626,6,0,P|192:108|240:113,1,100,6|0,0:0|0:0,0:0:0:0:
269,370,154898,2,0,P|234:321|239:273,1,100,2|0,0:0|0:0,0:0:0:0:
403,101,155171,2,0,P|393:160|355:190,1,100,2|0,0:0|0:0,0:0:0:0:
61,197,155444,6,0,L|44:57,1,100,10|0,0:0|0:0,0:0:0:0:
262,4,155716,2,0,L|245:144,1,100,2|0,0:0|0:0,0:0:0:0:
157,354,155989,2,0,L|144:254,1,100,2|0,0:0|0:0,0:0:0:0:
126,81,156262,1,2,0:0:0:0:
28,261,156398,1,0,0:0:0:0:
214,166,156535,1,2,0:0:0:0:
11,238,156671,1,0,0:0:0:0:
249,282,156807,1,2,0:0:0:0:
0,219,156944,1,0,0:0:0:0:
284,87,157080,6,0,B|303:125|303:125|290:288,1,200,14|2,0:0|0:2,0:0:0:0:
155,139,157489,1,0,0:0:0:0:
383,70,157626,1,2,0:2:0:0:
383,70,157694,1,2,0:2:0:0:
383,70,157762,1,10,0:2:0:0:
347,330,157898,6,0,L|462:318,1,100,14|0,0:0|0:0,0:0:0:0:
302,182,158171,1,2,0:0:0:0:
259,288,158307,1,0,0:0:0:0:
443,207,158444,1,2,0:0:0:0:
381,121,158580,1,0,0:0:0:0:
488,13,158716,6,0,L|513:122,1,100,10|0,0:0|0:0,0:0:0:0:
334,334,158989,1,2,0:0:0:0:
453,199,159126,1,8,0:0:0:0:
271,269,159262,1,2,0:0:0:0:
468,190,159398,1,0,0:0:0:0:
255,192,159535,6,0,B|248:112|248:112|259:79|259:79|249:-22,1,200,2|2,0:0|0:0,0:0:0:0:
138,158,159944,1,8,0:0:0:0:
370,108,160080,2,0,L|360:2,1,100,2|0,0:0|0:0,0:0:0:0:
268,265,160353,5,8,2:0:0:0:
317,256,160421,1,8,2:0:0:0:
366,247,160489,1,8,2:0:0:0:
415,238,160557,1,8,2:0:0:0:
451,226,160626,5,0,0:0:0:0:
449,250,160694,1,0,0:0:0:0:
448,275,160762,1,0,0:0:0:0:
447,300,160830,1,0,0:0:0:0:
434,330,160898,6,0,P|407:309|395:286,1,50,8|8,2:0|2:0,0:0:0:0:
512,182,161035,2,0,P|516:215|508:240,1,50,8|8,2:0|2:0,0:0:0:0:
361,377,161171,6,0,P|303:382|250:342,1,100,6|0,0:0|0:0,0:0:0:0:
201,235,161444,1,2,0:1:0:0:
164,208,161512,1,8,0:0:0:0:
119,215,161580,1,0,0:0:0:0:
89,249,161648,1,8,0:0:0:0:
84,293,161716,1,2,0:1:0:0:
109,330,161785,1,8,0:0:0:0:
153,338,161853,1,0,0:0:0:0:
193,318,161921,1,8,0:0:0:0:
210,276,161989,5,2,0:1:0:0:
237,234,162057,1,8,0:0:0:0:
281,210,162126,1,0,0:0:0:0:
330,213,162194,1,8,0:0:0:0:
368,245,162262,1,2,0:1:0:0:
385,291,162330,1,8,0:0:0:0:
372,339,162398,1,0,0:0:0:0:
330,366,162466,1,8,0:0:0:0:
280,354,162535,1,2,0:1:0:0:
261,307,162603,1,8,0:0:0:0:
274,259,162671,1,0,0:0:0:0:
312,227,162739,1,8,0:0:0:0:
360,214,162807,5,2,0:1:0:0:
387,183,162876,1,8,0:0:0:0:
395,143,162944,1,0,0:0:0:0:
384,104,163012,1,8,0:0:0:0:
357,74,163080,1,2,0:1:0:0:
319,61,163148,1,8,0:0:0:0:
279,68,163216,1,0,0:0:0:0:
245,90,163285,1,8,0:0:0:0:
223,123,163353,1,2,0:1:0:0:
188,143,163421,1,8,0:0:0:0:
148,144,163489,1,0,0:0:0:0:
114,122,163557,1,8,0:0:0:0:
101,83,163626,6,0,P|120:34|142:18,2,66.6666666666667,6|0|0,0:0|0:0|0:0,0:0:0:0:
251,180,163898,2,0,P|232:131|210:115,2,66.6666666666667,2|0|0,0:0|0:0|0:0,0:0:0:0:
101,277,164171,2,0,P|120:228|142:212,2,66.6666666666667,2|0|0,0:0|0:0|0:0,0:0:0:0:
241,344,164444,5,10,0:0:0:0:
303,321,164535,1,0,0:0:0:0:
344,269,164626,1,0,0:0:0:0:
342,204,164716,1,2,0:0:0:0:
303,150,164807,1,0,0:0:0:0:
241,128,164898,1,0,0:0:0:0:
197,77,164989,2,0,P|195:27|222:-4,2,66.6666666666667,2|0|0,0:0|0:0|0:0,0:0:0:0:
253,237,165262,5,2,0:0:0:0:
197,274,165353,1,0,0:0:0:0:
130,278,165444,1,0,0:0:0:0:
77,236,165535,2,0,P|65:278|76:333,2,66.6666666666667,2|0|0,0:0|0:0|0:0,0:0:0:0:
156,127,165807,2,0,P|168:169|157:224,2,66.6666666666667,2|0|0,0:0|0:0|0:0,0:0:0:0:
62,61,166080,5,14,0:0:0:0:
116,21,166171,1,0,0:0:0:0:
182,19,166262,1,0,0:0:0:0:
233,61,166353,1,2,0:2:0:0:
214,158,166444,5,8,0:0:0:0:
208,149,166535,1,8,0:0:0:0:
301,127,166626,2,0,P|326:140|384:137,2,66.6666666666667,2|0|0,0:2|0:0|0:0,0:0:0:0:
441,62,166898,5,6,0:0:0:0:
470,121,166989,1,0,0:0:0:0:
447,183,167080,1,0,0:0:0:0:
383,204,167171,1,2,0:0:0:0:
350,262,167262,1,0,0:0:0:0:
367,326,167353,1,0,0:0:0:0:
424,359,167444,2,0,P|434:312|428:283,2,66.6666666666667,2|0|0,0:0|0:0|0:0,0:0:0:0:
335,249,167716,5,10,0:0:0:0:
268,242,167807,1,0,0:0:0:0:
207,269,167898,1,0,0:0:0:0:
172,326,167989,1,2,0:0:0:0:
112,356,168080,1,0,0:0:0:0:
48,335,168171,1,0,0:0:0:0:
27,271,168262,2,0,P|23:310|7:360,2,66.6666666666667,2|0|0,0:0|0:0|0:0,0:0:0:0:
3,141,168535,5,8,2:0:0:0:
55,149,168603,1,8,2:0:0:0:
107,157,168671,1,8,2:0:0:0:
159,165,168739,1,8,2:0:0:0:
193,172,168807,5,0,0:0:0:0:
186,147,168876,1,0,0:0:0:0:
178,123,168944,1,0,0:0:0:0:
172,98,169012,1,0,0:0:0:0:
143,84,169080,5,0,0:0:0:0:
151,66,169148,1,0,0:0:0:0:
159,48,169216,1,0,0:0:0:0:
167,30,169285,1,0,0:0:0:0:
201,31,169353,5,8,2:0:0:0:
146,24,169421,1,8,2:0:0:0:
91,20,169489,1,8,2:0:0:0:
36,14,169557,1,8,2:0:0:0:
12,5,169626,5,0,0:0:0:0:
17,29,169694,1,0,0:0:0:0:
22,53,169762,1,0,0:0:0:0:
27,77,169830,1,0,0:0:0:0:
48,99,169898,5,0,0:0:0:0:
45,113,169966,1,0,0:0:0:0:
42,128,170035,1,0,0:0:0:0:
40,142,170103,1,0,0:0:0:0:
6,174,170171,6,0,P|46:201|132:171,1,100,6|0,0:0|0:0,0:0:0:0:
223,85,170444,1,2,0:1:0:0:
267,92,170512,1,8,0:0:0:0:
302,119,170580,1,0,0:0:0:0:
319,160,170648,1,8,0:0:0:0:
319,204,170716,1,2,0:1:0:0:
304,247,170785,1,8,0:0:0:0:
271,277,170853,1,0,0:0:0:0:
226,283,170921,1,8,0:0:0:0:
189,256,170989,5,2,0:1:0:0:
232,222,171057,1,8,0:0:0:0:
287,222,171126,1,0,0:0:0:0:
334,250,171194,1,8,0:0:0:0:
373,287,171262,1,2,0:1:0:0:
427,289,171330,1,8,0:0:0:0:
476,264,171398,1,0,0:0:0:0:
492,211,171466,1,8,0:0:0:0:
477,157,171535,1,2,0:1:0:0:
435,120,171603,1,8,0:0:0:0:
405,73,171671,1,0,0:0:0:0:
418,19,171739,1,8,0:0:0:0:
470,1,171807,5,2,0:1:0:0:
473,31,171876,1,8,0:0:0:0:
458,57,171944,1,0,0:0:0:0:
432,73,172012,1,8,0:0:0:0:
403,81,172080,1,2,0:1:0:0:
366,66,172148,1,8,0:0:0:0:
327,56,172216,1,0,0:0:0:0:
286,60,172285,1,8,0:0:0:0:
251,79,172353,1,2,0:1:0:0:
230,118,172421,1,8,0:0:0:0:
232,162,172489,1,0,0:0:0:0:
257,199,172557,1,8,0:0:0:0:
300,212,172626,5,6,0:0:0:0:
300,212,173716,5,0,0:0:0:0:
32,333,173853,1,0,0:0:0:0:
300,212,174262,5,0,0:0:0:0:
0,248,174399,1,0,0:0:0:0:
300,212,174807,5,0,0:0:0:0:
278,199,174876,1,0,0:0:0:0:
256,186,174944,1,0,0:0:0:0:
435,197,175080,1,0,0:0:0:0:
311,373,175216,1,0,0:0:0:0:
366,109,175353,5,4,0:0:0:0:
358,85,175421,1,8,0:0:0:0:
339,67,175489,1,0,0:0:0:0:
315,59,175557,1,8,0:0:0:0:
290,61,175625,1,2,0:0:0:0:
268,81,175693,1,8,0:0:0:0:
241,92,175761,1,0,0:0:0:0:
211,92,175829,1,8,0:0:0:0:
185,77,175897,5,2,0:0:0:0:
155,81,175966,1,8,0:0:0:0:
130,94,176034,1,0,0:0:0:0:
111,118,176103,1,8,0:0:0:0:
99,144,176171,1,2,0:0:0:0:
99,174,176239,1,8,0:0:0:0:
112,202,176307,1,0,0:0:0:0:
133,223,176375,1,8,0:0:0:0:
164,230,176443,5,2,0:0:0:0:
140,198,176512,1,8,0:0:0:0:
100,196,176580,1,0,0:0:0:0:
75,227,176648,1,8,0:0:0:0:
79,266,176716,1,2,0:0:0:0:
108,292,176784,1,8,0:0:0:0:
148,293,176853,1,0,0:0:0:0:
184,276,176921,1,8,0:0:0:0:
223,273,176989,5,2,0:0:0:0:
266,298,177057,1,8,0:0:0:0:
271,347,177125,1,0,0:0:0:0:
235,381,177193,1,8,0:0:0:0:
186,369,177261,1,2,0:0:0:0:
161,325,177329,1,8,0:0:0:0:
115,302,177398,1,0,0:0:0:0:
65,303,177466,1,8,0:0:0:0:
27,335,177534,5,2,0:0:0:0:
54,299,177602,1,8,0:0:0:0:
75,259,177670,1,0,0:0:0:0:
83,214,177739,1,8,0:0:0:0:
80,169,177807,1,2,0:0:0:0:
59,129,177875,1,8,0:0:0:0:
59,84,177943,1,0,0:0:0:0:
89,50,178011,1,8,0:0:0:0:
133,44,178079,5,2,0:0:0:0:
152,59,178148,1,8,0:0:0:0:
175,67,178216,1,0,0:0:0:0:
199,72,178284,1,8,0:0:0:0:
223,68,178352,1,2,0:0:0:0:
246,60,178420,1,8,0:0:0:0:
267,46,178489,1,0,0:0:0:0:
290,37,178557,1,8,0:0:0:0:
314,35,178625,1,2,0:0:0:0:
338,39,178693,1,8,0:0:0:0:
361,48,178761,1,0,0:0:0:0:
379,64,178829,1,8,0:0:0:0:
391,86,178898,1,2,0:0:0:0:
396,110,178966,1,8,0:0:0:0:
392,134,179034,1,0,0:0:0:0:
381,156,179102,1,8,0:0:0:0:
376,180,179170,5,2,0:0:0:0:
379,194,179239,1,8,0:0:0:0:
387,206,179307,1,0,0:0:0:0:
399,214,179375,1,8,0:0:0:0:
413,219,179443,1,2,0:0:0:0:
427,221,179511,1,8,0:0:0:0:
441,218,179579,1,0,0:0:0:0:
454,211,179648,1,8,0:0:0:0:
465,200,179716,2,0,P|483:187|523:178,7,50,2|8|0|8|2|8|0|8,0:0|0:0|0:0|0:0|0:0|0:0|0:0|0:0,0:0:0:0:
454,310,180261,5,2,0:0:0:0:
429,316,180329,1,8,0:0:0:0:
403,316,180398,1,0,0:0:0:0:
379,307,180466,1,8,0:0:0:0:
360,290,180534,1,2,0:0:0:0:
337,279,180602,1,8,0:0:0:0:
312,277,180670,1,0,0:0:0:0:
287,282,180739,1,8,0:0:0:0:
268,298,180807,1,2,0:0:0:0:
255,325,180875,1,8,0:0:0:0:
260,354,180943,1,0,0:0:0:0:
281,374,181011,1,8,0:0:0:0:
309,381,181079,1,2,0:0:0:0:
338,374,181148,1,8,0:0:0:0:
355,349,181216,1,0,0:0:0:0:
358,319,181284,1,8,0:0:0:0:
349,290,181352,5,2,0:0:0:0:
325,263,181420,1,8,0:0:0:0:
312,230,181489,1,0,0:0:0:0:
311,190,181557,1,8,0:0:0:0:
330,155,181625,1,2,0:0:0:0:
367,130,181693,1,8,0:0:0:0:
411,127,181761,1,0,0:0:0:0:
450,148,181829,1,8,0:0:0:0:
474,186,181898,6,0,L|477:263,3,50,2|8|0|8,0:0|0:0|0:0|0:0,0:0:0:0:
349,290,182171,2,0,L|357:213,3,50,2|8|0|8,0:0|0:0|0:0|0:0,0:0:0:0:
280,158,182443,5,8,2:0:0:0:
230,153,182511,1,8,2:0:0:0:
180,148,182579,1,8,2:0:0:0:
130,143,182647,1,8,2:0:0:0:
114,159,182715,5,0,0:0:0:0:
79,166,182785,1,0,0:0:0:0:
44,174,182852,1,0,0:0:0:0:
10,183,182920,1,0,0:0:0:0:
0,197,182988,5,8,2:0:0:0:
1,167,183057,1,8,2:0:0:0:
1,137,183126,1,8,2:0:0:0:
1,106,183193,1,8,2:0:0:0:
0,88,183261,6,0,L|51:78,1,50,0|0,0:0|0:0,0:0:0:0:
114,262,183398,2,0,L|63:252,1,50,0|0,0:0|0:0,0:0:0:0:
169,91,183534,5,0,0:0:0:0:
177,119,183602,1,0,0:0:0:0:
180,148,183670,1,0,0:0:0:0:
52,248,183807,1,0,0:0:0:0:
180,179,183943,1,0,0:0:0:0:
344,324,184081,6,0,L|334:373,3,50,6|0|0|0,0:0|0:0|0:0|0:0,0:0:0:0:
433,280,184353,5,2,0:1:0:0:
431,225,184421,1,8,0:0:0:0:
398,179,184490,1,0,0:0:0:0:
343,175,184558,1,8,0:0:0:0:
299,208,184626,1,2,0:1:0:0:
244,209,184694,1,8,0:0:0:0:
202,173,184762,1,0,0:0:0:0:
196,117,184831,1,8,0:0:0:0:
229,73,184899,1,2,0:1:0:0:
283,67,184967,1,8,0:0:0:0:
327,98,185035,1,0,0:0:0:0:
340,151,185103,1,8,0:0:0:0:
315,188,185171,5,2,0:1:0:0:
303,226,185240,1,8,0:0:0:0:
303,265,185308,1,0,0:0:0:0:
314,297,185376,1,8,0:0:0:0:
333,319,185444,1,2,0:1:0:0:
360,330,185512,1,8,0:0:0:0:
390,329,185581,1,0,0:0:0:0:
415,313,185649,1,8,0:0:0:0:
430,287,185717,1,2,0:1:0:0:
426,257,185785,1,8,0:0:0:0:
408,232,185853,1,0,0:0:0:0:
380,221,185921,1,8,0:0:0:0:
349,224,185990,1,2,0:1:0:0:
324,240,186058,1,8,0:0:0:0:
297,254,186126,1,0,0:0:0:0:
267,259,186194,1,8,0:0:0:0:
238,249,186262,5,2,0:1:0:0:
225,232,186331,1,8,0:0:0:0:
227,212,186399,1,0,0:0:0:0:
243,200,186467,1,8,0:0:0:0:
261,198,186535,1,2,0:1:0:0:
278,207,186603,1,8,0:0:0:0:
287,224,186671,1,0,0:0:0:0:
284,244,186740,1,8,0:0:0:0:
273,261,186808,1,2,0:1:0:0:
255,270,186876,1,8,0:0:0:0:
235,274,186944,1,0,0:0:0:0:
215,273,187012,1,8,0:0:0:0:
196,265,187081,1,2,0:1:0:0:
180,252,187149,1,8,0:0:0:0:
171,234,187217,1,0,0:0:0:0:
169,214,187285,1,8,0:0:0:0:
173,194,187353,5,2,0:1:0:0:
180,165,187421,1,8,0:0:0:0:
177,134,187490,1,0,0:0:0:0:
159,109,187558,1,8,0:0:0:0:
130,100,187626,1,2,0:1:0:0:
100,106,187694,1,8,0:0:0:0:
81,129,187762,1,0,0:0:0:0:
78,159,187831,1,8,0:0:0:0:
101,191,187899,5,2,0:1:0:0:
139,200,187967,1,8,0:0:0:0:
178,202,188035,1,0,0:0:0:0:
216,191,188103,1,8,0:0:0:0:
245,163,188171,1,2,0:1:0:0:
281,146,188239,1,8,0:0:0:0:
321,146,188308,1,2,0:1:0:0:
358,158,188376,1,8,0:0:0:0:
384,187,188444,1,2,0:1:0:0:
396,224,188512,1,8,0:0:0:0:
396,263,188580,1,0,0:0:0:0:
380,300,188649,1,8,0:0:0:0:
345,320,188717,1,2,0:1:0:0:
305,327,188785,1,8,0:0:0:0:
265,319,188853,1,0,0:0:0:0:
232,296,188921,1,8,0:0:0:0:
209,263,188989,1,2,0:1:0:0:
172,228,189058,1,8,0:0:0:0:
122,228,189126,1,0,0:0:0:0:
86,263,189194,1,8,0:0:0:0:
77,312,189262,1,2,0:1:0:0:
99,356,189330,1,8,0:0:0:0:
146,372,189399,1,0,0:0:0:0:
191,351,189467,1,8,0:0:0:0:
214,306,189535,5,2,0:1:0:0:
185,298,189603,1,8,0:0:0:0:
155,294,189671,1,0,0:0:0:0:
125,297,189739,1,8,0:0:0:0:
95,305,189808,1,2,0:1:0:0:
352,344,190080,6,0,L|469:329,1,100,14|0,0:0|0:0,0:0:0:0:
303,81,190353,1,8,2:0:0:0:
279,130,190421,1,8,2:0:0:0:
269,184,190489,1,8,2:0:0:0:
267,239,190558,1,8,2:0:0:0:
274,260,190626,5,0,0:0:0:0:
234,238,190694,1,0,0:0:0:0:
194,216,190762,1,0,0:0:0:0:
154,194,190830,5,0,0:0:0:0:
154,180,190899,1,0,0:0:0:0:
134,209,190967,1,0,0:0:0:0:
106,230,191035,1,0,0:0:0:0:
71,237,191103,1,0,0:0:0:0:
56,227,191171,5,8,2:0:0:0:
64,276,191239,1,8,2:0:0:0:
73,325,191308,1,8,2:0:0:0:
85,373,191376,1,8,2:0:0:0:
100,383,191444,5,0,0:0:0:0:
123,364,191512,1,0,0:0:0:0:
152,357,191580,1,0,0:0:0:0:
182,356,191649,1,0,0:0:0:0:
193,369,191717,5,8,2:0:0:0:
242,362,191785,1,8,2:0:0:0:
291,355,191853,1,8,2:0:0:0:
340,348,191921,1,8,2:0:0:0:
356,352,191989,5,0,0:0:0:0:
362,317,192058,1,0,0:0:0:0:
368,282,192126,1,0,0:0:0:0:
374,247,192194,1,0,0:0:0:0:
402,202,192262,6,0,B|408:159|385:133|385:133|343:123|312:66,1,150,6|0,0:1|0:0,0:0:0:0:
296,17,192535,2,0,P|296:89|213:163,1,150,6|0,0:2|0:0,0:0:0:0:
152,111,192808,2,0,L|41:122,1,104.999996795654,6|0,0:0|0:0,0:0:0:0:
36,203,193353,5,14,0:0:0:0:
40,211,193421,1,0,0:0:0:0:
44,219,193489,1,0,0:0:0:0:
45,228,193558,1,0,0:0:0:0:
45,237,193626,1,0,0:0:0:0:
43,246,193694,1,0,0:0:0:0:
39,255,193762,1,0,0:0:0:0:
34,263,193830,1,0,0:0:0:0:
26,276,193899,1,2,0:0:0:0:
22,290,193967,1,0,0:0:0:0:
24,304,194035,1,0,0:0:0:0:
29,317,194103,1,0,0:0:0:0:
39,327,194171,2,0,L|110:311,1,50,0|0,0:0|0:0,0:0:0:0:
147,244,194308,2,0,L|218:260,1,50,0|0,0:0|0:0,0:0:0:0:
295,326,194444,5,2,0:0:0:0:
307,310,194512,1,0,0:0:0:0:
314,291,194580,1,0,0:0:0:0:
314,270,194649,1,0,0:0:0:0:
312,250,194717,1,0,0:0:0:0:
303,232,194785,1,0,0:0:0:0:
294,213,194853,1,0,0:0:0:0:
288,193,194921,1,0,0:0:0:0:
288,173,194989,5,2,0:0:0:0:
312,168,195058,1,0,0:0:0:0:
336,173,195126,1,0,0:0:0:0:
357,185,195194,1,0,0:0:0:0:
377,199,195262,5,0,0:0:0:0:
398,178,195330,1,0,0:0:0:0:
406,148,195399,1,0,0:0:0:0:
403,118,195467,1,0,0:0:0:0:
391,90,195535,5,10,0:0:0:0:
387,99,195603,1,0,0:0:0:0:
385,108,195671,1,0,0:0:0:0:
385,117,195739,1,0,0:0:0:0:
387,126,195808,1,0,0:0:0:0:
390,135,195876,1,0,0:0:0:0:
394,143,195944,1,0,0:0:0:0:
399,151,196012,1,0,0:0:0:0:
406,157,196080,1,2,0:0:0:0:
417,173,196149,1,0,0:0:0:0:
425,190,196217,1,0,0:0:0:0:
428,209,196285,1,0,0:0:0:0:
425,228,196353,1,0,0:0:0:0:
418,246,196421,1,0,0:0:0:0:
406,262,196489,1,0,0:0:0:0:
388,272,196558,1,0,0:0:0:0:
368,276,196626,5,6,0:0:0:0:
347,290,196694,1,0,0:0:0:0:
338,313,196762,1,0,0:0:0:0:
340,337,196830,1,0,0:0:0:0:
356,356,196899,1,0,0:0:0:0:
378,365,196967,1,0,0:0:0:0:
402,360,197035,1,0,0:0:0:0:
424,349,197103,1,0,0:0:0:0:
439,329,197171,1,2,0:0:0:0:
444,304,197239,1,0,0:0:0:0:
434,280,197308,1,0,0:0:0:0:
416,262,197376,1,0,0:0:0:0:
392,254,197444,1,0,0:0:0:0:
367,255,197512,1,0,0:0:0:0:
343,262,197580,1,0,0:0:0:0:
321,275,197649,1,0,0:0:0:0:
304,293,197717,5,10,0:0:0:0:
290,277,197785,1,0,0:0:0:0:
281,259,197853,1,0,0:0:0:0:
279,239,197921,1,0,0:0:0:0:
287,220,197989,2,0,L|345:204,1,50,0|0,0:0|0:0,0:0:0:0:
485,164,198126,2,0,L|427:148,1,50,0|0,0:0|0:0,0:0:0:0:
294,111,198262,5,2,0:0:0:0:
297,96,198330,1,0,0:0:0:0:
301,81,198399,1,0,0:0:0:0:
304,66,198467,1,0,0:0:0:0:
282,49,198535,5,0,0:0:0:0:
277,40,198603,1,0,0:0:0:0:
272,31,198671,1,0,0:0:0:0:
267,22,198739,1,0,0:0:0:0:
286,0,198808,2,0,L|338:11,3,50,4|0|0|0,0:2|0:0|0:0|0:0,0:0:0:0:
431,33,199080,5,0,0:0:0:0:
424,62,199149,1,0,0:0:0:0:
417,91,199217,1,0,0:0:0:0:
410,120,199285,1,0,0:0:0:0:
403,149,199353,2,0,L|380:77,3,50,0|0|0|0,0:0|0:0|0:0|0:0,0:0:0:0:
452,252,199626,5,0,0:0:0:0:
427,248,199694,1,0,0:0:0:0:
402,243,199762,1,0,0:0:0:0:
377,239,199830,1,0,0:0:0:0:
351,235,199899,2,0,L|367:305,3,50,0|0|0|0,0:0|0:0|0:0|0:0,0:0:0:0:
508,373,200171,6,0,L|458:368,1,50,0|0,0:0|0:0,0:0:0:0:
461,211,200307,2,0,L|412:222,1,50,0|0,0:0|0:0,0:0:0:0:
362,350,200444,2,0,L|312:345,1,50,0|0,0:0|0:0,0:0:0:0:
299,223,200580,2,0,L|250:234,1,50,0|0,0:0|0:0,0:0:0:0:
185,333,200716,2,0,L|135:328,1,50
57,255,200853,2,0,L|8:266,1,50,0|0,0:0|0:0,0:0:0:0:
0,349,200989,6,0,B|41:318|83:330|83:330|85:326|85:326|122:341|158:323,1,150,6|0,0:1|0:0,0:0:0:0:
185,333,201262,2,0,B|202:276|187:243|187:243|170:221|165:188,1,150,6|0,0:2|0:0,0:0:0:0:
200,165,201535,2,0,L|96:145,1,104.999996795654,6|0,0:0|0:0,0:0:0:0:
35,104,202080,5,4,0:0:0:0:
31,97,202149,1,0,0:0:0:0:
29,89,202217,1,0,0:0:0:0:
28,81,202285,1,0,0:0:0:0:
29,73,202353,1,0,0:0:0:0:
30,65,202421,1,0,0:0:0:0:
33,58,202489,1,0,0:0:0:0:
38,52,202558,1,0,0:0:0:0:
44,48,202626,5,2,0:0:0:0:
57,54,202694,1,0,0:0:0:0:
71,56,202762,1,0,0:0:0:0:
85,57,202830,1,0,0:0:0:0:
100,55,202899,1,0,0:0:0:0:
114,51,202967,1,0,0:0:0:0:
128,45,203035,1,0,0:0:0:0:
140,37,203103,1,0,0:0:0:0:
151,27,203171,5,6,0:0:0:0:
162,36,203239,1,0,0:0:0:0:
170,48,203308,1,0,0:0:0:0:
175,62,203376,1,0,0:0:0:0:
178,76,203444,1,0,0:0:0:0:
179,90,203512,1,0,0:0:0:0:
177,104,203580,1,0,0:0:0:0:
172,118,203649,1,0,0:0:0:0:
166,131,203717,5,2,0:0:0:0:
160,149,203785,1,0,0:0:0:0:
161,168,203853,1,0,0:0:0:0:
168,185,203921,1,0,0:0:0:0:
181,199,203989,1,0,0:0:0:0:
197,209,204058,1,0,0:0:0:0:
215,215,204126,1,0,0:0:0:0:
234,217,204194,1,0,0:0:0:0:
253,214,204262,6,0,L|259:111,1,100,14|0,0:0|0:0,0:0:0:0:
260,10,204535,1,8,2:0:0:0:
307,25,204603,1,8,2:0:0:0:
354,40,204671,1,8,2:0:0:0:
401,55,204739,1,8,2:0:0:0:
436,49,204808,5,0,0:0:0:0:
428,77,204876,1,0,0:0:0:0:
420,105,204944,1,0,0:0:0:0:
412,133,205012,1,0,0:0:0:0:
381,158,205080,2,0,L|474:173,1,50,0|0,0:0|0:0,0:0:0:0:
512,268,205217,2,0,L|419:283,1,50,0|0,0:0|0:0,0:0:0:0:
395,358,205353,5,6,0:0:0:0:
351,382,205421,1,8,0:0:0:0:
301,380,205489,1,0,0:0:0:0:
259,351,205558,1,8,0:0:0:0:
244,303,205626,1,2,0:1:0:0:
244,253,205694,1,8,0:0:0:0:
230,205,205762,1,0,0:0:0:0:
191,173,205830,1,8,0:0:0:0:
140,167,205899,1,2,0:1:0:0:
92,182,205967,1,8,0:0:0:0:
62,222,206035,1,0,0:0:0:0:
60,271,206103,1,8,0:0:0:0:
84,314,206171,1,2,0:1:0:0:
114,330,206239,1,8,0:0:0:0:
149,333,206308,1,0,0:0:0:0:
181,321,206376,1,8,0:0:0:0:
204,294,206444,5,2,0:1:0:0:
246,268,206512,1,8,0:0:0:0:
295,265,206580,1,0,0:0:0:0:
338,290,206649,1,8,0:0:0:0:
374,324,206717,1,2,0:1:0:0:
423,328,206785,1,8,0:0:0:0:
467,305,206853,1,0,0:0:0:0:
491,261,206921,1,8,0:0:0:0:
491,211,206989,1,2,0:1:0:0:
465,167,207058,1,8,0:0:0:0:
416,157,207126,1,0,0:0:0:0:
369,174,207194,1,8,0:0:0:0:
338,213,207262,1,2,0:1:0:0:
296,239,207330,1,8,0:0:0:0:
245,244,207399,1,0,0:0:0:0:
202,217,207467,1,8,0:0:0:0:
182,171,207535,5,2,0:1:0:0:
183,166,207603,1,8,0:0:0:0:
184,161,207671,1,0,0:0:0:0:
185,156,207739,1,8,0:0:0:0:
186,151,207808,1,2,0:1:0:0:
187,146,207876,1,8,0:0:0:0:
188,141,207944,1,0,0:0:0:0:
189,136,208012,1,8,0:0:0:0:
190,131,208080,1,2,0:1:0:0:
191,126,208149,1,8,0:0:0:0:
192,121,208217,1,0,0:0:0:0:
193,116,208285,1,8,0:0:0:0:
194,111,208353,2,0,L|225:178,3,50,2|8|0|8,0:1|0:0|0:0|0:0,0:0:0:0:
261,241,208626,5,2,0:1:0:0:
260,245,208694,1,8,0:0:0:0:
259,249,208762,1,0,0:0:0:0:
258,253,208830,1,8,0:0:0:0:
257,257,208899,1,2,0:1:0:0:
256,261,208967,1,8,0:0:0:0:
255,265,209035,1,0,0:0:0:0:
249,273,209103,1,8,0:0:0:0:
237,282,209171,1,2,0:1:0:0:
218,289,209239,1,8,0:0:0:0:
192,292,209308,1,0,0:0:0:0:
162,285,209376,1,8,0:0:0:0:
135,261,209444,1,2,0:1:0:0:
111,228,209512,1,8,0:0:0:0:
69,211,209580,1,0,0:0:0:0:
18,218,209649,1,8,0:0:0:0:
0,264,209717,6,0,L|157:232,1,150,6|0,0:1|0:0,0:0:0:0:
164,234,209989,2,0,P|138:188|176:76,1,150,6|0,0:0|0:0,0:0:0:0:
185,77,210262,2,0,L|73:49,1,104.999996795654,6|0,0:0|0:0,0:0:0:0:
24,118,210808,5,4,0:1:0:0:
28,126,210876,1,0,0:0:0:0:
31,135,210944,1,0,0:0:0:0:
33,144,211012,1,0,0:0:0:0:
33,153,211080,1,0,0:0:0:0:
31,162,211149,1,0,0:0:0:0:
28,171,211217,1,0,0:0:0:0:
24,180,211285,1,0,0:0:0:0:
22,194,211353,1,2,0:0:0:0:
23,208,211421,1,0,0:0:0:0:
28,222,211489,1,0,0:0:0:0:
36,234,211558,1,0,0:0:0:0:
46,244,211626,2,0,P|82:257|102:257,1,50,0|0,0:0|0:0,0:0:0:0:
131,332,211762,2,0,P|155:328|178:318,1,50,0|0,0:0|0:0,0:0:0:0:
227,249,211899,5,2,0:0:0:0:
231,229,211967,1,0,0:0:0:0:
231,209,212035,1,0,0:0:0:0:
225,189,212103,1,0,0:0:0:0:
214,172,212171,1,0,0:0:0:0:
205,153,212239,1,0,0:0:0:0:
202,132,212308,1,0,0:0:0:0:
205,112,212376,1,0,0:0:0:0:
214,94,212444,1,2,0:0:0:0:
236,82,212512,1,0,0:0:0:0:
260,80,212580,1,0,0:0:0:0:
283,88,212649,1,0,0:0:0:0:
302,103,212717,1,0,0:0:0:0:
327,117,212785,1,0,0:0:0:0:
356,120,212853,1,0,0:0:0:0:
384,111,212921,1,0,0:0:0:0:
405,90,212989,5,10,0:0:0:0:
404,100,213058,1,0,0:0:0:0:
404,109,213126,1,0,0:0:0:0:
404,118,213194,1,0,0:0:0:0:
405,127,213262,1,0,0:0:0:0:
407,136,213330,1,0,0:0:0:0:
409,145,213399,1,0,0:0:0:0:
412,154,213467,1,0,0:0:0:0:
417,162,213535,6,0,L|488:168,1,50,4|0,0:2|0:0,0:0:0:0:
320,219,213671,2,0,L|249:225,1,50,8|0,0:0|0:0,0:0:0:0:
463,256,213808,2,0,L|534:262,1,50,8|0,0:0|0:0,0:0:0:0:
276,315,213944,2,0,L|205:321,1,50,4|0,0:0|0:0,0:0:0:0:
408,378,214080,5,2,0:0:0:0:
410,368,214149,1,0,0:0:0:0:
410,358,214217,1,0,0:0:0:0:
409,348,214285,1,0,0:0:0:0:
406,338,214353,1,0,0:0:0:0:
402,328,214421,1,0,0:0:0:0:
397,319,214489,1,0,0:0:0:0:
391,310,214558,1,0,0:0:0:0:
384,302,214626,1,2,0:0:0:0:
376,289,214694,1,0,0:0:0:0:
374,274,214762,1,0,0:0:0:0:
375,259,214830,1,0,0:0:0:0:
381,245,214899,1,0,0:0:0:0:
391,234,214967,1,0,0:0:0:0:
403,226,215035,1,0,0:0:0:0:
417,222,215103,1,0,0:0:0:0:
431,223,215171,5,10,0:0:0:0:
416,209,215239,1,0,0:0:0:0:
403,193,215308,1,0,0:0:0:0:
401,173,215376,1,0,0:0:0:0:
408,154,215444,6,0,P|440:147|495:153,1,50,0|0,0:0|0:0,0:0:0:0:
261,114,215580,2,0,P|229:107|174:113,1,50,0|0,0:0|0:0,0:0:0:0:
404,51,215717,5,2,0:0:0:0:
423,56,215785,1,0,0:0:0:0:
440,65,215853,1,0,0:0:0:0:
454,78,215921,1,0,0:0:0:0:
466,93,215989,2,0,L|480:173,1,50,0|0,0:0|0:0,0:0:0:0:
335,320,216126,2,0,L|349:240,1,50,0|0,0:0|0:0,0:0:0:0:
196,109,216262,6,0,L|210:178,3,50,14|0|0|0,0:0|0:0|0:0|0:0,0:0:0:0:
79,200,216535,5,8,2:0:0:0:
89,151,216603,1,8,2:0:0:0:
99,102,216671,1,8,2:0:0:0:
111,53,216739,1,8,2:0:0:0:
108,36,216808,5,0,0:0:0:0:
135,48,216876,1,0,0:0:0:0:
164,54,216944,1,0,0:0:0:0:
193,55,217012,1,0,0:0:0:0:
225,23,217080,5,8,2:0:0:0:
275,15,217149,1,8,2:0:0:0:
324,22,217217,1,8,2:0:0:0:
369,43,217285,1,8,2:0:0:0:
381,61,217353,5,0,0:0:0:0:
371,89,217421,1,0,0:0:0:0:
371,118,217489,1,0,0:0:0:0:
383,145,217558,1,0,0:0:0:0:
392,155,217626,5,0,0:0:0:0:
372,154,217694,1,0,0:0:0:0:
352,159,217762,1,0,0:0:0:0:
334,168,217830,1,0,0:0:0:0:
299,208,217899,5,8,2:0:0:0:
285,255,217967,1,8,2:0:0:0:
287,304,218035,1,8,2:0:0:0:
311,348,218103,1,8,2:0:0:0:
325,356,218171,5,0,0:0:0:0:
336,339,218239,1,0,0:0:0:0:
343,320,218308,1,0,0:0:0:0:
349,301,218376,1,0,0:0:0:0:
344,251,218444,6,0,B|321:241|296:243|296:243|294:238|294:238|244:270|177:236,1,150,4|0,0:1|0:0,0:0:0:0:
188,231,218717,2,0,P|209:284|159:361,1,150,6|0,0:2|0:0,0:0:0:0:
144,359,218989,2,0,B|120:344|120:344|32:359,1,104.999996795654,6|0,0:0|0:0,0:0:0:0:
9,278,219535,5,14,0:0:0:0:
13,269,219603,1,0,0:0:0:0:
16,259,219671,1,0,0:0:0:0:
18,249,219739,1,0,0:0:0:0:
20,239,219808,1,0,0:0:0:0:
21,229,219876,1,0,0:0:0:0:
22,219,219944,1,0,0:0:0:0:
22,209,220012,1,0,0:0:0:0:
22,199,220080,1,2,0:0:0:0:
21,183,220149,1,0,0:0:0:0:
24,168,220217,1,0,0:0:0:0:
31,155,220285,1,0,0:0:0:0:
39,142,220353,6,0,L|110:153,1,50,0|0,0:0|0:0,0:0:0:0:
255,229,220489,2,0,L|184:240,1,50,0|0,0:0|0:0,0:0:0:0:
161,93,220626,5,2,0:0:0:0:
178,83,220694,1,0,0:0:0:0:
197,78,220762,1,0,0:0:0:0:
216,76,220830,1,0,0:0:0:0:
236,78,220899,1,0,0:0:0:0:
254,84,220967,1,0,0:0:0:0:
270,95,221035,1,0,0:0:0:0:
282,110,221103,1,0,0:0:0:0:
290,127,221171,1,2,0:0:0:0:
304,146,221239,1,0,0:0:0:0:
325,159,221308,1,0,0:0:0:0:
349,164,221376,1,0,0:0:0:0:
373,162,221444,1,0,0:0:0:0:
398,145,221512,1,0,0:0:0:0:
410,117,221580,1,0,0:0:0:0:
407,86,221649,1,0,0:0:0:0:
393,59,221717,6,0,P|380:126|412:214,1,150,10|0,0:0|0:0,0:0:0:0:
464,284,221989,1,8,0:2:0:0:
419,276,222058,1,8,0:2:0:0:
374,268,222126,1,8,0:2:0:0:
329,260,222194,1,8,0:2:0:0:
294,274,222262,5,0,0:0:0:0:
263,257,222330,1,0,0:0:0:0:
227,255,222399,1,0,0:0:0:0:
195,270,222467,1,0,0:0:0:0:
185,294,222535,5,8,0:2:0:0:
178,249,222603,1,8,0:2:0:0:
147,216,222671,1,8,0:2:0:0:
105,200,222739,1,8,0:2:0:0:
60,203,222808,5,6,0:0:0:0:
123,232,222876,1,8,0:0:0:0:
189,212,222944,1,0,0:0:0:0:
222,150,223012,1,8,0:0:0:0:
283,114,223081,1,2,0:0:0:0:
350,131,223149,1,8,0:0:0:0:
386,190,223217,1,0,0:0:0:0:
381,259,223285,1,8,0:0:0:0:
326,283,223353,1,2,0:0:0:0:
274,252,223421,1,0,0:0:0:0:
281,192,223489,1,0,0:0:0:0:
337,168,223558,1,0,0:0:0:0:
385,203,223626,1,2,0:0:0:0:
486,363,223899,5,14,0:1:0:0:
256,192,224035,12,0,227035,0:0:0:0:
462,115,227169,6,0,L|406:104,1,50
288,76,227532,2,0,L|279:104,8,16.6666666666667
291,68,228078,1,0,0:0:0:0:
381,247,228259,6,0,L|369:172,1,75,0|0,0:0|0:0,0:0:0:0:
366,164,228623,1,0,0:0:0:0:
263,302,228805,1,0,0:0:0:0:
362,345,228987,1,0,0:0:0:0:
447,302,229169,1,0,0:0:0:0:
251,210,229350,6,0,L|193:222,2,50
134,347,229896,2,0,L|126:293,2,50,0|0|0,0:0|0:0|0:0,0:0:0:0:
45,118,230441,6,0,L|41:185,1,50,0|0,0:0|0:0,0:0:0:0:
215,103,230805,1,0,0:0:0:0:
122,51,230987,1,0,0:0:0:0:
124,164,231169,1,0,0:0:0:0:
118,36,231350,1,0,0:0:0:0:
290,40,231532,6,0,L|299:103,2,50,0|0|0,0:0|0:0|0:0,0:0:0:0:
403,98,232078,2,0,L|410:156,2,50,0|0|0,0:0|0:0|0:0,0:0:0:0:
323,227,232623,5,0,0:0:0:0:
313,205,232805,1,0,0:0:0:0:
450,264,232987,1,0,0:0:0:0:
377,329,233169,5,0,0:0:0:0:
288,308,233350,1,0,0:0:0:0:
194,357,233532,1,0,0:0:0:0:
117,294,233714,6,0,L|63:318,2,50,0|0|0,0:0|0:0|0:0,0:0:0:0:
235,212,234259,1,0,0:0:0:0:
95,204,234441,1,0,0:0:0:0:
243,186,234623,1,0,0:0:0:0:
152,131,234805,5,0,0:0:0:0:
153,123,234873,1,0,0:0:0:0:
154,115,234941,1,0,0:0:0:0:
155,107,235009,1,0,0:0:0:0:
44,46,235146,1,0,0:0:0:0:
81,176,235350,2,0,L|86:201,6,16.6666666666667
254,38,235896,6,0,L|260:99,2,50,0|0|0,0:0|0:0|0:0,0:0:0:0:
110,39,236441,2,0,L|59:43,2,50,0|0|0,0:0|0:0|0:0,0:0:0:0:
286,164,236987,6,0,L|278:87,1,75,0|0,0:0|0:0,0:0:0:0:
275,73,237350,1,0,0:0:0:0:
366,125,237532,5,0,0:0:0:0:
439,78,237714,1,0,0:0:0:0:
512,144,237896,1,0,0:0:0:0:
441,243,238078,6,0,L|385:246,2,50,0|0|0,0:0|0:0|0:0,0:0:0:0:
316,186,238623,2,0,L|306:243,2,50,0|0|0,0:0|0:0|0:0,0:0:0:0:
406,348,239169,1,0,0:0:0:0:
298,311,239350,1,0,0:0:0:0:
196,353,239532,1,0,0:0:0:0:
192,342,239623,1,0,0:0:0:0:
188,331,239714,5,0,0:0:0:0:
229,243,239896,1,0,0:0:0:0:
172,163,240078,1,0,0:0:0:0:
67,257,240259,6,0,L|128:243,2,50,0|0|0,0:0|0:0|0:0,0:0:0:0:
151,356,240805,2,0,L|212:370,2,50,0|0|0,0:0|0:0|0:0,0:0:0:0:
272,312,241350,5,0,0:0:0:0:
195,219,241532,1,0,0:0:0:0:
294,185,241714,1,0,0:0:0:0:
263,310,241896,5,0,0:0:0:0:
363,255,242078,1,0,0:0:0:0:
451,296,242259,1,0,0:0:0:0:
443,190,242441,6,0,L|438:118,2,50,0|0|0,0:0|0:0|0:0,0:0:0:0:
342,295,242987,2,0,L|337:367,2,50,0|0|0,0:0|0:0|0:0,0:0:0:0:
270,174,243532,2,0,L|287:171,5,16.6666666666667
357,151,243896,5,0,0:0:0:0:
246,72,244078,1,0,0:0:0:0:
410,70,244259,1,0,0:0:0:0:
342,225,244441,1,0,0:0:0:0:
354,0,244623,5,0,0:0:0:0:
198,283,257714,5,0,0:0:0:0:
198,283,258078,1,0,0:0:0:0:
199,275,258169,1,0,0:0:0:0:
200,267,258259,1,0,0:0:0:0:
201,259,258350,1,0,0:0:0:0:
202,251,258441,2,0,L|208:186,1,50,0|0,0:0|0:0,0:0:0:0:
324,374,258805,5,0,0:0:0:0:
324,374,259350,2,0,L|276:358,2,50,0|0|0,0:0|0:0|0:0,0:0:0:0:
408,265,259896,5,0,0:0:0:0:
408,265,260441,2,0,P|413:241|411:201,1,50,0|0,0:0|0:0,0:0:0:0:
372,144,260805,1,0,0:0:0:0:
296,278,260987,6,0,L|412:277,1,100,0|0,0:0|0:0,0:0:0:0:
260,202,261532,2,0,P|232:193|198:196,1,50,0|0,0:0|0:0,0:0:0:0:
148,238,261896,1,0,0:0:0:0:
272,213,262078,6,0,L|289:151,1,50
307,79,262441,1,0,0:0:0:0:
135,241,262623,5,0,0:0:0:0:
374,305,262805,1,0,0:0:0:0:
310,66,262987,1,0,0:0:0:0:
212,364,263169,6,0,B|261:374|261:374|305:352,1,100
124,247,263714,2,0,L|115:297,2,50
212,364,264259,5,0,0:0:0:0:
212,364,264623,1,0,0:0:0:0:
117,238,264805,2,0,P|85:232|56:234,2,50,0|0|0,0:0|0:0|0:0,0:0:0:0:
214,285,265350,6,0,P|250:293|314:280,1,100,0|0,0:0|0:0,0:0:0:0:
366,210,265896,2,0,L|358:150,2,50,0|0|0,0:0|0:0|0:0,0:0:0:0:
398,327,266441,6,0,L|390:387,1,50,0|0,0:0|0:0,0:0:0:0:
354,137,266805,1,0,0:0:0:0:
491,316,266987,6,0,L|483:376,1,50,0|0,0:0|0:0,0:0:0:0:
423,92,267351,1,0,0:0:0:0:
317,238,267532,6,0,P|382:245|418:226,1,100,0|0,0:0|0:0,0:0:0:0:
248,197,268078,2,0,L|238:256,2,50,0|0|0,0:0|0:0|0:0,0:0:0:0:
205,101,268623,6,0,L|185:-2,1,100,0|0,0:0|0:0,0:0:0:0:
150,187,269169,2,0,P|116:191|86:187,2,50,0|0|0,0:0|0:0|0:0,0:0:0:0:
315,115,269714,6,0,B|343:143|343:143|347:216,1,100,0|0,0:0|0:0,0:0:0:0:
293,320,270259,2,0,P|286:288|290:257,1,50,0|0,0:0|0:0,0:0:0:0:
343,214,270623,1,0,0:0:0:0:
304,330,270805,6,0,L|241:328,1,50,0|0,0:0|0:0,0:0:0:0:
167,326,271169,1,0,0:0:0:0:
431,295,271350,5,0,0:0:0:0:
179,205,271532,1,0,0:0:0:0:
444,302,271714,1,0,0:0:0:0:
102,275,271896,6,0,P|96:221|116:170,1,100,0|0,0:0|0:0,0:0:0:0:
175,119,272441,2,0,L|244:129,1,50,0|0,0:0|0:0,0:0:0:0:
305,141,272805,1,0,0:0:0:0:
111,179,272987,6,0,L|7:187,1,100,0|0,0:0|0:0,0:0:0:0:
161,114,273532,1,0,0:0:0:0:
216,182,273714,2,0,P|211:216|191:248,1,50,0|0,0:0|0:0,0:0:0:0:
129,348,274078,6,0,P|172:324|232:329,1,100,0|0,0:0|0:0,0:0:0:0:
304,286,274623,2,0,P|313:323|308:346,1,50,0|0,0:0|0:0,0:0:0:0:
302,346,274987,1,0,0:0:0:0:
216,182,275169,5,0,0:0:0:0:
512,310,275350,1,0,0:0:0:0:
205,178,275532,1,0,0:0:0:0:
342,77,275714,5,0,0:0:0:0:
302,346,275896,1,0,0:0:0:0:
344,64,276078,1,0,0:0:0:0:
346,51,276169,2,0,L|324:48,1,12.5
348,38,276259,6,0,B|303:26|303:26|233:41,1,100,0|0,0:0|0:0,0:0:0:0:
124,180,276805,1,0,0:0:0:0:
235,133,276987,1,0,0:0:0:0:
323,178,277169,1,0,0:0:0:0:
444,128,277350,6,0,B|463:157|454:196|454:196|459:230|477:254,1,125,0|0,0:0|0:0,0:0:0:0:
487,258,277896,1,0,0:0:0:0:
403,318,278078,1,0,0:0:0:0:
319,283,278259,1,0,0:0:0:0:
220,341,278441,6,0,P|166:352|110:342,1,100
52,243,278987,2,0,P|39:274|39:303,2,50,0|0|0,0:0|0:0|0:0,0:0:0:0:
151,172,279532,5,0,0:0:0:0:
110,333,279714,1,0,0:0:0:0:
153,148,279896,1,0,0:0:0:0:
250,236,280078,5,0,0:0:0:0:
344,190,280259,1,0,0:0:0:0:
464,231,280441,1,0,0:0:0:0:
443,107,280623,5,0,0:0:0:0:
377,53,280805,2,0,B|335:36|300:45|308:66|259:72|224:57,1,150
340,130,281532,1,0,0:0:0:0:
247,227,281714,6,0,P|193:238|144:227,1,100
361,232,282259,2,0,P|349:283|297:318,1,100,0|0,0:0|0:0,0:0:0:0:
185,374,282805,6,0,P|179:324|184:266,1,100
270,166,283350,2,0,P|276:127|269:109,2,50,0|0|0,0:0|0:0|0:0,0:0:0:0:
104,203,283896,5,0,0:0:0:0:
86,208,284009,1,0,0:0:0:0:
67,206,284123,1,0,0:0:0:0:
195,125,284259,5,0,0:0:0:0:
200,107,284372,1,0,0:0:0:0:
198,88,284486,1,0,0:0:0:0:
271,196,284623,5,0,0:0:0:0:
336,181,284714,1,0,0:0:0:0:
373,124,284805,1,0,0:0:0:0:
356,58,284896,1,0,0:0:0:0:
291,39,284987,6,0,L|288:152,1,100,0|0,0:0|0:0,0:0:0:0:
357,214,285532,1,0,0:0:0:0:
301,289,285714,1,0,0:0:0:0:
213,236,285896,1,0,0:0:0:0:
122,298,286078,6,0,P|68:313|11:306,1,100,0|0,0:0|0:0,0:0:0:0:
174,130,286623,2,0,P|195:195|189:247,1,100,0|0,0:0|0:0,0:0:0:0:
52,236,287169,5,0,0:0:0:0:
82,152,287350,1,0,0:0:0:0:
33,72,287532,1,0,0:0:0:0:
184,95,287714,5,0,0:0:0:0:
63,147,287896,1,0,0:0:0:0:
201,92,288078,1,0,0:0:0:0:
163,234,288259,5,0,0:0:0:0:
97,32,288441,1,0,0:0:0:0:
173,253,288623,1,0,0:0:0:0:
280,184,288805,5,0,0:0:0:0:
379,258,288987,1,0,0:0:0:0:
491,200,289169,1,0,0:0:0:0:
357,72,289350,6,0,L|365:136,2,50,0|0|0,0:0|0:0|0:0,0:0:0:0:
464,127,289896,1,0,0:0:0:0:
396,204,290078,1,0,0:0:0:0:
301,190,290259,1,0,0:0:0:0:
332,368,290441,6,0,L|342:261,1,100
428,332,290987,1,0,0:0:0:0:
243,305,291169,1,0,0:0:0:0:
441,335,291350,1,0,0:0:0:0:
282,159,291532,6,0,L|276:211,2,50,0|0|0,0:0|0:0|0:0,0:0:0:0:
249,73,292078,1,0,0:0:0:0:
165,153,292259,1,0,0:0:0:0:
69,130,292441,1,0,0:0:0:0:
176,43,292623,5,0,0:0:0:0:
224,100,292737,1,0,0:0:0:0:
222,174,292850,1,0,0:0:0:0:
210,35,292987,5,0,0:0:0:0:
245,117,293100,1,0,0:0:0:0:
220,204,293214,1,0,0:0:0:0:
240,27,293350,5,0,0:0:0:0:
306,262,293464,1,0,0:0:0:0:
146,136,293578,1,0,0:0:0:0:
432,214,293714,1,8,2:3:0:0:
259,352,294805,6,0,P|228:271|253:178,2,160,6|2|2,0:0|0:2|0:2,0:0:0:0:
251,188,295896,6,0,P|190:215|84:200,1,160,10|2,0:2|0:2,0:0:0:0:
336,226,296441,2,0,P|346:278|342:311,1,80,0|2,0:0|0:2,0:0:0:0:
271,360,296805,1,0,0:0:0:0:
322,215,296987,6,0,B|393:218|393:218|413:211|413:211|496:215,2,160,2|2|2,0:2|0:2|0:2,0:0:0:0:
322,215,298078,5,10,0:2:0:0:
374,127,298259,1,0,0:0:0:0:
315,227,298441,1,2,0:1:0:0:
390,252,298623,5,0,0:0:0:0:
301,102,298804,1,2,0:1:0:0:
401,272,298986,1,0,0:0:0:0:
188,318,299169,6,0,B|163:218|163:218|192:139,2,160,6|2|2,0:0|0:2|0:2,0:0:0:0:
284,368,300078,1,0,0:0:0:0:
290,353,300138,1,0,0:0:0:0:
292,337,300199,1,0,0:0:0:0:
289,321,300259,6,0,P|342:354|438:355,1,160,14|2,0:0|0:2,0:0:0:0:
498,291,300805,1,0,0:0:0:0:
263,247,300987,2,0,P|212:267|172:258,1,80,6|0,0:0|0:0,0:0:0:0:
344,160,301350,6,0,L|349:340,2,160,6|2|2,0:0|0:2|0:2,0:0:0:0:
98,233,302441,5,8,0:0:0:0:
197,270,302562,1,0,0:0:0:0:
256,180,302684,1,0,0:0:0:0:
93,253,302805,5,2,0:1:0:0:
208,274,302926,1,0,0:0:0:0:
255,166,303048,1,0,0:0:0:0:
88,273,303169,5,2,0:0:0:0:
219,278,303290,1,2,0:0:0:0:
254,153,303411,1,2,0:0:0:0:
40,182,303532,6,0,L|63:370,2,160,6|2|2,0:0|0:2|0:2,0:0:0:0:
96,85,304441,1,0,0:0:0:0:
111,81,304502,1,0,0:0:0:0:
126,81,304562,1,0,0:0:0:0:
141,86,304623,6,0,P|186:103|230:98,1,80,14|0,0:0|0:0,0:0:0:0:
272,41,304987,1,2,0:2:0:0:
333,185,305169,1,8,0:0:0:0:
338,170,305229,1,8,0:0:0:0:
341,154,305290,1,8,0:0:0:0:
340,138,305350,2,0,P|355:182|380:218,1,80,10|2,0:0|0:0,0:0:0:0:
475,346,305714,6,0,P|396:322|308:328,2,160,6|2|2,0:0|0:2|0:2,0:0:0:0:
475,346,306805,5,10,0:1:0:0:
395,228,306987,1,0,0:0:0:0:
299,331,307169,1,2,0:1:0:0:
486,354,307350,5,0,0:0:0:0:
398,207,307532,1,2,0:1:0:0:
285,334,307714,1,0,0:0:0:0:
497,243,307896,6,0,L|504:71,2,160,6|2|2,0:0|0:2|0:2,0:0:0:0:
390,303,308805,1,0,0:0:0:0:
250,114,308987,6,0,P|336:102|403:142,1,160,10|2,0:2|0:2,0:0:0:0:
246,245,309532,1,8,0:0:0:0:
249,229,309623,1,8,0:0:0:0:
277,214,309714,2,0,L|273:298,1,80,2|0,0:1|0:0,0:0:0:0:
31,333,310078,6,0,B|111:312|111:312|194:354,2,160,2|2|2,0:1|0:1|0:1,0:0:0:0:
200,53,311169,5,10,0:0:0:0:
164,179,311290,1,0,0:0:0:0:
302,220,311411,1,0,0:0:0:0:
183,37,311532,5,6,0:0:0:0:
219,253,311653,1,0,0:0:0:0:
364,91,311775,1,8,0:0:0:0:
167,20,311896,5,2,0:0:0:0:
321,214,312017,1,0,0:0:0:0:
123,338,312138,1,0,0:0:0:0:
235,117,312259,6,0,B|300:136|300:136|332:134|332:134|411:163,2,160,6|2|2,0:0|0:0|0:0,0:0:0:0:
45,252,313169,5,0,0:0:0:0:
46,239,313229,1,0,0:0:0:0:
47,226,313290,1,0,0:0:0:0:
48,213,313350,6,0,B|87:197|137:204|127:232|165:236|212:219,1,160,14|2,0:0|0:0,0:0:0:0:
344,110,313896,1,8,0:0:0:0:
342,90,313987,1,8,0:0:0:0:
340,70,314078,1,2,0:0:0:0:
203,126,314259,1,0,0:0:0:0:
63,53,314441,6,0,L|47:218,2,160,6|2|2,0:0|0:2|0:2,0:0:0:0:
63,53,315532,5,10,0:1:0:0:
224,180,315714,1,0,0:0:0:0:
57,72,315896,1,2,0:1:0:0:
225,74,316078,5,0,0:0:0:0:
74,167,316259,1,2,0:1:0:0:
242,87,316441,1,0,0:0:0:0:
200,265,316623,6,0,L|41:286,2,160,6|2|2,0:0|0:1|0:1,0:0:0:0:
389,265,317532,5,0,0:0:0:0:
390,277,317592,1,0,0:0:0:0:
391,290,317653,1,0,0:0:0:0:
393,303,317714,2,0,L|409:128,1,160,14|2,0:0|0:1,0:0:0:0:
311,16,318259,1,8,0:0:0:0:
309,35,318350,1,8,0:0:0:0:
307,54,318441,1,2,0:1:0:0:
436,0,318623,1,0,0:0:0:0:
413,110,318805,5,2,0:1:0:0:
422,146,318926,1,0,0:0:0:0:
417,182,319047,1,0,0:0:0:0:
334,236,319169,5,2,0:1:0:0:
325,272,319290,1,0,0:0:0:0:
330,308,319411,1,0,0:0:0:0:
430,300,319532,5,2,0:1:0:0:
439,336,319653,1,0,0:0:0:0:
434,372,319774,1,0,0:0:0:0:
300,374,319896,5,8,0:0:0:0:
430,300,320017,1,8,0:0:0:0:
270,229,320138,1,8,0:0:0:0:
382,374,320259,5,8,0:0:0:0:
373,182,320381,1,8,0:0:0:0:
226,312,320502,1,8,0:0:0:0:
452,225,320623,5,0,0:0:0:0:
354,292,320744,1,0,0:0:0:0:
270,229,320865,1,0,0:0:0:0:
156,280,320987,6,0,P|97:295|39:294,1,100,6|0,0:0|0:0,0:0:0:0:
173,61,321259,2,0,P|215:104|243:155,1,100,2|0,0:0|0:0,0:0:0:0:
43,289,321532,1,2,0:0:0:0:
3,197,321668,1,0,0:0:0:0:
165,289,321805,6,0,B|233:319|233:319|377:275,1,200,10|2,0:0|0:0,0:0:0:0:
430,248,322214,1,0,0:0:0:0:
280,126,322350,2,0,P|277:200|300:243,1,100,2|0,0:0|0:0,0:0:0:0:
436,61,322623,6,0,L|324:50,1,100,2|8,0:0|0:0,0:0:0:0:
163,139,322896,2,0,L|263:130,1,100,2|0,0:0|0:0,0:0:0:0:
91,68,323168,1,2,0:0:0:0:
46,157,323305,1,0,0:0:0:0:
243,40,323441,5,10,0:0:0:0:
30,172,323577,2,0,P|64:235|65:303,1,100,0|2,0:0|0:0,0:0:0:0:
21,370,323850,1,0,0:0:0:0:
148,209,323987,1,2,0:0:0:0:
259,371,324123,1,8,0:0:0:0:
381,111,324259,6,0,B|356:154|356:154|258:178|209:73,1,200,14|2,0:0|0:0,0:0:0:0:
228,12,324668,1,0,0:0:0:0:
461,63,324805,2,0,L|481:175,1,100,2|0,0:0|0:0,0:0:0:0:
283,293,325077,6,0,B|316:282|351:300|351:300|426:330|489:249,1,200,10|2,0:0|0:0,0:0:0:0:
482,172,325487,1,0,0:0:0:0:
270,300,325623,2,0,L|154:252,1,100,2|8,0:0|0:0,0:0:0:0:
178,58,325896,6,0,P|201:123|191:168,1,100,2|0,0:0|0:0,0:0:0:0:
78,294,326168,2,0,P|75:244|96:199,1,100,2|0,0:0|0:0,0:0:0:0:
199,170,326441,2,0,L|259:177,1,50,2|0,0:0|0:0,0:0:0:0:
355,240,326577,2,0,L|415:233,1,50,0|0,0:0|0:0,0:0:0:0:
479,147,326714,5,8,3:2:0:0:
442,106,326782,1,8,2:0:0:0:
388,95,326850,1,8,2:0:0:0:
339,121,326918,1,8,2:0:0:0:
319,173,326987,1,0,3:2:0:0:
285,216,327055,1,8,2:0:0:0:
230,216,327123,1,8,2:0:0:0:
199,170,327191,1,8,2:0:0:0:
219,119,327259,5,8,3:2:0:0:
235,107,327327,1,8,2:0:0:0:
245,89,327396,1,8,2:0:0:0:
250,69,327464,1,8,2:0:0:0:
246,49,327532,5,6,0:0:0:0:
270,103,327600,1,8,0:0:0:0:
326,122,327668,1,0,0:0:0:0:
381,97,327737,1,8,0:0:0:0:
438,114,327805,1,2,0:1:0:0:
455,171,327873,1,8,0:0:0:0:
427,224,327941,1,0,0:0:0:0:
367,233,328009,1,8,0:0:0:0:
316,201,328077,5,2,0:1:0:0:
287,190,328146,1,8,0:0:0:0:
257,193,328214,1,0,0:0:0:0:
231,208,328282,1,8,0:0:0:0:
213,231,328350,5,2,0:1:0:0:
224,172,328418,1,8,0:0:0:0:
184,126,328487,1,0,0:0:0:0:
124,128,328555,1,8,0:0:0:0:
88,176,328623,1,2,0:1:0:0:
101,234,328691,1,8,0:0:0:0:
154,260,328759,1,0,0:0:0:0:
168,318,328827,1,8,0:0:0:0:
130,365,328896,5,2,0:1:0:0:
100,368,328964,1,8,0:0:0:0:
70,362,329032,1,0,0:0:0:0:
45,344,329100,1,8,0:0:0:0:
31,317,329168,5,2,0:1:0:0:
80,282,329237,1,8,0:0:0:0:
138,270,329305,1,0,0:0:0:0:
196,281,329373,1,8,0:0:0:0:
241,319,329441,1,2,0:1:0:0:
298,335,329509,1,8,0:0:0:0:
357,329,329577,1,0,0:0:0:0:
409,297,329646,1,8,0:0:0:0:
436,243,329714,5,2,0:1:0:0:
391,202,329782,1,8,0:0:0:0:
331,197,329850,1,0,0:0:0:0:
289,240,329918,1,8,0:0:0:0:
280,300,329987,6,0,P|247:307|214:303,1,66.6666666666667,6|0,0:0|0:0,0:0:0:0:
179,207,330167,1,0,0:0:0:0:
251,111,330259,6,0,P|269:160|254:211,1,66.6666666666667
128,122,330441,1,0,0:0:0:0:
155,36,330532,6,0,P|171:18|217:-2,1,66.6666666666667,2|0,0:0|0:0,0:0:0:0:
376,193,330714,1,0,0:0:0:0:
474,102,330805,6,0,L|454:35,2,66.6666666666667,10|0|0,0:0|0:0|0:0,0:0:0:0:
298,318,331077,6,0,P|270:299|249:273,1,66.6666666666667,2|0,0:0|0:0,0:0:0:0:
268,110,331259,1,0,0:0:0:0:
381,215,331350,6,0,P|351:231|318:236,1,66.6666666666667,2|0,0:0|0:0,0:0:0:0:
291,113,331532,1,0,0:0:0:0:
309,222,331623,5,2,0:0:0:0:
261,198,331714,1,0,0:0:0:0:
208,209,331805,1,0,0:0:0:0:
176,251,331896,1,2,0:0:0:0:
132,282,331987,1,0,0:0:0:0:
79,278,332077,1,0,0:0:0:0:
18,215,332168,5,2,0:0:0:0:
65,178,332259,1,0,0:0:0:0:
55,118,332350,1,0,0:0:0:0:
0,101,332441,6,0,L|-2:26,2,66.6666666666667,10|0|0,0:0|0:0|0:0,0:0:0:0:
168,23,332714,1,4,0:2:0:0:
155,35,332805,5,8,0:0:0:0:
147,87,332896,1,8,0:0:0:0:
186,123,332987,1,8,0:0:0:0:
261,126,333077,5,2,0:2:0:0:
265,107,333168,1,2,0:2:0:0:
205,206,333259,6,0,P|172:215|128:205,2,66.6666666666667,6|0|0,0:0|0:0|0:0,0:0:0:0:
364,180,333532,2,0,P|345:228|348:272,1,66.6666666666667,2|0,0:0|0:0,0:0:0:0:
388,312,333714,1,0,0:0:0:0:
462,132,333805,5,2,0:0:0:0:
378,168,333896,1,0,0:0:0:0:
449,218,333987,1,0,0:0:0:0:
510,64,334077,6,0,P|503:30|480:0,2,66.6666666666667,10|0|0,0:0|0:0|0:0,0:0:0:0:
326,75,334350,1,2,0:0:0:0:
312,60,334441,2,0,L|404:68,1,66.6666666666667,8|0,0:0|0:0,0:0:0:0:
474,304,334623,5,6,0:2:0:0:
501,227,334714,2,0,L|406:229,1,66.6666666666667,0|0,0:0|0:0,0:0:0:0:
283,196,334896,5,2,0:0:0:0:
326,212,334987,1,0,0:0:0:0:
351,250,335077,1,0,0:0:0:0:
344,295,335168,1,2,0:0:0:0:
223,351,335259,5,8,0:0:0:0:
217,324,335350,1,0,0:0:0:0:
232,302,335441,1,2,0:0:0:0:
258,299,335532,2,0,L|329:319,1,66.6666666666667,0|0,0:0|0:0,0:0:0:0:
143,358,335714,5,8,2:0:0:0:
133,309,335782,1,8,2:0:0:0:
123,260,335850,1,8,2:0:0:0:
113,211,335918,1,8,2:0:0:0:
100,199,335987,5,0,0:0:0:0:
124,181,336055,1,0,0:0:0:0:
148,163,336123,1,0,0:0:0:0:
174,148,336191,1,0,0:0:0:0:
209,148,336259,5,0,0:0:0:0:
202,135,336327,1,0,0:0:0:0:
195,122,336396,1,0,0:0:0:0:
188,108,336464,1,0,0:0:0:0:
156,86,336532,6,0,L|150:146,3,50,6|0|0|0,0:0|0:0|0:0|0:0,0:0:0:0:
286,267,336805,1,2,0:1:0:0:
338,283,336873,1,8,0:0:0:0:
388,261,336941,1,0,0:0:0:0:
406,209,337009,1,8,0:0:0:0:
378,161,337077,1,2,0:1:0:0:
324,145,337146,1,8,0:0:0:0:
278,175,337214,1,0,0:0:0:0:
228,198,337282,1,8,0:0:0:0:
176,180,337350,5,2,0:1:0:0:
155,123,337418,1,8,0:0:0:0:
187,71,337487,1,0,0:0:0:0:
246,65,337555,1,8,0:0:0:0:
293,101,337623,1,2,0:1:0:0:
296,160,337691,1,8,0:0:0:0:
267,212,337759,1,0,0:0:0:0:
260,271,337827,1,8,0:0:0:0:
283,326,337896,1,2,0:1:0:0:
338,348,337964,1,8,0:0:0:0:
397,341,338032,1,0,0:0:0:0:
441,301,338100,1,8,0:0:0:0:
451,242,338168,5,2,0:1:0:0:
422,182,338237,1,8,0:0:0:0:
361,158,338305,1,0,0:0:0:0:
296,161,338373,1,8,0:0:0:0:
245,201,338441,1,2,0:1:0:0:
185,227,338509,1,8,0:0:0:0:
120,224,338577,1,0,0:0:0:0:
64,188,338646,1,8,0:0:0:0:
41,127,338714,1,2,0:1:0:0:
52,63,338782,1,8,0:0:0:0:
100,19,338850,1,0,0:0:0:0:
163,6,338918,1,0,0:0:0:0:
226,22,338987,6,0,P|230:83|188:151,1,100,6|0,0:0|0:0,0:0:0:0:
0,259,339259,2,0,P|40:213|118:194,1,100,2|0,0:0|0:0,0:0:0:0:
327,251,339532,2,0,P|266:255|197:212,1,100,2|0,0:0|0:0,0:0:0:0:
428,21,339805,6,0,B|441:96|441:96|420:138|420:138|434:240,1,200,10|2,0:0|0:0,0:0:0:0:
454,367,340214,1,0,0:0:0:0:
343,212,340350,1,2,0:0:0:0:
464,375,340487,1,0,0:0:0:0:
228,163,340623,6,0,L|235:268,1,100,4|0,0:2|0:0,0:0:0:0:
0,188,340896,2,0,L|69:108,1,100,2|8,0:0|0:0,0:0:0:0:
129,358,341168,2,0,L|24:319,1,100,2|0,0:0|0:0,0:0:0:0:
183,99,341441,6,0,B|231:67|293:85|287:118|340:125|390:91,1,200,10|10,0:0|0:0,0:0:0:0:
461,1,341850,1,0,0:0:0:0:
280,216,341987,2,0,L|378:208,1,50,10|0,0:0|0:0,0:0:0:0:
504,125,342123,2,0,L|406:117,1,50,8|0,0:0|0:0,0:0:0:0:
276,89,342259,6,0,P|226:76|165:109,1,100,6|0,0:0|0:0,0:0:0:0:
298,303,342532,2,0,P|342:276|362:210,1,100,2|0,0:0|0:0,0:0:0:0:
264,3,342805,1,2,0:0:0:0:
250,195,342941,1,0,0:0:0:0:
424,112,343077,6,0,L|439:223,1,100,10|0,0:0|0:0,0:0:0:0:
127,163,343350,2,0,L|142:52,1,100,4|8,0:2|0:0,0:0:0:0:
140,63,343555,1,8,0:0:0:0:
140,63,343623,1,2,0:0:0:0:
298,303,343759,1,0,0:0:0:0:
271,311,343827,1,0,0:0:0:0:
244,319,343896,5,6,0:0:0:0:
387,246,344032,2,0,L|399:353,1,100,8|2,0:0|0:0,0:0:0:0:
211,326,344305,1,0,0:0:0:0:
295,139,344441,2,0,L|283:246,1,100,6|0,0:0|0:0,0:0:0:0:
116,366,344714,5,8,2:0:0:0:
125,327,344782,1,8,2:0:0:0:
133,288,344850,1,8,2:0:0:0:
142,249,344918,1,8,2:0:0:0:
171,219,344987,5,0,0:0:0:0:
161,190,345055,1,0,0:0:0:0:
152,161,345123,1,0,0:0:0:0:
143,132,345191,1,0,0:0:0:0:
106,117,345259,5,0,0:0:0:0:
105,112,345327,1,0,0:0:0:0:
104,106,345396,1,0,0:0:0:0:
103,101,345464,1,0,0:0:0:0:
99,93,345532,5,6,0:1:0:0:
74,158,345600,1,8,0:0:0:0:
95,224,345668,1,0,0:0:0:0:
158,254,345737,1,8,0:0:0:0:
226,241,345805,1,2,0:1:0:0:
276,192,345873,1,8,0:0:0:0:
314,139,345941,1,0,0:0:0:0:
370,120,346009,1,8,0:0:0:0:
409,140,346077,1,2,0:1:0:0:
420,178,346146,1,8,0:0:0:0:
417,212,346214,1,0,0:0:0:0:
402,238,346282,1,8,3:0:0:0:
351,264,346350,5,2,0:1:0:0:
336,316,346418,1,8,0:0:0:0:
357,367,346487,1,0,0:0:0:0:
411,372,346555,1,8,0:0:0:0:
453,337,346623,1,2,0:1:0:0:
452,282,346691,1,8,0:0:0:0:
413,242,346759,1,0,0:0:0:0:
358,238,346827,1,8,0:0:0:0:
308,262,346896,1,2,0:1:0:0:
275,306,346964,1,8,0:0:0:0:
241,349,347032,1,0,0:0:0:0:
188,365,347100,1,8,0:0:0:0:
135,348,347168,5,2,0:1:0:0:
96,288,347237,1,8,0:0:0:0:
106,219,347305,1,0,0:0:0:0:
160,175,347373,1,8,0:0:0:0:
228,185,347441,1,2,0:1:0:0:
274,237,347509,1,8,0:0:0:0:
336,268,347577,1,0,0:0:0:0:
406,260,347646,1,8,0:0:0:0:
455,210,347714,1,2,0:1:0:0:
464,140,347782,1,8,0:0:0:0:
425,82,347850,1,0,0:0:0:0:
358,62,347918,1,8,0:0:0:0:
291,83,347987,6,0,L|302:193,1,104.999996795654
455,210,348532,6,0,B|348:162|348:162|230:150,1,225.000008583069,6|0,0:0|0:0,0:0:0:0:
128,135,348805,1,2,0:0:0:0:
103,131,348873,1,8,0:0:0:0:
80,119,348941,1,0,0:0:0:0:
67,97,349009,1,8,0:0:0:0:
65,72,349077,5,2,0:0:0:0:
82,40,349146,1,8,0:0:0:0:
117,21,349214,1,0,0:0:0:0:
161,20,349282,1,8,0:0:0:0:
206,41,349350,1,2,0:0:0:0:
233,88,349418,1,8,0:0:0:0:
229,148,349487,1,0,0:0:0:0:
195,197,349555,1,8,0:0:0:0:
147,233,349623,1,2,0:0:0:0:
130,290,349691,1,8,0:0:0:0:
145,347,349759,1,0,0:0:0:0:
201,366,349827,1,8,0:0:0:0:
258,345,349896,1,2,0:0:0:0:
294,297,349964,1,8,0:0:0:0:
340,259,350032,1,0,0:0:0:0:
399,252,350100,1,8,0:0:0:0:
448,285,350168,5,2,0:0:0:0:
454,340,350237,1,8,0:0:0:0:
417,380,350305,1,0,0:0:0:0:
362,370,350373,1,8,0:0:0:0:
333,323,350441,1,2,0:0:0:0:
336,268,350509,1,8,0:0:0:0:
359,218,350577,1,0,0:0:0:0:
403,184,350646,1,8,0:0:0:0:
457,177,350714,5,2,0:0:0:0:
461,162,350782,1,8,0:0:0:0:
464,147,350850,1,0,0:0:0:0:
464,132,350918,1,8,0:0:0:0:
461,117,350987,2,0,L|394:140,3,50,2|8|0|8,0:0|0:0|0:0|0:0,0:0:0:0:
487,5,351259,5,2,0:0:0:0:
494,49,351327,1,8,0:0:0:0:
463,89,351396,1,0,0:0:0:0:
417,108,351464,1,8,0:0:0:0:
367,104,351532,1,2,0:0:0:0:
321,74,351600,1,8,0:0:0:0:
267,62,351668,1,0,0:0:0:0:
212,75,351737,1,8,0:0:0:0:
176,116,351805,1,2,0:0:0:0:
163,169,351873,1,8,0:0:0:0:
179,221,351941,1,0,0:0:0:0:
228,244,352009,1,8,0:0:0:0:
280,228,352077,2,0,L|269:167,3,50,2|8|0|8,0:0|0:0|0:0|0:0,0:0:0:0:
374,142,352350,5,2,0:0:0:0:
381,148,352418,1,8,0:0:0:0:
388,155,352487,1,0,0:0:0:0:
394,162,352555,1,8,0:0:0:0:
399,170,352623,1,2,0:0:0:0:
406,188,352691,1,8,0:0:0:0:
409,212,352759,1,0,0:0:0:0:
408,241,352827,1,8,0:0:0:0:
395,273,352896,1,2,0:0:0:0:
365,299,352964,1,8,0:0:0:0:
320,305,353032,1,0,0:0:0:0:
276,281,353100,1,8,0:0:0:0:
234,245,353168,1,2,0:0:0:0:
180,230,353237,1,8,0:0:0:0:
126,240,353305,1,0,0:0:0:0:
88,280,353373,1,8,0:0:0:0:
85,334,353441,5,2,0:0:0:0:
126,377,353509,1,8,0:0:0:0:
184,365,353577,1,0,0:0:0:0:
210,310,353646,1,8,0:0:0:0:
200,250,353714,1,2,0:0:0:0:
158,206,353782,1,8,0:0:0:0:
99,194,353850,1,0,0:0:0:0:
51,157,353918,1,8,0:0:0:0:
41,96,353987,1,2,0:0:0:0:
73,46,354055,1,8,0:0:0:0:
129,25,354123,1,0,0:0:0:0:
185,45,354191,1,8,0:0:0:0:
214,97,354259,1,2,0:0:0:0:
200,155,354327,1,8,0:0:0:0:
154,194,354396,1,0,0:0:0:0:
94,197,354464,1,8,0:0:0:0:
49,156,354532,5,2,0:0:0:0:
49,151,354600,1,8,0:0:0:0:
50,146,354668,1,0,0:0:0:0:
51,141,354737,1,8,0:0:0:0:
52,136,354805,1,2,0:0:0:0:
53,131,354873,1,8,0:0:0:0:
54,126,354941,1,0,0:0:0:0:
56,121,355009,1,8,0:0:0:0:
58,116,355077,1,2,0:0:0:0:
76,107,355146,1,8,0:0:0:0:
100,106,355214,1,0,0:0:0:0:
126,120,355282,1,8,0:0:0:0:
152,142,355350,1,2,0:0:0:0:
187,159,355418,1,0,0:0:0:0:
232,165,355487,1,0,0:0:0:0:
280,154,355555,1,0,0:0:0:0:
324,122,355623,5,8,2:0:0:0:
334,180,355691,1,8,2:0:0:0:
340,239,355759,1,8,2:0:0:0:
347,298,355827,1,8,2:0:0:0:
319,319,355896,5,0,0:0:0:0:
353,326,355964,1,0,0:0:0:0:
387,333,356032,1,0,0:0:0:0:
421,340,356100,1,0,0:0:0:0:
452,360,356168,5,0,0:0:0:0:
446,340,356237,1,0,0:0:0:0:
440,320,356305,1,0,0:0:0:0:
435,300,356373,1,0,0:0:0:0:
415,274,356441,5,0,0:0:0:0:
414,278,356509,1,0,0:0:0:0:
413,282,356577,1,0,0:0:0:0:
412,286,356646,1,0,0:0:0:0:
411,290,356714,5,0,0:0:0:0:
426,242,356782,1,0,0:0:0:0:
441,194,356850,1,0,0:0:0:0:
311,347,356987,1,0,0:0:0:0:
260,163,357123,1,0,0:0:0:0:
101,348,357259,6,0,L|51:354,3,50,14|0|0|0,0:0|0:0|0:0|0:0,0:0:0:0:
47,234,357532,1,2,0:1:0:0:
76,226,357600,1,8,0:0:0:0:
105,228,357668,1,0,0:0:0:0:
132,240,357737,1,8,0:0:0:0:
152,262,357805,5,2,0:1:0:0:
190,272,357873,1,8,0:0:0:0:
238,260,357941,1,0,0:0:0:0:
272,223,358009,1,8,0:0:0:0:
282,174,358077,1,2,0:1:0:0:
256,130,358146,1,8,0:0:0:0:
273,83,358214,1,0,0:0:0:0:
321,69,358282,1,8,0:0:0:0:
355,104,358350,5,2,0:1:0:0:
314,123,358418,1,8,0:0:0:0:
268,128,358487,1,0,0:0:0:0:
224,118,358555,1,8,0:0:0:0:
188,90,358623,1,2,0:1:0:0:
143,91,358691,1,8,0:0:0:0:
105,115,358759,1,0,0:0:0:0:
93,158,358827,1,8,0:0:0:0:
108,200,358896,5,2,0:1:0:0:
146,223,358964,1,8,0:0:0:0:
170,260,359032,1,0,0:0:0:0:
169,304,359100,1,8,0:0:0:0:
147,343,359168,1,2,0:1:0:0:
107,364,359237,1,8,0:0:0:0:
62,364,359305,1,0,0:0:0:0:
25,337,359373,1,8,0:0:0:0:
13,293,359441,5,2,0:1:0:0:
39,269,359509,1,8,0:0:0:0:
72,261,359577,1,0,0:0:0:0:
107,264,359646,1,8,0:0:0:0:
137,280,359714,1,2,0:1:0:0:
170,290,359782,1,8,0:0:0:0:
204,290,359850,1,0,0:0:0:0:
236,278,359918,1,8,0:0:0:0:
264,257,359987,5,2,0:1:0:0:
292,278,360055,1,8,0:0:0:0:
324,290,360123,1,0,0:0:0:0:
358,290,360191,1,8,0:0:0:0:
391,280,360259,1,2,0:1:0:0:
421,264,360327,1,8,0:0:0:0:
456,261,360396,1,0,0:0:0:0:
489,269,360464,1,8,0:0:0:0:
511,295,360532,5,2,0:1:0:0:
495,258,360600,1,8,0:0:0:0:
490,218,360668,1,0,0:0:0:0:
495,177,360737,1,8,0:0:0:0:
506,138,360805,1,2,0:1:0:0:
493,100,360873,1,8,0:0:0:0:
455,86,360941,1,0,0:0:0:0:
421,107,361009,1,8,0:0:0:0:
416,146,361077,5,2,0:1:0:0:
393,191,361146,1,8,0:0:0:0:
345,206,361214,1,0,0:0:0:0:
297,189,361282,1,8,0:0:0:0:
275,143,361350,1,2,0:1:0:0:
293,96,361418,1,8,0:0:0:0:
282,46,361487,1,0,0:0:0:0:
238,21,361555,1,8,0:0:0:0:
189,31,361623,1,2,0:1:0:0:
163,73,361691,1,8,0:0:0:0:
174,121,361759,1,0,0:0:0:0:
216,146,361827,1,8,0:0:0:0:
266,144,361896,1,2,0:1:0:0:
311,123,361964,1,8,0:0:0:0:
360,128,362032,1,0,0:0:0:0:
398,160,362100,1,8,0:0:0:0:
415,206,362168,5,2,0:1:0:0:
411,256,362237,1,8,0:0:0:0:
380,295,362305,1,0,0:0:0:0:
332,310,362373,1,8,0:0:0:0:
283,298,362441,1,2,0:1:0:0:
250,260,362509,1,8,0:0:0:0:
242,210,362577,1,0,0:0:0:0:
260,162,362646,1,8,0:0:0:0:
303,138,362714,5,2,0:1:0:0:
321,161,362782,1,8,0:0:0:0:
328,190,362850,1,0,0:0:0:0:
325,219,362918,1,8,0:0:0:0:
311,246,362987,1,2,0:1:0:0:
301,274,363055,1,8,0:0:0:0:
305,303,363123,1,0,0:0:0:0:
319,328,363191,1,8,0:0:0:0:
344,344,363259,5,2,0:1:0:0:
324,341,363327,1,8,0:0:0:0:
303,342,363396,1,0,0:0:0:0:
284,350,363464,1,8,0:0:0:0:
264,354,363532,1,2,0:1:0:0:
244,351,363600,1,8,0:0:0:0:
225,342,363668,1,0,0:0:0:0:
212,326,363737,1,8,0:0:0:0:
204,307,363805,1,2,0:1:0:0:
203,287,363873,1,8,0:0:0:0:
209,268,363941,1,0,0:0:0:0:
220,251,364009,1,8,0:0:0:0:
232,229,364077,1,2,0:1:0:0:
241,200,364146,1,0,0:0:0:0:
243,165,364214,1,0,0:0:0:0:
229,127,364282,1,0,0:0:0:0:
193,99,364350,1,8,2:3:0:0:
461,346,364623,5,8,2:0:0:0:
418,331,364691,1,8,2:0:0:0:
375,315,364759,1,8,2:0:0:0:
331,302,364827,1,8,2:0:0:0:
300,342,364896,5,0,0:0:0:0:
270,348,364964,1,0,0:0:0:0:
240,354,365032,1,0,0:0:0:0:
210,360,365100,1,0,0:0:0:0:
165,328,365168,5,0,0:0:0:0:
168,313,365237,1,0,0:0:0:0:
171,298,365305,1,0,0:0:0:0:
174,283,365373,1,0,0:0:0:0:
144,236,365441,6,0,P|96:215|35:221,1,104.999996795654,4|0,0:2|0:0,0:0:0:0:
43,217,365987,6,0,P|152:219|226:139,1,225.000008583069,4|0,0:1|0:0,0:0:0:0:
248,52,366259,1,2,0:0:0:0:
291,27,366327,1,8,0:0:0:0:
341,29,366396,1,0,0:0:0:0:
384,53,366464,1,8,0:0:0:0:
398,100,366532,5,2,0:0:0:0:
384,148,366600,1,8,0:0:0:0:
343,176,366668,1,0,0:0:0:0:
332,225,366737,1,8,0:0:0:0:
353,269,366805,1,2,0:0:0:0:
396,293,366873,1,8,0:0:0:0:
445,287,366941,1,0,0:0:0:0:
479,250,367009,1,8,0:0:0:0:
481,200,367077,1,2,0:0:0:0:
451,159,367146,1,8,0:0:0:0:
403,142,367214,1,0,0:0:0:0:
354,153,367282,1,8,0:0:0:0:
317,187,367350,1,2,0:0:0:0:
274,213,367418,1,8,0:0:0:0:
223,218,367487,1,0,0:0:0:0:
174,204,367555,1,8,0:0:0:0:
141,166,367623,5,2,0:0:0:0:
135,146,367691,1,8,0:0:0:0:
140,126,367759,1,0,0:0:0:0:
152,110,367827,1,8,0:0:0:0:
169,100,367896,1,2,0:0:0:0:
180,83,367964,1,8,0:0:0:0:
183,63,368032,1,0,0:0:0:0:
179,43,368100,1,8,0:0:0:0:
164,29,368168,5,2,0:0:0:0:
201,43,368237,1,8,0:0:0:0:
240,49,368305,1,0,0:0:0:0:
279,44,368373,1,8,0:0:0:0:
317,32,368441,1,2,0:0:0:0:
356,39,368509,1,8,0:0:0:0:
389,59,368577,1,0,0:0:0:0:
403,96,368646,1,8,0:0:0:0:
396,135,368714,5,2,0:1:0:0:
350,174,368782,1,8,0:0:0:0:
290,169,368850,1,0,0:0:0:0:
257,118,368918,1,8,0:0:0:0:
199,99,368987,1,2,0:0:0:0:
143,122,369055,1,8,0:0:0:0:
121,177,369123,5,0,0:0:0:0:
62,191,369191,1,8,0:0:0:0:
21,147,369259,1,2,0:0:0:0:
36,89,369327,1,8,0:0:0:0:
94,73,369396,1,0,0:0:0:0:
138,112,369464,1,8,0:0:0:0:
139,171,369532,1,2,0:0:0:0:
99,216,369600,1,8,0:0:0:0:
112,274,369668,2,0,P|131:293|165:308,1,50,0|8,0:0|0:0,0:0:0:0:
318,352,369805,5,6,0:0:0:0:
375,335,369873,1,8,0:0:0:0:
409,286,369941,1,0,0:0:0:0:
411,226,370009,1,8,0:0:0:0:
370,181,370077,1,2,0:0:0:0:
310,166,370146,1,8,0:0:0:0:
267,123,370214,1,0,0:0:0:0:
261,63,370282,1,8,0:0:0:0:
296,15,370350,1,2,0:0:0:0:
354,0,370418,1,8,0:0:0:0:
408,27,370487,1,0,0:0:0:0:
433,81,370555,1,8,0:0:0:0:
414,137,370623,1,2,0:0:0:0:
366,173,370691,1,8,0:0:0:0:
306,181,370759,5,0,0:0:0:0:
251,206,370827,1,8,0:0:0:0:
254,266,370896,1,2,0:0:0:0:
307,293,370964,1,8,0:0:0:0:
348,250,371032,1,0,0:0:0:0:
329,193,371100,1,8,0:0:0:0:
272,172,371168,1,2,0:0:0:0:
218,200,371237,1,8,0:0:0:0:
199,256,371305,1,0,0:0:0:0:
215,313,371373,1,8,0:0:0:0:
246,334,371441,5,2,0:0:0:0:
281,304,371509,1,8,0:0:0:0:
285,259,371577,1,0,0:0:0:0:
268,216,371646,1,8,0:0:0:0:
247,176,371714,1,2,0:0:0:0:
247,131,371782,1,8,0:0:0:0:
266,90,371850,1,0,0:0:0:0:
303,63,371918,1,8,0:0:0:0:
348,60,371987,5,2,0:0:0:0:
350,118,372055,1,8,0:0:0:0:
308,158,372123,1,0,0:0:0:0:
248,154,372191,1,8,0:0:0:0:
205,111,372259,1,2,0:0:0:0:
145,118,372327,1,8,0:0:0:0:
116,171,372396,1,0,0:0:0:0:
133,228,372464,1,8,0:0:0:0:
189,246,372532,5,2,0:0:0:0:
241,217,372600,1,8,0:0:0:0:
294,243,372668,1,0,0:0:0:0:
307,302,372737,1,8,0:0:0:0:
268,348,372805,5,2,0:0:0:0:
207,351,372873,1,0,0:0:0:0:
148,354,372941,1,0,0:0:0:0:
89,356,373009,1,0,0:0:0:0:
33,358,373077,1,8,2:3:0:0:
33,358,373350,5,8,2:0:0:0:
76,316,373418,1,8,2:0:0:0:
119,275,373487,1,8,2:0:0:0:
163,234,373555,1,8,2:0:0:0:
192,246,373623,5,0,0:0:0:0:
236,237,373691,1,0,0:0:0:0:
279,229,373759,1,0,0:0:0:0:
323,222,373827,1,0,0:0:0:0:
339,231,373896,5,0,0:0:0:0:
326,182,373964,1,0,0:0:0:0:
314,133,374032,1,0,0:0:0:0:
302,84,374100,1,0,0:0:0:0:
326,33,374168,5,0,0:0:0:0:
273,29,374237,1,0,0:0:0:0:
220,25,374305,1,0,0:0:0:0:
505,227,374441,1,0,0:0:0:0:
235,163,374577,1,0,0:0:0:0:
508,0,374714,6,0,L|507:139,1,100,14|0,0:0|0:0,0:0:0:0:
308,282,374987,1,2,0:1:0:0:
247,317,375055,1,8,0:0:0:0:
177,315,375123,1,0,0:0:0:0:
125,267,375191,1,8,0:0:0:0:
113,198,375259,5,2,0:1:0:0:
141,128,375327,1,8,0:0:0:0:
209,95,375396,1,0,0:0:0:0:
280,117,375464,1,8,0:0:0:0:
334,168,375532,1,2,0:1:0:0:
407,184,375600,1,8,0:0:0:0:
477,158,375668,1,0,0:0:0:0:
501,86,375737,1,8,0:0:0:0:
465,21,375805,5,2,0:1:0:0:
400,47,375873,1,8,0:0:0:0:
373,111,375941,1,0,0:0:0:0:
385,179,376009,1,8,0:0:0:0:
420,239,376077,1,2,0:1:0:0:
418,309,376146,1,8,0:0:0:0:
371,360,376214,1,0,0:0:0:0:
301,360,376282,1,8,0:0:0:0:
243,319,376350,5,2,0:1:0:0:
279,271,376418,1,8,0:0:0:0:
339,265,376487,1,0,0:0:0:0:
391,294,376555,1,8,0:0:0:0:
450,296,376623,1,2,0:1:0:0:
492,253,376691,1,8,0:0:0:0:
485,193,376759,1,0,0:0:0:0:
436,158,376827,1,8,0:0:0:0:
376,169,376896,5,2,0:1:0:0:
339,210,376964,1,8,0:0:0:0:
285,222,377032,1,0,0:0:0:0:
233,203,377100,1,8,0:0:0:0:
209,153,377168,1,2,0:1:0:0:
227,100,377237,1,8,0:0:0:0:
278,80,377305,1,0,0:0:0:0:
322,112,377373,1,8,0:0:0:0:
314,157,377441,5,2,0:1:0:0:
272,184,377509,1,8,0:0:0:0:
226,163,377577,1,0,0:0:0:0:
207,115,377646,1,8,0:0:0:0:
221,67,377714,1,2,0:1:0:0:
264,43,377782,1,8,0:0:0:0:
313,44,377850,1,0,0:0:0:0:
354,71,377918,1,8,0:0:0:0:
385,110,377987,5,2,0:1:0:0:
426,126,378055,1,8,0:0:0:0:
465,126,378123,1,0,0:0:0:0:
496,111,378191,1,8,0:0:0:0:
508,83,378259,1,2,0:1:0:0:
506,53,378327,1,8,0:0:0:0:
488,28,378396,1,0,0:0:0:0:
461,14,378464,1,8,0:0:0:0:
431,18,378532,5,2,0:1:0:0:
427,27,378600,1,8,0:0:0:0:
424,36,378668,1,0,0:0:0:0:
423,46,378737,1,8,0:0:0:0:
423,55,378805,1,2,0:1:0:0:
424,64,378873,1,8,0:0:0:0:
426,73,378941,1,0,0:0:0:0:
429,82,379009,1,8,0:0:0:0:
432,91,379077,5,2,0:1:0:0:
432,106,379146,1,8,0:0:0:0:
425,124,379214,1,0,0:0:0:0:
406,140,379282,1,8,0:0:0:0:
376,146,379350,1,2,0:1:0:0:
342,137,379418,1,8,0:0:0:0:
313,108,379487,1,0,0:0:0:0:
280,77,379555,1,8,0:0:0:0:
226,64,379623,1,2,0:1:0:0:
166,88,379691,1,8,0:0:0:0:
134,144,379759,1,0,0:0:0:0:
142,208,379827,1,8,0:0:0:0:
184,258,379896,1,2,0:1:0:0:
233,261,379964,1,8,0:0:0:0:
275,246,380032,1,0,0:0:0:0:
298,213,380100,1,8,0:0:0:0:
308,174,380168,6,0,L|241:167,1,50,12|0,0:1|0:0,0:0:0:0:
58,125,380305,1,0,0:0:0:0:
58,125,380373,1,0,0:0:0:0:
58,125,380441,2,0,L|54:192,1,50,12|8,0:1|0:0,0:0:0:0:
55,310,380577,1,0,0:0:0:0:
55,310,380646,1,8,0:0:0:0:
55,310,380714,5,14,0:3:0:0:
96,293,380782,1,0,0:0:0:0:
145,295,380850,1,8,0:3:0:0:
192,322,380918,1,0,0:0:0:0:
240,357,380987,1,8,0:3:0:0:
304,366,381055,1,0,0:0:0:0:
366,348,381123,1,8,0:3:0:0:
398,291,381191,1,0,0:0:0:0:
382,228,381259,5,10,0:3:0:0:
328,175,381327,1,0,0:0:0:0:
303,98,381396,1,8,0:3:0:0:
346,36,381464,1,0,0:0:0:0:
417,12,381532,1,8,0:3:0:0:
481,49,381600,1,0,0:0:0:0:
498,121,381668,1,8,0:3:0:0:
462,188,381737,1,0,0:0:0:0:
391,212,381805,2,0,L|382:28,1,150,12|0,0:1|0:0,0:0:0:0:
417,12,382077,5,8,2:0:0:0:
347,22,382145,1,8,2:0:0:0:
278,32,382213,1,8,2:0:0:0:
209,43,382281,1,8,2:0:0:0:
148,78,382350,5,0,0:0:0:0:
158,100,382418,1,0,0:0:0:0:
168,123,382486,1,0,0:0:0:0:
178,146,382554,1,0,0:0:0:0:
225,185,382623,5,0,0:0:0:0:
223,194,382691,1,0,0:0:0:0:
221,203,382759,1,0,0:0:0:0:
219,213,382827,1,0,0:0:0:0:
178,267,382896,5,6,0:0:0:0:
