osu file format v14

[General]
AudioFilename: audio.mp3
AudioLeadIn: 0
PreviewTime: 313
Countdown: 1
SampleSet: Normal
StackLeniency: 0.7
Mode: 1
LetterboxInBreaks: 0
WidescreenStoryboard: 0

[Editor]
DistanceSpacing: 0.9
BeatDivisor: 4
GridSize: 32
TimelineZoom: 3.200005

[Metadata]
Title:Voyage Of The Fallen
TitleUnicode:Voyage Of The Fallen
Artist:Xandria
ArtistUnicode:Xandria
Creator:frukoyurdakul
Version:Inner Oni
Source:
Tags:fire and ashes symphonic metal opera english
BeatmapID:1906079
BeatmapSetID:912443

[Difficulty]
HPDrainRate:6
CircleSize:2
OverallDifficulty:6.5
ApproachRate:10
SliderMultiplier:1.4
SliderTickRate:1

[Events]
//Background and Video events
0,0,"BG.jpg",0,0
//Break Periods
//Storyboard Layer 0 (Background)
//Storyboard Layer 1 (Fail)
//Storyboard Layer 2 (Pass)
//Storyboard Layer 3 (Foreground)
//Storyboard Sound Samples

[TimingPoints]
453,279.06976744186,4,1,0,90,1,0
58499,-95.2380952380952,4,1,0,100,0,1
78452,-97.5609756097561,4,1,0,100,0,1
78592,-100,4,1,0,90,0,0
88918,-102.564102564103,4,1,0,90,0,0
89197,-105.263157894737,4,1,0,90,0,0
89476,-108.108108108108,4,1,0,90,0,0
89755,-111.111111111111,4,1,0,90,0,0
102313,-100,4,1,0,90,0,0
119057,-80,4,1,0,100,0,0
119546,-100,4,1,0,90,0,0
120871,-97.5609756097561,4,1,0,100,0,0
121011,-95.2380952380952,4,1,0,100,0,1
138871,-90.9090909090909,4,1,0,100,0,1
158964,-90.9090909090909,4,1,0,80,0,0
159522,-114.285714285714,4,1,0,80,0,0
160080,-133.333333333333,4,1,0,80,0,0
161197,-100,4,1,0,100,0,0
163290,-133.333333333333,4,1,0,80,0,0
165662,-100,4,1,0,100,0,0
167615,-133.333333333333,4,1,0,80,0,0
170127,-100,4,1,0,100,0,0
172220,-100,4,1,0,80,0,0
174173,-100,4,1,0,100,0,0
175569,-100,4,1,0,90,0,0
225383,-98.0392156862745,4,1,0,90,0,0
225522,-96.1538461538461,4,1,0,90,0,0
225662,-94.3396226415094,4,1,0,90,0,0
225801,-92.5925925925926,4,1,0,90,0,0
225941,-90.9090909090909,4,1,0,100,0,1
261662,-90.0900900900901,4,1,0,100,0,1
262778,-89.2857142857143,4,1,0,100,0,1
263894,-88.4955752212389,4,1,0,100,0,1
265011,-87.719298245614,4,1,0,100,0,1
266127,-83.3333333333333,4,1,0,100,0,0

[HitObjects]
160,288,453,5,4,0:0:0:0:
160,288,2685,1,4,0:0:0:0:
352,96,4359,1,8,0:0:0:0:
160,288,4918,1,4,0:0:0:0:
160,288,7150,1,4,0:0:0:0:
352,288,8266,1,12,0:0:0:0:
352,288,8825,1,12,0:0:0:0:
160,288,9383,1,4,0:0:0:0:
160,288,9522,1,4,0:0:0:0:
160,288,11615,1,4,0:0:0:0:
160,288,11755,1,4,0:0:0:0:
160,288,13848,1,4,0:0:0:0:
160,288,13987,1,4,0:0:0:0:
160,96,14825,1,0,0:0:0:0:
160,96,14894,1,0,0:0:0:0:
352,288,14964,1,12,0:0:0:0:
160,288,16080,1,4,0:0:0:0:
160,288,16499,1,4,0:0:0:0:
160,288,16918,1,4,0:0:0:0:
352,288,17197,1,12,0:0:0:0:
352,96,17615,1,8,0:0:0:0:
352,96,17755,1,8,0:0:0:0:
352,96,17894,1,8,0:0:0:0:
352,96,18034,1,8,0:0:0:0:
352,96,18173,1,8,0:0:0:0:
160,288,18313,1,4,0:0:0:0:
160,96,18452,1,0,0:0:0:0:
352,96,18592,1,8,0:0:0:0:
160,96,18732,1,0,0:0:0:0:
160,96,18871,1,0,0:0:0:0:
160,96,19011,1,0,0:0:0:0:
352,96,19150,1,8,0:0:0:0:
160,96,19290,1,0,0:0:0:0:
160,96,19359,1,0,0:0:0:0:
160,96,19429,1,0,0:0:0:0:
160,96,19569,1,0,0:0:0:0:
352,96,19708,1,8,0:0:0:0:
160,96,19848,1,0,0:0:0:0:
160,96,19987,1,0,0:0:0:0:
160,96,20127,1,0,0:0:0:0:
160,96,20197,1,0,0:0:0:0:
352,96,20266,1,8,0:0:0:0:
352,96,20406,1,8,0:0:0:0:
160,288,20546,1,4,0:0:0:0:
160,96,20685,1,0,0:0:0:0:
160,96,20755,1,0,0:0:0:0:
352,96,20825,1,8,0:0:0:0:
160,96,20964,1,0,0:0:0:0:
160,96,21104,1,0,0:0:0:0:
160,96,21173,1,0,0:0:0:0:
160,96,21243,1,0,0:0:0:0:
352,96,21383,1,8,0:0:0:0:
160,96,21522,1,0,0:0:0:0:
160,96,21662,1,0,0:0:0:0:
160,96,21732,1,0,0:0:0:0:
160,96,21801,1,0,0:0:0:0:
352,96,21941,1,8,0:0:0:0:
160,96,22080,1,0,0:0:0:0:
160,96,22220,1,0,0:0:0:0:
160,96,22290,1,0,0:0:0:0:
160,96,22359,1,0,0:0:0:0:
160,96,22429,1,0,0:0:0:0:
352,96,22499,1,8,0:0:0:0:
352,96,22639,1,8,0:0:0:0:
160,288,22778,1,4,0:0:0:0:
160,96,22918,1,0,0:0:0:0:
160,96,22987,1,0,0:0:0:0:
352,96,23057,1,8,0:0:0:0:
160,96,23197,1,0,0:0:0:0:
160,96,23266,1,0,0:0:0:0:
160,96,23336,1,0,0:0:0:0:
352,96,23476,1,8,0:0:0:0:
352,96,23615,1,8,0:0:0:0:
160,96,23755,1,0,0:0:0:0:
160,288,23894,1,4,0:0:0:0:
160,96,24034,1,0,0:0:0:0:
160,96,24104,1,0,0:0:0:0:
352,96,24173,1,8,0:0:0:0:
352,96,24313,1,8,0:0:0:0:
160,96,24383,1,0,0:0:0:0:
352,96,24452,1,8,0:0:0:0:
352,96,24522,1,8,0:0:0:0:
160,96,24592,1,0,0:0:0:0:
352,96,24732,1,8,0:0:0:0:
160,96,24871,1,0,0:0:0:0:
352,288,25011,1,12,0:0:0:0:
160,96,25150,1,0,0:0:0:0:
352,96,25290,1,8,0:0:0:0:
160,96,25359,1,0,0:0:0:0:
352,96,25429,1,8,0:0:0:0:
160,96,25569,1,0,0:0:0:0:
352,96,25708,1,8,0:0:0:0:
352,96,25848,1,8,0:0:0:0:
160,96,25987,1,0,0:0:0:0:
352,96,26127,1,8,0:0:0:0:
160,96,26197,1,0,0:0:0:0:
160,96,26266,1,0,0:0:0:0:
160,96,26336,1,0,0:0:0:0:
352,96,26406,1,8,0:0:0:0:
352,96,26476,1,8,0:0:0:0:
160,96,26546,1,0,0:0:0:0:
160,96,26615,1,0,0:0:0:0:
352,96,26685,1,8,0:0:0:0:
160,96,26755,1,0,0:0:0:0:
352,96,26825,1,8,0:0:0:0:
160,96,26894,1,0,0:0:0:0:
352,96,26964,1,8,0:0:0:0:
352,96,27034,1,8,0:0:0:0:
352,96,27104,1,8,0:0:0:0:
352,96,27173,1,8,0:0:0:0:
160,96,27243,1,0,0:0:0:0:
160,96,27313,1,0,0:0:0:0:
160,288,27522,1,4,0:0:0:0:
352,96,31150,1,8,0:0:0:0:
160,96,31499,1,0,0:0:0:0:
160,96,31569,1,0,0:0:0:0:
160,96,31639,1,0,0:0:0:0:
160,96,31708,1,0,0:0:0:0:
160,288,31987,1,4,0:0:0:0:
160,288,36173,1,4,0:0:0:0:
352,288,36452,1,12,0:0:0:0:
352,96,36732,1,8,0:0:0:0:
352,96,37848,1,8,0:0:0:0:
352,96,38964,1,8,0:0:0:0:
352,96,40080,1,8,0:0:0:0:
160,96,40429,1,0,0:0:0:0:
160,96,40499,1,0,0:0:0:0:
160,96,40569,1,0,0:0:0:0:
160,96,40639,1,0,0:0:0:0:
352,288,40918,1,12,0:0:0:0:
352,96,41197,1,8,0:0:0:0:
352,96,42313,1,8,0:0:0:0:
160,288,42871,1,4,0:0:0:0:
352,96,43429,1,8,0:0:0:0:
160,96,43708,1,0,0:0:0:0:
160,96,43778,1,0,0:0:0:0:
160,96,43848,1,0,0:0:0:0:
160,96,43918,1,0,0:0:0:0:
160,96,43987,1,0,0:0:0:0:
160,96,44127,1,0,0:0:0:0:
160,96,44266,1,0,0:0:0:0:
160,96,44406,1,0,0:0:0:0:
160,96,44546,1,0,0:0:0:0:
160,96,44685,1,0,0:0:0:0:
160,96,44825,1,0,0:0:0:0:
160,96,44964,1,0,0:0:0:0:
160,288,45104,1,4,0:0:0:0:
160,96,45243,1,0,0:0:0:0:
352,96,45383,1,8,0:0:0:0:
160,96,45522,1,0,0:0:0:0:
160,96,45662,1,0,0:0:0:0:
160,96,45801,1,0,0:0:0:0:
160,96,45871,1,0,0:0:0:0:
352,96,45941,1,8,0:0:0:0:
160,96,46080,1,0,0:0:0:0:
352,96,46220,1,8,0:0:0:0:
160,96,46359,1,0,0:0:0:0:
160,96,46429,1,0,0:0:0:0:
352,96,46499,1,8,0:0:0:0:
160,96,46639,1,0,0:0:0:0:
160,96,46778,1,0,0:0:0:0:
160,96,46918,1,0,0:0:0:0:
352,96,47057,1,8,0:0:0:0:
160,96,47127,1,0,0:0:0:0:
352,96,47197,1,8,0:0:0:0:
160,288,47336,1,4,0:0:0:0:
160,96,47476,1,0,0:0:0:0:
352,96,47615,1,8,0:0:0:0:
160,96,47755,1,0,0:0:0:0:
160,96,47825,1,0,0:0:0:0:
160,96,47894,1,0,0:0:0:0:
160,96,48034,1,0,0:0:0:0:
352,96,48173,1,8,0:0:0:0:
352,96,48313,1,8,0:0:0:0:
160,96,48452,1,0,0:0:0:0:
160,96,48592,1,0,0:0:0:0:
160,96,48662,1,0,0:0:0:0:
352,96,48732,1,8,0:0:0:0:
160,96,48871,1,0,0:0:0:0:
160,96,48941,1,0,0:0:0:0:
160,96,49011,1,0,0:0:0:0:
352,288,49150,1,12,0:0:0:0:
160,96,49290,1,0,0:0:0:0:
160,96,49359,1,0,0:0:0:0:
160,96,49429,1,0,0:0:0:0:
160,288,49569,1,4,0:0:0:0:
160,96,49708,1,0,0:0:0:0:
352,96,49848,1,8,0:0:0:0:
160,96,49987,1,0,0:0:0:0:
160,96,50057,1,0,0:0:0:0:
160,96,50127,1,0,0:0:0:0:
160,96,50266,1,0,0:0:0:0:
352,96,50406,1,8,0:0:0:0:
160,96,50546,1,0,0:0:0:0:
160,96,50615,1,0,0:0:0:0:
160,96,50685,1,0,0:0:0:0:
160,96,50825,1,0,0:0:0:0:
352,96,50964,1,8,0:0:0:0:
160,96,51104,1,0,0:0:0:0:
160,96,51173,1,0,0:0:0:0:
352,96,51243,1,8,0:0:0:0:
160,96,51383,1,0,0:0:0:0:
352,96,51522,1,8,0:0:0:0:
352,96,51662,1,8,0:0:0:0:
352,96,51732,1,8,0:0:0:0:
160,96,51801,1,0,0:0:0:0:
160,96,51941,1,0,0:0:0:0:
352,96,52080,1,8,0:0:0:0:
160,96,52220,1,0,0:0:0:0:
160,96,52359,1,0,0:0:0:0:
160,96,52429,1,0,0:0:0:0:
160,96,52499,1,0,0:0:0:0:
160,96,52569,1,0,0:0:0:0:
352,96,52639,1,8,0:0:0:0:
160,96,52778,1,0,0:0:0:0:
352,288,52918,1,12,0:0:0:0:
160,96,53057,1,0,0:0:0:0:
160,96,53197,1,0,0:0:0:0:
352,288,53336,1,12,0:0:0:0:
160,96,53476,1,0,0:0:0:0:
160,96,53615,1,0,0:0:0:0:
352,288,53755,1,12,0:0:0:0:
352,96,53894,1,8,0:0:0:0:
160,288,54034,1,4,0:0:0:0:
160,96,54173,1,0,0:0:0:0:
352,96,54313,1,8,0:0:0:0:
160,96,54452,1,0,0:0:0:0:
160,96,54592,1,0,0:0:0:0:
160,96,54662,1,0,0:0:0:0:
160,96,54732,1,0,0:0:0:0:
352,96,54871,1,8,0:0:0:0:
352,96,55011,1,8,0:0:0:0:
160,96,55150,1,0,0:0:0:0:
160,96,55290,1,0,0:0:0:0:
160,96,55359,1,0,0:0:0:0:
352,96,55429,1,8,0:0:0:0:
160,96,55569,1,0,0:0:0:0:
352,96,55708,1,8,0:0:0:0:
352,96,55778,1,8,0:0:0:0:
160,96,55848,1,0,0:0:0:0:
160,96,55918,1,0,0:0:0:0:
352,96,55987,1,8,0:0:0:0:
352,96,56127,1,8,0:0:0:0:
160,288,56266,1,4,0:0:0:0:
160,96,56406,1,0,0:0:0:0:
352,96,56546,1,8,0:0:0:0:
160,288,56685,1,4,0:0:0:0:
160,96,56825,1,0,0:0:0:0:
160,96,56964,1,0,0:0:0:0:
160,96,57034,1,0,0:0:0:0:
352,96,57104,1,8,0:0:0:0:
352,96,57173,1,8,0:0:0:0:
352,96,57243,1,8,0:0:0:0:
352,96,57313,1,8,0:0:0:0:
352,96,57383,1,8,0:0:0:0:
352,96,57452,1,8,0:0:0:0:
160,96,57522,1,0,0:0:0:0:
160,96,57592,1,0,0:0:0:0:
352,96,57662,1,8,0:0:0:0:
352,96,57732,1,8,0:0:0:0:
160,96,57801,1,0,0:0:0:0:
160,96,57871,1,0,0:0:0:0:
352,96,57941,1,8,0:0:0:0:
352,96,58011,1,8,0:0:0:0:
160,96,58080,1,0,0:0:0:0:
160,96,58150,1,0,0:0:0:0:
352,96,58220,1,8,0:0:0:0:
160,96,58359,1,0,0:0:0:0:
160,288,58499,1,4,0:0:0:0:
352,96,58778,1,8,0:0:0:0:
160,96,58918,1,0,0:0:0:0:
352,96,59057,1,8,0:0:0:0:
352,96,59336,1,8,0:0:0:0:
352,96,59476,1,8,0:0:0:0:
352,96,59615,1,8,0:0:0:0:
352,96,59894,1,8,0:0:0:0:
160,96,60034,1,0,0:0:0:0:
160,96,60173,1,0,0:0:0:0:
352,96,60452,1,8,0:0:0:0:
160,96,60732,1,0,0:0:0:0:
352,96,61011,1,8,0:0:0:0:
160,96,61150,1,0,0:0:0:0:
352,96,61290,1,8,0:0:0:0:
352,96,61569,1,8,0:0:0:0:
352,96,61708,1,8,0:0:0:0:
352,96,61848,1,8,0:0:0:0:
352,96,62127,1,8,0:0:0:0:
352,96,62266,1,8,0:0:0:0:
160,288,62406,1,4,0:0:0:0:
352,288,62685,1,12,0:0:0:0:
160,288,62964,1,4,0:0:0:0:
160,96,63243,1,0,0:0:0:0:
352,96,63383,1,8,0:0:0:0:
352,96,63522,1,8,0:0:0:0:
352,96,63801,1,8,0:0:0:0:
160,96,63941,1,0,0:0:0:0:
160,96,64080,1,0,0:0:0:0:
352,96,64359,1,8,0:0:0:0:
160,96,64499,1,0,0:0:0:0:
352,96,64639,1,8,0:0:0:0:
160,96,64918,1,0,0:0:0:0:
160,96,65197,1,0,0:0:0:0:
160,96,65476,1,0,0:0:0:0:
160,96,65615,1,0,0:0:0:0:
352,96,65755,1,8,0:0:0:0:
352,96,66034,1,8,0:0:0:0:
160,288,66313,1,4,0:0:0:0:
160,96,66592,1,0,0:0:0:0:
160,96,66732,1,0,0:0:0:0:
160,96,66801,1,0,0:0:0:0:
352,288,66871,1,12,0:0:0:0:
352,96,67011,1,8,0:0:0:0:
160,96,67150,1,0,0:0:0:0:
160,96,67290,1,0,0:0:0:0:
160,288,67429,1,4,0:0:0:0:
352,96,67708,1,8,0:0:0:0:
160,96,67848,1,0,0:0:0:0:
352,96,67987,1,8,0:0:0:0:
352,96,68266,1,8,0:0:0:0:
352,96,68406,1,8,0:0:0:0:
352,96,68546,1,8,0:0:0:0:
160,96,68825,1,0,0:0:0:0:
160,96,68964,1,0,0:0:0:0:
352,96,69104,1,8,0:0:0:0:
160,288,69383,1,4,0:0:0:0:
160,288,69662,1,4,0:0:0:0:
352,96,69941,1,8,0:0:0:0:
160,96,70080,1,0,0:0:0:0:
352,96,70220,1,8,0:0:0:0:
352,96,70499,1,8,0:0:0:0:
352,96,70639,1,8,0:0:0:0:
352,96,70778,1,8,0:0:0:0:
160,96,71057,1,0,0:0:0:0:
160,96,71197,1,0,0:0:0:0:
352,288,71336,1,12,0:0:0:0:
160,288,71615,1,4,0:0:0:0:
160,288,71894,1,4,0:0:0:0:
160,96,72173,1,0,0:0:0:0:
160,96,72313,1,0,0:0:0:0:
352,96,72452,1,8,0:0:0:0:
160,96,72732,1,0,0:0:0:0:
352,96,72871,1,8,0:0:0:0:
160,288,73011,1,4,0:0:0:0:
352,96,73290,1,8,0:0:0:0:
160,96,73429,1,0,0:0:0:0:
352,288,73569,1,12,0:0:0:0:
160,96,73848,1,0,0:0:0:0:
160,288,74127,1,4,0:0:0:0:
160,96,74406,1,0,0:0:0:0:
160,96,74546,1,0,0:0:0:0:
352,288,74685,1,12,0:0:0:0:
352,96,74964,1,8,0:0:0:0:
352,96,75104,1,8,0:0:0:0:
160,288,75243,1,4,0:0:0:0:
160,96,75522,1,0,0:0:0:0:
160,96,75662,1,0,0:0:0:0:
352,288,75801,1,12,0:0:0:0:
352,96,75941,1,8,0:0:0:0:
160,96,76080,1,0,0:0:0:0:
160,96,76220,1,0,0:0:0:0:
352,288,76359,1,12,0:0:0:0:
160,96,76499,1,0,0:0:0:0:
160,96,76639,1,0,0:0:0:0:
160,96,76778,1,0,0:0:0:0:
352,288,76918,1,12,0:0:0:0:
160,96,77057,1,0,0:0:0:0:
160,96,77197,1,0,0:0:0:0:
160,96,77336,1,0,0:0:0:0:
352,288,77476,1,12,0:0:0:0:
160,96,77615,1,0,0:0:0:0:
160,96,77685,1,0,0:0:0:0:
160,96,77755,1,0,0:0:0:0:
352,288,77894,1,12,0:0:0:0:
160,96,78034,1,0,0:0:0:0:
160,96,78104,1,0,0:0:0:0:
160,96,78173,1,0,0:0:0:0:
352,288,78313,1,12,0:0:0:0:
160,96,78452,1,0,0:0:0:0:
160,288,78592,1,4,0:0:0:0:
160,96,78732,1,0,0:0:0:0:
352,96,78871,1,8,0:0:0:0:
160,96,79011,1,0,0:0:0:0:
160,96,79080,1,0,0:0:0:0:
160,96,79150,1,0,0:0:0:0:
160,96,79290,1,0,0:0:0:0:
352,96,79429,1,8,0:0:0:0:
160,96,79569,1,0,0:0:0:0:
160,96,79639,1,0,0:0:0:0:
160,96,79708,1,0,0:0:0:0:
160,96,79848,1,0,0:0:0:0:
352,96,79987,1,8,0:0:0:0:
160,96,80127,1,0,0:0:0:0:
352,96,80266,1,8,0:0:0:0:
160,96,80336,1,0,0:0:0:0:
160,96,80406,1,0,0:0:0:0:
160,96,80476,1,0,0:0:0:0:
352,96,80546,1,8,0:0:0:0:
352,96,80685,1,8,0:0:0:0:
160,288,80825,1,4,0:0:0:0:
160,96,80964,1,0,0:0:0:0:
160,96,81034,1,0,0:0:0:0:
352,96,81104,1,8,0:0:0:0:
160,96,81243,1,0,0:0:0:0:
160,96,81383,1,0,0:0:0:0:
160,96,81452,1,0,0:0:0:0:
160,96,81522,1,0,0:0:0:0:
352,96,81662,1,8,0:0:0:0:
160,96,81801,1,0,0:0:0:0:
160,96,81941,1,0,0:0:0:0:
160,96,82011,1,0,0:0:0:0:
160,96,82080,1,0,0:0:0:0:
352,96,82220,1,8,0:0:0:0:
160,96,82359,1,0,0:0:0:0:
352,96,82499,1,8,0:0:0:0:
160,96,82569,1,0,0:0:0:0:
352,96,82639,1,8,0:0:0:0:
160,96,82708,1,0,0:0:0:0:
352,96,82778,1,8,0:0:0:0:
352,96,82918,1,8,0:0:0:0:
160,288,83057,1,4,0:0:0:0:
160,96,83197,1,0,0:0:0:0:
160,96,83266,1,0,0:0:0:0:
352,96,83336,1,8,0:0:0:0:
352,96,83476,1,8,0:0:0:0:
352,96,83546,1,8,0:0:0:0:
160,96,83615,1,0,0:0:0:0:
352,96,83755,1,8,0:0:0:0:
352,96,83894,1,8,0:0:0:0:
160,96,84034,1,0,0:0:0:0:
160,288,84173,1,4,0:0:0:0:
160,96,84313,1,0,0:0:0:0:
160,96,84383,1,0,0:0:0:0:
352,96,84452,1,8,0:0:0:0:
352,96,84592,1,8,0:0:0:0:
160,96,84662,1,0,0:0:0:0:
352,96,84732,1,8,0:0:0:0:
352,96,84801,1,8,0:0:0:0:
160,96,84871,1,0,0:0:0:0:
160,96,84941,1,0,0:0:0:0:
352,96,85011,1,8,0:0:0:0:
160,96,85150,1,0,0:0:0:0:
352,288,85290,1,12,0:0:0:0:
160,96,85429,1,0,0:0:0:0:
352,96,85569,1,8,0:0:0:0:
352,288,85708,1,12,0:0:0:0:
160,96,85848,1,0,0:0:0:0:
352,96,85987,1,8,0:0:0:0:
352,288,86127,1,12,0:0:0:0:
160,96,86266,1,0,0:0:0:0:
352,96,86406,1,8,0:0:0:0:
352,96,86476,1,8,0:0:0:0:
160,96,86546,1,0,0:0:0:0:
160,96,86615,1,0,0:0:0:0:
352,96,86685,1,8,0:0:0:0:
160,96,86755,1,0,0:0:0:0:
160,96,86825,1,0,0:0:0:0:
160,96,86894,1,0,0:0:0:0:
352,96,86964,1,8,0:0:0:0:
352,96,87104,1,8,0:0:0:0:
160,96,87243,1,0,0:0:0:0:
160,96,87383,1,0,0:0:0:0:
352,96,87522,1,8,0:0:0:0:
352,96,87662,1,8,0:0:0:0:
352,96,87801,1,8,0:0:0:0:
352,96,88080,1,8,0:0:0:0:
352,96,88220,1,8,0:0:0:0:
352,96,88359,1,8,0:0:0:0:
352,96,88639,1,8,0:0:0:0:
352,96,88673,1,8,0:0:0:0:
352,288,88918,1,12,0:0:0:0:
352,288,89197,1,12,0:0:0:0:
352,288,89476,1,12,0:0:0:0:
160,288,89755,1,4,0:0:0:0:
160,96,90034,1,0,0:0:0:0:
160,96,90173,1,0,0:0:0:0:
352,96,90313,1,8,0:0:0:0:
160,96,90592,1,0,0:0:0:0:
160,96,90732,1,0,0:0:0:0:
160,96,90871,1,0,0:0:0:0:
160,96,91150,1,0,0:0:0:0:
160,96,91290,1,0,0:0:0:0:
352,96,91429,1,8,0:0:0:0:
160,96,91708,1,0,0:0:0:0:
160,96,91848,1,0,0:0:0:0:
160,96,91987,1,0,0:0:0:0:
160,96,92266,1,0,0:0:0:0:
160,96,92406,1,0,0:0:0:0:
352,96,92546,1,8,0:0:0:0:
160,96,92825,1,0,0:0:0:0:
352,96,92964,1,8,0:0:0:0:
160,96,93104,1,0,0:0:0:0:
160,96,93383,1,0,0:0:0:0:
160,96,93522,1,0,0:0:0:0:
352,96,93662,1,8,0:0:0:0:
160,96,93941,1,0,0:0:0:0:
160,288,94220,1,4,0:0:0:0:
160,96,94499,1,0,0:0:0:0:
160,96,94639,1,0,0:0:0:0:
352,96,94778,1,8,0:0:0:0:
160,96,95057,1,0,0:0:0:0:
160,96,95197,1,0,0:0:0:0:
160,96,95336,1,0,0:0:0:0:
160,96,95615,1,0,0:0:0:0:
160,96,95755,1,0,0:0:0:0:
352,96,95894,1,8,0:0:0:0:
352,96,96173,1,8,0:0:0:0:
352,96,96313,1,8,0:0:0:0:
160,96,96452,1,0,0:0:0:0:
160,96,96732,1,0,0:0:0:0:
160,96,96871,1,0,0:0:0:0:
352,96,97011,1,8,0:0:0:0:
352,96,97290,1,8,0:0:0:0:
160,96,97429,1,0,0:0:0:0:
352,96,97569,1,8,0:0:0:0:
352,96,97708,1,8,0:0:0:0:
160,96,97848,1,0,0:0:0:0:
160,96,97987,1,0,0:0:0:0:
352,288,98127,1,12,0:0:0:0:
352,288,98406,1,12,0:0:0:0:
160,288,98685,1,4,0:0:0:0:
160,96,98964,1,0,0:0:0:0:
160,96,99104,1,0,0:0:0:0:
352,96,99243,1,8,0:0:0:0:
352,96,99522,1,8,0:0:0:0:
352,96,99662,1,8,0:0:0:0:
352,96,99801,1,8,0:0:0:0:
160,96,100080,1,0,0:0:0:0:
352,96,100220,1,8,0:0:0:0:
352,96,100359,1,8,0:0:0:0:
352,96,100639,1,8,0:0:0:0:
160,96,100778,1,0,0:0:0:0:
160,96,100918,1,0,0:0:0:0:
160,96,101197,1,0,0:0:0:0:
160,96,101336,1,0,0:0:0:0:
352,96,101476,1,8,0:0:0:0:
160,96,101755,1,0,0:0:0:0:
160,96,101894,1,0,0:0:0:0:
160,96,102034,1,0,0:0:0:0:
352,96,102313,1,8,0:0:0:0:
352,96,102383,1,8,0:0:0:0:
160,96,102452,1,0,0:0:0:0:
160,96,102522,1,0,0:0:0:0:
352,288,102592,1,12,0:0:0:0:
160,288,102871,1,4,0:0:0:0:
160,288,103150,1,4,0:0:0:0:
352,96,103429,1,8,0:0:0:0:
160,96,103569,1,0,0:0:0:0:
352,96,103708,1,8,0:0:0:0:
160,96,103987,1,0,0:0:0:0:
352,96,104127,1,8,0:0:0:0:
160,96,104266,1,0,0:0:0:0:
160,96,104406,1,0,0:0:0:0:
160,96,104546,1,0,0:0:0:0:
160,96,104685,1,0,0:0:0:0:
352,96,104825,1,8,0:0:0:0:
352,96,105104,1,8,0:0:0:0:
352,96,105173,1,8,0:0:0:0:
352,96,105243,1,8,0:0:0:0:
352,96,105313,1,8,0:0:0:0:
352,96,105383,1,8,0:0:0:0:
160,96,105452,1,0,0:0:0:0:
160,96,105522,1,0,0:0:0:0:
160,96,105592,1,0,0:0:0:0:
352,96,105662,1,8,0:0:0:0:
352,96,105732,1,8,0:0:0:0:
160,96,105801,1,0,0:0:0:0:
160,96,105871,1,0,0:0:0:0:
352,96,105941,1,8,0:0:0:0:
160,96,106011,1,0,0:0:0:0:
160,96,106080,1,0,0:0:0:0:
160,96,106150,1,0,0:0:0:0:
352,96,106220,1,8,0:0:0:0:
352,96,106290,1,8,0:0:0:0:
160,96,106359,1,0,0:0:0:0:
160,96,106429,1,0,0:0:0:0:
352,96,106499,1,8,0:0:0:0:
160,96,106569,1,0,0:0:0:0:
352,96,106639,1,8,0:0:0:0:
352,96,106708,1,8,0:0:0:0:
160,96,106778,1,0,0:0:0:0:
160,96,106848,1,0,0:0:0:0:
352,96,106918,1,8,0:0:0:0:
352,96,106987,1,8,0:0:0:0:
160,96,107057,1,0,0:0:0:0:
160,96,107127,1,0,0:0:0:0:
352,96,107197,1,8,0:0:0:0:
352,96,107266,1,8,0:0:0:0:
160,96,107336,1,0,0:0:0:0:
160,96,107406,1,0,0:0:0:0:
352,96,107476,1,8,0:0:0:0:
352,96,107546,1,8,0:0:0:0:
160,288,107615,1,4,0:0:0:0:
160,96,107755,1,0,0:0:0:0:
352,96,107894,1,8,0:0:0:0:
160,96,108034,1,0,0:0:0:0:
160,96,108104,1,0,0:0:0:0:
160,96,108173,1,0,0:0:0:0:
160,96,108313,1,0,0:0:0:0:
352,96,108452,1,8,0:0:0:0:
160,96,108592,1,0,0:0:0:0:
160,96,108662,1,0,0:0:0:0:
160,96,108732,1,0,0:0:0:0:
160,96,108801,1,0,0:0:0:0:
160,96,108871,1,0,0:0:0:0:
352,96,109011,1,8,0:0:0:0:
160,96,109150,1,0,0:0:0:0:
160,96,109220,1,0,0:0:0:0:
160,96,109290,1,0,0:0:0:0:
160,96,109429,1,0,0:0:0:0:
352,96,109569,1,8,0:0:0:0:
352,96,109639,1,8,0:0:0:0:
160,96,109708,1,0,0:0:0:0:
160,288,109848,1,4,0:0:0:0:
160,96,109987,1,0,0:0:0:0:
352,96,110127,1,8,0:0:0:0:
160,96,110266,1,0,0:0:0:0:
160,96,110336,1,0,0:0:0:0:
160,96,110406,1,0,0:0:0:0:
160,96,110476,1,0,0:0:0:0:
160,96,110546,1,0,0:0:0:0:
352,96,110685,1,8,0:0:0:0:
352,96,110755,1,8,0:0:0:0:
160,96,110825,1,0,0:0:0:0:
352,96,110964,1,8,0:0:0:0:
160,96,111104,1,0,0:0:0:0:
352,96,111243,1,8,0:0:0:0:
160,96,111383,1,0,0:0:0:0:
160,96,111452,1,0,0:0:0:0:
352,96,111522,1,8,0:0:0:0:
352,288,111662,1,12,0:0:0:0:
160,96,111801,1,0,0:0:0:0:
160,96,111871,1,0,0:0:0:0:
160,96,111941,1,0,0:0:0:0:
160,288,112080,1,4,0:0:0:0:
160,96,112220,1,0,0:0:0:0:
352,96,112359,1,8,0:0:0:0:
160,96,112499,1,0,0:0:0:0:
160,96,112569,1,0,0:0:0:0:
160,96,112639,1,0,0:0:0:0:
160,96,112778,1,0,0:0:0:0:
352,96,112918,1,8,0:0:0:0:
160,96,112987,1,0,0:0:0:0:
160,96,113057,1,0,0:0:0:0:
160,96,113197,1,0,0:0:0:0:
160,96,113266,1,0,0:0:0:0:
160,96,113336,1,0,0:0:0:0:
352,96,113476,1,8,0:0:0:0:
160,96,113615,1,0,0:0:0:0:
352,96,113755,1,8,0:0:0:0:
160,96,113825,1,0,0:0:0:0:
160,96,113894,1,0,0:0:0:0:
160,96,113964,1,0,0:0:0:0:
352,96,114034,1,8,0:0:0:0:
160,96,114173,1,0,0:0:0:0:
352,288,114313,1,12,0:0:0:0:
160,96,114452,1,0,0:0:0:0:
160,96,114522,1,0,0:0:0:0:
160,96,114592,1,0,0:0:0:0:
352,96,114732,1,8,0:0:0:0:
160,96,114871,1,0,0:0:0:0:
160,96,114941,1,0,0:0:0:0:
160,96,115011,1,0,0:0:0:0:
352,96,115150,1,8,0:0:0:0:
160,96,115290,1,0,0:0:0:0:
352,96,115429,1,8,0:0:0:0:
352,96,115499,1,8,0:0:0:0:
160,96,115569,1,0,0:0:0:0:
160,96,115639,1,0,0:0:0:0:
352,96,115708,1,8,0:0:0:0:
160,96,115778,1,0,0:0:0:0:
352,96,115848,1,8,0:0:0:0:
160,96,115918,1,0,0:0:0:0:
352,96,115987,1,8,0:0:0:0:
352,96,116057,1,8,0:0:0:0:
160,96,116127,1,0,0:0:0:0:
160,96,116197,1,0,0:0:0:0:
352,96,116266,1,8,0:0:0:0:
352,96,116336,1,8,0:0:0:0:
352,96,116406,1,8,0:0:0:0:
352,96,116476,1,8,0:0:0:0:
160,288,116546,1,4,0:0:0:0:
160,96,116685,1,0,0:0:0:0:
352,96,116825,1,8,0:0:0:0:
160,96,116964,1,0,0:0:0:0:
160,96,117034,1,0,0:0:0:0:
160,96,117104,1,0,0:0:0:0:
160,96,117243,1,0,0:0:0:0:
352,96,117383,1,8,0:0:0:0:
352,96,117452,1,8,0:0:0:0:
160,96,117522,1,0,0:0:0:0:
160,96,117592,1,0,0:0:0:0:
160,96,117662,1,0,0:0:0:0:
160,96,117801,1,0,0:0:0:0:
352,96,117941,1,8,0:0:0:0:
160,96,118011,1,0,0:0:0:0:
160,96,118080,1,0,0:0:0:0:
352,96,118220,1,8,0:0:0:0:
352,96,118290,1,8,0:0:0:0:
160,96,118359,1,0,0:0:0:0:
160,96,118429,1,0,0:0:0:0:
352,96,118499,1,8,0:0:0:0:
352,96,118639,1,8,0:0:0:0:
160,288,118778,1,4,0:0:0:0:
352,288,119336,1,12,0:0:0:0:
160,96,119755,1,0,0:0:0:0:
160,96,119825,1,0,0:0:0:0:
352,96,119894,1,8,0:0:0:0:
352,96,119964,1,8,0:0:0:0:
160,96,120034,1,0,0:0:0:0:
160,96,120104,1,0,0:0:0:0:
160,96,120173,1,0,0:0:0:0:
160,96,120243,1,0,0:0:0:0:
352,96,120313,1,8,0:0:0:0:
352,96,120383,1,8,0:0:0:0:
160,96,120452,1,0,0:0:0:0:
160,96,120522,1,0,0:0:0:0:
160,96,120592,1,0,0:0:0:0:
160,96,120662,1,0,0:0:0:0:
352,96,120732,1,8,0:0:0:0:
352,96,120871,1,8,0:0:0:0:
160,288,121011,1,4,0:0:0:0:
352,96,121290,1,8,0:0:0:0:
160,96,121429,1,0,0:0:0:0:
352,96,121569,1,8,0:0:0:0:
352,96,121848,1,8,0:0:0:0:
352,96,121987,1,8,0:0:0:0:
352,96,122127,1,8,0:0:0:0:
352,96,122406,1,8,0:0:0:0:
160,96,122546,1,0,0:0:0:0:
160,96,122685,1,0,0:0:0:0:
352,96,122964,1,8,0:0:0:0:
160,96,123243,1,0,0:0:0:0:
352,96,123522,1,8,0:0:0:0:
160,96,123662,1,0,0:0:0:0:
352,96,123801,1,8,0:0:0:0:
352,96,124080,1,8,0:0:0:0:
352,96,124220,1,8,0:0:0:0:
352,96,124359,1,8,0:0:0:0:
352,96,124639,1,8,0:0:0:0:
352,96,124778,1,8,0:0:0:0:
160,288,124918,1,4,0:0:0:0:
352,288,125197,1,12,0:0:0:0:
160,288,125476,1,4,0:0:0:0:
160,96,125755,1,0,0:0:0:0:
352,96,125894,1,8,0:0:0:0:
352,96,126034,1,8,0:0:0:0:
352,96,126313,1,8,0:0:0:0:
160,96,126452,1,0,0:0:0:0:
160,96,126592,1,0,0:0:0:0:
352,96,126871,1,8,0:0:0:0:
160,96,127011,1,0,0:0:0:0:
352,96,127150,1,8,0:0:0:0:
160,96,127429,1,0,0:0:0:0:
160,96,127708,1,0,0:0:0:0:
160,96,127987,1,0,0:0:0:0:
160,96,128127,1,0,0:0:0:0:
352,96,128266,1,8,0:0:0:0:
160,96,128406,1,0,0:0:0:0:
352,96,128546,1,8,0:0:0:0:
352,96,128685,1,8,0:0:0:0:
160,288,128825,1,4,0:0:0:0:
160,96,129104,1,0,0:0:0:0:
352,288,129383,1,12,0:0:0:0:
160,96,129662,1,0,0:0:0:0:
160,96,129941,1,0,0:0:0:0:
352,96,130220,1,8,0:0:0:0:
160,96,130359,1,0,0:0:0:0:
352,96,130499,1,8,0:0:0:0:
352,96,130778,1,8,0:0:0:0:
352,96,130918,1,8,0:0:0:0:
352,96,131057,1,8,0:0:0:0:
160,96,131336,1,0,0:0:0:0:
160,96,131476,1,0,0:0:0:0:
352,96,131615,1,8,0:0:0:0:
160,288,131894,1,4,0:0:0:0:
160,288,132173,1,4,0:0:0:0:
352,96,132452,1,8,0:0:0:0:
160,96,132592,1,0,0:0:0:0:
352,96,132732,1,8,0:0:0:0:
352,96,133011,1,8,0:0:0:0:
352,96,133150,1,8,0:0:0:0:
352,96,133290,1,8,0:0:0:0:
160,96,133569,1,0,0:0:0:0:
160,96,133708,1,0,0:0:0:0:
352,288,133848,1,12,0:0:0:0:
160,288,134127,1,4,0:0:0:0:
160,288,134406,1,4,0:0:0:0:
160,96,134685,1,0,0:0:0:0:
160,96,134825,1,0,0:0:0:0:
352,96,134964,1,8,0:0:0:0:
160,96,135243,1,0,0:0:0:0:
352,96,135383,1,8,0:0:0:0:
160,288,135522,1,4,0:0:0:0:
352,96,135801,1,8,0:0:0:0:
160,96,135941,1,0,0:0:0:0:
352,288,136080,1,12,0:0:0:0:
160,96,136359,1,0,0:0:0:0:
160,288,136639,1,4,0:0:0:0:
160,96,136918,1,0,0:0:0:0:
160,96,137057,1,0,0:0:0:0:
352,288,137197,1,12,0:0:0:0:
352,96,137476,1,8,0:0:0:0:
352,96,137615,1,8,0:0:0:0:
160,288,137755,1,4,0:0:0:0:
160,96,137894,1,0,0:0:0:0:
352,96,138034,1,8,0:0:0:0:
352,96,138173,1,8,0:0:0:0:
352,96,138313,1,8,0:0:0:0:
160,96,138452,1,0,0:0:0:0:
160,96,138592,1,0,0:0:0:0:
160,96,138732,1,0,0:0:0:0:
352,288,138871,1,12,0:0:0:0:
160,96,139011,1,0,0:0:0:0:
352,96,139150,1,8,0:0:0:0:
160,96,139290,1,0,0:0:0:0:
160,96,139359,1,0,0:0:0:0:
352,96,139429,1,8,0:0:0:0:
160,96,139569,1,0,0:0:0:0:
352,96,139708,1,8,0:0:0:0:
352,96,139848,1,8,0:0:0:0:
352,96,139918,1,8,0:0:0:0:
160,96,139987,1,0,0:0:0:0:
160,96,140127,1,0,0:0:0:0:
352,96,140266,1,8,0:0:0:0:
160,96,140406,1,0,0:0:0:0:
160,96,140476,1,0,0:0:0:0:
352,96,140546,1,8,0:0:0:0:
160,96,140685,1,0,0:0:0:0:
352,96,140825,1,8,0:0:0:0:
160,96,140894,1,0,0:0:0:0:
160,96,140964,1,0,0:0:0:0:
160,96,141034,1,0,0:0:0:0:
160,96,141104,1,0,0:0:0:0:
160,96,141243,1,0,0:0:0:0:
352,96,141383,1,8,0:0:0:0:
160,96,141522,1,0,0:0:0:0:
160,96,141592,1,0,0:0:0:0:
352,96,141662,1,8,0:0:0:0:
160,96,141801,1,0,0:0:0:0:
352,96,141941,1,8,0:0:0:0:
352,96,142011,1,8,0:0:0:0:
160,96,142080,1,0,0:0:0:0:
160,96,142150,1,0,0:0:0:0:
352,96,142220,1,8,0:0:0:0:
160,96,142359,1,0,0:0:0:0:
160,96,142499,1,0,0:0:0:0:
160,96,142569,1,0,0:0:0:0:
160,96,142639,1,0,0:0:0:0:
160,96,142708,1,0,0:0:0:0:
352,96,142778,1,8,0:0:0:0:
160,96,142918,1,0,0:0:0:0:
352,96,143057,1,8,0:0:0:0:
352,96,143197,1,8,0:0:0:0:
160,288,143336,1,4,0:0:0:0:
160,96,143476,1,0,0:0:0:0:
352,96,143615,1,8,0:0:0:0:
160,96,143685,1,0,0:0:0:0:
160,96,143755,1,0,0:0:0:0:
352,96,143894,1,8,0:0:0:0:
160,96,144034,1,0,0:0:0:0:
352,96,144173,1,8,0:0:0:0:
352,96,144243,1,8,0:0:0:0:
160,96,144313,1,0,0:0:0:0:
352,96,144452,1,8,0:0:0:0:
160,96,144592,1,0,0:0:0:0:
352,96,144732,1,8,0:0:0:0:
160,96,144801,1,0,0:0:0:0:
160,96,144871,1,0,0:0:0:0:
352,96,145011,1,8,0:0:0:0:
160,96,145150,1,0,0:0:0:0:
352,96,145290,1,8,0:0:0:0:
352,96,145359,1,8,0:0:0:0:
160,96,145429,1,0,0:0:0:0:
160,96,145499,1,0,0:0:0:0:
160,96,145569,1,0,0:0:0:0:
160,96,145708,1,0,0:0:0:0:
352,96,145848,1,8,0:0:0:0:
160,96,145987,1,0,0:0:0:0:
160,96,146057,1,0,0:0:0:0:
352,96,146127,1,8,0:0:0:0:
160,96,146266,1,0,0:0:0:0:
352,96,146406,1,8,0:0:0:0:
160,96,146476,1,0,0:0:0:0:
160,96,146546,1,0,0:0:0:0:
160,96,146615,1,0,0:0:0:0:
352,96,146685,1,8,0:0:0:0:
160,96,146825,1,0,0:0:0:0:
160,96,146894,1,0,0:0:0:0:
160,96,146964,1,0,0:0:0:0:
160,96,147104,1,0,0:0:0:0:
160,96,147173,1,0,0:0:0:0:
352,96,147243,1,8,0:0:0:0:
160,96,147383,1,0,0:0:0:0:
160,96,147452,1,0,0:0:0:0:
352,96,147522,1,8,0:0:0:0:
160,96,147592,1,0,0:0:0:0:
352,96,147662,1,8,0:0:0:0:
352,96,147732,1,8,0:0:0:0:
160,288,147801,1,4,0:0:0:0:
352,96,148080,1,8,0:0:0:0:
160,96,148220,1,0,0:0:0:0:
160,96,148290,1,0,0:0:0:0:
352,96,148359,1,8,0:0:0:0:
160,96,148499,1,0,0:0:0:0:
352,96,148639,1,8,0:0:0:0:
352,96,148708,1,8,0:0:0:0:
352,96,148778,1,8,0:0:0:0:
352,288,148918,1,12,0:0:0:0:
160,96,149057,1,0,0:0:0:0:
160,96,149127,1,0,0:0:0:0:
352,96,149197,1,8,0:0:0:0:
160,96,149336,1,0,0:0:0:0:
352,96,149476,1,8,0:0:0:0:
160,96,149546,1,0,0:0:0:0:
160,96,149615,1,0,0:0:0:0:
352,96,149755,1,8,0:0:0:0:
352,96,149825,1,8,0:0:0:0:
160,96,149894,1,0,0:0:0:0:
352,288,150034,1,12,0:0:0:0:
160,96,150173,1,0,0:0:0:0:
352,96,150313,1,8,0:0:0:0:
352,96,150383,1,8,0:0:0:0:
160,96,150452,1,0,0:0:0:0:
160,96,150522,1,0,0:0:0:0:
352,96,150592,1,8,0:0:0:0:
160,96,150732,1,0,0:0:0:0:
160,96,150801,1,0,0:0:0:0:
352,96,150871,1,8,0:0:0:0:
160,96,151011,1,0,0:0:0:0:
352,96,151150,1,8,0:0:0:0:
160,96,151290,1,0,0:0:0:0:
352,96,151429,1,8,0:0:0:0:
160,96,151499,1,0,0:0:0:0:
160,96,151569,1,0,0:0:0:0:
352,288,151708,1,12,0:0:0:0:
160,96,151848,1,0,0:0:0:0:
160,96,151918,1,0,0:0:0:0:
352,96,151987,1,8,0:0:0:0:
352,96,152057,1,8,0:0:0:0:
160,96,152127,1,0,0:0:0:0:
160,288,152266,1,4,0:0:0:0:
160,96,152406,1,0,0:0:0:0:
160,96,152546,1,0,0:0:0:0:
160,96,152615,1,0,0:0:0:0:
160,96,152685,1,0,0:0:0:0:
160,96,152755,1,0,0:0:0:0:
352,96,152825,1,8,0:0:0:0:
160,96,152964,1,0,0:0:0:0:
352,96,153104,1,8,0:0:0:0:
352,96,153173,1,8,0:0:0:0:
160,96,153243,1,0,0:0:0:0:
160,288,153383,1,4,0:0:0:0:
160,96,153522,1,0,0:0:0:0:
160,96,153662,1,0,0:0:0:0:
160,96,153732,1,0,0:0:0:0:
352,96,153801,1,8,0:0:0:0:
160,96,153871,1,0,0:0:0:0:
352,96,153941,1,8,0:0:0:0:
160,96,154080,1,0,0:0:0:0:
352,96,154220,1,8,0:0:0:0:
352,96,154290,1,8,0:0:0:0:
352,96,154359,1,8,0:0:0:0:
352,96,154429,1,8,0:0:0:0:
160,96,154499,1,0,0:0:0:0:
160,96,154639,1,0,0:0:0:0:
160,96,154708,1,0,0:0:0:0:
160,96,154778,1,0,0:0:0:0:
160,96,154918,1,0,0:0:0:0:
352,96,155057,1,8,0:0:0:0:
160,96,155197,1,0,0:0:0:0:
160,96,155266,1,0,0:0:0:0:
160,96,155336,1,0,0:0:0:0:
160,96,155476,1,0,0:0:0:0:
352,96,155615,1,8,0:0:0:0:
352,96,155685,1,8,0:0:0:0:
160,96,155755,1,0,0:0:0:0:
160,96,155894,1,0,0:0:0:0:
160,96,156034,1,0,0:0:0:0:
352,96,156173,1,8,0:0:0:0:
352,96,156243,1,8,0:0:0:0:
352,96,156313,1,8,0:0:0:0:
352,96,156383,1,8,0:0:0:0:
160,96,156452,1,0,0:0:0:0:
160,96,156592,1,0,0:0:0:0:
352,288,156732,1,12,0:0:0:0:
160,96,156871,1,0,0:0:0:0:
160,96,156941,1,0,0:0:0:0:
160,96,157011,1,0,0:0:0:0:
160,96,157150,1,0,0:0:0:0:
352,288,157290,1,12,0:0:0:0:
160,96,157429,1,0,0:0:0:0:
160,96,157569,1,0,0:0:0:0:
160,96,157708,1,0,0:0:0:0:
160,96,157778,1,0,0:0:0:0:
352,96,157848,1,8,0:0:0:0:
352,96,157918,1,8,0:0:0:0:
352,96,157987,1,8,0:0:0:0:
160,96,158057,1,0,0:0:0:0:
352,96,158127,1,8,0:0:0:0:
352,96,158197,1,8,0:0:0:0:
160,96,158266,1,0,0:0:0:0:
160,96,158336,1,0,0:0:0:0:
352,96,158406,1,8,0:0:0:0:
352,96,158476,1,8,0:0:0:0:
160,96,158546,1,0,0:0:0:0:
160,96,158615,1,0,0:0:0:0:
352,96,158685,1,8,0:0:0:0:
160,96,158755,1,0,0:0:0:0:
160,96,158825,1,0,0:0:0:0:
160,96,158894,1,0,0:0:0:0:
160,96,158964,1,0,0:0:0:0:
160,96,159522,1,0,0:0:0:0:
352,96,160080,1,8,0:0:0:0:
352,288,161476,1,12,0:0:0:0:
352,288,161755,1,12,0:0:0:0:
160,288,162034,1,4,0:0:0:0:
352,288,162313,1,12,0:0:0:0:
160,288,162592,1,4,0:0:0:0:
352,288,162871,1,12,0:0:0:0:
352,288,163150,1,12,0:0:0:0:
160,96,163429,1,0,0:0:0:0:
160,96,163987,1,0,0:0:0:0:
352,96,164546,1,8,0:0:0:0:
352,288,165941,1,12,0:0:0:0:
352,288,166220,1,12,0:0:0:0:
160,288,166499,1,4,0:0:0:0:
352,288,166778,1,12,0:0:0:0:
352,288,167057,1,12,0:0:0:0:
160,288,167336,1,4,0:0:0:0:
160,96,167894,1,0,0:0:0:0:
160,96,168173,1,0,0:0:0:0:
160,96,168452,1,0,0:0:0:0:
160,96,168732,1,0,0:0:0:0:
352,96,169011,1,8,0:0:0:0:
352,288,170406,1,12,0:0:0:0:
352,288,170685,1,12,0:0:0:0:
160,288,170964,1,4,0:0:0:0:
352,288,171243,1,12,0:0:0:0:
160,288,171522,1,4,0:0:0:0:
352,288,171801,1,12,0:0:0:0:
352,288,172080,1,12,0:0:0:0:
160,96,172359,1,0,0:0:0:0:
160,96,172755,1,0,0:0:0:0:
160,96,173150,1,0,0:0:0:0:
160,96,173476,1,0,0:0:0:0:
160,96,173546,1,0,0:0:0:0:
160,96,173615,1,0,0:0:0:0:
160,96,173685,1,0,0:0:0:0:
160,96,173755,1,0,0:0:0:0:
160,96,173825,1,0,0:0:0:0:
160,96,173894,1,0,0:0:0:0:
160,96,173964,1,0,0:0:0:0:
352,96,174034,1,8,0:0:0:0:
352,288,174313,1,12,0:0:0:0:
352,288,174592,1,12,0:0:0:0:
160,288,174871,1,4,0:0:0:0:
352,288,175150,1,12,0:0:0:0:
160,288,175429,1,4,0:0:0:0:
352,96,175708,1,8,0:0:0:0:
160,96,175848,1,0,0:0:0:0:
160,96,175987,1,0,0:0:0:0:
160,96,176127,1,0,0:0:0:0:
160,96,176266,1,0,0:0:0:0:
160,96,176406,1,0,0:0:0:0:
160,96,176546,1,0,0:0:0:0:
160,96,176685,1,0,0:0:0:0:
160,288,176825,1,4,0:0:0:0:
160,96,176964,1,0,0:0:0:0:
352,96,177104,1,8,0:0:0:0:
160,96,177243,1,0,0:0:0:0:
160,96,177313,1,0,0:0:0:0:
160,96,177383,1,0,0:0:0:0:
160,96,177522,1,0,0:0:0:0:
352,96,177662,1,8,0:0:0:0:
160,96,177801,1,0,0:0:0:0:
160,96,177871,1,0,0:0:0:0:
160,96,177941,1,0,0:0:0:0:
352,96,178080,1,8,0:0:0:0:
160,96,178220,1,0,0:0:0:0:
352,96,178290,1,8,0:0:0:0:
160,96,178359,1,0,0:0:0:0:
352,96,178499,1,8,0:0:0:0:
160,96,178639,1,0,0:0:0:0:
160,96,178778,1,0,0:0:0:0:
352,96,178918,1,8,0:0:0:0:
160,96,178987,1,0,0:0:0:0:
352,96,179057,1,8,0:0:0:0:
160,96,179197,1,0,0:0:0:0:
160,96,179266,1,0,0:0:0:0:
352,96,179336,1,8,0:0:0:0:
160,96,179476,1,0,0:0:0:0:
160,96,179615,1,0,0:0:0:0:
352,96,179755,1,8,0:0:0:0:
352,96,179825,1,8,0:0:0:0:
160,96,179894,1,0,0:0:0:0:
352,96,180034,1,8,0:0:0:0:
160,96,180173,1,0,0:0:0:0:
352,96,180266,1,8,0:0:0:0:
352,96,180359,1,8,0:0:0:0:
160,96,180452,1,0,0:0:0:0:
160,96,180546,1,0,0:0:0:0:
352,96,180639,1,8,0:0:0:0:
160,96,180732,1,0,0:0:0:0:
352,96,180801,1,8,0:0:0:0:
160,96,180871,1,0,0:0:0:0:
160,96,180941,1,0,0:0:0:0:
352,96,181011,1,8,0:0:0:0:
160,96,181150,1,0,0:0:0:0:
160,96,181290,1,0,0:0:0:0:
160,96,181429,1,0,0:0:0:0:
160,96,181499,1,0,0:0:0:0:
352,96,181569,1,8,0:0:0:0:
160,96,181708,1,0,0:0:0:0:
160,96,181848,1,0,0:0:0:0:
160,96,181941,1,0,0:0:0:0:
352,96,182034,1,8,0:0:0:0:
160,96,182127,1,0,0:0:0:0:
352,96,182220,1,8,0:0:0:0:
352,96,182313,1,8,0:0:0:0:
352,96,182406,1,8,0:0:0:0:
160,96,182499,1,0,0:0:0:0:
160,96,182592,1,0,0:0:0:0:
352,96,182685,1,8,0:0:0:0:
352,96,182778,1,8,0:0:0:0:
160,96,182871,1,0,0:0:0:0:
352,96,182964,1,8,0:0:0:0:
352,96,183057,1,8,0:0:0:0:
160,96,183150,1,0,0:0:0:0:
352,96,183243,1,8,0:0:0:0:
352,96,183336,1,8,0:0:0:0:
352,96,183429,1,8,0:0:0:0:
352,96,183522,1,8,0:0:0:0:
160,96,183662,1,0,0:0:0:0:
352,96,183801,1,8,0:0:0:0:
160,96,183941,1,0,0:0:0:0:
160,96,184011,1,0,0:0:0:0:
352,96,184080,1,8,0:0:0:0:
160,96,184220,1,0,0:0:0:0:
352,96,184359,1,8,0:0:0:0:
352,96,184452,1,8,0:0:0:0:
160,96,184546,1,0,0:0:0:0:
352,96,184639,1,8,0:0:0:0:
160,96,184778,1,0,0:0:0:0:
352,288,184918,1,12,0:0:0:0:
160,96,185057,1,0,0:0:0:0:
352,288,185197,1,12,0:0:0:0:
160,96,185336,1,0,0:0:0:0:
160,96,185476,1,0,0:0:0:0:
352,288,185615,1,12,0:0:0:0:
160,96,185755,1,0,0:0:0:0:
160,96,185894,1,0,0:0:0:0:
160,96,185964,1,0,0:0:0:0:
352,96,186034,1,8,0:0:0:0:
160,96,186173,1,0,0:0:0:0:
160,96,186243,1,0,0:0:0:0:
160,96,186313,1,0,0:0:0:0:
160,96,186452,1,0,0:0:0:0:
352,96,186592,1,8,0:0:0:0:
352,96,186662,1,8,0:0:0:0:
352,96,186732,1,8,0:0:0:0:
160,96,186801,1,0,0:0:0:0:
352,96,186871,1,8,0:0:0:0:
160,96,187011,1,0,0:0:0:0:
160,96,187080,1,0,0:0:0:0:
352,96,187150,1,8,0:0:0:0:
160,96,187290,1,0,0:0:0:0:
160,96,187429,1,0,0:0:0:0:
160,96,187569,1,0,0:0:0:0:
352,96,187708,1,8,0:0:0:0:
160,96,187778,1,0,0:0:0:0:
352,96,187848,1,8,0:0:0:0:
352,288,187987,1,12,0:0:0:0:
352,96,188127,1,8,0:0:0:0:
160,96,188266,1,0,0:0:0:0:
352,96,188406,1,8,0:0:0:0:
160,96,188476,1,0,0:0:0:0:
160,96,188546,1,0,0:0:0:0:
352,96,188685,1,8,0:0:0:0:
352,96,188825,1,8,0:0:0:0:
160,96,188894,1,0,0:0:0:0:
160,96,188964,1,0,0:0:0:0:
160,96,189034,1,0,0:0:0:0:
160,96,189104,1,0,0:0:0:0:
352,288,189243,1,12,0:0:0:0:
352,288,189383,1,12,0:0:0:0:
160,96,189522,1,0,0:0:0:0:
352,288,189662,1,12,0:0:0:0:
160,96,189801,1,0,0:0:0:0:
352,288,189941,1,12,0:0:0:0:
352,96,190080,1,8,0:0:0:0:
160,288,190220,1,4,0:0:0:0:
160,96,190359,1,0,0:0:0:0:
352,96,190499,1,8,0:0:0:0:
352,96,190639,1,8,0:0:0:0:
160,96,190778,1,0,0:0:0:0:
352,96,190918,1,8,0:0:0:0:
352,96,191057,1,8,0:0:0:0:
160,96,191197,1,0,0:0:0:0:
160,96,191266,1,0,0:0:0:0:
352,96,191336,1,8,0:0:0:0:
160,96,191476,1,0,0:0:0:0:
352,96,191615,1,8,0:0:0:0:
160,96,191755,1,0,0:0:0:0:
352,96,191894,1,8,0:0:0:0:
352,96,191964,1,8,0:0:0:0:
160,96,192034,1,0,0:0:0:0:
160,96,192104,1,0,0:0:0:0:
352,96,192173,1,8,0:0:0:0:
352,96,192313,1,8,0:0:0:0:
160,288,192453,1,4,0:0:0:0:
160,96,192592,1,0,0:0:0:0:
160,96,192662,1,0,0:0:0:0:
352,96,192732,1,8,0:0:0:0:
352,96,192871,1,8,0:0:0:0:
352,96,193011,1,8,0:0:0:0:
160,96,193080,1,0,0:0:0:0:
160,96,193150,1,0,0:0:0:0:
352,96,193290,1,8,0:0:0:0:
352,96,193429,1,8,0:0:0:0:
352,96,193569,1,8,0:0:0:0:
352,96,193639,1,8,0:0:0:0:
160,96,193708,1,0,0:0:0:0:
352,96,193848,1,8,0:0:0:0:
352,96,193987,1,8,0:0:0:0:
160,96,194127,1,0,0:0:0:0:
160,96,194197,1,0,0:0:0:0:
352,96,194266,1,8,0:0:0:0:
160,96,194336,1,0,0:0:0:0:
352,96,194406,1,8,0:0:0:0:
352,96,194546,1,8,0:0:0:0:
160,288,194685,1,4,0:0:0:0:
160,96,194825,1,0,0:0:0:0:
160,96,194894,1,0,0:0:0:0:
352,96,194964,1,8,0:0:0:0:
352,96,195104,1,8,0:0:0:0:
160,96,195243,1,0,0:0:0:0:
160,96,195313,1,0,0:0:0:0:
352,96,195383,1,8,0:0:0:0:
352,96,195522,1,8,0:0:0:0:
160,96,195662,1,0,0:0:0:0:
160,288,195801,1,4,0:0:0:0:
160,96,195941,1,0,0:0:0:0:
160,96,196011,1,0,0:0:0:0:
352,96,196080,1,8,0:0:0:0:
352,96,196220,1,8,0:0:0:0:
160,96,196290,1,0,0:0:0:0:
352,96,196359,1,8,0:0:0:0:
352,96,196429,1,8,0:0:0:0:
160,96,196499,1,0,0:0:0:0:
160,96,196569,1,0,0:0:0:0:
352,96,196639,1,8,0:0:0:0:
160,96,196778,1,0,0:0:0:0:
352,288,196918,1,12,0:0:0:0:
160,96,197057,1,0,0:0:0:0:
352,288,197197,1,12,0:0:0:0:
352,288,197336,1,12,0:0:0:0:
160,96,197476,1,0,0:0:0:0:
352,288,197615,1,12,0:0:0:0:
352,288,197755,1,12,0:0:0:0:
160,96,197894,1,0,0:0:0:0:
352,96,198034,1,8,0:0:0:0:
352,96,198104,1,8,0:0:0:0:
160,96,198173,1,0,0:0:0:0:
160,96,198243,1,0,0:0:0:0:
352,96,198313,1,8,0:0:0:0:
160,96,198383,1,0,0:0:0:0:
352,96,198453,1,8,0:0:0:0:
352,96,198522,1,8,0:0:0:0:
160,96,198592,1,0,0:0:0:0:
160,96,198662,1,0,0:0:0:0:
352,96,198732,1,8,0:0:0:0:
160,96,198801,1,0,0:0:0:0:
352,96,198871,1,8,0:0:0:0:
352,96,198941,1,8,0:0:0:0:
160,96,199011,1,0,0:0:0:0:
160,288,199150,1,4,0:0:0:0:
160,96,199290,1,0,0:0:0:0:
352,96,199429,1,8,0:0:0:0:
160,96,199569,1,0,0:0:0:0:
160,96,199639,1,0,0:0:0:0:
160,96,199708,1,0,0:0:0:0:
160,96,199848,1,0,0:0:0:0:
160,96,199918,1,0,0:0:0:0:
352,96,199987,1,8,0:0:0:0:
160,96,200127,1,0,0:0:0:0:
160,96,200266,1,0,0:0:0:0:
160,96,200336,1,0,0:0:0:0:
160,96,200406,1,0,0:0:0:0:
160,96,200476,1,0,0:0:0:0:
352,96,200546,1,8,0:0:0:0:
160,96,200685,1,0,0:0:0:0:
352,96,200825,1,8,0:0:0:0:
352,96,200894,1,8,0:0:0:0:
160,96,200964,1,0,0:0:0:0:
160,96,201034,1,0,0:0:0:0:
352,96,201104,1,8,0:0:0:0:
352,96,201243,1,8,0:0:0:0:
160,288,201383,1,4,0:0:0:0:
160,96,201522,1,0,0:0:0:0:
352,96,201662,1,8,0:0:0:0:
352,96,201732,1,8,0:0:0:0:
160,96,201801,1,0,0:0:0:0:
160,96,201941,1,0,0:0:0:0:
160,96,202011,1,0,0:0:0:0:
160,96,202080,1,0,0:0:0:0:
352,96,202220,1,8,0:0:0:0:
160,96,202359,1,0,0:0:0:0:
160,96,202429,1,0,0:0:0:0:
160,96,202499,1,0,0:0:0:0:
160,96,202639,1,0,0:0:0:0:
352,96,202778,1,8,0:0:0:0:
160,96,202918,1,0,0:0:0:0:
352,96,202987,1,8,0:0:0:0:
160,96,203057,1,0,0:0:0:0:
160,96,203197,1,0,0:0:0:0:
160,96,203266,1,0,0:0:0:0:
352,96,203336,1,8,0:0:0:0:
160,96,203476,1,0,0:0:0:0:
352,96,203615,1,8,0:0:0:0:
160,96,203755,1,0,0:0:0:0:
160,96,203825,1,0,0:0:0:0:
160,96,203894,1,0,0:0:0:0:
160,96,203964,1,0,0:0:0:0:
352,96,204034,1,8,0:0:0:0:
160,96,204173,1,0,0:0:0:0:
160,96,204243,1,0,0:0:0:0:
160,96,204313,1,0,0:0:0:0:
160,96,204383,1,0,0:0:0:0:
352,96,204452,1,8,0:0:0:0:
160,96,204592,1,0,0:0:0:0:
352,288,204732,1,12,0:0:0:0:
160,96,204871,1,0,0:0:0:0:
352,288,205011,1,12,0:0:0:0:
160,96,205150,1,0,0:0:0:0:
352,288,205290,1,12,0:0:0:0:
160,96,205429,1,0,0:0:0:0:
352,288,205569,1,12,0:0:0:0:
352,96,205708,1,8,0:0:0:0:
160,288,205848,1,4,0:0:0:0:
160,96,205987,1,0,0:0:0:0:
352,96,206127,1,8,0:0:0:0:
160,96,206266,1,0,0:0:0:0:
160,96,206336,1,0,0:0:0:0:
160,96,206406,1,0,0:0:0:0:
160,96,206546,1,0,0:0:0:0:
160,96,206615,1,0,0:0:0:0:
352,96,206685,1,8,0:0:0:0:
352,96,206825,1,8,0:0:0:0:
352,96,206894,1,8,0:0:0:0:
160,96,206964,1,0,0:0:0:0:
160,96,207104,1,0,0:0:0:0:
352,96,207243,1,8,0:0:0:0:
160,96,207383,1,0,0:0:0:0:
352,96,207452,1,8,0:0:0:0:
352,96,207522,1,8,0:0:0:0:
352,96,207592,1,8,0:0:0:0:
160,96,207662,1,0,0:0:0:0:
352,96,207801,1,8,0:0:0:0:
160,96,207871,1,0,0:0:0:0:
352,96,207941,1,8,0:0:0:0:
160,288,208080,1,4,0:0:0:0:
160,96,208220,1,0,0:0:0:0:
160,96,208290,1,0,0:0:0:0:
352,96,208359,1,8,0:0:0:0:
160,96,208499,1,0,0:0:0:0:
160,96,208639,1,0,0:0:0:0:
160,96,208708,1,0,0:0:0:0:
160,96,208778,1,0,0:0:0:0:
160,96,208848,1,0,0:0:0:0:
352,96,208918,1,8,0:0:0:0:
352,96,209057,1,8,0:0:0:0:
352,96,209127,1,8,0:0:0:0:
160,96,209197,1,0,0:0:0:0:
160,96,209336,1,0,0:0:0:0:
352,96,209476,1,8,0:0:0:0:
160,96,209615,1,0,0:0:0:0:
352,96,209685,1,8,0:0:0:0:
160,96,209755,1,0,0:0:0:0:
160,96,209825,1,0,0:0:0:0:
352,96,209894,1,8,0:0:0:0:
352,96,210034,1,8,0:0:0:0:
160,96,210173,1,0,0:0:0:0:
352,288,210313,1,12,0:0:0:0:
160,96,210452,1,0,0:0:0:0:
160,96,210522,1,0,0:0:0:0:
160,96,210592,1,0,0:0:0:0:
160,96,210662,1,0,0:0:0:0:
352,96,210732,1,8,0:0:0:0:
160,96,210871,1,0,0:0:0:0:
160,96,210941,1,0,0:0:0:0:
160,96,211011,1,0,0:0:0:0:
160,96,211080,1,0,0:0:0:0:
352,96,211150,1,8,0:0:0:0:
160,96,211290,1,0,0:0:0:0:
352,288,211429,1,12,0:0:0:0:
160,96,211569,1,0,0:0:0:0:
160,96,211708,1,0,0:0:0:0:
160,96,211848,1,0,0:0:0:0:
352,288,211987,1,12,0:0:0:0:
160,96,212127,1,0,0:0:0:0:
160,96,212266,1,0,0:0:0:0:
160,96,212406,1,0,0:0:0:0:
160,288,212546,1,4,0:0:0:0:
160,96,212685,1,0,0:0:0:0:
352,96,212825,1,8,0:0:0:0:
160,96,212964,1,0,0:0:0:0:
160,96,213104,1,0,0:0:0:0:
160,96,213173,1,0,0:0:0:0:
160,96,213243,1,0,0:0:0:0:
352,96,213383,1,8,0:0:0:0:
352,96,213522,1,8,0:0:0:0:
352,96,213592,1,8,0:0:0:0:
160,96,213662,1,0,0:0:0:0:
160,96,213801,1,0,0:0:0:0:
352,96,213941,1,8,0:0:0:0:
160,96,214080,1,0,0:0:0:0:
352,96,214220,1,8,0:0:0:0:
352,96,214290,1,8,0:0:0:0:
160,96,214359,1,0,0:0:0:0:
160,96,214429,1,0,0:0:0:0:
352,96,214499,1,8,0:0:0:0:
160,96,214639,1,0,0:0:0:0:
160,96,214708,1,0,0:0:0:0:
160,96,214778,1,0,0:0:0:0:
160,96,214918,1,0,0:0:0:0:
352,96,215057,1,8,0:0:0:0:
160,96,215197,1,0,0:0:0:0:
160,96,215336,1,0,0:0:0:0:
160,96,215406,1,0,0:0:0:0:
160,96,215476,1,0,0:0:0:0:
352,96,215615,1,8,0:0:0:0:
352,96,215755,1,8,0:0:0:0:
160,96,215825,1,0,0:0:0:0:
160,96,215894,1,0,0:0:0:0:
160,96,216034,1,0,0:0:0:0:
352,288,216173,1,12,0:0:0:0:
160,96,216313,1,0,0:0:0:0:
352,288,216452,1,12,0:0:0:0:
160,96,216592,1,0,0:0:0:0:
160,96,216732,1,0,0:0:0:0:
352,288,216871,1,12,0:0:0:0:
160,288,217011,1,4,0:0:0:0:
160,96,217150,1,0,0:0:0:0:
352,96,217290,1,8,0:0:0:0:
160,96,217429,1,0,0:0:0:0:
160,96,217569,1,0,0:0:0:0:
160,96,217708,1,0,0:0:0:0:
160,96,217778,1,0,0:0:0:0:
352,96,217848,1,8,0:0:0:0:
160,96,217987,1,0,0:0:0:0:
160,96,218127,1,0,0:0:0:0:
160,96,218266,1,0,0:0:0:0:
352,96,218406,1,8,0:0:0:0:
160,96,218546,1,0,0:0:0:0:
160,96,218685,1,0,0:0:0:0:
160,96,218755,1,0,0:0:0:0:
160,96,218825,1,0,0:0:0:0:
160,96,218894,1,0,0:0:0:0:
352,96,218964,1,8,0:0:0:0:
160,96,219104,1,0,0:0:0:0:
160,96,219173,1,0,0:0:0:0:
160,96,219243,1,0,0:0:0:0:
160,96,219383,1,0,0:0:0:0:
352,96,219522,1,8,0:0:0:0:
160,96,219662,1,0,0:0:0:0:
160,96,219801,1,0,0:0:0:0:
160,96,219941,1,0,0:0:0:0:
352,96,220080,1,8,0:0:0:0:
160,96,220220,1,0,0:0:0:0:
352,96,220359,1,8,0:0:0:0:
160,96,220499,1,0,0:0:0:0:
352,96,220639,1,8,0:0:0:0:
160,96,220778,1,0,0:0:0:0:
352,96,220918,1,8,0:0:0:0:
160,96,221057,1,0,0:0:0:0:
160,96,221197,1,0,0:0:0:0:
160,96,221336,1,0,0:0:0:0:
352,288,221476,1,12,0:0:0:0:
160,96,221615,1,0,0:0:0:0:
352,96,221755,1,8,0:0:0:0:
352,288,221894,1,12,0:0:0:0:
160,96,222034,1,0,0:0:0:0:
160,96,222104,1,0,0:0:0:0:
160,96,222173,1,0,0:0:0:0:
352,288,222313,1,12,0:0:0:0:
160,96,222452,1,0,0:0:0:0:
160,96,222592,1,0,0:0:0:0:
352,288,222732,1,12,0:0:0:0:
160,96,222871,1,0,0:0:0:0:
160,96,222941,1,0,0:0:0:0:
160,96,223011,1,0,0:0:0:0:
352,288,223150,1,12,0:0:0:0:
160,96,223290,1,0,0:0:0:0:
352,288,223429,1,12,0:0:0:0:
160,96,223569,1,0,0:0:0:0:
352,288,223708,1,12,0:0:0:0:
352,96,223848,1,8,0:0:0:0:
160,96,223918,1,0,0:0:0:0:
160,96,223987,1,0,0:0:0:0:
352,288,224127,1,12,0:0:0:0:
352,96,224266,1,8,0:0:0:0:
160,96,224336,1,0,0:0:0:0:
160,96,224406,1,0,0:0:0:0:
352,288,224546,1,12,0:0:0:0:
160,96,224685,1,0,0:0:0:0:
352,288,224825,1,12,0:0:0:0:
160,96,224964,1,0,0:0:0:0:
352,96,225104,1,8,0:0:0:0:
352,96,225243,1,8,0:0:0:0:
352,96,225383,1,8,0:0:0:0:
352,96,225522,1,8,0:0:0:0:
352,96,225662,1,8,0:0:0:0:
352,96,225801,1,8,0:0:0:0:
160,288,225941,1,4,0:0:0:0:
160,96,226220,1,0,0:0:0:0:
160,96,226359,1,0,0:0:0:0:
352,96,226499,1,8,0:0:0:0:
352,96,226778,1,8,0:0:0:0:
352,96,226918,1,8,0:0:0:0:
352,96,227057,1,8,0:0:0:0:
352,96,227336,1,8,0:0:0:0:
160,96,227476,1,0,0:0:0:0:
352,96,227615,1,8,0:0:0:0:
352,96,227894,1,8,0:0:0:0:
160,96,228173,1,0,0:0:0:0:
352,96,228452,1,8,0:0:0:0:
160,96,228592,1,0,0:0:0:0:
352,96,228732,1,8,0:0:0:0:
352,96,229011,1,8,0:0:0:0:
352,96,229150,1,8,0:0:0:0:
352,96,229290,1,8,0:0:0:0:
160,96,229429,1,0,0:0:0:0:
160,96,229569,1,0,0:0:0:0:
160,96,229708,1,0,0:0:0:0:
352,288,229848,1,12,0:0:0:0:
160,288,230127,1,4,0:0:0:0:
160,288,230406,1,4,0:0:0:0:
352,96,230685,1,8,0:0:0:0:
160,96,230825,1,0,0:0:0:0:
352,96,230964,1,8,0:0:0:0:
352,96,231243,1,8,0:0:0:0:
352,96,231383,1,8,0:0:0:0:
352,96,231522,1,8,0:0:0:0:
352,96,231801,1,8,0:0:0:0:
160,96,231941,1,0,0:0:0:0:
352,96,232080,1,8,0:0:0:0:
160,96,232359,1,0,0:0:0:0:
160,288,232639,1,4,0:0:0:0:
352,96,232918,1,8,0:0:0:0:
352,96,232987,1,8,0:0:0:0:
160,96,233057,1,0,0:0:0:0:
160,96,233127,1,0,0:0:0:0:
352,96,233197,1,8,0:0:0:0:
352,96,233336,1,8,0:0:0:0:
160,96,233476,1,0,0:0:0:0:
352,96,233615,1,8,0:0:0:0:
160,288,233755,1,4,0:0:0:0:
160,96,234034,1,0,0:0:0:0:
160,96,234173,1,0,0:0:0:0:
160,96,234243,1,0,0:0:0:0:
352,288,234313,1,12,0:0:0:0:
352,96,234452,1,8,0:0:0:0:
160,96,234592,1,0,0:0:0:0:
160,96,234662,1,0,0:0:0:0:
160,96,234732,1,0,0:0:0:0:
160,288,234871,1,4,0:0:0:0:
352,96,235150,1,8,0:0:0:0:
160,96,235290,1,0,0:0:0:0:
352,96,235429,1,8,0:0:0:0:
352,96,235708,1,8,0:0:0:0:
352,96,235848,1,8,0:0:0:0:
352,96,235987,1,8,0:0:0:0:
352,96,236127,1,8,0:0:0:0:
160,96,236266,1,0,0:0:0:0:
160,96,236406,1,0,0:0:0:0:
352,96,236546,1,8,0:0:0:0:
160,288,236825,1,4,0:0:0:0:
160,288,237104,1,4,0:0:0:0:
352,96,237383,1,8,0:0:0:0:
160,96,237522,1,0,0:0:0:0:
352,96,237662,1,8,0:0:0:0:
352,96,237801,1,8,0:0:0:0:
160,96,237941,1,0,0:0:0:0:
160,96,238080,1,0,0:0:0:0:
352,288,238220,1,12,0:0:0:0:
160,96,238499,1,0,0:0:0:0:
160,96,238639,1,0,0:0:0:0:
352,288,238778,1,12,0:0:0:0:
160,96,239057,1,0,0:0:0:0:
160,288,239336,1,4,0:0:0:0:
160,96,239615,1,0,0:0:0:0:
352,96,239755,1,8,0:0:0:0:
352,96,239894,1,8,0:0:0:0:
352,96,240173,1,8,0:0:0:0:
160,96,240313,1,0,0:0:0:0:
352,96,240452,1,8,0:0:0:0:
160,96,240592,1,0,0:0:0:0:
352,96,240732,1,8,0:0:0:0:
160,96,240871,1,0,0:0:0:0:
352,96,241011,1,8,0:0:0:0:
160,288,241290,1,4,0:0:0:0:
160,288,241569,1,4,0:0:0:0:
160,96,241708,1,0,0:0:0:0:
352,96,241848,1,8,0:0:0:0:
352,96,241987,1,8,0:0:0:0:
352,96,242127,1,8,0:0:0:0:
160,96,242266,1,0,0:0:0:0:
352,96,242406,1,8,0:0:0:0:
352,96,242546,1,8,0:0:0:0:
160,96,242685,1,0,0:0:0:0:
160,96,242825,1,0,0:0:0:0:
160,96,242964,1,0,0:0:0:0:
352,96,243104,1,8,0:0:0:0:
160,96,243243,1,0,0:0:0:0:
160,96,243383,1,0,0:0:0:0:
352,96,243522,1,8,0:0:0:0:
352,96,243662,1,8,0:0:0:0:
160,288,243801,1,4,0:0:0:0:
160,96,243941,1,0,0:0:0:0:
352,96,244080,1,8,0:0:0:0:
160,96,244220,1,0,0:0:0:0:
160,96,244290,1,0,0:0:0:0:
352,96,244359,1,8,0:0:0:0:
160,96,244499,1,0,0:0:0:0:
352,96,244639,1,8,0:0:0:0:
352,96,244778,1,8,0:0:0:0:
352,96,244848,1,8,0:0:0:0:
160,96,244918,1,0,0:0:0:0:
160,96,245057,1,0,0:0:0:0:
352,96,245197,1,8,0:0:0:0:
160,96,245336,1,0,0:0:0:0:
352,96,245476,1,8,0:0:0:0:
160,96,245546,1,0,0:0:0:0:
160,96,245615,1,0,0:0:0:0:
352,96,245755,1,8,0:0:0:0:
352,96,245894,1,8,0:0:0:0:
160,96,246034,1,0,0:0:0:0:
160,96,246173,1,0,0:0:0:0:
352,96,246313,1,8,0:0:0:0:
352,96,246383,1,8,0:0:0:0:
160,96,246452,1,0,0:0:0:0:
352,96,246592,1,8,0:0:0:0:
160,96,246732,1,0,0:0:0:0:
352,96,246871,1,8,0:0:0:0:
352,96,246941,1,8,0:0:0:0:
352,96,247011,1,8,0:0:0:0:
352,96,247150,1,8,0:0:0:0:
160,96,247290,1,0,0:0:0:0:
160,96,247429,1,0,0:0:0:0:
160,96,247499,1,0,0:0:0:0:
160,96,247569,1,0,0:0:0:0:
160,96,247639,1,0,0:0:0:0:
352,96,247708,1,8,0:0:0:0:
160,96,247848,1,0,0:0:0:0:
352,96,247987,1,8,0:0:0:0:
352,96,248127,1,8,0:0:0:0:
160,288,248266,1,4,0:0:0:0:
160,96,248406,1,0,0:0:0:0:
352,96,248546,1,8,0:0:0:0:
160,96,248615,1,0,0:0:0:0:
160,96,248685,1,0,0:0:0:0:
352,96,248825,1,8,0:0:0:0:
352,96,248894,1,8,0:0:0:0:
160,96,248964,1,0,0:0:0:0:
352,96,249104,1,8,0:0:0:0:
160,96,249243,1,0,0:0:0:0:
160,96,249313,1,0,0:0:0:0:
352,96,249383,1,8,0:0:0:0:
352,96,249522,1,8,0:0:0:0:
160,96,249592,1,0,0:0:0:0:
352,96,249662,1,8,0:0:0:0:
160,96,249801,1,0,0:0:0:0:
352,96,249941,1,8,0:0:0:0:
160,96,250011,1,0,0:0:0:0:
160,96,250080,1,0,0:0:0:0:
352,96,250220,1,8,0:0:0:0:
352,96,250359,1,8,0:0:0:0:
160,96,250499,1,0,0:0:0:0:
160,96,250639,1,0,0:0:0:0:
160,96,250708,1,0,0:0:0:0:
160,96,250778,1,0,0:0:0:0:
160,96,250918,1,0,0:0:0:0:
160,96,250987,1,0,0:0:0:0:
352,96,251057,1,8,0:0:0:0:
160,96,251197,1,0,0:0:0:0:
352,96,251336,1,8,0:0:0:0:
352,96,251406,1,8,0:0:0:0:
160,96,251476,1,0,0:0:0:0:
352,288,251615,1,12,0:0:0:0:
160,96,251755,1,0,0:0:0:0:
352,288,251894,1,12,0:0:0:0:
160,96,252034,1,0,0:0:0:0:
352,288,252173,1,12,0:0:0:0:
160,96,252313,1,0,0:0:0:0:
160,96,252383,1,0,0:0:0:0:
160,96,252452,1,0,0:0:0:0:
352,96,252592,1,8,0:0:0:0:
160,288,252732,1,4,0:0:0:0:
160,96,252871,1,0,0:0:0:0:
352,96,253011,1,8,0:0:0:0:
352,96,253080,1,8,0:0:0:0:
160,96,253150,1,0,0:0:0:0:
352,96,253290,1,8,0:0:0:0:
160,96,253429,1,0,0:0:0:0:
352,96,253569,1,8,0:0:0:0:
352,96,253639,1,8,0:0:0:0:
160,96,253708,1,0,0:0:0:0:
352,96,253848,1,8,0:0:0:0:
160,96,253918,1,0,0:0:0:0:
160,96,253987,1,0,0:0:0:0:
352,96,254127,1,8,0:0:0:0:
160,96,254266,1,0,0:0:0:0:
160,96,254336,1,0,0:0:0:0:
352,96,254406,1,8,0:0:0:0:
160,96,254546,1,0,0:0:0:0:
352,96,254685,1,8,0:0:0:0:
160,96,254755,1,0,0:0:0:0:
352,96,254825,1,8,0:0:0:0:
160,288,254964,1,4,0:0:0:0:
160,96,255104,1,0,0:0:0:0:
352,96,255243,1,8,0:0:0:0:
352,96,255313,1,8,0:0:0:0:
160,96,255383,1,0,0:0:0:0:
160,96,255452,1,0,0:0:0:0:
352,96,255522,1,8,0:0:0:0:
160,96,255662,1,0,0:0:0:0:
352,96,255801,1,8,0:0:0:0:
352,96,255871,1,8,0:0:0:0:
352,96,255941,1,8,0:0:0:0:
160,288,256080,1,4,0:0:0:0:
160,96,256220,1,0,0:0:0:0:
160,96,256290,1,0,0:0:0:0:
352,96,256359,1,8,0:0:0:0:
160,96,256499,1,0,0:0:0:0:
352,288,256639,1,12,0:0:0:0:
160,96,256778,1,0,0:0:0:0:
160,96,256918,1,0,0:0:0:0:
160,96,256987,1,0,0:0:0:0:
160,96,257057,1,0,0:0:0:0:
160,288,257197,1,4,0:0:0:0:
160,96,257336,1,0,0:0:0:0:
352,96,257476,1,8,0:0:0:0:
160,96,257615,1,0,0:0:0:0:
160,96,257685,1,0,0:0:0:0:
352,96,257755,1,8,0:0:0:0:
160,96,257825,1,0,0:0:0:0:
160,96,257894,1,0,0:0:0:0:
352,96,258034,1,8,0:0:0:0:
160,96,258104,1,0,0:0:0:0:
160,96,258173,1,0,0:0:0:0:
352,96,258313,1,8,0:0:0:0:
160,96,258452,1,0,0:0:0:0:
160,96,258522,1,0,0:0:0:0:
352,96,258592,1,8,0:0:0:0:
160,96,258732,1,0,0:0:0:0:
352,96,258871,1,8,0:0:0:0:
160,96,258941,1,0,0:0:0:0:
160,96,259011,1,0,0:0:0:0:
160,96,259080,1,0,0:0:0:0:
352,96,259150,1,8,0:0:0:0:
352,96,259290,1,8,0:0:0:0:
352,288,259429,1,12,0:0:0:0:
160,96,259569,1,0,0:0:0:0:
352,96,259708,1,8,0:0:0:0:
160,96,259778,1,0,0:0:0:0:
352,96,259848,1,8,0:0:0:0:
160,96,259918,1,0,0:0:0:0:
352,96,259987,1,8,0:0:0:0:
160,96,260127,1,0,0:0:0:0:
352,96,260266,1,8,0:0:0:0:
352,96,260336,1,8,0:0:0:0:
352,96,260406,1,8,0:0:0:0:
352,96,260476,1,8,0:0:0:0:
160,96,260546,1,0,0:0:0:0:
160,96,260685,1,0,0:0:0:0:
352,288,260825,1,12,0:0:0:0:
160,96,260964,1,0,0:0:0:0:
352,288,261104,1,12,0:0:0:0:
160,96,261243,1,0,0:0:0:0:
160,96,261313,1,0,0:0:0:0:
160,96,261383,1,0,0:0:0:0:
160,96,261522,1,0,0:0:0:0:
352,96,261662,1,8,0:0:0:0:
352,96,261732,1,8,0:0:0:0:
352,96,261801,1,8,0:0:0:0:
352,96,261871,1,8,0:0:0:0:
160,96,261941,1,0,0:0:0:0:
160,96,262011,1,0,0:0:0:0:
160,96,262080,1,0,0:0:0:0:
160,96,262150,1,0,0:0:0:0:
352,96,262220,1,8,0:0:0:0:
160,96,262359,1,0,0:0:0:0:
160,96,262499,1,0,0:0:0:0:
160,96,262639,1,0,0:0:0:0:
352,96,262778,1,8,0:0:0:0:
352,96,262848,1,8,0:0:0:0:
352,96,262918,1,8,0:0:0:0:
160,96,262987,1,0,0:0:0:0:
160,96,263057,1,0,0:0:0:0:
160,96,263127,1,0,0:0:0:0:
160,96,263197,1,0,0:0:0:0:
160,96,263266,1,0,0:0:0:0:
352,96,263336,1,8,0:0:0:0:
352,96,263476,1,8,0:0:0:0:
160,96,263615,1,0,0:0:0:0:
160,96,263685,1,0,0:0:0:0:
160,96,263755,1,0,0:0:0:0:
352,96,263894,1,8,0:0:0:0:
352,96,263964,1,8,0:0:0:0:
160,96,264034,1,0,0:0:0:0:
160,96,264104,1,0,0:0:0:0:
160,96,264173,1,0,0:0:0:0:
160,96,264243,1,0,0:0:0:0:
160,96,264313,1,0,0:0:0:0:
160,96,264383,1,0,0:0:0:0:
352,96,264452,1,8,0:0:0:0:
160,96,264592,1,0,0:0:0:0:
160,96,264732,1,0,0:0:0:0:
160,96,264871,1,0,0:0:0:0:
352,96,265011,1,8,0:0:0:0:
352,96,265080,1,8,0:0:0:0:
160,96,265150,1,0,0:0:0:0:
160,96,265220,1,0,0:0:0:0:
352,96,265290,1,8,0:0:0:0:
352,96,265359,1,8,0:0:0:0:
160,96,265429,1,0,0:0:0:0:
160,96,265499,1,0,0:0:0:0:
352,96,265569,1,8,0:0:0:0:
352,96,265639,1,8,0:0:0:0:
352,96,265708,1,8,0:0:0:0:
160,96,265778,1,0,0:0:0:0:
352,96,265848,1,8,0:0:0:0:
352,96,265918,1,8,0:0:0:0:
352,96,265987,1,8,0:0:0:0:
352,96,266057,1,8,0:0:0:0:
160,288,266127,1,4,0:0:0:0:
