osu file format v14

[General]
AudioFilename: audio.mp3
AudioLeadIn: 0
PreviewTime: 57620
Countdown: 0
SampleSet: Normal
StackLeniency: 0.7
Mode: 1
LetterboxInBreaks: 0
WidescreenStoryboard: 0

[Editor]
Bookmarks: 411,8783,17155,24131,35294,46457,57620,65992,74364,79945,85527,96690,107852,110730,119015,127387,138550,149713,160876,172038,191573,199945,208317,216690,222271,230643
DistanceSpacing: 1.3
BeatDivisor: 4
GridSize: 32
TimelineZoom: 3.199999

[Metadata]
Title:Nightfall
TitleUnicode:Nightfall
Artist:Xandria
ArtistUnicode:Xandria
Creator:frukoyurdakul
Version:Inner Oni
Source:
Tags:sacrificium symphonic metal stream Dianne van Giersbergen
BeatmapID:1477955
BeatmapSetID:697750

[Difficulty]
HPDrainRate:6
CircleSize:2
OverallDifficulty:6.5
ApproachRate:10
SliderMultiplier:1.4
SliderTickRate:1

[Events]
//Background and Video events
0,0,"BG.jpg",0,0
//Break Periods
2,74390,79495
2,183401,191123
//Storyboard Layer 0 (Background)
//Storyboard Layer 1 (Fail)
//Storyboard Layer 2 (Pass)
//Storyboard Layer 3 (Foreground)
//Storyboard Sound Samples

[TimingPoints]
411,348.837209302326,4,1,0,85,1,0
23957,-100,4,1,0,85,0,0
56748,-66.6666666666667,4,1,0,100,0,0
57620,-90.9090909090909,4,1,0,85,0,1
74364,-90.9090909090909,4,1,0,85,0,0
75759,-95.2380952380952,4,1,0,85,0,0
77155,-100,4,1,0,85,0,0
107852,-200,4,1,0,85,0,0
108201,-181.818181818182,4,1,0,85,0,0
108550,-166.666666666667,4,1,0,85,0,0
108724,-160,4,1,0,85,0,0
108899,-153.846153846154,4,1,0,85,0,0
109248,-142.857142857143,4,1,0,85,0,0
109597,-133.333333333333,4,1,0,85,0,0
109945,-125,4,1,0,85,0,0
110294,-105.263157894737,4,1,0,85,0,0
110643,-90.9090909090909,4,1,0,85,0,1
126602,-91.743119266055,4,1,0,85,0,1
126690,-92.5925925925926,4,1,0,85,0,1
126777,-93.4579439252336,4,1,0,85,0,1
126864,-94.3396226415094,4,1,0,85,0,1
127038,-96.1538461538461,4,1,0,85,0,1
127126,-97.0873786407767,4,1,0,85,0,1
127213,-98.0392156862745,4,1,0,85,0,1
127300,-99.009900990099,4,1,0,85,0,1
127387,-100,4,1,0,85,0,0
159829,-105.263157894737,4,1,0,85,0,0
160004,-108.108108108108,4,1,0,85,0,0
160091,-109.58904109589,4,1,0,85,0,0
160178,-111.111111111111,4,1,0,85,0,0
160352,-114.285714285714,4,1,0,85,0,0
160527,-117.647058823529,4,1,0,85,0,0
160701,-121.212121212121,4,1,0,85,0,0
160876,-125,4,1,0,85,0,0
161137,-125,4,1,0,40,0,0
161312,-123.853211009174,4,1,0,41,0,0
161486,-122.727272727273,4,1,0,42,0,0
161661,-121.621621621622,4,1,0,42,0,0
161835,-120.535714285714,4,1,0,43,0,0
162009,-119.469026548673,4,1,0,44,0,0
162184,-118.421052631579,4,1,0,45,0,0
162358,-117.391304347826,4,1,0,46,0,0
162533,-116.379310344828,4,1,0,47,0,0
162707,-115.384615384615,4,1,0,48,0,0
162881,-114.406779661017,4,1,0,48,0,0
163056,-113.44537815126,4,1,0,49,0,0
163230,-112.5,4,1,0,50,0,0
163405,-111.570247933884,4,1,0,51,0,0
163579,-110.655737704918,4,1,0,52,0,0
163754,-109.756097560976,4,1,0,52,0,0
163928,-108.870967741935,4,1,0,53,0,0
164102,-108,4,1,0,54,0,0
164277,-107.142857142857,4,1,0,55,0,0
164451,-106.299212598425,4,1,0,56,0,0
164626,-105.46875,4,1,0,57,0,0
164800,-104.651162790698,4,1,0,58,0,0
164974,-103.846153846154,4,1,0,58,0,0
165149,-103.053435114504,4,1,0,59,0,0
165323,-102.272727272727,4,1,0,60,0,0
165498,-101.503759398496,4,1,0,61,0,0
165672,-100.746268656716,4,1,0,62,0,0
165847,-100,4,1,0,62,0,0
166021,-99.2647058823529,4,1,0,63,0,0
166195,-98.5401459854015,4,1,0,64,0,0
166370,-97.8260869565217,4,1,0,65,0,0
166544,-97.1223021582734,4,1,0,66,0,0
166719,-96.4285714285714,4,1,0,67,0,0
166893,-95.7446808510638,4,1,0,68,0,0
167067,-95.0704225352113,4,1,0,68,0,0
167242,-94.4055944055944,4,1,0,69,0,0
167416,-93.75,4,1,0,70,0,0
167591,-93.1034482758621,4,1,0,71,0,0
167765,-92.4657534246575,4,1,0,72,0,0
167940,-91.8367346938776,4,1,0,72,0,0
168114,-91.2162162162162,4,1,0,73,0,0
168288,-90.6040268456376,4,1,0,74,0,0
168463,-90,4,1,0,75,0,0
168637,-89.4039735099338,4,1,0,76,0,0
168812,-88.8157894736842,4,1,0,77,0,0
168986,-88.2352941176471,4,1,0,78,0,0
169161,-87.6623376623376,4,1,0,78,0,0
169335,-87.0967741935484,4,1,0,79,0,0
169509,-86.5384615384615,4,1,0,80,0,0
169684,-85.9872611464968,4,1,0,81,0,0
169858,-85.4430379746835,4,1,0,82,0,0
170033,-84.9056603773585,4,1,0,82,0,0
170207,-84.375,4,1,0,83,0,0
170381,-83.8509316770186,4,1,0,84,0,0
170556,-83.3333333333333,4,1,0,85,0,0
170730,-84.2105263157895,4,1,0,85,0,0
170817,-85.1063829787234,4,1,0,85,0,0
170905,-86.0215053763441,4,1,0,85,0,0
170992,-86.9565217391304,4,1,0,85,0,0
171079,-87.9120879120879,4,1,0,85,0,0
171166,-88.8888888888889,4,1,0,85,0,0
171254,-89.8876404494382,4,1,0,85,0,0
171341,-90.9090909090909,4,1,0,85,0,0
171428,-91.9540229885058,4,1,0,85,0,0
171515,-93.0232558139535,4,1,0,85,0,0
171602,-94.1176470588235,4,1,0,85,0,0
171690,-95.2380952380952,4,1,0,85,0,0
171777,-96.3855421686747,4,1,0,85,0,0
171864,-97.5609756097561,4,1,0,85,0,0
172038,-100,4,1,0,85,0,0
199597,-98.0392156862745,4,1,0,85,0,0
199684,-96.1538461538461,4,1,0,85,0,0
199771,-94.3396226415094,4,1,0,85,0,0
199945,-90.9090909090909,4,1,0,85,0,1
219306,-90.0900900900901,4,1,0,85,0,1
219393,-89.2857142857143,4,1,0,85,0,1
219480,-88.4955752212389,4,1,0,85,0,1
222097,-87.719298245614,4,1,0,85,0,1
222184,-86.9565217391304,4,1,0,85,0,1
222271,-86.2068965517241,4,1,0,85,0,1
224887,-85.4700854700855,4,1,0,85,0,1
224974,-84.3881856540084,4,1,0,85,0,1
225062,-83.3333333333333,4,1,0,85,0,1
227591,-81.6326530612245,4,1,0,85,0,1
227678,-80,4,1,0,85,0,1
227852,-76.9230769230769,4,1,0,85,0,1
230643,-76.9230769230769,4,1,0,85,0,0

[HitObjects]
160,288,411,5,4,0:0:0:0:
160,288,759,1,4,0:0:0:0:
160,288,3201,1,4,0:0:0:0:
160,288,3550,1,4,0:0:0:0:
160,288,5992,1,4,0:0:0:0:
160,288,6166,1,4,0:0:0:0:
352,288,7387,1,12,0:0:0:0:
352,288,8085,1,12,0:0:0:0:
352,96,8259,1,8,0:0:0:0:
352,96,8347,1,8,0:0:0:0:
352,96,8434,1,8,0:0:0:0:
352,96,8521,1,8,0:0:0:0:
352,96,8608,1,8,0:0:0:0:
352,96,8695,1,8,0:0:0:0:
160,288,8783,1,4,0:0:0:0:
160,96,8957,1,0,0:0:0:0:
352,96,9131,1,8,0:0:0:0:
160,96,9306,1,0,0:0:0:0:
160,96,9393,1,0,0:0:0:0:
160,96,9480,1,0,0:0:0:0:
160,96,9655,1,0,0:0:0:0:
352,96,9829,1,8,0:0:0:0:
352,96,10004,1,8,0:0:0:0:
352,96,10091,1,8,0:0:0:0:
160,96,10178,1,0,0:0:0:0:
160,96,10352,1,0,0:0:0:0:
160,96,10440,1,0,0:0:0:0:
352,96,10527,1,8,0:0:0:0:
160,96,10701,1,0,0:0:0:0:
352,96,10876,1,8,0:0:0:0:
160,96,11050,1,0,0:0:0:0:
160,96,11137,1,0,0:0:0:0:
352,96,11224,1,8,0:0:0:0:
160,96,11312,1,0,0:0:0:0:
160,96,11399,1,0,0:0:0:0:
160,96,11573,1,0,0:0:0:0:
160,96,11748,1,0,0:0:0:0:
160,96,11835,1,0,0:0:0:0:
352,96,11922,1,8,0:0:0:0:
160,96,12097,1,0,0:0:0:0:
352,96,12271,1,8,0:0:0:0:
352,96,12358,1,8,0:0:0:0:
160,96,12445,1,0,0:0:0:0:
352,96,12620,1,8,0:0:0:0:
160,96,12794,1,0,0:0:0:0:
160,96,12881,1,0,0:0:0:0:
352,96,12969,1,8,0:0:0:0:
352,96,13056,1,8,0:0:0:0:
160,96,13143,1,0,0:0:0:0:
352,96,13317,1,8,0:0:0:0:
160,96,13492,1,0,0:0:0:0:
160,96,13666,1,0,0:0:0:0:
160,96,13754,1,0,0:0:0:0:
160,96,13841,1,0,0:0:0:0:
352,96,14015,1,8,0:0:0:0:
160,96,14102,1,0,0:0:0:0:
352,96,14190,1,8,0:0:0:0:
352,96,14277,1,8,0:0:0:0:
160,96,14364,1,0,0:0:0:0:
160,96,14538,1,0,0:0:0:0:
352,96,14713,1,8,0:0:0:0:
352,96,14887,1,8,0:0:0:0:
352,96,14974,1,8,0:0:0:0:
160,96,15062,1,0,0:0:0:0:
160,96,15236,1,0,0:0:0:0:
352,96,15411,1,8,0:0:0:0:
352,96,15498,1,8,0:0:0:0:
160,96,15585,1,0,0:0:0:0:
160,96,15672,1,0,0:0:0:0:
352,96,15759,1,8,0:0:0:0:
160,96,15934,1,0,0:0:0:0:
160,96,16021,1,0,0:0:0:0:
352,96,16108,1,8,0:0:0:0:
160,96,16283,1,0,0:0:0:0:
160,96,16457,1,0,0:0:0:0:
160,96,16544,1,0,0:0:0:0:
160,96,16631,1,0,0:0:0:0:
160,96,16719,1,0,0:0:0:0:
352,96,16806,1,8,0:0:0:0:
352,96,16893,1,8,0:0:0:0:
160,96,16980,1,0,0:0:0:0:
352,288,17155,1,12,0:0:0:0:
160,96,17329,1,0,0:0:0:0:
352,96,17504,1,8,0:0:0:0:
160,96,17678,1,0,0:0:0:0:
160,96,17765,1,0,0:0:0:0:
160,96,17852,1,0,0:0:0:0:
352,96,18201,1,8,0:0:0:0:
160,96,18288,1,0,0:0:0:0:
160,96,18376,1,0,0:0:0:0:
160,96,18724,1,0,0:0:0:0:
352,96,18899,1,8,0:0:0:0:
160,96,19073,1,0,0:0:0:0:
352,96,19248,1,8,0:0:0:0:
352,96,19422,1,8,0:0:0:0:
160,96,19597,1,0,0:0:0:0:
160,96,19771,1,0,0:0:0:0:
352,288,19945,1,12,0:0:0:0:
352,288,20120,1,12,0:0:0:0:
160,96,20294,1,0,0:0:0:0:
160,96,20469,1,0,0:0:0:0:
160,96,20556,1,0,0:0:0:0:
160,96,20643,1,0,0:0:0:0:
352,96,20992,1,8,0:0:0:0:
352,96,21079,1,8,0:0:0:0:
160,96,21166,1,0,0:0:0:0:
352,288,21341,1,12,0:0:0:0:
160,96,21573,1,0,0:0:0:0:
160,96,21806,1,0,0:0:0:0:
352,96,22038,1,8,0:0:0:0:
352,96,22271,1,8,0:0:0:0:
160,96,22504,1,0,0:0:0:0:
160,288,24131,1,4,0:0:0:0:
160,96,24306,1,0,0:0:0:0:
352,96,24480,1,8,0:0:0:0:
160,96,24655,1,0,0:0:0:0:
160,96,24829,1,0,0:0:0:0:
160,96,24916,1,0,0:0:0:0:
160,96,25004,1,0,0:0:0:0:
352,96,25178,1,8,0:0:0:0:
160,96,25352,1,0,0:0:0:0:
352,96,25527,1,8,0:0:0:0:
160,96,25701,1,0,0:0:0:0:
352,96,25876,1,8,0:0:0:0:
352,96,26050,1,8,0:0:0:0:
352,96,26137,1,8,0:0:0:0:
160,96,26224,1,0,0:0:0:0:
160,96,26399,1,0,0:0:0:0:
352,96,26573,1,8,0:0:0:0:
160,96,26748,1,0,0:0:0:0:
160,96,26922,1,0,0:0:0:0:
160,96,27009,1,0,0:0:0:0:
160,96,27097,1,0,0:0:0:0:
352,96,27271,1,8,0:0:0:0:
160,96,27445,1,0,0:0:0:0:
352,96,27620,1,8,0:0:0:0:
160,96,27794,1,0,0:0:0:0:
160,96,27881,1,0,0:0:0:0:
352,96,27969,1,8,0:0:0:0:
160,96,28143,1,0,0:0:0:0:
352,96,28317,1,8,0:0:0:0:
352,96,28405,1,8,0:0:0:0:
160,96,28492,1,0,0:0:0:0:
352,96,28666,1,8,0:0:0:0:
160,96,28841,1,0,0:0:0:0:
352,96,28928,1,8,0:0:0:0:
160,96,29015,1,0,0:0:0:0:
160,96,29190,1,0,0:0:0:0:
352,96,29364,1,8,0:0:0:0:
352,96,29538,1,8,0:0:0:0:
352,96,29626,1,8,0:0:0:0:
160,96,29713,1,0,0:0:0:0:
160,96,29887,1,0,0:0:0:0:
352,96,30062,1,8,0:0:0:0:
160,96,30236,1,0,0:0:0:0:
160,96,30323,1,0,0:0:0:0:
160,96,30411,1,0,0:0:0:0:
160,96,30585,1,0,0:0:0:0:
352,96,30759,1,8,0:0:0:0:
160,96,30934,1,0,0:0:0:0:
352,96,31108,1,8,0:0:0:0:
160,96,31283,1,0,0:0:0:0:
160,96,31370,1,0,0:0:0:0:
160,96,31457,1,0,0:0:0:0:
352,96,31631,1,8,0:0:0:0:
160,96,31806,1,0,0:0:0:0:
352,96,31980,1,8,0:0:0:0:
352,96,32155,1,8,0:0:0:0:
352,96,32242,1,8,0:0:0:0:
160,96,32329,1,0,0:0:0:0:
352,96,32504,1,8,0:0:0:0:
160,96,32678,1,0,0:0:0:0:
352,96,32852,1,8,0:0:0:0:
352,96,33027,1,8,0:0:0:0:
160,96,33114,1,0,0:0:0:0:
160,96,33201,1,0,0:0:0:0:
160,96,33376,1,0,0:0:0:0:
160,96,33463,1,0,0:0:0:0:
352,96,33550,1,8,0:0:0:0:
160,96,33724,1,0,0:0:0:0:
352,96,33812,1,8,0:0:0:0:
160,96,33899,1,0,0:0:0:0:
160,96,34073,1,0,0:0:0:0:
160,96,34161,1,0,0:0:0:0:
352,96,34248,1,8,0:0:0:0:
160,96,34422,1,0,0:0:0:0:
352,96,34597,1,8,0:0:0:0:
160,96,34684,1,0,0:0:0:0:
352,96,34771,1,8,0:0:0:0:
352,288,34945,1,12,0:0:0:0:
352,96,35120,1,8,0:0:0:0:
160,288,35294,1,4,0:0:0:0:
160,96,35469,1,0,0:0:0:0:
352,96,35643,1,8,0:0:0:0:
160,96,35817,1,0,0:0:0:0:
352,96,35992,1,8,0:0:0:0:
352,96,36079,1,8,0:0:0:0:
160,96,36166,1,0,0:0:0:0:
352,96,36341,1,8,0:0:0:0:
160,96,36515,1,0,0:0:0:0:
352,96,36690,1,8,0:0:0:0:
160,96,36864,1,0,0:0:0:0:
160,96,36951,1,0,0:0:0:0:
352,96,37038,1,8,0:0:0:0:
352,96,37213,1,8,0:0:0:0:
160,96,37387,1,0,0:0:0:0:
160,96,37562,1,0,0:0:0:0:
352,96,37736,1,8,0:0:0:0:
160,96,37911,1,0,0:0:0:0:
160,96,37998,1,0,0:0:0:0:
160,96,38085,1,0,0:0:0:0:
160,96,38259,1,0,0:0:0:0:
352,96,38434,1,8,0:0:0:0:
160,96,38608,1,0,0:0:0:0:
352,96,38783,1,8,0:0:0:0:
160,96,38870,1,0,0:0:0:0:
160,96,38957,1,0,0:0:0:0:
352,96,39131,1,8,0:0:0:0:
352,96,39306,1,8,0:0:0:0:
160,96,39393,1,0,0:0:0:0:
352,96,39480,1,8,0:0:0:0:
160,96,39655,1,0,0:0:0:0:
352,96,39829,1,8,0:0:0:0:
352,96,40004,1,8,0:0:0:0:
160,96,40091,1,0,0:0:0:0:
160,96,40178,1,0,0:0:0:0:
352,96,40352,1,8,0:0:0:0:
352,96,40527,1,8,0:0:0:0:
352,96,40701,1,8,0:0:0:0:
352,96,40788,1,8,0:0:0:0:
160,96,40876,1,0,0:0:0:0:
160,96,41050,1,0,0:0:0:0:
352,96,41224,1,8,0:0:0:0:
160,96,41399,1,0,0:0:0:0:
160,96,41486,1,0,0:0:0:0:
160,96,41573,1,0,0:0:0:0:
160,96,41748,1,0,0:0:0:0:
352,96,41922,1,8,0:0:0:0:
352,96,42097,1,8,0:0:0:0:
352,96,42184,1,8,0:0:0:0:
160,96,42271,1,0,0:0:0:0:
160,96,42445,1,0,0:0:0:0:
352,96,42620,1,8,0:0:0:0:
160,96,42794,1,0,0:0:0:0:
352,96,42881,1,8,0:0:0:0:
160,96,42969,1,0,0:0:0:0:
160,96,43143,1,0,0:0:0:0:
160,96,43230,1,0,0:0:0:0:
352,96,43317,1,8,0:0:0:0:
352,96,43492,1,8,0:0:0:0:
160,96,43579,1,0,0:0:0:0:
352,96,43666,1,8,0:0:0:0:
160,96,43841,1,0,0:0:0:0:
160,96,43928,1,0,0:0:0:0:
352,96,44015,1,8,0:0:0:0:
160,96,44190,1,0,0:0:0:0:
352,96,44364,1,8,0:0:0:0:
352,96,44451,1,8,0:0:0:0:
160,96,44538,1,0,0:0:0:0:
352,96,44713,1,8,0:0:0:0:
160,96,44887,1,0,0:0:0:0:
352,96,44974,1,8,0:0:0:0:
352,96,45062,1,8,0:0:0:0:
160,96,45236,1,0,0:0:0:0:
352,96,45411,1,8,0:0:0:0:
160,96,45498,1,0,0:0:0:0:
160,96,45585,1,0,0:0:0:0:
352,96,45759,1,8,0:0:0:0:
160,96,45934,1,0,0:0:0:0:
160,96,46021,1,0,0:0:0:0:
352,96,46108,1,8,0:0:0:0:
352,96,46195,1,8,0:0:0:0:
352,96,46283,1,8,0:0:0:0:
352,96,46370,1,8,0:0:0:0:
160,288,46457,1,4,0:0:0:0:
160,96,46631,1,0,0:0:0:0:
352,96,46806,1,8,0:0:0:0:
160,96,46980,1,0,0:0:0:0:
160,96,47067,1,0,0:0:0:0:
160,96,47155,1,0,0:0:0:0:
160,96,47329,1,0,0:0:0:0:
352,96,47504,1,8,0:0:0:0:
352,96,47591,1,8,0:0:0:0:
160,96,47678,1,0,0:0:0:0:
352,96,47852,1,8,0:0:0:0:
352,96,47940,1,8,0:0:0:0:
160,96,48027,1,0,0:0:0:0:
352,96,48201,1,8,0:0:0:0:
352,96,48376,1,8,0:0:0:0:
352,96,48463,1,8,0:0:0:0:
160,96,48550,1,0,0:0:0:0:
160,96,48724,1,0,0:0:0:0:
352,96,48899,1,8,0:0:0:0:
352,96,48986,1,8,0:0:0:0:
160,96,49073,1,0,0:0:0:0:
352,96,49248,1,8,0:0:0:0:
160,96,49335,1,0,0:0:0:0:
160,96,49422,1,0,0:0:0:0:
352,96,49597,1,8,0:0:0:0:
352,96,49771,1,8,0:0:0:0:
352,96,49858,1,8,0:0:0:0:
160,96,49945,1,0,0:0:0:0:
160,96,50120,1,0,0:0:0:0:
352,96,50294,1,8,0:0:0:0:
160,96,50381,1,0,0:0:0:0:
160,96,50469,1,0,0:0:0:0:
352,96,50643,1,8,0:0:0:0:
160,96,50730,1,0,0:0:0:0:
160,96,50817,1,0,0:0:0:0:
352,96,50992,1,8,0:0:0:0:
352,96,51166,1,8,0:0:0:0:
352,96,51254,1,8,0:0:0:0:
352,96,51341,1,8,0:0:0:0:
160,96,51515,1,0,0:0:0:0:
352,288,51690,1,12,0:0:0:0:
160,96,51864,1,0,0:0:0:0:
160,288,52038,1,4,0:0:0:0:
160,96,52213,1,0,0:0:0:0:
352,96,52387,1,8,0:0:0:0:
160,96,52562,1,0,0:0:0:0:
160,96,52649,1,0,0:0:0:0:
160,96,52736,1,0,0:0:0:0:
160,96,52823,1,0,0:0:0:0:
160,96,52911,1,0,0:0:0:0:
352,96,53085,1,8,0:0:0:0:
160,96,53172,1,0,0:0:0:0:
160,96,53259,1,0,0:0:0:0:
352,96,53434,1,8,0:0:0:0:
160,96,53521,1,0,0:0:0:0:
160,96,53608,1,0,0:0:0:0:
160,96,53695,1,0,0:0:0:0:
352,96,53783,1,8,0:0:0:0:
352,96,53957,1,8,0:0:0:0:
160,96,54044,1,0,0:0:0:0:
160,96,54131,1,0,0:0:0:0:
160,96,54306,1,0,0:0:0:0:
352,96,54480,1,8,0:0:0:0:
352,96,54567,1,8,0:0:0:0:
160,96,54655,1,0,0:0:0:0:
160,96,54742,1,0,0:0:0:0:
352,96,54829,1,8,0:0:0:0:
160,96,55004,1,0,0:0:0:0:
160,96,55091,1,0,0:0:0:0:
352,96,55178,1,8,0:0:0:0:
352,96,55352,1,8,0:0:0:0:
160,96,55701,1,0,0:0:0:0:
160,96,55788,1,0,0:0:0:0:
352,96,55876,1,8,0:0:0:0:
352,96,55963,1,8,0:0:0:0:
352,96,56050,1,8,0:0:0:0:
352,96,56137,1,8,0:0:0:0:
160,288,56224,1,4,0:0:0:0:
160,288,56922,1,4,0:0:0:0:
160,288,57097,1,4,0:0:0:0:
352,288,57620,1,12,0:0:0:0:
160,96,57794,1,0,0:0:0:0:
160,96,57881,1,0,0:0:0:0:
352,96,57969,1,8,0:0:0:0:
352,96,58056,1,8,0:0:0:0:
352,96,58143,1,8,0:0:0:0:
160,96,58230,1,0,0:0:0:0:
352,96,58317,1,8,0:0:0:0:
352,96,58405,1,8,0:0:0:0:
160,96,58492,1,0,0:0:0:0:
160,96,58579,1,0,0:0:0:0:
352,96,58666,1,8,0:0:0:0:
160,96,58754,1,0,0:0:0:0:
160,96,58841,1,0,0:0:0:0:
160,96,58928,1,0,0:0:0:0:
352,96,59015,1,8,0:0:0:0:
160,96,59102,1,0,0:0:0:0:
160,96,59190,1,0,0:0:0:0:
160,96,59277,1,0,0:0:0:0:
352,96,59364,1,8,0:0:0:0:
352,96,59451,1,8,0:0:0:0:
160,96,59538,1,0,0:0:0:0:
160,96,59626,1,0,0:0:0:0:
352,96,59713,1,8,0:0:0:0:
352,96,59800,1,8,0:0:0:0:
352,96,59887,1,8,0:0:0:0:
160,96,59974,1,0,0:0:0:0:
352,96,60062,1,8,0:0:0:0:
352,96,60149,1,8,0:0:0:0:
352,96,60236,1,8,0:0:0:0:
352,96,60323,1,8,0:0:0:0:
160,96,60411,1,0,0:0:0:0:
160,96,60498,1,0,0:0:0:0:
160,96,60585,1,0,0:0:0:0:
160,96,60672,1,0,0:0:0:0:
352,96,60759,1,8,0:0:0:0:
352,96,60847,1,8,0:0:0:0:
352,96,60934,1,8,0:0:0:0:
160,96,61021,1,0,0:0:0:0:
352,96,61108,1,8,0:0:0:0:
352,96,61195,1,8,0:0:0:0:
160,96,61283,1,0,0:0:0:0:
160,96,61370,1,0,0:0:0:0:
352,96,61457,1,8,0:0:0:0:
160,96,61544,1,0,0:0:0:0:
160,96,61631,1,0,0:0:0:0:
160,96,61719,1,0,0:0:0:0:
352,96,61806,1,8,0:0:0:0:
352,96,61893,1,8,0:0:0:0:
352,96,61980,1,8,0:0:0:0:
352,96,62067,1,8,0:0:0:0:
160,96,62155,1,0,0:0:0:0:
160,96,62242,1,0,0:0:0:0:
160,96,62329,1,0,0:0:0:0:
160,96,62416,1,0,0:0:0:0:
352,96,62504,1,8,0:0:0:0:
352,96,62591,1,8,0:0:0:0:
160,96,62678,1,0,0:0:0:0:
160,96,62765,1,0,0:0:0:0:
352,96,62852,1,8,0:0:0:0:
160,96,62940,1,0,0:0:0:0:
352,96,63027,1,8,0:0:0:0:
352,96,63114,1,8,0:0:0:0:
160,96,63201,1,0,0:0:0:0:
160,96,63288,1,0,0:0:0:0:
160,96,63376,1,0,0:0:0:0:
160,96,63463,1,0,0:0:0:0:
352,96,63550,1,8,0:0:0:0:
352,96,63637,1,8,0:0:0:0:
352,96,63724,1,8,0:0:0:0:
160,96,63812,1,0,0:0:0:0:
352,96,63899,1,8,0:0:0:0:
352,96,63986,1,8,0:0:0:0:
160,96,64073,1,0,0:0:0:0:
160,96,64161,1,0,0:0:0:0:
352,96,64248,1,8,0:0:0:0:
160,96,64335,1,0,0:0:0:0:
160,96,64422,1,0,0:0:0:0:
160,96,64509,1,0,0:0:0:0:
352,96,64597,1,8,0:0:0:0:
352,96,64684,1,8,0:0:0:0:
160,96,64771,1,0,0:0:0:0:
160,96,64858,1,0,0:0:0:0:
352,96,64945,1,8,0:0:0:0:
352,96,65033,1,8,0:0:0:0:
352,96,65120,1,8,0:0:0:0:
160,96,65207,1,0,0:0:0:0:
352,96,65294,1,8,0:0:0:0:
160,96,65381,1,0,0:0:0:0:
352,96,65469,1,8,0:0:0:0:
352,96,65556,1,8,0:0:0:0:
160,96,65643,1,0,0:0:0:0:
352,96,65730,1,8,0:0:0:0:
160,96,65817,1,0,0:0:0:0:
352,288,65992,1,12,0:0:0:0:
160,96,66166,1,0,0:0:0:0:
160,96,66254,1,0,0:0:0:0:
352,96,66341,1,8,0:0:0:0:
352,96,66428,1,8,0:0:0:0:
352,96,66515,1,8,0:0:0:0:
160,96,66602,1,0,0:0:0:0:
352,96,66690,1,8,0:0:0:0:
352,96,66777,1,8,0:0:0:0:
160,96,66864,1,0,0:0:0:0:
160,96,66951,1,0,0:0:0:0:
352,96,67038,1,8,0:0:0:0:
160,96,67126,1,0,0:0:0:0:
160,96,67213,1,0,0:0:0:0:
160,96,67300,1,0,0:0:0:0:
352,96,67387,1,8,0:0:0:0:
160,96,67474,1,0,0:0:0:0:
352,96,67562,1,8,0:0:0:0:
352,96,67649,1,8,0:0:0:0:
352,96,67736,1,8,0:0:0:0:
160,96,67823,1,0,0:0:0:0:
160,96,67911,1,0,0:0:0:0:
160,96,67998,1,0,0:0:0:0:
352,96,68085,1,8,0:0:0:0:
352,96,68172,1,8,0:0:0:0:
160,96,68259,1,0,0:0:0:0:
160,96,68347,1,0,0:0:0:0:
352,96,68434,1,8,0:0:0:0:
352,96,68521,1,8,0:0:0:0:
352,96,68608,1,8,0:0:0:0:
352,96,68695,1,8,0:0:0:0:
160,96,68783,1,0,0:0:0:0:
160,96,68870,1,0,0:0:0:0:
160,96,68957,1,0,0:0:0:0:
160,96,69044,1,0,0:0:0:0:
352,96,69131,1,8,0:0:0:0:
352,96,69219,1,8,0:0:0:0:
352,96,69306,1,8,0:0:0:0:
160,96,69393,1,0,0:0:0:0:
352,96,69480,1,8,0:0:0:0:
352,96,69567,1,8,0:0:0:0:
160,96,69655,1,0,0:0:0:0:
160,96,69742,1,0,0:0:0:0:
352,96,69829,1,8,0:0:0:0:
160,96,69916,1,0,0:0:0:0:
160,96,70004,1,0,0:0:0:0:
160,96,70091,1,0,0:0:0:0:
352,96,70178,1,8,0:0:0:0:
352,96,70265,1,8,0:0:0:0:
352,96,70352,1,8,0:0:0:0:
352,96,70440,1,8,0:0:0:0:
160,96,70527,1,0,0:0:0:0:
160,96,70614,1,0,0:0:0:0:
160,96,70701,1,0,0:0:0:0:
160,96,70788,1,0,0:0:0:0:
352,96,70876,1,8,0:0:0:0:
352,96,70963,1,8,0:0:0:0:
160,96,71050,1,0,0:0:0:0:
160,96,71137,1,0,0:0:0:0:
352,96,71224,1,8,0:0:0:0:
352,96,71312,1,8,0:0:0:0:
160,96,71399,1,0,0:0:0:0:
352,96,71486,1,8,0:0:0:0:
160,96,71573,1,0,0:0:0:0:
160,96,71661,1,0,0:0:0:0:
160,96,71748,1,0,0:0:0:0:
160,96,71835,1,0,0:0:0:0:
352,96,71922,1,8,0:0:0:0:
352,96,72009,1,8,0:0:0:0:
352,96,72097,1,8,0:0:0:0:
160,96,72184,1,0,0:0:0:0:
352,96,72271,1,8,0:0:0:0:
352,96,72358,1,8,0:0:0:0:
160,96,72445,1,0,0:0:0:0:
160,96,72533,1,0,0:0:0:0:
352,96,72620,1,8,0:0:0:0:
160,96,72707,1,0,0:0:0:0:
160,96,72794,1,0,0:0:0:0:
160,96,72881,1,0,0:0:0:0:
352,96,72969,1,8,0:0:0:0:
352,96,73056,1,8,0:0:0:0:
352,96,73143,1,8,0:0:0:0:
160,96,73230,1,0,0:0:0:0:
352,96,73317,1,8,0:0:0:0:
352,96,73405,1,8,0:0:0:0:
160,96,73492,1,0,0:0:0:0:
352,96,73579,1,8,0:0:0:0:
352,96,73666,1,8,0:0:0:0:
352,96,73754,1,8,0:0:0:0:
160,96,73841,1,0,0:0:0:0:
160,96,73928,1,0,0:0:0:0:
352,96,74015,1,8,0:0:0:0:
352,96,74102,1,8,0:0:0:0:
160,96,74190,1,0,0:0:0:0:
160,288,79945,5,4,0:0:0:0:
160,96,80120,1,0,0:0:0:0:
352,96,80294,1,8,0:0:0:0:
160,96,80469,1,0,0:0:0:0:
160,96,80556,1,0,0:0:0:0:
160,96,80643,1,0,0:0:0:0:
160,96,80817,1,0,0:0:0:0:
352,96,80992,1,8,0:0:0:0:
160,96,81166,1,0,0:0:0:0:
160,96,81254,1,0,0:0:0:0:
352,96,81341,1,8,0:0:0:0:
160,96,81515,1,0,0:0:0:0:
352,96,81690,1,8,0:0:0:0:
352,96,81864,1,8,0:0:0:0:
352,96,81951,1,8,0:0:0:0:
160,96,82038,1,0,0:0:0:0:
352,96,82213,1,8,0:0:0:0:
352,96,82387,1,8,0:0:0:0:
160,96,82562,1,0,0:0:0:0:
160,96,82649,1,0,0:0:0:0:
160,96,82736,1,0,0:0:0:0:
160,96,82911,1,0,0:0:0:0:
352,96,83085,1,8,0:0:0:0:
160,96,83259,1,0,0:0:0:0:
160,96,83347,1,0,0:0:0:0:
352,96,83434,1,8,0:0:0:0:
160,96,83608,1,0,0:0:0:0:
160,96,83695,1,0,0:0:0:0:
352,96,83783,1,8,0:0:0:0:
352,96,83957,1,8,0:0:0:0:
160,96,84044,1,0,0:0:0:0:
352,96,84131,1,8,0:0:0:0:
160,96,84306,1,0,0:0:0:0:
352,96,84480,1,8,0:0:0:0:
160,96,84655,1,0,0:0:0:0:
352,96,84742,1,8,0:0:0:0:
160,96,84829,1,0,0:0:0:0:
160,96,85004,1,0,0:0:0:0:
160,96,85091,1,0,0:0:0:0:
160,96,85178,1,0,0:0:0:0:
352,288,85352,1,12,0:0:0:0:
160,288,85527,1,4,0:0:0:0:
160,96,85701,1,0,0:0:0:0:
352,96,85876,1,8,0:0:0:0:
160,96,86050,1,0,0:0:0:0:
160,96,86224,1,0,0:0:0:0:
160,96,86312,1,0,0:0:0:0:
160,96,86399,1,0,0:0:0:0:
352,96,86573,1,8,0:0:0:0:
352,96,86748,1,8,0:0:0:0:
352,96,86835,1,8,0:0:0:0:
160,96,86922,1,0,0:0:0:0:
160,96,87097,1,0,0:0:0:0:
352,96,87271,1,8,0:0:0:0:
352,96,87445,1,8,0:0:0:0:
160,96,87533,1,0,0:0:0:0:
160,96,87620,1,0,0:0:0:0:
352,96,87794,1,8,0:0:0:0:
160,96,87969,1,0,0:0:0:0:
160,96,88143,1,0,0:0:0:0:
160,96,88230,1,0,0:0:0:0:
160,96,88317,1,0,0:0:0:0:
160,96,88492,1,0,0:0:0:0:
352,96,88666,1,8,0:0:0:0:
160,96,88841,1,0,0:0:0:0:
160,96,88928,1,0,0:0:0:0:
352,96,89015,1,8,0:0:0:0:
160,96,89190,1,0,0:0:0:0:
352,96,89364,1,8,0:0:0:0:
160,96,89538,1,0,0:0:0:0:
160,96,89626,1,0,0:0:0:0:
352,96,89713,1,8,0:0:0:0:
160,96,89887,1,0,0:0:0:0:
352,96,90062,1,8,0:0:0:0:
160,96,90149,1,0,0:0:0:0:
352,96,90236,1,8,0:0:0:0:
160,96,90411,1,0,0:0:0:0:
352,96,90585,1,8,0:0:0:0:
352,96,90672,1,8,0:0:0:0:
352,96,90759,1,8,0:0:0:0:
352,96,90934,1,8,0:0:0:0:
352,96,91021,1,8,0:0:0:0:
160,96,91108,1,0,0:0:0:0:
160,96,91283,1,0,0:0:0:0:
352,96,91457,1,8,0:0:0:0:
160,96,91631,1,0,0:0:0:0:
160,96,91719,1,0,0:0:0:0:
160,96,91806,1,0,0:0:0:0:
160,96,91980,1,0,0:0:0:0:
352,96,92155,1,8,0:0:0:0:
160,96,92329,1,0,0:0:0:0:
352,96,92416,1,8,0:0:0:0:
160,96,92504,1,0,0:0:0:0:
160,96,92678,1,0,0:0:0:0:
352,96,92852,1,8,0:0:0:0:
352,96,93027,1,8,0:0:0:0:
352,96,93114,1,8,0:0:0:0:
160,96,93201,1,0,0:0:0:0:
160,96,93376,1,0,0:0:0:0:
160,96,93463,1,0,0:0:0:0:
352,96,93550,1,8,0:0:0:0:
352,96,93724,1,8,0:0:0:0:
160,96,93812,1,0,0:0:0:0:
352,96,93899,1,8,0:0:0:0:
160,96,94073,1,0,0:0:0:0:
160,96,94161,1,0,0:0:0:0:
352,96,94248,1,8,0:0:0:0:
160,96,94422,1,0,0:0:0:0:
352,96,94597,1,8,0:0:0:0:
352,96,94771,1,8,0:0:0:0:
352,96,94858,1,8,0:0:0:0:
160,96,94945,1,0,0:0:0:0:
352,96,95120,1,8,0:0:0:0:
160,96,95294,1,0,0:0:0:0:
352,96,95469,1,8,0:0:0:0:
352,96,95556,1,8,0:0:0:0:
352,96,95643,1,8,0:0:0:0:
352,96,95730,1,8,0:0:0:0:
160,96,95817,1,0,0:0:0:0:
160,96,95905,1,0,0:0:0:0:
352,96,95992,1,8,0:0:0:0:
352,96,96079,1,8,0:0:0:0:
160,96,96166,1,0,0:0:0:0:
160,96,96254,1,0,0:0:0:0:
352,96,96341,1,8,0:0:0:0:
352,96,96428,1,8,0:0:0:0:
352,96,96515,1,8,0:0:0:0:
352,96,96602,1,8,0:0:0:0:
160,288,96690,1,4,0:0:0:0:
160,96,96864,1,0,0:0:0:0:
352,96,97038,1,8,0:0:0:0:
160,96,97213,1,0,0:0:0:0:
160,96,97300,1,0,0:0:0:0:
160,96,97387,1,0,0:0:0:0:
160,96,97562,1,0,0:0:0:0:
352,96,97736,1,8,0:0:0:0:
352,96,97823,1,8,0:0:0:0:
160,96,97911,1,0,0:0:0:0:
352,96,98085,1,8,0:0:0:0:
352,96,98172,1,8,0:0:0:0:
160,96,98259,1,0,0:0:0:0:
352,96,98434,1,8,0:0:0:0:
352,96,98608,1,8,0:0:0:0:
352,96,98695,1,8,0:0:0:0:
160,96,98783,1,0,0:0:0:0:
160,96,98957,1,0,0:0:0:0:
352,96,99131,1,8,0:0:0:0:
160,96,99219,1,0,0:0:0:0:
160,96,99306,1,0,0:0:0:0:
352,96,99480,1,8,0:0:0:0:
160,96,99567,1,0,0:0:0:0:
160,96,99655,1,0,0:0:0:0:
352,96,99829,1,8,0:0:0:0:
352,96,100004,1,8,0:0:0:0:
352,96,100091,1,8,0:0:0:0:
160,96,100178,1,0,0:0:0:0:
160,96,100352,1,0,0:0:0:0:
352,96,100527,1,8,0:0:0:0:
160,96,100614,1,0,0:0:0:0:
160,96,100701,1,0,0:0:0:0:
160,96,100876,1,0,0:0:0:0:
160,96,100963,1,0,0:0:0:0:
160,96,101050,1,0,0:0:0:0:
352,96,101224,1,8,0:0:0:0:
352,96,101399,1,8,0:0:0:0:
352,96,101486,1,8,0:0:0:0:
352,96,101573,1,8,0:0:0:0:
160,96,101748,1,0,0:0:0:0:
352,96,101922,1,8,0:0:0:0:
352,96,102009,1,8,0:0:0:0:
352,96,102097,1,8,0:0:0:0:
352,96,102184,1,8,0:0:0:0:
160,288,102271,1,4,0:0:0:0:
160,96,102445,1,0,0:0:0:0:
352,96,102620,1,8,0:0:0:0:
160,96,102794,1,0,0:0:0:0:
160,96,102881,1,0,0:0:0:0:
160,96,102969,1,0,0:0:0:0:
160,96,103056,1,0,0:0:0:0:
160,96,103143,1,0,0:0:0:0:
352,96,103317,1,8,0:0:0:0:
352,96,103405,1,8,0:0:0:0:
160,96,103492,1,0,0:0:0:0:
352,96,103666,1,8,0:0:0:0:
160,96,103754,1,0,0:0:0:0:
160,96,103841,1,0,0:0:0:0:
160,96,103928,1,0,0:0:0:0:
352,96,104015,1,8,0:0:0:0:
352,96,104190,1,8,0:0:0:0:
160,96,104277,1,0,0:0:0:0:
160,96,104364,1,0,0:0:0:0:
160,96,104538,1,0,0:0:0:0:
352,96,104713,1,8,0:0:0:0:
352,96,104800,1,8,0:0:0:0:
160,96,104887,1,0,0:0:0:0:
352,96,104974,1,8,0:0:0:0:
160,96,105062,1,0,0:0:0:0:
352,288,105236,1,12,0:0:0:0:
160,96,105411,1,0,0:0:0:0:
352,96,105585,1,8,0:0:0:0:
160,96,105672,1,0,0:0:0:0:
352,96,105759,1,8,0:0:0:0:
352,96,105847,1,8,0:0:0:0:
160,96,105934,1,0,0:0:0:0:
352,96,106021,1,8,0:0:0:0:
352,96,106108,1,8,0:0:0:0:
352,96,106195,1,8,0:0:0:0:
160,96,106283,1,0,0:0:0:0:
160,96,106370,1,0,0:0:0:0:
352,96,106457,1,8,0:0:0:0:
352,96,107852,1,8,0:0:0:0:
160,96,108201,1,0,0:0:0:0:
352,96,108550,1,8,0:0:0:0:
352,96,108724,1,8,0:0:0:0:
160,96,108899,1,0,0:0:0:0:
352,96,109248,1,8,0:0:0:0:
160,96,109597,1,0,0:0:0:0:
352,96,109945,1,8,0:0:0:0:
160,96,110294,1,0,0:0:0:0:
352,288,110643,1,12,0:0:0:0:
160,96,110817,1,0,0:0:0:0:
160,96,110905,1,0,0:0:0:0:
352,96,110992,1,8,0:0:0:0:
352,96,111079,1,8,0:0:0:0:
352,96,111166,1,8,0:0:0:0:
160,96,111254,1,0,0:0:0:0:
352,96,111341,1,8,0:0:0:0:
352,96,111428,1,8,0:0:0:0:
160,96,111515,1,0,0:0:0:0:
160,96,111602,1,0,0:0:0:0:
352,96,111690,1,8,0:0:0:0:
160,96,111777,1,0,0:0:0:0:
160,96,111864,1,0,0:0:0:0:
160,96,111951,1,0,0:0:0:0:
352,96,112038,1,8,0:0:0:0:
160,96,112126,1,0,0:0:0:0:
160,96,112213,1,0,0:0:0:0:
160,96,112300,1,0,0:0:0:0:
352,96,112387,1,8,0:0:0:0:
352,96,112474,1,8,0:0:0:0:
160,96,112562,1,0,0:0:0:0:
160,96,112649,1,0,0:0:0:0:
352,96,112736,1,8,0:0:0:0:
352,96,112823,1,8,0:0:0:0:
352,96,112911,1,8,0:0:0:0:
160,96,112998,1,0,0:0:0:0:
352,96,113085,1,8,0:0:0:0:
352,96,113172,1,8,0:0:0:0:
352,96,113259,1,8,0:0:0:0:
352,96,113347,1,8,0:0:0:0:
160,96,113434,1,0,0:0:0:0:
160,96,113521,1,0,0:0:0:0:
160,96,113608,1,0,0:0:0:0:
160,96,113695,1,0,0:0:0:0:
352,96,113783,1,8,0:0:0:0:
352,96,113870,1,8,0:0:0:0:
352,96,113957,1,8,0:0:0:0:
160,96,114044,1,0,0:0:0:0:
352,96,114131,1,8,0:0:0:0:
352,96,114219,1,8,0:0:0:0:
160,96,114306,1,0,0:0:0:0:
160,96,114393,1,0,0:0:0:0:
352,96,114480,1,8,0:0:0:0:
160,96,114567,1,0,0:0:0:0:
160,96,114655,1,0,0:0:0:0:
160,96,114742,1,0,0:0:0:0:
352,96,114829,1,8,0:0:0:0:
352,96,114916,1,8,0:0:0:0:
352,96,115004,1,8,0:0:0:0:
352,96,115091,1,8,0:0:0:0:
160,96,115178,1,0,0:0:0:0:
160,96,115265,1,0,0:0:0:0:
160,96,115352,1,0,0:0:0:0:
160,96,115440,1,0,0:0:0:0:
352,96,115527,1,8,0:0:0:0:
352,96,115614,1,8,0:0:0:0:
160,96,115701,1,0,0:0:0:0:
160,96,115788,1,0,0:0:0:0:
352,96,115876,1,8,0:0:0:0:
160,96,115963,1,0,0:0:0:0:
352,96,116050,1,8,0:0:0:0:
352,96,116137,1,8,0:0:0:0:
160,96,116224,1,0,0:0:0:0:
160,96,116312,1,0,0:0:0:0:
160,96,116399,1,0,0:0:0:0:
160,96,116486,1,0,0:0:0:0:
352,96,116573,1,8,0:0:0:0:
352,96,116661,1,8,0:0:0:0:
352,96,116748,1,8,0:0:0:0:
160,96,116835,1,0,0:0:0:0:
352,96,116922,1,8,0:0:0:0:
352,96,117009,1,8,0:0:0:0:
160,96,117097,1,0,0:0:0:0:
160,96,117184,1,0,0:0:0:0:
352,96,117271,1,8,0:0:0:0:
160,96,117358,1,0,0:0:0:0:
160,96,117445,1,0,0:0:0:0:
160,96,117533,1,0,0:0:0:0:
352,96,117620,1,8,0:0:0:0:
352,96,117707,1,8,0:0:0:0:
160,96,117794,1,0,0:0:0:0:
160,96,117881,1,0,0:0:0:0:
352,96,117969,1,8,0:0:0:0:
352,96,118056,1,8,0:0:0:0:
352,96,118143,1,8,0:0:0:0:
160,96,118230,1,0,0:0:0:0:
352,96,118317,1,8,0:0:0:0:
160,96,118405,1,0,0:0:0:0:
160,96,118492,1,0,0:0:0:0:
160,96,118579,1,0,0:0:0:0:
352,96,118666,1,8,0:0:0:0:
352,96,118754,1,8,0:0:0:0:
160,96,118841,1,0,0:0:0:0:
352,288,119015,1,12,0:0:0:0:
160,96,119190,1,0,0:0:0:0:
160,96,119277,1,0,0:0:0:0:
352,96,119364,1,8,0:0:0:0:
352,96,119451,1,8,0:0:0:0:
352,96,119538,1,8,0:0:0:0:
160,96,119626,1,0,0:0:0:0:
352,96,119713,1,8,0:0:0:0:
352,96,119800,1,8,0:0:0:0:
160,96,119887,1,0,0:0:0:0:
160,96,119974,1,0,0:0:0:0:
352,96,120062,1,8,0:0:0:0:
160,96,120149,1,0,0:0:0:0:
160,96,120236,1,0,0:0:0:0:
160,96,120323,1,0,0:0:0:0:
352,96,120411,1,8,0:0:0:0:
160,96,120498,1,0,0:0:0:0:
352,96,120585,1,8,0:0:0:0:
352,96,120672,1,8,0:0:0:0:
352,96,120759,1,8,0:0:0:0:
160,96,120847,1,0,0:0:0:0:
160,96,120934,1,0,0:0:0:0:
160,96,121021,1,0,0:0:0:0:
352,96,121108,1,8,0:0:0:0:
352,96,121195,1,8,0:0:0:0:
160,96,121283,1,0,0:0:0:0:
160,96,121370,1,0,0:0:0:0:
352,96,121457,1,8,0:0:0:0:
352,96,121544,1,8,0:0:0:0:
352,96,121631,1,8,0:0:0:0:
352,96,121719,1,8,0:0:0:0:
160,96,121806,1,0,0:0:0:0:
160,96,121893,1,0,0:0:0:0:
160,96,121980,1,0,0:0:0:0:
160,96,122067,1,0,0:0:0:0:
352,96,122155,1,8,0:0:0:0:
352,96,122242,1,8,0:0:0:0:
352,96,122329,1,8,0:0:0:0:
160,96,122416,1,0,0:0:0:0:
352,96,122504,1,8,0:0:0:0:
352,96,122591,1,8,0:0:0:0:
160,96,122678,1,0,0:0:0:0:
160,96,122765,1,0,0:0:0:0:
352,96,122852,1,8,0:0:0:0:
160,96,122940,1,0,0:0:0:0:
160,96,123027,1,0,0:0:0:0:
160,96,123114,1,0,0:0:0:0:
352,96,123201,1,8,0:0:0:0:
352,96,123288,1,8,0:0:0:0:
352,96,123376,1,8,0:0:0:0:
352,96,123463,1,8,0:0:0:0:
160,96,123550,1,0,0:0:0:0:
160,96,123637,1,0,0:0:0:0:
160,96,123724,1,0,0:0:0:0:
160,96,123812,1,0,0:0:0:0:
352,96,123899,1,8,0:0:0:0:
352,96,123986,1,8,0:0:0:0:
160,96,124073,1,0,0:0:0:0:
160,96,124161,1,0,0:0:0:0:
352,96,124248,1,8,0:0:0:0:
352,96,124335,1,8,0:0:0:0:
160,96,124422,1,0,0:0:0:0:
352,96,124509,1,8,0:0:0:0:
160,96,124597,1,0,0:0:0:0:
160,96,124684,1,0,0:0:0:0:
160,96,124771,1,0,0:0:0:0:
160,96,124858,1,0,0:0:0:0:
352,96,124945,1,8,0:0:0:0:
352,96,125033,1,8,0:0:0:0:
352,96,125120,1,8,0:0:0:0:
160,96,125207,1,0,0:0:0:0:
352,96,125294,1,8,0:0:0:0:
352,96,125381,1,8,0:0:0:0:
160,96,125469,1,0,0:0:0:0:
160,96,125556,1,0,0:0:0:0:
352,96,125643,1,8,0:0:0:0:
160,96,125730,1,0,0:0:0:0:
160,96,125817,1,0,0:0:0:0:
160,96,125905,1,0,0:0:0:0:
352,96,125992,1,8,0:0:0:0:
352,96,126079,1,8,0:0:0:0:
352,96,126166,1,8,0:0:0:0:
352,96,126254,1,8,0:0:0:0:
160,96,126341,1,0,0:0:0:0:
352,96,126515,1,8,0:0:0:0:
352,96,126602,1,8,0:0:0:0:
160,96,126690,1,0,0:0:0:0:
352,96,126777,1,8,0:0:0:0:
160,96,126864,1,0,0:0:0:0:
352,96,127038,1,8,0:0:0:0:
160,96,127126,1,0,0:0:0:0:
352,96,127213,1,8,0:0:0:0:
160,96,127300,1,8,0:0:0:0:
160,288,127387,1,4,0:0:0:0:
160,96,127562,1,0,0:0:0:0:
160,96,127911,1,0,0:0:0:0:
352,96,128085,1,8,0:0:0:0:
160,96,128434,1,0,0:0:0:0:
160,96,128783,1,0,0:0:0:0:
160,96,128957,1,0,0:0:0:0:
160,96,129131,1,0,0:0:0:0:
352,96,129480,1,8,0:0:0:0:
160,96,129829,1,0,0:0:0:0:
160,288,130178,1,4,0:0:0:0:
160,96,130352,1,0,0:0:0:0:
352,96,130876,1,8,0:0:0:0:
160,96,131224,1,0,0:0:0:0:
160,96,131573,1,0,0:0:0:0:
160,96,131748,1,0,0:0:0:0:
352,96,131922,1,8,0:0:0:0:
160,96,132097,1,0,0:0:0:0:
160,96,132184,1,0,0:0:0:0:
352,96,132271,1,8,0:0:0:0:
160,96,132445,1,0,0:0:0:0:
352,96,132620,1,8,0:0:0:0:
352,96,132794,1,8,0:0:0:0:
160,288,132969,1,4,0:0:0:0:
160,96,133143,1,0,0:0:0:0:
352,96,133666,1,8,0:0:0:0:
160,96,134015,1,0,0:0:0:0:
160,96,134364,1,0,0:0:0:0:
160,96,134538,1,0,0:0:0:0:
352,96,134713,1,8,0:0:0:0:
160,96,134887,1,0,0:0:0:0:
352,96,135062,1,8,0:0:0:0:
352,96,135411,1,8,0:0:0:0:
160,96,135585,1,0,0:0:0:0:
160,96,135672,1,0,0:0:0:0:
352,96,135759,1,8,0:0:0:0:
352,96,135934,1,8,0:0:0:0:
160,96,136108,1,0,0:0:0:0:
160,96,136283,1,0,0:0:0:0:
352,96,136457,1,8,0:0:0:0:
160,96,136806,1,0,0:0:0:0:
352,96,137155,1,8,0:0:0:0:
352,96,137198,1,8,0:0:0:0:
352,96,137329,1,8,0:0:0:0:
160,96,137504,1,0,0:0:0:0:
160,96,137678,1,0,0:0:0:0:
352,96,137852,1,8,0:0:0:0:
352,96,137896,1,8,0:0:0:0:
352,288,138201,1,12,0:0:0:0:
160,288,138550,1,4,0:0:0:0:
160,96,138724,1,0,0:0:0:0:
160,96,139073,1,0,0:0:0:0:
352,96,139248,1,8,0:0:0:0:
160,96,139597,1,0,0:0:0:0:
160,96,139945,1,0,0:0:0:0:
160,96,140120,1,0,0:0:0:0:
160,96,140294,1,0,0:0:0:0:
160,96,140469,1,0,0:0:0:0:
352,96,140643,1,8,0:0:0:0:
160,96,140992,1,0,0:0:0:0:
160,96,141166,1,0,0:0:0:0:
160,96,141254,1,0,0:0:0:0:
160,96,141341,1,0,0:0:0:0:
160,96,141515,1,0,0:0:0:0:
352,288,142038,1,12,0:0:0:0:
160,96,142387,1,0,0:0:0:0:
160,96,142736,1,0,0:0:0:0:
160,96,142911,1,0,0:0:0:0:
352,96,143085,1,8,0:0:0:0:
160,96,143259,1,0,0:0:0:0:
352,96,143434,1,8,0:0:0:0:
160,96,143783,1,0,0:0:0:0:
352,96,143957,1,8,0:0:0:0:
352,96,144044,1,8,0:0:0:0:
160,96,144131,1,0,0:0:0:0:
160,96,144306,1,0,0:0:0:0:
352,288,144829,1,12,0:0:0:0:
160,96,145178,1,0,0:0:0:0:
160,96,145352,1,0,0:0:0:0:
352,96,145527,1,8,0:0:0:0:
160,96,145701,1,0,0:0:0:0:
160,96,146050,1,0,0:0:0:0:
352,96,146224,1,8,0:0:0:0:
160,96,146399,1,0,0:0:0:0:
352,96,146573,1,8,0:0:0:0:
160,96,146748,1,0,0:0:0:0:
160,96,146835,1,0,0:0:0:0:
352,96,146922,1,8,0:0:0:0:
160,96,147271,1,0,0:0:0:0:
352,96,147445,1,8,0:0:0:0:
160,96,147620,1,0,0:0:0:0:
160,96,147794,1,0,0:0:0:0:
352,288,147969,1,12,0:0:0:0:
160,96,148143,1,0,0:0:0:0:
352,288,148317,1,12,0:0:0:0:
352,96,148666,1,8,0:0:0:0:
160,96,148841,1,0,0:0:0:0:
160,96,148928,1,0,0:0:0:0:
352,96,149015,1,8,0:0:0:0:
160,96,149190,1,0,0:0:0:0:
160,96,149277,1,0,0:0:0:0:
160,96,149364,1,0,0:0:0:0:
352,96,149538,1,8,0:0:0:0:
160,96,149713,1,0,0:0:0:0:
160,96,149887,1,0,0:0:0:0:
160,96,150062,1,0,0:0:0:0:
160,96,150236,1,0,0:0:0:0:
352,288,150411,1,12,0:0:0:0:
160,96,150759,1,0,0:0:0:0:
160,96,150934,1,0,0:0:0:0:
160,96,151283,1,0,0:0:0:0:
160,96,151457,1,0,0:0:0:0:
160,96,151631,1,0,0:0:0:0:
352,96,151806,1,8,0:0:0:0:
352,96,152155,1,8,0:0:0:0:
160,96,152329,1,0,0:0:0:0:
160,96,152416,1,0,0:0:0:0:
160,96,152504,1,0,0:0:0:0:
160,96,152678,1,0,0:0:0:0:
160,96,152852,1,0,0:0:0:0:
160,96,153027,1,0,0:0:0:0:
352,288,153201,1,12,0:0:0:0:
160,96,153550,1,0,0:0:0:0:
352,96,153724,1,8,0:0:0:0:
352,96,154073,1,8,0:0:0:0:
160,96,154248,1,0,0:0:0:0:
160,96,154422,1,0,0:0:0:0:
352,96,154597,1,8,0:0:0:0:
160,96,154771,1,0,0:0:0:0:
352,96,154945,1,8,0:0:0:0:
160,96,155033,1,0,0:0:0:0:
160,96,155120,1,0,0:0:0:0:
160,96,155207,1,0,0:0:0:0:
160,96,155294,1,0,0:0:0:0:
160,96,155469,1,0,0:0:0:0:
160,96,155643,1,0,0:0:0:0:
160,96,155817,1,0,0:0:0:0:
352,288,155992,1,12,0:0:0:0:
352,96,156341,1,8,0:0:0:0:
352,96,156515,1,8,0:0:0:0:
352,96,156864,1,8,0:0:0:0:
352,96,157038,1,8,0:0:0:0:
160,96,157213,1,0,0:0:0:0:
352,96,157387,1,8,0:0:0:0:
160,96,157736,1,0,0:0:0:0:
352,96,158085,1,8,0:0:0:0:
160,96,158434,1,0,0:0:0:0:
352,96,158608,1,8,0:0:0:0:
160,96,158783,1,0,0:0:0:0:
160,96,158957,1,0,0:0:0:0:
352,288,159131,1,12,0:0:0:0:
160,96,159306,1,0,0:0:0:0:
352,288,159480,1,12,0:0:0:0:
160,96,159829,1,0,0:0:0:0:
160,96,160004,1,0,0:0:0:0:
352,96,160091,1,8,0:0:0:0:
352,96,160178,1,8,0:0:0:0:
160,96,160352,1,0,0:0:0:0:
352,96,160527,1,8,0:0:0:0:
160,96,160701,1,0,0:0:0:0:
160,288,160876,1,4,0:0:0:0:
352,96,161224,1,8,0:0:0:0:
352,96,161399,1,8,0:0:0:0:
352,96,161573,1,8,0:0:0:0:
352,96,161748,1,8,0:0:0:0:
352,96,161922,1,8,0:0:0:0:
352,96,162097,1,8,0:0:0:0:
352,96,162271,1,8,0:0:0:0:
352,96,162445,1,8,0:0:0:0:
352,96,162620,1,8,0:0:0:0:
352,96,162794,1,8,0:0:0:0:
352,96,162969,1,8,0:0:0:0:
352,96,163143,1,8,0:0:0:0:
352,96,163317,1,8,0:0:0:0:
352,96,163492,1,8,0:0:0:0:
352,96,163666,1,8,0:0:0:0:
352,96,163841,1,8,0:0:0:0:
352,96,164015,1,8,0:0:0:0:
352,96,164190,1,8,0:0:0:0:
352,96,164364,1,8,0:0:0:0:
352,96,164538,1,8,0:0:0:0:
352,96,164713,1,8,0:0:0:0:
352,96,164887,1,8,0:0:0:0:
352,96,165062,1,8,0:0:0:0:
352,96,165236,1,8,0:0:0:0:
352,96,165411,1,8,0:0:0:0:
352,96,165585,1,8,0:0:0:0:
352,96,165759,1,8,0:0:0:0:
352,96,165934,1,8,0:0:0:0:
352,96,166108,1,8,0:0:0:0:
352,96,166283,1,8,0:0:0:0:
352,96,166457,1,8,0:0:0:0:
352,96,166631,1,8,0:0:0:0:
352,96,166806,1,8,0:0:0:0:
352,96,166980,1,8,0:0:0:0:
352,96,167155,1,8,0:0:0:0:
352,96,167329,1,8,0:0:0:0:
352,96,167504,1,8,0:0:0:0:
352,96,167678,1,8,0:0:0:0:
352,96,167852,1,8,0:0:0:0:
352,96,168027,1,8,0:0:0:0:
352,96,168201,1,8,0:0:0:0:
352,96,168376,1,8,0:0:0:0:
352,96,168550,1,8,0:0:0:0:
352,96,168724,1,8,0:0:0:0:
352,96,168899,1,8,0:0:0:0:
352,96,169073,1,8,0:0:0:0:
160,288,169248,1,4,0:0:0:0:
160,288,169422,1,4,0:0:0:0:
160,288,169597,1,4,0:0:0:0:
160,288,169771,1,4,0:0:0:0:
160,288,169945,1,4,0:0:0:0:
160,288,170120,1,4,0:0:0:0:
160,288,170294,1,4,0:0:0:0:
160,288,170469,1,4,0:0:0:0:
352,96,170643,1,8,0:0:0:0:
160,96,170730,1,0,0:0:0:0:
160,96,170817,1,0,0:0:0:0:
160,96,170905,1,0,0:0:0:0:
352,96,170992,1,8,0:0:0:0:
160,96,171079,1,0,0:0:0:0:
160,96,171166,1,0,0:0:0:0:
160,96,171254,1,0,0:0:0:0:
352,96,171341,1,8,0:0:0:0:
160,96,171428,1,0,0:0:0:0:
352,96,171515,1,8,0:0:0:0:
160,96,171602,1,0,0:0:0:0:
352,96,171690,1,8,0:0:0:0:
352,96,171777,1,8,0:0:0:0:
160,96,171864,1,0,0:0:0:0:
352,288,172038,1,12,0:0:0:0:
352,96,172387,1,8,0:0:0:0:
160,96,172562,1,0,0:0:0:0:
160,96,172736,1,0,0:0:0:0:
352,96,172911,1,8,0:0:0:0:
160,96,172998,1,0,0:0:0:0:
352,96,173085,1,8,0:0:0:0:
352,96,173259,1,8,0:0:0:0:
160,96,173434,1,0,0:0:0:0:
160,96,173521,1,0,0:0:0:0:
160,96,173608,1,0,0:0:0:0:
160,96,173695,1,0,0:0:0:0:
352,96,173783,1,8,0:0:0:0:
160,96,173957,1,0,0:0:0:0:
352,96,174131,1,8,0:0:0:0:
160,96,174364,1,0,0:0:0:0:
352,96,174480,1,8,0:0:0:0:
160,96,174597,1,0,0:0:0:0:
352,96,174829,1,8,0:0:0:0:
160,96,175004,1,0,0:0:0:0:
352,96,175178,1,8,0:0:0:0:
352,96,175352,1,8,0:0:0:0:
352,96,175440,1,8,0:0:0:0:
352,96,175527,1,8,0:0:0:0:
160,96,175701,1,0,0:0:0:0:
160,96,175788,1,0,0:0:0:0:
352,96,175876,1,8,0:0:0:0:
352,96,176050,1,8,0:0:0:0:
352,96,176137,1,8,0:0:0:0:
160,96,176224,1,0,0:0:0:0:
160,96,176399,1,0,0:0:0:0:
352,96,176573,1,8,0:0:0:0:
160,96,176748,1,0,0:0:0:0:
160,96,176835,1,0,0:0:0:0:
160,96,176922,1,0,0:0:0:0:
160,96,177097,1,0,0:0:0:0:
352,288,177271,1,12,0:0:0:0:
160,288,177620,1,4,0:0:0:0:
352,96,177969,1,8,0:0:0:0:
160,96,178143,1,0,0:0:0:0:
160,96,178230,1,0,0:0:0:0:
352,96,178317,1,8,0:0:0:0:
160,96,178492,1,0,0:0:0:0:
352,96,178666,1,8,0:0:0:0:
160,96,178783,1,0,0:0:0:0:
160,96,178899,1,0,0:0:0:0:
352,96,179015,1,8,0:0:0:0:
352,96,179190,1,8,0:0:0:0:
160,96,179277,1,0,0:0:0:0:
352,96,179364,1,8,0:0:0:0:
160,96,179538,1,0,0:0:0:0:
352,96,179713,1,8,0:0:0:0:
352,96,179800,1,8,0:0:0:0:
160,96,179887,1,0,0:0:0:0:
160,96,179974,1,0,0:0:0:0:
352,96,180062,1,8,0:0:0:0:
352,96,180178,1,8,0:0:0:0:
160,96,180294,1,0,0:0:0:0:
352,96,180411,1,8,0:0:0:0:
160,96,180585,1,0,0:0:0:0:
160,96,180672,1,0,0:0:0:0:
352,96,180759,1,8,0:0:0:0:
160,96,181108,1,0,0:0:0:0:
160,96,181283,1,0,0:0:0:0:
160,96,181341,1,0,0:0:0:0:
160,96,181399,1,0,0:0:0:0:
352,96,181457,1,8,0:0:0:0:
352,96,181544,1,8,0:0:0:0:
160,96,181631,1,0,0:0:0:0:
352,96,181719,1,8,0:0:0:0:
160,96,181806,1,0,0:0:0:0:
352,96,181893,1,8,0:0:0:0:
160,96,181980,1,0,0:0:0:0:
160,96,182067,1,0,0:0:0:0:
352,96,182155,1,8,0:0:0:0:
160,96,182242,1,0,0:0:0:0:
352,96,182329,1,8,0:0:0:0:
352,96,182387,1,8,0:0:0:0:
352,96,182445,1,8,0:0:0:0:
160,96,182504,1,0,0:0:0:0:
160,96,182591,1,0,0:0:0:0:
352,96,182678,1,8,0:0:0:0:
352,96,182736,1,8,0:0:0:0:
352,96,182794,1,8,0:0:0:0:
160,96,182852,1,0,0:0:0:0:
160,96,182940,1,0,0:0:0:0:
352,96,183027,1,8,0:0:0:0:
352,96,183201,1,8,0:0:0:0:
160,288,191573,5,4,0:0:0:0:
160,288,191748,1,4,0:0:0:0:
160,288,194364,1,4,0:0:0:0:
160,288,194538,1,4,0:0:0:0:
160,288,197155,1,4,0:0:0:0:
160,288,197329,1,4,0:0:0:0:
160,288,198550,1,4,0:0:0:0:
352,96,198724,1,8,0:0:0:0:
352,96,198812,1,8,0:0:0:0:
352,96,198899,1,8,0:0:0:0:
352,96,198986,1,8,0:0:0:0:
160,96,199073,1,0,0:0:0:0:
160,96,199161,1,0,0:0:0:0:
160,96,199248,1,0,0:0:0:0:
160,96,199335,1,0,0:0:0:0:
352,96,199422,1,8,0:0:0:0:
352,96,199509,1,8,0:0:0:0:
160,96,199597,1,0,0:0:0:0:
160,96,199684,1,0,0:0:0:0:
160,96,199771,1,0,0:0:0:0:
352,288,199945,1,12,0:0:0:0:
160,96,200120,1,0,0:0:0:0:
160,96,200207,1,0,0:0:0:0:
352,96,200294,1,8,0:0:0:0:
352,96,200381,1,8,0:0:0:0:
352,96,200469,1,8,0:0:0:0:
160,96,200556,1,0,0:0:0:0:
352,96,200643,1,8,0:0:0:0:
352,96,200730,1,8,0:0:0:0:
160,96,200817,1,0,0:0:0:0:
160,96,200905,1,0,0:0:0:0:
352,96,200992,1,8,0:0:0:0:
160,96,201079,1,0,0:0:0:0:
160,96,201166,1,0,0:0:0:0:
160,96,201254,1,0,0:0:0:0:
352,96,201341,1,8,0:0:0:0:
160,96,201428,1,0,0:0:0:0:
160,96,201515,1,0,0:0:0:0:
160,96,201602,1,0,0:0:0:0:
352,96,201690,1,8,0:0:0:0:
352,96,201777,1,8,0:0:0:0:
160,96,201864,1,0,0:0:0:0:
160,96,201951,1,0,0:0:0:0:
352,96,202038,1,8,0:0:0:0:
352,96,202126,1,8,0:0:0:0:
352,96,202213,1,8,0:0:0:0:
160,96,202300,1,0,0:0:0:0:
352,96,202387,1,8,0:0:0:0:
352,96,202474,1,8,0:0:0:0:
352,96,202562,1,8,0:0:0:0:
352,96,202649,1,8,0:0:0:0:
160,96,202736,1,0,0:0:0:0:
160,96,202823,1,0,0:0:0:0:
160,96,202911,1,0,0:0:0:0:
160,96,202998,1,0,0:0:0:0:
352,96,203085,1,8,0:0:0:0:
352,96,203172,1,8,0:0:0:0:
352,96,203259,1,8,0:0:0:0:
160,96,203347,1,0,0:0:0:0:
352,96,203434,1,8,0:0:0:0:
352,96,203521,1,8,0:0:0:0:
160,96,203608,1,0,0:0:0:0:
160,96,203695,1,0,0:0:0:0:
352,96,203783,1,8,0:0:0:0:
160,96,203870,1,0,0:0:0:0:
160,96,203957,1,0,0:0:0:0:
160,96,204044,1,0,0:0:0:0:
352,96,204131,1,8,0:0:0:0:
352,96,204219,1,8,0:0:0:0:
352,96,204306,1,8,0:0:0:0:
352,96,204393,1,8,0:0:0:0:
160,96,204480,1,0,0:0:0:0:
160,96,204567,1,0,0:0:0:0:
160,96,204655,1,0,0:0:0:0:
160,96,204742,1,0,0:0:0:0:
352,96,204829,1,8,0:0:0:0:
352,96,204916,1,8,0:0:0:0:
160,96,205004,1,0,0:0:0:0:
160,96,205091,1,0,0:0:0:0:
352,96,205178,1,8,0:0:0:0:
160,96,205265,1,0,0:0:0:0:
352,96,205352,1,8,0:0:0:0:
352,96,205440,1,8,0:0:0:0:
160,96,205527,1,0,0:0:0:0:
160,96,205614,1,0,0:0:0:0:
160,96,205701,1,0,0:0:0:0:
160,96,205788,1,0,0:0:0:0:
352,96,205876,1,8,0:0:0:0:
352,96,205963,1,8,0:0:0:0:
352,96,206050,1,8,0:0:0:0:
160,96,206137,1,0,0:0:0:0:
352,96,206224,1,8,0:0:0:0:
352,96,206312,1,8,0:0:0:0:
160,96,206399,1,0,0:0:0:0:
160,96,206486,1,0,0:0:0:0:
352,96,206573,1,8,0:0:0:0:
160,96,206661,1,0,0:0:0:0:
160,96,206748,1,0,0:0:0:0:
160,96,206835,1,0,0:0:0:0:
352,96,206922,1,8,0:0:0:0:
352,96,207009,1,8,0:0:0:0:
160,96,207097,1,0,0:0:0:0:
160,96,207184,1,0,0:0:0:0:
352,96,207271,1,8,0:0:0:0:
352,96,207358,1,8,0:0:0:0:
352,96,207445,1,8,0:0:0:0:
160,96,207533,1,0,0:0:0:0:
352,96,207620,1,8,0:0:0:0:
352,96,207707,1,8,0:0:0:0:
160,96,207794,1,0,0:0:0:0:
352,96,207881,1,8,0:0:0:0:
160,96,207969,1,0,0:0:0:0:
352,96,208056,1,8,0:0:0:0:
160,96,208143,1,0,0:0:0:0:
352,288,208317,1,12,0:0:0:0:
160,96,208492,1,0,0:0:0:0:
160,96,208579,1,0,0:0:0:0:
352,96,208666,1,8,0:0:0:0:
352,96,208754,1,8,0:0:0:0:
352,96,208841,1,8,0:0:0:0:
160,96,208928,1,0,0:0:0:0:
352,96,209015,1,8,0:0:0:0:
352,96,209102,1,8,0:0:0:0:
160,96,209190,1,0,0:0:0:0:
160,96,209277,1,0,0:0:0:0:
352,96,209364,1,8,0:0:0:0:
160,96,209451,1,0,0:0:0:0:
160,96,209538,1,0,0:0:0:0:
160,96,209626,1,0,0:0:0:0:
352,96,209713,1,8,0:0:0:0:
160,96,209800,1,0,0:0:0:0:
352,96,209887,1,8,0:0:0:0:
352,96,209974,1,8,0:0:0:0:
352,96,210062,1,8,0:0:0:0:
160,96,210149,1,0,0:0:0:0:
160,96,210236,1,0,0:0:0:0:
160,96,210323,1,0,0:0:0:0:
352,96,210411,1,8,0:0:0:0:
352,96,210498,1,8,0:0:0:0:
160,96,210585,1,0,0:0:0:0:
160,96,210672,1,0,0:0:0:0:
352,96,210759,1,8,0:0:0:0:
352,96,210847,1,8,0:0:0:0:
352,96,210934,1,8,0:0:0:0:
352,96,211021,1,8,0:0:0:0:
160,96,211108,1,0,0:0:0:0:
160,96,211195,1,0,0:0:0:0:
160,96,211283,1,0,0:0:0:0:
160,96,211370,1,0,0:0:0:0:
352,96,211457,1,8,0:0:0:0:
352,96,211544,1,8,0:0:0:0:
352,96,211631,1,8,0:0:0:0:
160,96,211719,1,0,0:0:0:0:
352,96,211806,1,8,0:0:0:0:
352,96,211893,1,8,0:0:0:0:
160,96,211980,1,0,0:0:0:0:
160,96,212067,1,0,0:0:0:0:
352,96,212155,1,8,0:0:0:0:
160,96,212242,1,0,0:0:0:0:
160,96,212329,1,0,0:0:0:0:
160,96,212416,1,0,0:0:0:0:
352,96,212504,1,8,0:0:0:0:
352,96,212591,1,8,0:0:0:0:
352,96,212678,1,8,0:0:0:0:
352,96,212765,1,8,0:0:0:0:
160,96,212852,1,0,0:0:0:0:
160,96,212940,1,0,0:0:0:0:
160,96,213027,1,0,0:0:0:0:
160,96,213114,1,0,0:0:0:0:
352,96,213201,1,8,0:0:0:0:
352,96,213288,1,8,0:0:0:0:
160,96,213376,1,0,0:0:0:0:
160,96,213463,1,0,0:0:0:0:
352,96,213550,1,8,0:0:0:0:
352,96,213637,1,8,0:0:0:0:
160,96,213724,1,0,0:0:0:0:
352,96,213812,1,8,0:0:0:0:
160,96,213899,1,0,0:0:0:0:
160,96,213986,1,0,0:0:0:0:
160,96,214073,1,0,0:0:0:0:
160,96,214161,1,0,0:0:0:0:
352,96,214248,1,8,0:0:0:0:
352,96,214335,1,8,0:0:0:0:
352,96,214422,1,8,0:0:0:0:
160,96,214509,1,0,0:0:0:0:
352,96,214597,1,8,0:0:0:0:
352,96,214684,1,8,0:0:0:0:
160,96,214771,1,0,0:0:0:0:
160,96,214858,1,0,0:0:0:0:
352,96,214945,1,8,0:0:0:0:
160,96,215033,1,0,0:0:0:0:
160,96,215120,1,0,0:0:0:0:
160,96,215207,1,0,0:0:0:0:
352,96,215294,1,8,0:0:0:0:
352,96,215381,1,8,0:0:0:0:
352,96,215469,1,8,0:0:0:0:
352,96,215556,1,8,0:0:0:0:
160,96,215643,1,0,0:0:0:0:
160,96,215730,1,0,0:0:0:0:
352,96,215817,1,8,0:0:0:0:
352,96,215905,1,8,0:0:0:0:
160,96,215992,1,0,0:0:0:0:
352,96,216079,1,8,0:0:0:0:
352,96,216166,1,8,0:0:0:0:
160,96,216254,1,0,0:0:0:0:
352,96,216341,1,8,0:0:0:0:
352,96,216428,1,8,0:0:0:0:
160,96,216515,1,0,0:0:0:0:
352,288,216690,1,12,0:0:0:0:
160,96,216864,1,0,0:0:0:0:
160,96,216951,1,0,0:0:0:0:
352,96,217038,1,8,0:0:0:0:
160,96,217126,1,0,0:0:0:0:
352,96,217213,1,8,0:0:0:0:
160,96,217300,1,0,0:0:0:0:
352,96,217387,1,8,0:0:0:0:
160,96,217474,1,0,0:0:0:0:
160,96,217562,1,0,0:0:0:0:
160,96,217649,1,0,0:0:0:0:
352,96,217736,1,8,0:0:0:0:
352,96,217823,1,8,0:0:0:0:
160,96,217911,1,0,0:0:0:0:
160,96,217998,1,0,0:0:0:0:
352,96,218085,1,8,0:0:0:0:
160,96,218172,1,0,0:0:0:0:
352,96,218259,1,8,0:0:0:0:
352,96,218347,1,8,0:0:0:0:
160,96,218434,1,0,0:0:0:0:
160,96,218521,1,0,0:0:0:0:
160,96,218608,1,0,0:0:0:0:
160,96,218695,1,0,0:0:0:0:
352,96,218783,1,8,0:0:0:0:
352,96,218870,1,8,0:0:0:0:
160,96,218957,1,0,0:0:0:0:
160,96,219044,1,0,0:0:0:0:
352,96,219131,1,8,0:0:0:0:
352,96,219219,1,8,0:0:0:0:
160,96,219306,1,0,0:0:0:0:
160,96,219393,1,0,0:0:0:0:
352,96,219480,1,8,0:0:0:0:
160,96,219567,1,0,0:0:0:0:
160,96,219655,1,0,0:0:0:0:
160,96,219742,1,0,0:0:0:0:
352,96,219829,1,8,0:0:0:0:
160,96,219916,1,0,0:0:0:0:
352,96,220004,1,8,0:0:0:0:
160,96,220091,1,0,0:0:0:0:
160,96,220178,1,0,0:0:0:0:
160,96,220265,1,0,0:0:0:0:
352,96,220352,1,8,0:0:0:0:
160,96,220440,1,0,0:0:0:0:
352,96,220527,1,8,0:0:0:0:
352,96,220614,1,8,0:0:0:0:
160,96,220701,1,0,0:0:0:0:
160,96,220788,1,0,0:0:0:0:
352,96,220876,1,8,0:0:0:0:
160,96,220963,1,0,0:0:0:0:
352,96,221050,1,8,0:0:0:0:
352,96,221137,1,8,0:0:0:0:
160,96,221224,1,0,0:0:0:0:
160,96,221312,1,0,0:0:0:0:
160,96,221399,1,0,0:0:0:0:
160,96,221486,1,0,0:0:0:0:
352,96,221573,1,8,0:0:0:0:
352,96,221661,1,8,0:0:0:0:
160,96,221748,1,0,0:0:0:0:
160,96,221835,1,0,0:0:0:0:
352,96,221922,1,8,0:0:0:0:
352,96,222009,1,8,0:0:0:0:
160,96,222097,1,0,0:0:0:0:
160,96,222184,1,0,0:0:0:0:
352,96,222271,1,8,0:0:0:0:
160,96,222358,1,0,0:0:0:0:
160,96,222445,1,0,0:0:0:0:
160,96,222533,1,0,0:0:0:0:
160,96,222620,1,0,0:0:0:0:
160,96,222707,1,0,0:0:0:0:
352,96,222794,1,8,0:0:0:0:
160,96,222881,1,0,0:0:0:0:
160,96,222969,1,0,0:0:0:0:
160,96,223056,1,0,0:0:0:0:
160,96,223143,1,0,0:0:0:0:
160,96,223230,1,0,0:0:0:0:
352,96,223317,1,8,0:0:0:0:
352,96,223405,1,8,0:0:0:0:
160,96,223492,1,0,0:0:0:0:
160,96,223579,1,0,0:0:0:0:
160,96,223666,1,0,0:0:0:0:
160,96,223754,1,0,0:0:0:0:
352,96,223841,1,8,0:0:0:0:
352,96,223928,1,8,0:0:0:0:
160,96,224015,1,0,0:0:0:0:
160,96,224102,1,0,0:0:0:0:
160,96,224190,1,0,0:0:0:0:
160,96,224277,1,0,0:0:0:0:
352,96,224364,1,8,0:0:0:0:
352,96,224451,1,8,0:0:0:0:
352,96,224538,1,8,0:0:0:0:
160,96,224626,1,0,0:0:0:0:
352,96,224713,1,8,0:0:0:0:
352,96,224800,1,8,0:0:0:0:
160,96,224887,1,0,0:0:0:0:
160,96,224974,1,0,0:0:0:0:
352,96,225062,1,8,0:0:0:0:
160,96,225149,1,0,0:0:0:0:
352,96,225236,1,8,0:0:0:0:
352,96,225323,1,8,0:0:0:0:
160,96,225411,1,0,0:0:0:0:
160,96,225498,1,0,0:0:0:0:
352,96,225585,1,8,0:0:0:0:
160,96,225672,1,0,0:0:0:0:
352,96,225759,1,8,0:0:0:0:
352,96,225847,1,8,0:0:0:0:
160,96,225934,1,0,0:0:0:0:
160,96,226021,1,0,0:0:0:0:
352,96,226108,1,8,0:0:0:0:
160,96,226195,1,0,0:0:0:0:
352,96,226283,1,8,0:0:0:0:
352,96,226370,1,8,0:0:0:0:
160,96,226457,1,0,0:0:0:0:
160,96,226544,1,0,0:0:0:0:
352,96,226631,1,8,0:0:0:0:
160,96,226719,1,0,0:0:0:0:
352,96,226806,1,8,0:0:0:0:
352,96,226893,1,8,0:0:0:0:
160,96,226980,1,0,0:0:0:0:
160,96,227067,1,0,0:0:0:0:
352,96,227155,1,8,0:0:0:0:
352,96,227242,1,8,0:0:0:0:
160,96,227329,1,0,0:0:0:0:
160,96,227416,1,0,0:0:0:0:
352,96,227504,1,8,0:0:0:0:
160,96,227591,1,0,0:0:0:0:
352,96,227678,1,8,0:0:0:0:
160,288,227852,1,4,0:0:0:0:
160,288,228027,1,4,0:0:0:0:
160,288,228376,1,4,0:0:0:0:
160,288,228550,1,4,0:0:0:0:
160,288,228899,1,4,0:0:0:0:
160,288,229073,1,4,0:0:0:0:
160,288,229422,1,4,0:0:0:0:
160,288,229597,1,4,0:0:0:0:
352,288,229945,1,12,0:0:0:0:
160,288,230120,1,4,0:0:0:0:
352,288,230294,1,12,0:0:0:0:
160,288,230469,1,4,0:0:0:0:
352,288,230643,1,12,0:0:0:0:
