osu file format v14

[General]
AudioFilename: audio.mp3
AudioLeadIn: 0
PreviewTime: -1
Countdown: 0
SampleSet: Soft
StackLeniency: 0.2
Mode: 0
LetterboxInBreaks: 0
WidescreenStoryboard: 0

[Editor]
Bookmarks: 21917,32375,32546,32632,42489,43860,65803,87746,109689,131632,152203,175517,197460,208432,219403
DistanceSpacing: 1.9
BeatDivisor: 4
GridSize: 4
TimelineZoom: 2.3

[Metadata]
Title:BPD
TitleUnicode:BPD
Artist:Xanadu
ArtistUnicode:Xanadu
Creator:PinkNightmares
Version:p1nksane
Source:
Tags:
BeatmapID:1810197
BeatmapSetID:865771

[Difficulty]
HPDrainRate:5
CircleSize:4
OverallDifficulty:8.5
ApproachRate:9
SliderMultiplier:2
SliderTickRate:1

[Events]
//Background and Video events
0,0,"dark-digital-art-water-liquid-simple-black-sea-1445971.jpg",0,0
//Break Periods
2,66517,70689
2,80146,85432
//Storyboard Layer 0 (Background)
//Storyboard Layer 1 (Fail)
//Storyboard Layer 2 (Pass)
//Storyboard Layer 3 (Foreground)
//Storyboard Layer 4 (Overlay)
//Storyboard Sound Samples

[TimingPoints]
-25,342.857142857143,4,2,0,60,1,0
21917,-66.6666666666667,4,2,0,60,0,0
22260,-100,4,2,0,60,0,0
43860,-60.6060606060606,4,2,0,60,0,0
44032,-100,4,2,0,60,0,0
46603,-64.5161290322581,4,2,0,60,0,0
46775,-100,4,2,0,60,0,0
49346,-57.1428571428571,4,2,0,60,0,0
49517,-100,4,2,0,60,0,0
54832,-50,4,2,0,60,0,0
55175,-55.5555555555556,4,2,0,60,0,0
55517,-62.5,4,2,0,60,0,0
55860,-71.4285714285714,4,2,0,60,0,0
56203,-100,4,2,0,60,0,0
60317,-57.1428571428571,4,2,0,60,0,0
60660,-100,4,2,0,60,0,0
65803,-200,4,2,0,60,0,0
67175,-100,4,2,0,60,0,0
87746,-133.333333333333,4,2,0,60,0,0
88775,-100,4,2,0,60,0,0
89460,-55.5555555555556,4,2,0,60,0,0
89803,-100,4,2,0,60,0,0
90146,-71.4285714285714,4,2,0,60,0,0
90489,-83.3333333333333,4,2,0,60,0,0
90832,-100,4,2,0,60,0,0
93232,-76.9230769230769,4,2,0,60,0,0
93575,-100,4,2,0,60,0,0
94603,-76.9230769230769,4,2,0,60,0,0
94946,-55.5555555555556,4,2,0,60,0,0
95289,-100,4,2,0,60,0,0
95632,-71.4285714285714,4,2,0,60,0,0
97175,-41.6666666666667,4,2,0,60,0,0
97689,-100,4,2,0,60,0,0
98717,-133.333333333333,4,2,0,60,0,0
99060,-200,4,2,0,60,0,0
99403,-100,4,2,0,60,0,0
101117,-71.4285714285714,4,2,0,60,0,0
101460,-83.3333333333333,4,2,0,60,0,0
102489,-100,4,2,0,60,0,0
104203,-76.9230769230769,4,2,0,60,0,0
104546,-100,4,2,0,60,0,0
105232,-71.4285714285714,4,2,0,60,0,0
105575,-100,4,2,0,60,0,0
105917,-57.1428571428571,4,2,0,60,0,0
106260,-100,4,2,0,60,0,0
106603,-83.3333333333333,4,2,0,60,0,0
106946,-181.818181818182,4,2,0,60,0,0
107289,-133.333333333333,4,2,0,60,0,0
107632,-100,4,2,0,60,0,0
107803,-100,4,2,0,60,0,0
110889,-41.6666666666667,4,2,0,60,0,0
111489,-55.5555555555556,4,2,0,60,0,0
111746,-100,4,2,0,60,0,0
112089,-71.4285714285714,4,2,0,60,0,0
112432,-83.3333333333333,4,2,0,60,0,0
113460,-100,4,2,0,60,0,0
113803,-90.9090909090909,4,2,0,60,0,0
114146,-100,4,2,0,60,0,0
114917,-71.4285714285714,4,2,0,60,0,0
115175,-83.3333333333333,4,2,0,60,0,0
115517,-100,4,2,0,60,0,0
116889,-55.5555555555556,4,2,0,60,0,0
117232,-100,4,2,0,60,0,0

[HitObjects]
344,28,21917,6,0,B|336:76|336:76|356:128|356:128|344:172,1,150.000005722046
472,86,22260,2,0,B|419:61|369:90,1,100
236,168,22603,1,0,0:0:0:0:
348,288,22775,1,0,0:0:0:0:
348,288,22860,1,0,0:0:0:0:
348,288,22946,2,0,L|248:297,1,100
296,96,23289,6,0,P|284:144|292:193,1,100
236,168,23632,2,0,L|136:176,1,100
296,96,23975,1,0,0:0:0:0:
437,33,24147,1,0,0:0:0:0:
437,33,24232,1,0,0:0:0:0:
437,33,24318,2,0,L|425:137,1,100
380,292,24660,6,0,P|361:241|365:193,1,100
384,112,25003,2,0,L|285:125,1,100
144,144,25346,1,0,0:0:0:0:
184,328,25518,1,0,0:0:0:0:
184,328,25603,1,0,0:0:0:0:
184,328,25689,2,0,P|188:272|173:229,1,100
223,162,26032,6,0,P|276:172|320:153,1,100
384,88,26375,2,0,P|366:133|375:182,1,100
452,140,26718,1,0,0:0:0:0:
268,100,26889,1,0,0:0:0:0:
268,100,26975,1,0,0:0:0:0:
268,100,27060,2,0,P|252:152|263:206,1,100
68,155,27403,6,0,L|60:56,1,100
152,96,27746,2,0,L|160:195,1,100
44,312,28089,1,0,0:0:0:0:
236,340,28261,1,0,0:0:0:0:
236,340,28346,1,0,0:0:0:0:
236,340,28432,2,0,L|137:328,1,100
244,200,28775,6,0,L|343:191,1,100
412,136,29117,2,0,P|426:183|418:232,1,100
360,308,29460,1,0,0:0:0:0:
305,136,29632,1,0,0:0:0:0:
305,136,29717,1,0,0:0:0:0:
305,136,29803,2,0,P|297:87|312:39,1,100
104,122,30146,6,0,L|204:132,1,100
87,62,30489,2,0,L|79:162,1,100
68,264,30832,1,0,0:0:0:0:
204,132,31004,1,0,0:0:0:0:
204,132,31089,1,0,0:0:0:0:
204,132,31175,2,0,P|196:181|210:228,1,100
371,81,31517,6,0,L|272:76,1,100
424,16,31860,2,0,P|410:64|417:115,1,100
472,248,32203,1,0,0:0:0:0:
244,208,32375,1,0,0:0:0:0:
268,210,32460,1,0,0:0:0:0:
300,228,32546,1,0,0:0:0:0:
337,231,32632,1,0,0:0:0:0:
375,234,32717,1,0,0:0:0:0:
460,353,32889,6,0,L|344:342,1,100
259,324,33232,2,0,P|260:275|244:228,1,100
140,128,33575,1,0,0:0:0:0:
84,280,33746,1,0,0:0:0:0:
84,280,33831,1,0,0:0:0:0:
84,280,33917,2,0,P|131:294|180:286,1,100
332,224,34260,6,0,L|322:124,1,100
404,24,34603,2,0,L|413:123,1,100
341,311,34946,1,0,0:0:0:0:
222,120,35117,1,0,0:0:0:0:
222,120,35202,1,0,0:0:0:0:
222,119,35288,2,0,L|321:123,1,100
172,197,35632,6,0,P|127:215|75:212,1,100
227,279,35975,2,0,P|276:276|322:294,1,100
324,132,36317,1,0,0:0:0:0:
440,252,36489,1,0,0:0:0:0:
440,252,36574,1,0,0:0:0:0:
440,252,36660,2,0,L|435:351,1,100
289,272,37003,6,0,P|243:252|181:262,1,100
31,286,37346,2,0,L|39:186,1,100
52,20,37689,1,0,0:0:0:0:
168,136,37860,1,0,0:0:0:0:
168,136,37946,1,0,0:0:0:0:
168,136,38032,2,0,P|217:140|262:120,1,100
400,28,38375,6,0,L|389:151,1,100
445,282,38717,2,0,L|453:182,1,100
316,72,39060,1,0,0:0:0:0:
324,236,39232,1,0,0:0:0:0:
324,236,39317,1,0,0:0:0:0:
324,236,39403,2,0,L|200:246,1,100
62,208,39746,6,0,P|52:257|68:304,1,100
134,152,40089,2,0,P|118:105|128:56,1,100
288,100,40432,1,0,0:0:0:0:
148,240,40603,1,0,0:0:0:0:
148,240,40689,1,0,0:0:0:0:
148,240,40775,2,0,L|252:249,1,100
388,256,41117,6,0,L|378:148,1,100
370,0,41460,2,0,L|270:8,1,100
112,96,41803,1,0,0:0:0:0:
111,116,41888,1,0,0:0:0:0:
109,136,41974,1,0,0:0:0:0:
107,156,42060,1,0,0:0:0:0:
93,176,42145,5,0,0:0:0:0:
92,195,42231,1,0,0:0:0:0:
90,215,42317,1,0,0:0:0:0:
88,235,42403,1,0,0:0:0:0:
88,256,42489,2,0,B|160:304|213:230|213:230|240:280|242:335|242:335|251:304|273:271|273:271|271:164|271:164|296:144|317:104|317:104|314:222|382:294,1,700
476,128,43860,6,0,P|415:163|471:209,1,165.000001573563
468,304,44203,1,0,0:0:0:0:
449,296,44288,1,0,0:0:0:0:
430,291,44374,1,0,0:0:0:0:
410,288,44460,1,0,0:0:0:0:
390,288,44546,1,0,0:0:0:0:
370,290,44631,1,0,0:0:0:0:
351,295,44717,1,0,0:0:0:0:
184,284,44889,2,0,P|240:276|297:303,1,100
116,328,45232,6,0,P|107:279|122:231,1,100
324,144,45575,1,0,0:0:0:0:
305,152,45660,1,0,0:0:0:0:
286,157,45746,1,0,0:0:0:0:
266,160,45832,1,0,0:0:0:0:
246,160,45917,1,0,0:0:0:0:
226,158,46003,1,0,0:0:0:0:
207,153,46089,1,0,0:0:0:0:
142,0,46261,2,0,L|147:99,1,100
84,200,46603,6,0,P|122:137|195:144,1,155.000001182556
320,248,46946,1,0,0:0:0:0:
301,240,47031,1,0,0:0:0:0:
282,235,47117,1,0,0:0:0:0:
262,232,47203,1,0,0:0:0:0:
242,232,47288,1,0,0:0:0:0:
222,234,47374,1,0,0:0:0:0:
203,239,47460,1,0,0:0:0:0:
336,256,47632,2,0,L|345:156,1,100
404,96,47975,6,0,P|350:77|284:96,1,100
232,32,48317,1,0,0:0:0:0:
227,51,48403,1,0,0:0:0:0:
225,71,48489,1,0,0:0:0:0:
225,91,48574,1,0,0:0:0:0:
228,111,48660,1,0,0:0:0:0:
233,130,48746,1,0,0:0:0:0:
241,149,48831,1,0,0:0:0:0:
264,312,49003,2,0,P|278:264|270:215,1,100
32,276,49346,6,0,B|80:275|80:275|112:264|112:264|153:268|153:268|182:259|182:259|228:256,1,175.00000166893
356,220,49689,1,0,0:0:0:0:
358,190,49775,1,0,0:0:0:0:
361,160,49860,1,0,0:0:0:0:
364,132,49946,1,0,0:0:0:0:
228,120,50032,1,0,0:0:0:0:
258,123,50117,1,0,0:0:0:0:
288,125,50203,1,0,0:0:0:0:
392,160,50375,2,0,P|441:156|488:171,1,100
23,176,50717,6,0,L|33:291,1,100
78,122,51060,1,0,0:0:0:0:
108,124,51146,1,0,0:0:0:0:
138,127,51231,1,0,0:0:0:0:
168,128,51317,1,0,0:0:0:0:
180,20,51403,1,0,0:0:0:0:
177,50,51488,1,0,0:0:0:0:
175,80,51574,1,0,0:0:0:0:
179,224,51746,2,0,P|164:177|168:128,1,100
308,203,52089,6,0,L|408:212,1,100
419,53,52432,1,0,0:0:0:0:
389,56,52517,1,0,0:0:0:0:
359,58,52603,1,0,0:0:0:0:
329,61,52689,1,0,0:0:0:0:
299,64,52775,1,0,0:0:0:0:
302,94,52860,1,0,0:0:0:0:
304,124,52946,1,0,0:0:0:0:
260,64,53117,2,0,P|210:60|163:75,1,100
212,220,53460,6,0,L|204:320,1,100
97,155,53803,1,0,0:0:0:0:
127,152,53888,1,0,0:0:0:0:
157,150,53974,1,0,0:0:0:0:
187,147,54060,1,0,0:0:0:0:
217,144,54146,1,0,0:0:0:0:
214,114,54231,1,0,0:0:0:0:
212,84,54317,1,0,0:0:0:0:
256,144,54488,2,0,P|305:147|352:132,1,100
426,249,54832,6,0,B|419:251|391:245|391:245|359:253|359:253|336:270|336:270|294:258|294:258|247:277|247:277|206:274|206:274|180:291|180:291|136:296,1,300
164,252,55175,2,0,B|116:296|40:296|40:296|10:221|62:153,1,269.999991760254
88,144,55517,2,0,B|175:151|175:151|178:123|178:123|54:112,1,240
132,80,55860,2,0,P|240:48|252:124,1,209.999993591309
404,216,56203,6,0,L|394:323,1,100
404,216,56546,1,0,0:0:0:0:
386,175,56631,1,0,0:0:0:0:
349,150,56717,1,0,0:0:0:0:
305,148,56803,1,0,0:0:0:0:
266,171,56888,1,0,0:0:0:0:
246,210,56974,1,0,0:0:0:0:
249,254,57060,1,0,0:0:0:0:
266,171,57232,2,0,L|274:71,1,100
130,200,57575,6,0,L|30:208,1,100
130,200,57918,1,0,0:0:0:0:
171,182,58003,1,0,0:0:0:0:
196,145,58089,1,0,0:0:0:0:
198,101,58175,1,0,0:0:0:0:
175,62,58260,1,0,0:0:0:0:
136,42,58346,1,0,0:0:0:0:
92,45,58432,1,0,0:0:0:0:
175,62,58604,2,0,L|274:70,1,100
283,170,58946,6,0,L|274:70,1,100
283,170,59289,1,0,0:0:0:0:
301,211,59374,1,0,0:0:0:0:
338,236,59460,1,0,0:0:0:0:
382,238,59546,1,0,0:0:0:0:
421,215,59631,1,0,0:0:0:0:
441,176,59717,1,0,0:0:0:0:
438,132,59803,1,0,0:0:0:0:
421,215,59975,2,0,L|412:314,1,100
363,164,60317,6,0,B|341:165|341:165|312:174|312:174|271:170|271:170|239:181|239:181|191:182,1,175.00000166893
233,54,60660,1,0,0:0:0:0:
252,55,60745,1,0,0:0:0:0:
272,57,60831,1,0,0:0:0:0:
292,59,60917,1,0,0:0:0:0:
312,60,61002,1,0,0:0:0:0:
332,62,61088,1,0,0:0:0:0:
352,64,61174,1,0,0:0:0:0:
363,163,61346,2,0,P|373:114|367:64,1,100
72,140,61689,6,0,L|64:240,1,100
200,236,62032,1,0,0:0:0:0:
197,206,62118,1,0,0:0:0:0:
194,176,62204,1,0,0:0:0:0:
192,146,62289,1,0,0:0:0:0:
189,116,62375,1,0,0:0:0:0:
186,85,62461,1,0,0:0:0:0:
185,57,62546,1,0,0:0:0:0:
281,23,62718,2,0,P|232:32|182:27,1,100
64,239,63060,6,0,L|163:231,1,100
359,104,63403,1,0,0:0:0:0:
319,105,63488,1,0,0:0:0:0:
275,109,63574,1,0,0:0:0:0:
232,113,63660,1,0,0:0:0:0:
189,116,63745,1,0,0:0:0:0:
147,121,63831,1,0,0:0:0:0:
104,125,63917,1,0,0:0:0:0:
256,192,64089,12,0,65632,0:0:0:0:
383,112,65803,6,0,B|388:261,1,150
354,219,71289,6,0,B|354:180|354:180|347:144|347:144|352:102|352:102|344:64,1,150
344,232,71632,1,0,0:0:0:0:
124,152,73603,6,0,B|108:196|108:196|114:248,1,100
116,140,73946,1,0,0:0:0:0:
396,140,74117,5,0,0:0:0:0:
388,152,74289,2,0,B|404:196|404:196|397:248,1,100
262,184,76432,5,0,0:0:0:0:
246,196,76517,1,0,0:0:0:0:
246,268,76603,1,0,0:0:0:0:
108,161,79089,6,0,P|156:136|216:149,1,100
120,184,79432,1,0,0:0:0:0:
392,184,79603,5,0,0:0:0:0:
403,160,79775,2,0,P|360:136|311:140,1,100
167,27,86032,5,0,0:0:0:0:
166,36,86117,1,0,0:0:0:0:
165,46,86203,1,0,0:0:0:0:
164,56,86289,1,0,0:0:0:0:
163,66,86374,1,0,0:0:0:0:
162,76,86460,1,0,0:0:0:0:
143,111,86546,5,0,0:0:0:0:
144,130,86632,1,0,0:0:0:0:
146,150,86717,1,0,0:0:0:0:
148,170,86803,1,0,0:0:0:0:
180,204,86889,5,0,0:0:0:0:
220,208,86975,1,0,0:0:0:0:
260,212,87060,1,0,0:0:0:0:
298,214,87146,1,0,0:0:0:0:
328,264,87232,1,0,0:0:0:0:
290,262,87318,1,0,0:0:0:0:
250,258,87403,1,0,0:0:0:0:
210,254,87489,1,0,0:0:0:0:
172,248,87575,1,0,0:0:0:0:
112,312,87746,6,0,P|90:266|102:197,1,112.500004291535
197,157,88089,2,0,P|131:168|92:143,1,112.500004291535
163,84,88432,5,0,0:0:0:0:
161,68,88517,1,0,0:0:0:0:
160,52,88603,1,0,0:0:0:0:
258,28,88775,2,0,L|159:36,1,100
416,16,89117,6,0,L|420:67,1,50
432,191,89289,2,0,L|427:141,1,50
344,96,89460,6,0,P|289:108|344:92,1,179.999994506836
432,191,89803,6,0,L|380:186,1,50
257,175,89975,2,0,L|306:179,1,50
424,216,90146,6,0,B|394:216|394:216|348:216|348:216|292:236|292:236|208:236,1,209.999993591309
164,160,90489,2,0,P|136:228|178:322,1,179.999994506836
217,236,90832,2,0,L|316:244,1,100
396,256,91175,5,0,0:0:0:0:
404,264,91260,1,0,0:0:0:0:
412,272,91346,2,0,L|414:202,1,50
336,112,91517,2,0,L|340:62,1,50
422,82,91689,2,0,L|418:131,1,50
326,211,91860,6,0,L|335:111,1,100
336,216,92203,1,0,0:0:0:0:
220,108,92375,5,0,0:0:0:0:
219,127,92460,1,0,0:0:0:0:
220,220,92546,1,0,0:0:0:0:
218,200,92632,1,0,0:0:0:0:
156,164,92717,1,0,0:0:0:0:
136,162,92803,1,0,0:0:0:0:
116,160,92889,2,0,L|124:259,1,100
130,282,93232,6,0,P|222:255|317:275,1,194.999991073609
272,290,93575,2,0,P|202:266|130:282,1,150
299,241,93917,5,0,0:0:0:0:
307,233,94002,1,0,0:0:0:0:
315,225,94088,2,0,L|316:274,1,50
324,364,94259,2,0,L|374:360,1,50
448,276,94431,2,0,L|399:280,1,50
372,200,94602,6,0,P|330:156|322:216,1,150
280,64,94946,6,0,P|310:111|276:65,1,179.999994506836
495,90,95289,6,0,L|443:85,1,50
320,74,95461,2,0,L|369:78,1,50
444,12,95632,6,0,B|437:86|437:86|452:143|452:143|448:189|448:189|445:219,1,209.999993591309
320,74,95975,5,0,0:0:0:0:
256,192,96146,1,0,0:0:0:0:
388,216,96317,1,0,0:0:0:0:
384,228,96403,2,0,P|324:200|244:215,1,139.999995727539
256,304,96660,5,0,0:0:0:0:
256,304,96746,1,0,0:0:0:0:
256,304,96832,2,0,L|186:310,1,69.9999978637696
106,225,97003,2,0,L|176:232,1,69.9999978637696
264,180,97175,6,0,B|300:125|278:66|278:66|210:92|204:153,2,239.999992675781
326,115,97689,2,0,L|376:120,1,50
464,128,97860,5,0,0:0:0:0:
461,146,97945,1,0,0:0:0:0:
396,204,98032,1,0,0:0:0:0:
393,222,98117,1,0,0:0:0:0:
424,300,98203,1,0,0:0:0:0:
421,318,98288,1,0,0:0:0:0:
336,304,98375,5,0,0:0:0:0:
339,322,98460,2,0,P|284:316|207:335,1,100
208,332,98717,6,0,B|209:315|209:315|219:298|213:274|213:274|223:246|212:221,1,112.500004291535
215,147,99060,2,0,B|211:182|211:182|214:195|214:195|212:223,1,75
70,207,99403,6,0,L|120:212,1,50
134,120,99575,2,0,L|84:115,1,50
56,76,99746,6,0,L|205:87,1,150
272,28,100089,2,0,P|284:100|252:167,1,150
184,224,100432,5,0,0:0:0:0:
272,223,100517,1,0,0:0:0:0:
352,264,100603,1,0,0:0:0:0:
440,264,100689,1,0,0:0:0:0:
464,184,100775,6,0,L|412:179,1,50
288,164,100947,2,0,L|337:168,1,50
440,96,101118,6,0,B|440:170|440:170|460:226|460:226|460:272|460:272|460:302,1,209.999993591309
308,356,101461,2,0,B|320:309|320:309|310:274|310:274|320:224,1,119.999996337891
220,164,101803,5,0,0:0:0:0:
224,194,101889,2,0,P|284:166|361:181,1,119.999996337891
460,215,102146,1,0,0:0:0:0:
358,31,102317,1,0,0:0:0:0:
447,119,102489,2,0,P|464:165|459:214,1,100
339,247,102832,6,0,P|292:234|242:238,1,100
416,292,103175,1,0,0:0:0:0:
242,238,103346,5,0,0:0:0:0:
238,254,103431,1,0,0:0:0:0:
335,263,103518,1,0,0:0:0:0:
339,247,103603,1,0,0:0:0:0:
343,231,103689,2,0,L|356:176,1,50
354,181,103860,2,0,L|366:133,1,50
366,133,104032,2,0,L|377:84,1,50
246,221,104203,6,0,P|160:258|76:216,1,194.999991073609
172,76,104546,6,0,L|161:183,1,100
177,27,104889,6,0,L|172:78,1,50
236,200,105060,2,0,L|240:150,1,50
252,76,105232,6,0,B|326:83|326:83|383:68|383:68|429:72|429:72|459:75,1,209.999993591309
455,157,105575,2,0,B|467:209|467:209|464:256,1,100
356,272,105917,6,0,P|301:284|356:268,1,175.00000166893
208,64,106260,6,0,L|148:59,1,50
167,137,106432,2,0,L|227:142,1,50
386,85,106603,5,0,0:0:0:0:
377,159,106689,2,0,B|308:136|248:176,1,119.999996337891
232,200,106946,6,0,B|236:228|236:228|232:248|232:248|236:268|236:268|234:283|234:283|228:296,1,82.5000025177003
152,292,107289,2,0,B|156:268|156:268|148:248|156:228|156:228|148:208|154:183|154:183|140:168,1,112.500004291535
138,26,107632,6,0,L|229:37,1,59.9999981689454
280,80,107803,1,0,0:0:0:0:
364,164,107975,5,0,0:0:0:0:
64,153,108318,5,0,0:0:0:0:
376,76,108661,5,0,0:0:0:0:
142,224,109003,5,0,0:0:0:0:
48,292,109175,6,0,L|42:341,5,50
68,216,109689,5,0,0:0:0:0:
92,218,109774,1,0,0:0:0:0:
117,221,109860,1,0,0:0:0:0:
142,224,109946,1,0,0:0:0:0:
236,256,110032,5,0,0:0:0:0:
211,253,110117,1,0,0:0:0:0:
186,250,110203,1,0,0:0:0:0:
162,248,110289,1,0,0:0:0:0:
252,284,110375,5,0,0:0:0:0:
276,286,110460,1,0,0:0:0:0:
301,289,110546,1,0,0:0:0:0:
326,292,110632,1,0,0:0:0:0:
428,200,110717,2,0,L|378:193,1,50
328,56,110889,6,0,B|336:148|336:148|320:200|320:200|326:299,1,239.999992675781
80,156,111232,5,0,0:0:0:0:
161,163,111318,1,0,0:0:0:0:
243,170,111403,1,0,0:0:0:0:
327,177,111489,2,0,P|271:184|327:173,1,179.999994506836
256,284,111746,6,0,L|261:333,1,50
412,316,111917,2,0,L|362:310,1,50
68,300,112089,2,0,P|160:236|260:292,1,209.999993591309
336,240,112432,2,0,P|256:232|219:270,1,119.999996337891
144,204,112775,5,0,0:0:0:0:
147,172,112861,1,0,0:0:0:0:
150,140,112947,1,0,0:0:0:0:
152,109,113032,1,0,0:0:0:0:
250,42,113117,1,0,0:0:0:0:
247,70,113203,1,0,0:0:0:0:
244,102,113289,1,0,0:0:0:0:
340,140,113460,2,0,P|291:128|242:136,1,100
455,90,113803,6,0,L|450:255,1,165.000005035401
180,108,114146,2,0,P|226:90|276:90,1,100
416,160,114403,5,0,0:0:0:0:
393,150,114489,1,0,0:0:0:0:
328,208,114574,5,0,0:0:0:0:
305,198,114660,2,0,L|317:246,1,50
332,324,114832,1,0,0:0:0:0:
296,352,114917,2,0,B|244:348|244:348|197:356|197:356|145:348,1,139.999995727539
172,124,115175,6,0,B|176:200|176:200|168:257|168:257|172:307,1,179.999994506836
220,176,115517,2,0,P|272:160|332:180,1,100
412,216,115860,5,0,0:0:0:0:
420,224,115945,1,0,0:0:0:0:
428,232,116031,2,0,L|430:162,1,50
376,44,116202,2,0,L|426:48,1,50
406,130,116374,2,0,L|357:126,1,50
352,32,116546,6,0,P|303:16|252:23,1,100
172,124,116889,2,0,P|121:94|173:120,1,179.999994506836
232,208,117232,5,0,0:0:0:0:
264,211,117318,1,0,0:0:0:0:
296,214,117404,1,0,0:0:0:0:
327,216,117489,1,0,0:0:0:0:
394,314,117574,1,0,0:0:0:0:
366,311,117660,1,0,0:0:0:0:
334,308,117746,1,0,0:0:0:0:
196,208,117917,2,0,L|204:307,1,100
