osu file format v14

[General]
AudioFilename: audio.mp3
AudioLeadIn: 0
PreviewTime: 105128
Countdown: 0
SampleSet: Normal
StackLeniency: 0.5
Mode: 0
LetterboxInBreaks: 0
WidescreenStoryboard: 1

[Editor]
Bookmarks: 420,14400,28381,44109,75565,89546,105274,129740,148963,155954,173429,197895
DistanceSpacing: 0.8
BeatDivisor: 4
GridSize: 4
TimelineZoom: 1.4

[Metadata]
Title:Escape
TitleUnicode:Escape
Artist:XX:me
ArtistUnicode:XX:me
Creator:jonathanlfj
Version:Freedom
Source:ダーリン・イン・ザ・フランキス
Tags:DARLING in the FRANXX kiss me Frostmourne FrostxE Trust Nozhomi ed5 ending 5 Haruka Tomatsu 02 Zero Two Kana Ichinose Ichigo Nanami Yamashita Miku Shizuka Ishigami Ikuno Saori Hayami Kokoro Katsuhiko Sugiyama
BeatmapID:1701563
BeatmapSetID:811119

[Difficulty]
HPDrainRate:6.5
CircleSize:4
OverallDifficulty:9
ApproachRate:9.4
SliderMultiplier:1.9
SliderTickRate:1

[Events]
//Background and Video events
0,0,"02.jpg",0,0
//Break Periods
2,149174,155424
//Storyboard Layer 0 (Background)
//Storyboard Layer 1 (Fail)
//Storyboard Layer 2 (Pass)
//Storyboard Layer 3 (Foreground)
//Storyboard Sound Samples

[TimingPoints]
431,291.26213592233,6,2,1,40,1,0
431,-125,6,2,1,40,0,0
5673,-100,6,1,1,55,0,0
7421,-100,6,1,1,60,0,0
14411,-111.111111111111,6,1,1,50,0,0
28392,-100,6,1,1,60,0,0
34508,-80,6,1,1,60,0,0
34799,-133.333333333333,6,1,1,60,0,0
35382,-100,6,1,1,60,0,0
43246,-100,6,1,1,65,0,0
44120,-90.9090909090909,6,1,1,70,0,1
58100,-100,6,1,1,60,0,0
63343,-90.9090909090909,6,1,1,65,0,0
64217,-83.3333333333333,6,1,1,70,0,0
65091,-90.9090909090909,6,1,1,70,0,1
68586,-100,6,1,1,60,0,0
75576,-111.111111111111,6,1,1,50,0,0
89557,-100,6,1,1,60,0,0
95673,-76.9230769230769,6,1,1,60,0,0
95964,-142.857142857143,6,1,1,60,0,0
96547,-100,6,1,1,60,0,0
104411,-100,6,1,1,65,0,0
105285,-90.9090909090909,6,1,1,70,0,1
119265,-100,6,1,1,60,0,0
124508,-90.9090909090909,6,1,1,65,0,0
125382,-83.3333333333333,6,1,1,70,0,0
126256,-90.9090909090909,6,1,1,70,0,1
129751,-125,6,2,1,55,0,0
146353,-125,6,2,1,50,0,0
147227,-125,6,2,1,45,0,0
148100,-125,6,2,1,40,0,0
148974,-125,6,2,1,50,0,0
155964,-142.857142857143,6,2,1,50,0,0
162081,-90.9090909090909,6,2,1,50,0,0
162372,-142.857142857143,6,2,1,50,0,0
162955,-142.857142857143,6,2,1,50,0,0
166450,-125,6,1,1,50,0,0
169945,-100,6,1,1,60,0,0
170819,-86.9565217391304,6,1,1,65,0,0
171693,-76.9230769230769,6,1,1,70,0,0
172566,-86.9565217391304,6,1,1,65,0,0
173003,-100,6,1,1,60,0,0
173440,-200,6,1,1,75,0,1
173513,-200,6,1,1,75,0,0
175188,-333.333333333333,6,1,1,75,0,0
175916,-333.333333333333,6,1,1,5,0,0
176062,-200,6,1,1,75,0,0
177809,-133.333333333333,6,1,1,75,0,0
178683,-90.9090909090909,6,1,1,75,0,0
179557,-86.9565217391304,6,1,1,75,0,0
180430,-83.3333333333333,6,1,1,75,0,1
187421,-90.9090909090909,6,1,1,65,0,0
192664,-83.3333333333333,6,1,1,70,0,0
193537,-76.9230769230769,6,1,1,75,0,0
194411,-83.3333333333333,6,1,1,75,0,1
204897,-90.9090909090909,6,1,1,65,0,0
211013,-90.9090909090909,6,1,1,70,0,0
211960,-100,6,2,1,30,0,0
218877,-100,6,2,1,5,0,0

[Colours]
Combo1 : 183,182,157
Combo2 : 255,119,190
Combo3 : 65,98,254
Combo4 : 244,103,96
Combo5 : 139,104,204

[HitObjects]
66,317,431,6,0,P|116:309|144:310,1,76,2|0,0:0|0:0,0:0:0:0:
289,346,722,1,0,0:0:0:0:
289,346,867,1,0,0:0:0:0:
211,350,1013,1,2,0:0:0:0:
287,268,1159,1,2,0:0:0:0:
428,284,1304,6,0,P|379:303|333:304,1,76,2|0,0:0|0:0,0:0:0:0:
209,271,1596,1,0,0:0:0:0:
209,271,1741,1,0,0:0:0:0:
287,268,1887,1,2,0:0:0:0:
211,350,2032,1,2,0:0:0:0:
140,232,2178,6,0,P|131:189|135:153,1,76,2|0,0:0|0:0,0:0:0:0:
250,68,2469,1,0,0:0:0:0:
250,68,2615,1,0,0:0:0:0:
212,137,2761,1,2,0:0:0:0:
205,4,2906,1,2,0:0:0:0:
328,67,3052,6,0,P|346:112|348:150,1,76,2|0,0:0|0:0,0:0:0:0:
231,214,3343,1,0,0:0:0:0:
231,214,3489,1,0,0:0:0:0:
212,137,3634,1,2,0:0:0:0:
308,243,3780,1,2,0:0:0:0:
174,268,3926,6,0,P|128:257|85:260,1,76,2|0,0:0|0:0,0:0:0:0:
196,346,4217,1,0,0:0:0:0:
196,346,4363,1,0,0:0:0:0:
281,322,4508,1,2,0:0:0:0:
174,268,4654,1,2,0:0:0:0:
308,243,4799,6,0,P|354:232|397:235,1,76,2|0,0:0|0:0,0:0:0:0:
281,322,5091,1,0,0:0:0:0:
281,322,5236,1,0,0:0:0:0:
174,268,5382,1,2,0:0:0:0:
308,243,5528,1,2,0:0:0:0:
127,181,5673,5,8,0:0:0:0:
348,143,5819,1,8,0:2:0:0:
348,143,6110,5,8,0:2:0:0:
206,131,6256,1,8,0:2:0:0:
356,119,6401,1,8,0:2:0:0:
127,181,6547,6,0,B|114:137|114:137|125:83,1,95,8|0,0:0|0:0,0:0:0:0:
354,5,6838,2,0,B|371:48|371:48|364:95,1,95,0|8,0:0|0:2,0:0:0:0:
254,305,7130,5,10,0:2:0:0:
274,62,7275,1,10,0:2:0:0:
350,282,7421,6,0,L|364:396,1,95,6|0,0:2|2:0,0:0:0:0:
188,232,7712,2,0,P|231:214|279:212,1,95,2|0,0:2|0:0,0:0:0:0:
492,140,8003,2,0,P|426:165|337:143,1,142.5,2|0,0:2|2:0,0:0:0:0:
288,100,8295,2,0,L|280:2,1,95,8|0,0:0|2:0,0:0:0:0:
34,173,8586,2,0,L|138:161,1,95,2|0,0:2|2:0,0:0:0:0:
222,332,8877,2,0,L|214:234,1,95,2|0,0:2|2:0,0:0:0:0:
22,320,9168,6,0,P|65:299|113:292,1,95,2|0,0:2|2:0,0:0:0:0:
222,332,9460,1,2,0:2:0:0:
111,292,9605,1,0,0:0:0:0:
310,279,9751,2,0,P|378:295|444:259,1,142.5,2|0,0:2|2:0,0:0:0:0:
444,178,10042,2,0,P|431:127|428:82,1,95,8|0,0:0|2:0,0:0:0:0:
266,19,10333,2,0,P|270:71|289:118,1,95,2|0,0:2|2:0,0:0:0:0:
212,262,10625,2,0,P|178:215|164:178,1,95,2|0,0:2|2:0,0:0:0:0:
360,246,10916,6,0,P|346:308|343:346,1,95,2|0,0:2|2:0,0:0:0:0:
111,283,11207,2,0,P|128:353|131:390,1,95,2|0,0:2|0:0,0:0:0:0:
223,211,11498,2,0,P|203:139|228:55,1,142.5,2|0,0:2|2:0,0:0:0:0:
289,23,11790,2,0,P|301:87|287:128,1,95,8|0,0:0|2:0,0:0:0:0:
48,47,12081,2,0,L|142:33,1,95,2|0,0:2|2:0,0:0:0:0:
387,128,12372,2,0,L|293:114,1,95,2|0,0:2|2:0,0:0:0:0:
30,155,12664,6,0,L|141:136,1,95,2|0,0:2|2:0,0:0:0:0:
293,114,12955,1,2,0:2:0:0:
123,138,13100,1,0,0:0:0:0:
323,215,13246,2,0,B|361:227|361:227|470:205,1,142.5,2|0,0:2|2:0,0:0:0:0:
461,206,13537,5,8,0:0:0:0:
268,12,13683,1,8,0:0:0:0:
492,53,13829,5,10,0:2:0:0:
323,215,13974,1,2,0:2:0:0:
377,51,14120,5,10,0:2:0:0:
461,206,14265,1,10,0:2:0:0:
294,307,14411,6,0,P|204:292|122:307,1,170.999994781494,6|0,0:2|2:0,0:0:0:0:
374,366,14848,1,0,0:0:0:0:
235,202,14994,2,0,P|218:154|214:98,1,85.4999973907472,2|0,0:2|2:0,0:0:0:0:
472,152,15285,2,0,P|452:219|349:262,2,170.999994781494,8|0|2,0:0|0:0|0:2,0:0:0:0:
415,61,16013,1,2,2:0:0:0:
220,134,16159,6,0,P|272:179|368:148,1,170.999994781494,0|0,0:0|2:0,0:0:0:0:
220,134,16596,1,0,0:0:0:0:
252,298,16741,2,0,P|280:250|281:198,1,85.4999973907472,2|0,0:2|2:0,0:0:0:0:
149,54,17032,2,0,P|113:135|146:210,2,170.999994781494,8|0|2,0:0|0:0|0:2,0:0:0:0:
259,33,17761,1,2,2:0:0:0:
220,134,17906,6,0,L|36:146,1,170.999994781494,0|0,0:0|2:0,0:0:0:0:
229,228,18343,1,0,0:0:0:0:
146,249,18489,2,0,L|240:224,1,85.4999973907472,2|0,0:2|2:0,0:0:0:0:
316,70,18780,2,0,P|312:120|315:164,1,85.4999973907472,8|0,0:0|2:0,0:0:0:0:
408,306,19071,2,0,P|355:268|325:256,1,85.4999973907472,0|0,0:0|2:0,0:0:0:0:
429,120,19363,2,0,P|452:176|474:207,1,85.4999973907472,2|2,0:2|2:0,0:0:0:0:
320,364,19654,6,0,P|258:363|184:268,1,170.999994781494,0|0,0:0|2:0,0:0:0:0:
297,260,20091,1,0,0:0:0:0:
101,345,20236,2,0,P|87:291|89:236,1,85.4999973907472,2|0,0:2|2:0,0:0:0:0:
224,93,20528,2,0,P|235:152|238:192,1,85.4999973907472,8|0,0:0|2:0,0:0:0:0:
380,347,20819,2,0,P|382:289|396:244,1,85.4999973907472,0|0,0:0|2:0,0:0:0:0:
477,184,21110,1,2,0:2:0:0:
479,314,21256,1,2,2:0:0:0:
347,173,21401,6,0,L|369:-5,1,170.999994781494,4|0,0:2|2:0,0:0:0:0:
224,93,21838,1,0,0:0:0:0:
244,197,21984,2,0,L|261:287,1,85.4999973907472,2|0,0:2|2:0,0:0:0:0:
98,162,22275,2,0,P|123:106|234:100,1,170.999994781494,8|0,0:0|0:0,0:0:0:0:
282,183,22712,1,0,2:0:0:0:
418,84,22858,2,0,L|327:91,1,85.4999973907472,2|2,0:2|2:0,0:0:0:0:
238,279,23149,6,0,B|278:296|319:282|319:282|361:268|408:288,1,170.999994781494,0|0,0:0|2:0,0:0:0:0:
355,380,23586,1,0,0:0:0:0:
282,183,23731,2,0,L|296:74,1,85.4999973907472,2|0,0:2|2:0,0:0:0:0:
145,227,24023,2,0,P|141:320|210:375,2,170.999994781494,8|0|2,0:0|0:0|0:2,0:0:0:0:
238,279,24751,1,2,2:0:0:0:
311,199,24897,6,0,P|329:148|320:26,1,170.999994781494,0|0,0:0|2:0,0:0:0:0:
311,199,25333,1,0,0:0:0:0:
422,104,25479,2,0,P|419:52|407:10,1,85.4999973907472,2|0,0:2|2:0,0:0:0:0:
141,93,25770,2,0,P|187:101|242:98,1,85.4999973907472,8|0,0:0|2:0,0:0:0:0:
262,329,26062,2,0,P|316:301|345:270,1,85.4999973907472,0|0,0:0|2:0,0:0:0:0:
153,237,26353,2,0,P|212:223|248:206,1,85.4999973907472,2|2,0:2|2:0,0:0:0:0:
337,154,26644,5,8,0:0:0:0:
153,237,26790,2,0,P|107:222|57:218,1,85.4999973907472,8|0,0:2|2:0,0:0:0:0:
195,105,27081,1,8,0:2:0:0:
329,259,27227,2,0,P|378:251|415:231,1,85.4999973907472,8|0,0:2|2:0,0:0:0:0:
274,50,27518,5,8,0:0:0:0:
245,305,27664,1,8,0:0:0:0:
117,184,27809,6,0,L|202:189,1,85.4999973907472,4|0,0:2|2:0,0:0:0:0:
408,152,28100,2,0,P|353:123|293:139,1,128.249996086121,0|0,0:0|2:0,0:0:0:0:
225,212,28392,6,0,P|242:257|244:304,1,95,4|0,0:2|2:0,0:0:0:0:
89,367,28683,1,8,0:2:0:0:
148,281,28829,1,8,0:2:0:0:
44,156,28974,2,0,L|52:251,1,95,8|0,0:2|2:0,0:0:0:0:
244,303,29265,2,0,P|314:272|423:297,1,190,8|8,0:0|0:2,0:0:0:0:
491,211,29702,1,8,0:2:0:0:
398,77,29848,2,0,L|391:172,1,95,8|0,0:2|2:0,0:0:0:0:
148,281,30139,6,0,P|105:217|141:114,1,190,2|8,0:2|0:2,0:0:0:0:
251,308,30576,1,8,0:2:0:0:
433,258,30722,2,0,L|328:248,1,95,8|0,0:2|2:0,0:0:0:0:
31,206,31013,2,0,B|95:196|95:196|149:217|149:217|216:205,1,190,8|8,0:0|0:2,0:0:0:0:
345,145,31450,1,8,0:2:0:0:
160,109,31596,2,0,L|254:89,1,95,10|0,0:2|2:0,0:0:0:0:
73,35,31887,6,0,B|46:84|46:84|62:226,1,190,2|8,0:2|0:2,0:0:0:0:
75,314,32324,1,8,0:2:0:0:
170,203,32469,2,0,L|158:96,1,95,8|0,0:2|2:0,0:0:0:0:
426,129,32761,2,0,P|351:184|255:140,1,190,8|8,0:0|0:2,0:0:0:0:
333,75,33197,1,8,0:2:0:0:
466,227,33343,2,0,P|472:272|465:328,1,95,8|0,0:2|2:0,0:0:0:0:
253,372,33634,6,0,P|267:293|385:290,1,190,2|8,0:2|0:2,0:0:0:0:
363,273,34071,1,8,0:2:0:0:
172,270,34217,2,0,P|140:213|138:172,1,95,8|0,0:2|2:0,0:0:0:0:
285,47,34508,6,0,P|263:118|361:127,1,178.125,8|0,0:0|2:0,0:0:0:0:
358,68,34799,6,0,B|330:66|309:52|309:52|272:88|272:88|221:62|164:76,1,213.750008153916,6|0,0:2|2:0,0:0:0:0:
44,198,35382,6,0,P|94:184|148:186,1,95,4|0,1:2|2:0,0:0:0:0:
288,283,35673,1,8,0:2:0:0:
184,279,35819,1,8,0:2:0:0:
339,187,35964,2,0,P|346:131|342:84,1,95,8|0,0:2|2:0,0:0:0:0:
288,283,36256,2,0,P|367:270|471:305,1,190,8|8,0:0|0:2,0:0:0:0:
288,283,36693,1,8,0:2:0:0:
445,148,36838,2,0,P|462:98|466:47,1,95,8|0,0:2|2:0,0:0:0:0:
238,12,37130,6,0,L|247:122,1,95,4|0,0:2|2:0,2:0:0:0:
259,207,37421,1,8,0:2:0:0:
148,70,37566,1,8,0:2:0:0:
355,57,37712,2,0,L|345:163,1,95,8|0,0:2|2:0,0:0:0:0:
176,330,38003,2,0,P|126:264|165:168,1,190,8|8,0:0|0:2,0:0:0:0:
380,246,38440,1,8,0:2:0:0:
281,371,38586,2,0,L|272:260,1,95,10|0,0:2|2:0,0:0:0:0:
355,57,38877,6,0,P|357:135|261:171,1,190,4|8,0:2|0:2,0:0:0:0:
263,14,39314,1,8,0:2:0:0:
162,145,39460,2,0,P|161:206|229:265,1,142.5,8|0,0:2|2:0,0:0:0:0:
309,264,39751,6,0,P|234:258|199:265,1,95,4|0,0:2|0:0,0:0:0:0:
39,327,40042,2,0,P|81:265|93:231,1,95,8|8,0:2|0:2,0:0:0:0:
117,62,40333,2,0,P|149:129|214:175,1,142.5,8|0,0:2|2:0,0:0:0:0:
292,177,40625,6,0,B|369:152|396:84|396:84|369:80|344:95,1,190,4|8,0:2|0:2,0:0:0:0:
201,169,41062,1,8,0:2:0:0:
368,240,41207,2,0,P|393:273|411:337,1,95,8|0,0:2|2:0,0:0:0:0:
215,384,41498,5,8,0:0:0:0:
304,326,41644,1,8,0:0:0:0:
304,326,41717,1,8,0:0:0:0:
304,326,41790,1,8,0:0:0:0:
110,236,41935,1,8,0:0:0:0:
296,223,42081,1,8,0:0:0:0:
119,340,42227,1,8,0:0:0:0:
38,155,42372,6,0,L|50:47,1,95,6|0,2:0|2:0,0:0:0:0:
296,223,42664,1,2,2:0:0:0:
168,2,42809,6,0,L|183:110,1,95,8|2,0:0|2:0,2:0:0:0:
206,282,43100,1,2,2:0:0:0:
391,271,43246,5,4,0:2:0:0:
295,120,43392,1,0,2:0:0:0:
299,328,43537,1,2,2:0:0:0:
484,216,43683,5,4,0:2:0:0:
199,174,43829,1,2,2:0:0:0:
479,110,43974,1,2,2:0:0:0:
299,15,44120,6,0,L|294:130,1,104.500003189087,4|0,0:2|2:0,0:0:0:0:
394,372,44411,2,0,P|402:321|391:270,1,104.500003189087,0|0,0:0|2:0,0:0:0:0:
95,185,44702,2,0,L|203:173,1,104.500003189087,0|2,0:0|2:0,0:0:0:0:
481,217,44994,2,0,P|394:170|296:222,1,209.000006378174,8|0,0:0|0:0,0:0:0:0:
285,321,45430,1,2,2:0:0:0:
198,173,45576,2,0,P|186:86|237:24,1,156.750004783631,0|0,0:0|2:0,0:0:0:0:
284,120,45867,6,0,B|227:106|227:106|163:142|79:123,2,209.000006378174,2|0|0,0:2|0:0|0:0,0:0:0:0:
341,203,46596,1,2,2:0:0:0:
242,315,46741,2,0,L|235:204,1,104.500003189087,8|0,0:0|2:0,0:0:0:0:
442,149,47032,1,0,0:0:0:0:
365,314,47178,1,8,0:0:0:0:
341,203,47324,1,8,0:2:0:0:
474,342,47469,1,8,0:2:0:0:
270,372,47615,6,0,L|60:351,1,209.000006378174,4|0,0:2|0:0,0:0:0:0:
246,272,48052,1,0,2:0:0:0:
371,295,48197,2,0,L|481:279,1,104.500003189087,0|2,0:0|2:0,0:0:0:0:
330,83,48489,2,0,P|315:139|323:191,1,104.500003189087,8|0,0:0|2:0,0:0:0:0:
270,372,48780,2,0,P|263:320|246:272,1,104.500003189087,0|2,0:0|2:0,0:0:0:0:
109,213,49071,1,0,0:0:0:0:
164,342,49217,1,8,0:2:0:0:
231,136,49363,5,2,0:2:0:0:
7,207,49508,1,8,0:0:0:0:
231,136,49654,2,0,L|116:124,1,104.500003189087,8|0,0:0|2:0,0:0:0:0:
309,58,49945,1,8,0:0:0:0:
166,227,50091,1,8,0:0:0:0:
369,290,50236,1,2,0:2:0:0:
274,238,50382,5,8,0:0:0:0:
262,278,50455,1,8,0:0:0:0:
268,319,50528,1,8,0:0:0:0:
370,181,50673,1,8,0:0:0:0:
382,141,50746,1,8,0:0:0:0:
376,100,50819,2,0,L|308:87,1,52.2500015945435,8|0,0:2|2:0,0:0:0:0:
236,138,50964,2,0,L|166:146,1,52.2500015945435,10|0,0:2|2:0,0:0:0:0:
87,105,51110,6,0,P|72:61|77:-1,1,104.500003189087,4|0,0:2|2:0,0:0:0:0:
300,248,51401,2,0,L|179:238,1,104.500003189087,0|0,0:0|2:0,0:0:0:0:
197,41,51693,2,0,P|255:39|307:60,1,104.500003189087,0|2,0:0|2:0,0:0:0:0:
72,313,51984,2,0,L|87:105,1,209.000006378174,8|0,0:0|0:0,0:0:0:0:
14,20,52421,1,2,2:0:0:0:
192,169,52566,2,0,L|168:3,1,156.750004783631,0|0,0:0|2:0,0:0:0:0:
87,104,52858,6,0,B|146:118|146:118|305:88,2,209.000006378174,2|0|0,0:2|0:0|0:0,0:0:0:0:
14,20,53586,1,2,2:0:0:0:
117,202,53731,2,0,B|127:253|127:253|114:305,1,104.500003189087,8|0,0:0|2:0,0:0:0:0:
221,203,54023,1,0,0:0:0:0:
22,145,54169,1,8,0:0:0:0:
171,106,54315,1,8,0:2:0:0:
15,251,54460,1,8,0:2:0:0:
222,312,54605,6,0,P|317:289|330:191,1,209.000006378174,4|0,0:2|0:0,0:0:0:0:
221,203,55042,1,0,2:0:0:0:
406,331,55188,2,0,P|426:284|434:217,1,104.500003189087,0|2,0:0|2:0,0:0:0:0:
381,70,55479,2,0,B|343:40|343:40|291:109|330:191,2,209.000006378174,8|0|0,0:0|0:0|0:0,0:0:0:0:
434,190,56207,1,8,0:2:0:0:
221,203,56353,5,2,0:2:0:0:
381,70,56498,1,8,0:0:0:0:
221,203,56644,2,0,L|236:318,1,104.500003189087,8|0,0:0|2:0,0:0:0:0:
293,127,56935,1,8,0:0:0:0:
117,237,57081,2,0,L|130:122,1,104.500003189087,8|0,0:0|0:0,0:0:0:0:
14,56,57372,5,8,0:0:0:0:
17,97,57445,1,8,0:0:0:0:
22,138,57518,1,8,0:0:0:0:
107,319,57664,1,8,0:0:0:0:
112,278,57737,1,8,0:0:0:0:
117,237,57809,2,0,L|136:68,1,156.750004783631,8|0,0:0|2:0,0:0:0:0:
198,18,58100,5,4,0:2:0:0:
322,136,58392,1,0,0:0:0:0:
462,39,58683,1,0,0:0:0:0:
261,75,58974,5,8,0:0:0:0:
252,279,59265,1,0,0:0:0:0:
448,339,59557,1,0,0:0:0:0:
322,136,59848,5,2,0:2:0:0:
254,365,60139,1,0,0:0:0:0:
470,261,60430,1,0,0:0:0:0:
219,136,60722,5,8,0:0:0:0:
67,371,61013,1,0,0:0:0:0:
169,357,61159,1,8,0:0:0:0:
156,255,61304,1,8,0:2:0:0:
54,269,61450,1,8,0:2:0:0:
169,357,61596,5,4,0:2:0:0:
212,173,61741,1,0,2:0:0:0:
54,269,61887,2,0,L|198:264,1,142.5,0|0,0:0|2:0,0:0:0:0:
254,329,62178,2,0,P|279:288|248:195,1,142.5,0|0,0:0|2:0,0:0:0:0:
170,178,62469,6,0,P|250:166|280:158,1,95,12|0,0:2|2:0,0:0:0:0:
485,276,62761,2,0,P|430:264|381:261,1,95,0|2,0:0|2:0,0:0:0:0:
214,350,63052,1,8,0:2:0:0:
365,268,63197,1,8,0:2:0:0:
203,96,63343,5,4,0:2:0:0:
271,274,63489,1,8,0:0:0:0:
263,9,63634,2,0,L|142:-2,1,104.500003189087,8|0,0:0|2:0,0:0:0:0:
314,102,63926,1,8,0:0:0:0:
122,173,64071,1,8,0:0:0:0:
263,9,64217,5,4,0:2:0:0:
357,193,64363,1,8,0:0:0:0:
354,227,64435,1,8,0:0:0:0:
350,261,64508,1,8,0:0:0:0:
167,216,64654,1,8,0:0:0:0:
164,176,64727,1,8,0:0:0:0:
160,136,64800,2,0,L|154:76,1,56.9999982604981,8|0,0:2|2:0,0:0:0:0:
268,141,64945,2,0,L|264:198,1,56.9999982604981,10|0,0:2|2:0,0:0:0:0:
362,89,65091,6,0,P|443:73|506:176,2,209.000006378174,4|0|0,0:2|0:0|0:0,0:0:0:0:
264,198,65819,1,2,2:0:0:0:
387,282,65964,2,0,P|406:219|411:170,1,104.500003189087,8|0,0:0|2:0,0:0:0:0:
121,56,66256,2,0,P|140:130|160:163,1,104.500003189087,0|0,0:0|2:0,0:0:0:0:
487,262,66547,2,0,P|435:265|385:281,1,104.500003189087,0|0,0:0|2:0,0:0:0:0:
283,365,66838,5,0,0:0:0:0:
341,94,66984,1,8,0:0:0:0:
283,365,67130,1,8,0:0:0:0:
283,365,67421,5,8,0:0:0:0:
234,169,67566,1,8,0:0:0:0:
359,297,67712,1,0,0:0:0:0:
183,337,67858,1,0,0:0:0:0:
334,196,68003,1,8,0:2:0:0:
283,365,68149,1,8,0:2:0:0:
234,169,68295,2,0,L|246:3,1,156.750004783631,8|0,0:2|2:0,0:0:0:0:
332,32,68586,6,0,B|340:77|340:77|324:131,1,95,4|0,0:2|2:0,0:0:0:0:
149,203,68877,2,0,B|187:174|187:174|233:168,1,95,2|0,0:2|0:0,0:0:0:0:
444,266,69168,2,0,B|400:275|400:275|317:225,1,142.5,2|0,0:2|2:0,0:0:0:0:
233,167,69460,2,0,L|243:57,1,95,8|0,0:0|2:0,0:0:0:0:
117,254,69751,2,0,L|97:146,1,95,2|0,0:2|2:0,2:0:0:0:
301,318,70042,2,0,L|318:212,1,95,2|2,0:2|2:0,0:0:0:0:
131,367,70333,6,0,P|82:346|33:341,1,95,2|0,0:2|2:0,0:0:0:0:
117,254,70625,1,0,0:0:0:0:
301,318,70770,1,0,0:0:0:0:
204,197,70916,2,0,L|216:363,1,142.5,2|0,0:2|2:0,0:0:0:0:
301,318,71207,2,0,P|350:315|406:327,1,95,8|0,0:0|2:0,0:0:0:0:
117,254,71498,2,0,P|69:246|11:248,1,95,2|0,0:2|2:0,0:0:0:0:
304,172,71790,2,0,P|350:157|411:152,1,95,2|2,0:2|2:0,0:0:0:0:
186,13,72081,6,0,P|192:65|215:120,1,95,2|0,0:2|2:0,0:0:0:0:
373,255,72372,2,0,P|439:260|482:272,1,95,2|0,0:2|0:0,0:0:0:0:
304,172,72664,2,0,P|244:215|156:212,1,142.5,2|0,0:2|2:0,0:0:0:0:
109,178,72955,2,0,L|93:76,1,95,8|0,0:0|2:0,0:0:0:0:
370,113,73246,2,0,L|380:2,1,95,2|0,0:2|2:0,0:0:0:0:
259,237,73537,2,0,L|243:121,1,95,2|2,0:2|2:0,0:0:0:0:
481,78,73829,6,0,B|497:134|497:134|477:270,1,190,2|2,0:2|0:2,0:0:0:0:
270,330,74265,1,0,0:0:0:0:
270,330,74411,2,0,L|258:236,1,95,2|0,0:2|2:0,0:0:0:0:
323,102,74702,5,8,0:0:0:0:
151,303,74848,1,8,0:0:0:0:
387,308,74994,5,10,0:2:0:0:
210,165,75139,1,2,0:2:0:0:
419,72,75285,5,10,0:2:0:0:
319,228,75430,1,10,0:2:0:0:
187,66,75576,6,0,P|233:23|348:29,1,170.999994781494,4|0,0:2|0:0,0:0:0:0:
210,165,76013,1,0,0:0:0:0:
106,135,76159,2,0,P|80:67|80:37,1,85.4999973907472,0|2,0:0|2:0,0:0:0:0:
23,253,76450,2,0,P|75:234|196:254,1,170.999994781494,8|0,0:0|0:0,0:0:0:0:
270,308,76887,1,0,2:0:0:0:
434,229,77032,2,0,L|349:238,1,85.4999973907472,2|2,0:2|2:0,0:0:0:0:
198,140,77324,6,0,B|238:113|238:113|364:135,1,170.999994781494
198,140,77761,1,0,0:0:0:0:
318,28,77906,2,0,L|416:17,1,85.4999973907472,0|2,0:0|2:0,0:0:0:0:
160,45,78197,2,0,P|85:64|0:14,2,170.999994781494,8|0|2,0:0|0:0|0:2,0:0:0:0:
250,101,78926,1,2,2:0:0:0:
150,215,79071,6,0,L|160:32,1,170.999994781494
62,161,79508,1,0,0:0:0:0:
250,101,79654,2,0,L|256:7,1,85.4999973907472,0|2,0:0|2:0,0:0:0:0:
310,192,79945,2,0,P|344:216|386:228,1,85.4999973907472,8|0,0:0|2:0,0:0:0:0:
199,196,80236,2,0,P|153:212|114:247,1,85.4999973907472,0|0,0:0|2:0,0:0:0:0:
388,121,80528,2,0,P|381:75|369:35,1,85.4999973907472,2|2,0:2|2:0,0:0:0:0:
358,326,80819,6,0,P|422:326|491:229,1,170.999994781494
385,227,81256,1,2,0:2:0:0:
259,292,81401,2,0,L|267:379,1,85.4999973907472,0|0,0:0|2:0,0:0:0:0:
285,186,81693,5,8,0:0:0:0:
149,299,81838,1,2,2:0:0:0:
191,130,81984,1,2,1:2:0:0:
259,292,82130,1,2,2:0:0:0:
106,198,82275,5,8,0:0:0:0:
319,98,82421,1,8,0:0:0:0:
76,24,82566,6,0,P|46:89|86:182,1,170.999994781494,4|0,0:2|0:0,0:0:0:0:
185,203,83003,1,0,0:0:0:0:
263,128,83149,2,0,L|256:43,1,85.4999973907472,0|0,0:0|2:0,0:0:0:0:
436,24,83440,2,0,P|466:89|426:182,1,170.999994781494,8|0,0:0|0:0,0:0:0:0:
327,203,83877,1,0,2:0:0:0:
249,128,84023,2,0,L|256:43,1,85.4999973907472,0|0,0:0|2:0,0:0:0:0:
327,203,84314,6,0,B|295:239|295:239|306:363,1,170.999994781494,2|0,0:2|0:0,0:0:0:0:
406,275,84751,1,0,0:0:0:0:
249,128,84897,2,0,B|207:120|207:120|157:129,1,85.4999973907472,0|0,0:0|2:0,0:0:0:0:
34,258,85188,2,0,B|92:251|92:251|142:274|142:274|200:269,2,170.999994781494,8|0|0,0:0|0:0|0:0,0:0:0:0:
73,356,85916,1,2,2:0:0:0:
177,370,86062,6,0,L|354:348,1,170.999994781494,2|0,0:2|0:0,0:0:0:0:
483,328,86498,1,0,0:0:0:0:
370,354,86644,2,0,L|382:257,1,85.4999973907472,0|0,0:0|2:0,0:0:0:0:
461,148,86935,2,0,L|472:240,1,85.4999973907472,8|2,0:0|2:0,0:0:0:0:
275,297,87227,2,0,L|287:200,1,85.4999973907472,2|0,0:2|2:0,0:0:0:0:
483,328,87518,2,0,B|444:345|444:345|391:342,1,85.4999973907472,0|0,0:0|2:0,0:0:0:0:
188,250,87809,5,8,0:0:0:0:
374,82,87955,2,0,L|384:167,1,85.4999973907472,8|0,0:2|2:0,0:0:0:0:
256,328,88246,1,8,0:2:0:0:
128,167,88392,2,0,L|137:77,1,85.4999973907472,8|0,0:2|0:0,0:0:0:0:
285,212,88683,5,8,0:0:0:0:
46,228,88829,1,8,0:0:0:0:
128,167,88974,5,8,0:2:0:0:
188,250,89120,1,8,0:2:0:0:
106,310,89265,1,0,0:0:0:0:
46,228,89411,1,0,0:0:0:0:
188,250,89557,6,0,L|289:245,1,95,4|0,0:2|2:0,0:0:0:0:
392,177,89848,1,8,0:2:0:0:
304,243,89994,1,8,0:2:0:0:
421,375,90139,2,0,L|409:280,1,95,8|0,0:2|2:0,0:0:0:0:
400,72,90430,2,0,P|479:120|492:212,1,190,8|8,0:0|0:2,0:0:0:0:
299,116,90867,1,8,0:2:0:0:
194,160,91013,2,0,P|172:203|174:252,1,95,8|0,0:2|2:0,0:0:0:0:
369,347,91304,6,0,P|414:267|389:177,1,190,2|8,0:2|0:2,0:0:0:0:
299,116,91741,1,8,0:2:0:0:
173,248,91887,2,0,P|231:259|278:253,1,95,8|0,0:2|2:0,0:0:0:0:
504,333,92178,2,0,B|455:319|411:337|411:337|367:357|317:346,1,190,8|8,0:0|0:2,0:0:0:0:
461,212,92615,1,8,0:2:0:0:
261,221,92761,2,0,P|304:240|352:246,1,95,10|0,0:2|2:0,0:0:0:0:
195,303,93052,6,0,P|156:222|203:131,1,190,2|8,0:2|0:2,0:0:0:0:
261,221,93489,1,8,0:2:0:0:
111,235,93634,2,0,L|9:242,1,95,8|0,0:2|2:0,0:0:0:0:
121,68,93926,2,0,B|158:104|158:104|309:116,1,190,8|8,0:0|0:2,0:0:0:0:
209,3,94363,1,8,0:2:0:0:
410,8,94508,2,0,L|312:19,1,95,8|0,0:2|2:0,0:0:0:0:
407,170,94799,6,0,P|450:89|409:7,1,190,2|8,0:2|0:2,0:0:0:0:
315,134,95236,1,8,0:2:0:0:
460,252,95382,2,0,P|475:306|475:351,1,95,8|0,0:2|2:0,0:0:0:0:
234,337,95673,6,0,P|303:276|380:322,1,185.249991519928,8|0,0:0|2:0,0:0:0:0:
309,354,95964,6,0,B|289:311|311:273|311:273|296:248|296:248|314:208|296:165,1,199.499993911743,4|0,0:2|2:0,0:0:0:0:
102,211,96547,6,0,L|203:204,1,95,4|0,0:2|2:0,0:1:0:0:
378,238,96838,1,8,0:2:0:0:
295,164,96984,1,8,0:2:0:0:
475,188,97130,2,0,P|484:238|478:281,1,95
290,341,97421,2,0,P|264:251|294:163,1,190,8|10,0:0|0:2,0:0:0:0:
401,122,97858,1,8,0:2:0:0:
180,215,98003,2,0,P|122:223|84:218,1,95,10|0,0:2|2:0,0:0:0:0:
298,68,98295,6,0,L|294:173,1,95,4|0,0:2|2:0,0:0:0:0:
204,10,98586,1,8,0:2:0:0:
401,122,98731,1,8,0:2:0:0:
198,223,98877,2,0,L|188:112,1,95,8|0,0:2|2:0,0:0:0:0:
61,308,99168,2,0,B|120:301|120:301|181:328|181:328|254:320,1,190,8|8,0:0|0:2,0:0:0:0:
371,230,99605,1,8,0:2:0:0:
204,128,99751,2,0,L|197:226,1,95,10|0,0:2|2:0,0:0:0:0:
422,323,100042,6,0,P|468:270|431:141,1,190,4|8,0:2|0:2,0:0:0:0:
325,304,100479,1,8,0:2:0:0:
197,222,100625,2,0,P|176:138|208:87,1,142.5,0|0,0:0|2:0,0:0:0:0:
290,64,100916,6,0,P|248:85|201:92,1,95,4|0,0:2|2:0,0:0:0:0:
285,346,101207,2,8,P|287:298|305:254,1,95,8|8,0:2|0:2,0:2:0:0:
46,198,101498,2,0,P|85:223|131:307,1,142.5,8|0,0:2|2:0,0:0:0:0:
197,222,101790,6,0,B|230:157|304:147|304:147|286:128|256:130,1,190,4|8,0:2|0:2,0:0:0:0:
197,222,102227,1,8,0:2:0:0:
397,200,102372,2,0,P|409:144|400:98,1,95,8|0,0:2|0:0,0:0:0:0:
305,254,102664,5,8,0:0:0:0:
459,282,102809,1,8,0:3:0:0:
482,286,102882,1,8,0:3:0:0:
505,290,102955,1,8,0:3:0:0:
368,340,103100,1,8,0:3:0:0:
302,221,103246,2,0,L|294:118,1,95,8|2,0:3|2:0,0:0:0:0:
113,131,103537,5,4,0:2:0:0:
207,175,103682,1,0,2:0:0:0:
302,221,103828,1,2,2:0:0:0:
285,13,103974,5,8,0:0:0:0:
198,71,104119,1,2,2:0:0:0:
113,131,104265,1,2,2:0:0:0:
302,221,104411,5,8,0:0:0:0:
285,13,104557,1,8,0:0:0:0:
285,13,104630,1,8,0:0:0:0:
285,13,104702,1,8,0:0:0:0:
113,131,104848,5,8,0:0:0:0:
406,92,104994,1,10,0:2:0:0:
292,362,105139,1,10,0:2:0:0:
113,131,105285,6,0,L|234:116,1,104.500003189087,4|0,0:2|2:0,0:0:0:0:
491,270,105576,2,0,L|379:259,1,104.500003189087,0|0,0:0|2:0,0:0:0:0:
86,264,105867,2,0,P|142:249|191:253,1,104.500003189087,0|2,0:0|2:0,0:0:0:0:
415,172,106159,2,0,P|353:132|355:8,1,209.000006378174,8|0,0:0|0:0,0:0:0:0:
508,122,106596,1,0,2:0:0:0:
370,268,106741,2,0,P|308:246|195:247,1,156.750004783631,2|0,0:2|2:0,0:0:0:0:
137,280,107032,6,0,B|186:259|186:259|221:183|171:113,2,209.000006378174,2|0|0,0:2|0:0|0:0,0:0:0:0:
53,216,107761,1,0,2:0:0:0:
249,191,107906,2,0,L|359:197,1,104.500003189087,8|0,0:0|2:0,0:0:0:0:
171,113,108197,1,0,0:0:0:0:
294,292,108343,1,8,0:0:0:0:
99,308,108489,1,8,0:2:0:0:
249,191,108634,1,8,0:2:0:0:
95,45,108780,6,0,P|77:155|155:215,1,209.000006378174,4|0,0:2|0:0,0:0:0:0:
305,89,109217,1,0,2:0:0:0:
372,193,109363,2,0,L|252:202,1,104.500003189087,0|2,0:0|2:0,0:0:0:0:
82,313,109654,2,0,P|136:310|188:322,1,104.500003189087,8|0,0:0|2:0,0:0:0:0:
423,340,109945,2,0,P|364:345|318:364,1,104.500003189087,0|2,0:0|2:0,0:0:0:0:
184,320,110236,1,8,0:0:0:0:
345,241,110382,1,8,0:2:0:0:
151,209,110528,5,2,0:2:0:0:
322,361,110673,1,8,0:0:0:0:
449,165,110819,2,0,P|450:126|428:58,1,104.500003189087,8|0,0:0|2:0,0:0:0:0:
254,261,111110,1,8,0:0:0:0:
499,270,111256,1,8,0:0:0:0:
310,137,111401,5,2,0:2:0:0:
377,338,111547,1,8,0:0:0:0:
384,301,111620,1,8,0:0:0:0:
383,264,111693,1,8,0:0:0:0:
179,166,111838,1,8,0:0:0:0:
167,206,111911,1,8,0:0:0:0:
164,248,111984,2,0,P|166:283|173:311,1,52.2500015945435,8|0,0:2|2:0,0:0:0:0:
280,222,112129,2,0,P|278:183|271:148,1,52.2500015945435,10|0,0:2|2:0,0:0:0:0:
125,85,112275,6,0,P|73:97|3:86,1,104.500003189087,4|0,0:2|2:0,0:0:0:0:
265,25,112566,2,0,L|273:136,1,104.500003189087,0|0,0:0|2:0,0:0:0:0:
3,222,112858,2,0,P|57:209|115:210,1,104.500003189087,0|2,0:0|2:0,0:0:0:0:
328,343,113149,2,0,P|234:327|232:203,1,209.000006378174,8|0,0:0|0:0,0:0:0:0:
363,245,113586,1,2,2:0:0:0:
354,89,113731,2,0,L|364:262,1,156.750004783631,0|0,0:0|2:0,0:0:0:0:
328,343,114023,6,0,B|263:302|263:302|254:156,2,209.000006378174,2|0|0,0:2|0:0|0:0,0:0:0:0:
363,245,114751,1,0,2:0:0:0:
161,316,114897,2,0,B|109:322|109:322|47:301,1,104.500003189087,8|0,0:0|2:0,0:0:0:0:
251,139,115188,1,0,0:0:0:0:
328,343,115333,1,8,0:0:0:0:
161,316,115479,1,8,0:2:0:0:
363,245,115625,1,8,0:2:0:0:
164,135,115770,6,0,P|232:164|330:81,1,209.000006378174,4|0,0:2|0:0,0:0:0:0:
164,135,116207,1,0,2:0:0:0:
363,245,116353,2,0,P|411:225|485:232,1,104.500003189087,0|2,0:0|2:0,0:0:0:0:
309,345,116644,2,0,P|240:315|105:343,2,209.000006378174,8|0|0,0:0|0:0|0:0,0:0:0:0:
363,245,117372,1,2,2:0:0:0:
120,167,117518,5,0,0:0:0:0:
329,79,117664,1,8,0:0:0:0:
228,273,117809,2,0,L|235:153,1,104.500003189087,8|0,0:0|2:0,0:0:0:0:
309,345,118100,1,8,0:0:0:0:
113,298,118246,1,8,0:0:0:0:
357,201,118392,5,0,0:0:0:0:
117,95,118537,1,8,0:0:0:0:
118,131,118610,1,8,0:0:0:0:
120,167,118683,1,8,0:0:0:0:
228,42,118829,1,8,0:0:0:0:
229,78,118902,1,8,0:0:0:0:
231,114,118974,2,0,B|242:150|242:150|227:186|227:186|234:268,1,156.750004783631,8|0,0:0|2:0,0:0:0:0:
244,353,119265,5,4,0:2:0:0:
120,167,119557,1,0,0:0:0:0:
244,353,119848,1,0,0:0:0:0:
305,103,120139,5,8,0:0:0:0:
158,318,120430,1,0,0:0:0:0:
305,103,120722,1,2,0:2:0:0:
335,360,121013,5,2,0:2:0:0:
194,78,121304,1,0,0:0:0:0:
335,360,121596,1,0,0:0:0:0:
390,37,121887,5,8,0:0:0:0:
82,260,122178,1,0,0:0:0:0:
182,293,122324,1,8,0:0:0:0:
105,359,122469,1,8,0:2:0:0:
160,190,122615,1,8,0:2:0:0:
279,327,122761,5,4,0:2:0:0:
82,260,122906,1,0,2:0:0:0:
264,224,123052,2,0,L|422:218,1,142.5,0|0,0:0|2:0,0:0:0:0:
471,279,123343,2,0,P|442:215|482:141,1,142.5,0|0,0:0|2:0,0:0:0:0:
418,45,123634,6,0,P|407:91|381:130,1,95,12|0,0:2|2:0,0:0:0:0:
336,325,123926,2,0,P|312:281|268:249,1,95,0|2,0:0|2:0,0:0:0:0:
83,200,124217,1,8,0:2:0:0:
237,349,124362,1,8,0:2:0:0:
268,135,124508,5,4,0:2:0:0:
132,349,124654,1,8,0:0:0:0:
87,52,124799,2,0,L|208:41,1,104.500003189087,8|0,0:0|2:0,0:0:0:0:
382,180,125091,1,8,0:0:0:0:
150,156,125236,1,8,0:0:0:0:
365,34,125382,5,4,0:2:0:0:
260,214,125528,1,8,0:0:0:0:
264,174,125601,1,8,0:0:0:0:
268,135,125673,1,8,0:0:0:0:
482,167,125819,1,8,0:0:0:0:
479,125,125892,1,8,0:0:0:0:
475,83,125965,2,0,L|469:23,1,56.9999982604981,8|0,0:2|2:0,0:0:0:0:
382,180,126110,2,0,L|389:236,1,56.9999982604981,10|0,0:2|2:0,0:0:0:0:
272,92,126256,6,0,B|220:71|169:90|169:90|114:111|68:92,2,209.000006378174,4|0|0,0:2|0:0|0:0,0:0:0:0:
389,236,126984,1,2,2:0:0:0:
245,323,127129,2,0,P|226:260|221:211,1,104.500003189087,8|0,0:0|2:0,0:0:0:0:
403,27,127421,2,0,P|379:80|366:140,1,104.500003189087,0|0,0:0|2:0,0:0:0:0:
108,298,127712,2,0,P|102:249|82:180,1,104.500003189087,0|0,0:0|2:0,0:0:0:0:
9,88,128003,5,2,0:2:0:0:
305,200,128149,1,8,0:0:0:0:
9,88,128295,1,8,0:0:0:0:
9,88,128586,5,8,0:0:0:0:
173,22,128731,1,8,0:0:0:0:
194,199,128877,1,0,0:0:0:0:
117,119,129023,1,0,0:0:0:0:
286,42,129168,1,8,0:2:0:0:
297,154,129314,1,8,0:2:0:0:
173,22,129460,2,0,L|334:10,1,156.750004783631,8|0,0:2|2:0,0:0:0:0:
417,48,129751,6,0,B|464:68|464:68|490:128|462:195|403:211,1,228,4|0,1:2|0:0,0:0:0:0:
263,230,130333,1,2,0:0:0:0:
263,230,130625,2,0,P|188:252|248:356,1,228,2|0,0:0|0:0,0:0:0:0:
362,316,131207,1,2,0:0:0:0:
362,316,131498,5,2,0:0:0:0:
397,220,131644,1,0,0:0:0:0:
380,328,131790,1,0,0:0:0:0:
376,221,131935,1,2,0:0:0:0:
400,339,132081,1,2,0:0:0:0:
356,227,132227,1,0,0:0:0:0:
418,346,132372,6,0,P|458:353|505:348,1,76,2|0,0:0|0:0,0:0:0:0:
283,288,132664,2,0,P|296:326|324:364,1,76,2|0,0:0|0:0,0:0:0:0:
282,134,132955,2,0,P|255:165|236:208,1,76,0|2,1:0|0:0,0:0:0:0:
318,42,133246,6,0,P|376:62|477:49,1,152,0|0,1:0|0:0,0:0:0:0:
465,53,133683,1,2,0:0:0:0:
354,150,133829,2,0,P|318:137|281:133,1,76,2|0,0:0|0:0,0:0:0:0:
134,191,134120,2,0,L|140:270,1,76,2|0,0:0|0:0,0:0:0:0:
40,159,134411,2,0,B|41:177|41:177|33:194|33:194|43:209|43:209|50:306,1,152,2|0,0:0|0:0,0:0:0:0:
50,306,134994,5,2,0:0:0:0:
139,266,135139,1,0,0:0:0:0:
235,332,135285,1,0,0:0:0:0:
146,289,135430,1,2,0:0:0:0:
239,211,135576,1,0,1:0:0:0:
236,311,135722,1,2,0:0:0:0:
133,242,135867,6,0,P|131:190|167:128,1,114,8|0,1:0|0:0,0:0:0:0:
182,119,136159,2,0,L|227:124,2,38,8|0|2,0:0|0:0|0:0,0:0:0:0:
95,39,136450,2,0,L|16:50,1,76,8|0,0:0|0:0,0:0:0:0:
89,209,136741,6,0,P|159:243|220:200,1,152,4|0,1:2|0:0,0:0:0:0:
238,107,137178,1,2,0:0:0:0:
388,201,137324,2,0,P|353:185|303:177,1,76,0|0,1:0|0:0,0:0:0:0:
108,274,137615,6,0,P|179:271|214:191,1,152,8|0,1:0|0:0,0:0:0:0:
193,106,138052,1,2,0:0:0:0:
369,132,138197,2,0,P|315:132|277:150,1,76,0|0,1:0|0:0,0:0:0:0:
215,206,138489,5,2,1:2:0:0:
312,241,138634,1,0,0:0:0:0:
294,139,138780,1,2,0:0:0:0:
211,231,138926,5,2,0:0:0:0:
335,231,139071,1,2,0:0:0:0:
273,123,139217,1,0,0:0:0:0:
215,256,139363,6,0,P|226:295|251:331,1,76,8|0,1:0|0:0,0:0:0:0:
356,218,139654,2,0,P|384:188|402:149,1,76,2|0,0:0|0:0,0:0:0:0:
253,115,139945,2,0,P|213:105|170:108,1,76,2|0,0:0|0:0,0:0:0:0:
42,247,140236,6,0,P|99:215|191:233,1,152,2|0,1:2|0:0,0:0:0:0:
240,304,140673,1,2,0:0:0:0:
321,253,140819,2,0,L|331:171,1,76,0|0,1:0|0:0,0:0:0:0:
258,9,141110,2,0,B|230:39|230:39|239:163,2,152,8|2|2,1:0|0:0|1:2,0:0:0:0:
326,70,141984,5,4,1:2:0:0:
415,54,142275,1,0,0:0:0:0:
473,123,142566,1,2,0:0:0:0:
442,208,142858,1,8,1:0:0:0:
353,224,143149,1,2,0:0:0:0:
294,154,143440,1,0,1:2:0:0:
204,163,143731,5,2,1:2:0:0:
172,248,144022,1,0,0:0:0:0:
83,264,144313,1,2,0:0:0:0:
25,195,144605,1,8,1:0:0:0:
56,110,144896,1,2,0:0:0:0:
145,95,145187,1,2,0:0:0:0:
83,264,145479,5,4,1:2:0:0:
25,195,145625,1,0,0:0:0:0:
203,164,145770,5,2,0:0:0:0:
173,249,145916,1,0,0:0:0:0:
56,110,146062,5,2,0:0:0:0:
145,95,146207,1,2,0:0:0:0:
173,249,146353,6,0,L|89:262,1,76,8|0,1:0|0:0,0:0:0:0:
25,195,146644,2,0,L|55:113,1,76,2|0,0:0|0:0,0:0:0:0:
145,95,146935,2,0,L|197:157,1,76,0|2,1:0|0:0,0:0:0:0:
353,224,147227,5,2,1:2:0:0:
294,154,147372,1,0,0:0:0:0:
473,123,147518,5,2,0:0:0:0:
442,208,147664,1,0,0:0:0:0:
326,70,147809,5,2,0:0:0:0:
415,54,147955,1,2,0:0:0:0:
442,208,148100,6,0,L|356:222,1,76,8|0,1:0|0:0,0:0:0:0:
294,154,148392,2,0,L|324:75,1,76,2|0,0:0|0:0,0:0:0:0:
415,54,148683,2,0,L|471:118,1,76,2|0,0:0|0:0,0:0:0:0:
383,138,148974,5,2,0:0:0:0:
415,54,155964,6,0,B|452:117|408:179|408:179|357:240|400:300,1,265.999991882324,2|0,0:0|0:0,0:0:0:0:
461,246,156693,1,0,0:0:0:0:
461,246,156838,2,0,B|426:209|370:219|370:219|304:282|214:264,1,265.999991882324,2|0,0:0|0:0,0:0:0:0:
85,164,157712,6,0,B|115:148|132:114|132:114|196:150|272:124,1,199.499993911743,2|0,0:0|0:0,0:0:0:0:
376,62,158295,1,0,0:0:0:0:
376,62,158586,2,0,P|413:112|380:173,2,132.999995941162,2|0|2,0:0|0:0|0:0,0:0:0:0:
297,231,159460,6,0,B|299:271|277:298|277:298|308:357|386:354,1,199.499993911743,2|0,0:0|0:0,0:0:0:0:
474,324,160042,1,0,0:0:0:0:
192,238,160333,1,2,0:0:0:0:
455,140,160625,1,0,0:0:0:0:
253,380,160916,1,2,0:0:0:0:
65,68,161207,5,2,1:2:0:0:
402,262,161498,1,0,1:0:0:0:
11,358,161790,1,2,0:0:0:0:
154,258,161935,1,0,0:0:0:0:
95,378,162081,6,0,B|97:328|97:328|67:286|67:286|72:229,1,156.750004783631,8|0,1:0|0:0,0:0:0:0:
93,109,162372,6,0,B|102:157|102:157|84:204,1,99.7499969558717,8|0,1:0|0:0,0:0:0:0:
71,231,162664,1,8,1:0:0:0:
15,151,162955,6,0,B|0:84|0:84|17:16,2,132.999995941162,4|0|0,1:2|1:0|1:0,1:0:0:0:
154,258,163829,2,0,B|188:242|222:255|222:255|254:266|283:252,2,132.999995941162,8|0|2,1:0|1:0|1:2,1:0:0:0:
16,367,164702,6,0,P|36:313|26:223,1,132.999995941162,2|0,1:2|1:0,1:0:0:0:
31,238,165139,1,0,0:0:0:0:
81,162,165285,2,0,L|155:159,1,66.4999979705811,0|0,1:0|0:0,0:0:0:0:
215,226,165576,2,0,P|258:208|358:220,1,132.999995941162,8|0,1:0|1:0,0:0:0:0:
413,351,166013,1,8,1:0:0:0:
288,307,166159,1,8,1:2:0:0:
437,238,166304,1,8,1:2:0:0:
301,155,166450,6,0,L|287:313,1,152,4|0,0:2|0:0,0:0:0:0:
414,93,167032,1,0,0:0:0:0:
185,216,167324,2,0,L|168:42,1,152,12|0,1:2|0:0,0:0:0:0:
111,292,167906,1,0,0:0:0:0:
185,216,168052,1,0,0:0:0:0:
261,143,168197,5,4,0:2:0:0:
0,290,168489,1,8,0:0:0:0:
362,294,168780,1,8,0:0:0:0:
180,24,169071,5,8,0:0:0:0:
261,143,169217,1,8,0:0:0:0:
305,22,169363,5,0,0:0:0:0:
144,168,169509,1,0,0:0:0:0:
339,261,169654,5,8,0:3:0:0:
194,49,169799,1,8,0:3:0:0:
80,275,169945,6,0,B|123:260|123:260|181:267,1,95,4|0,0:2|2:0,0:0:0:0:
335,356,170236,1,2,2:0:0:0:
144,168,170382,6,0,B|193:173|193:173|236:158,1,95,8|2,0:0|2:0,0:0:0:0:
410,45,170673,1,2,2:0:0:0:
236,65,170819,5,4,0:2:0:0:
384,216,170964,1,0,2:0:0:0:
319,8,171110,1,2,2:0:0:0:
262,259,171256,5,4,0:2:0:0:
511,277,171401,1,2,2:0:0:0:
322,121,171547,1,2,2:0:0:0:
319,348,171693,5,4,0:2:0:0:
426,101,171838,1,0,2:0:0:0:
158,143,171984,1,2,2:0:0:0:
413,309,172130,5,12,0:2:0:0:
83,290,172275,2,0,P|86:255|99:224,1,61.7499971733095,2|0,2:0|2:0,2:0:0:0:
265,14,172421,1,2,2:0:0:0:
288,304,172566,5,4,0:2:0:0:
149,173,172712,1,8,0:0:0:0:
149,173,172785,1,8,0:0:0:0:
149,173,172858,1,8,0:0:0:0:
328,119,173003,5,8,0:0:0:0:
245,211,173149,1,10,0:2:0:0:
163,304,173295,1,10,0:2:0:0:
138,56,173440,5,12,0:0:0:0:
439,182,173731,1,8,0:2:0:0:
64,247,174023,1,8,0:2:0:0:
457,320,174314,6,0,B|462:251|462:251|432:161,1,142.5,4|8,0:2|0:0,0:0:0:0:
256,46,174897,1,8,0:0:0:0:
367,333,175188,6,0,B|372:264|372:264|347:188,1,142.499995651245,4|0,0:2|2:0,0:0:0:0:
176,20,176062,5,8,0:2:0:0:
256,356,176353,1,8,0:2:0:0:
336,20,176644,1,8,0:2:0:0:
51,263,176935,6,0,B|85:249|120:264|120:264|153:279|193:268,1,142.5,4|8,0:0|0:0,0:0:0:0:
456,165,177518,1,8,0:0:0:0:
185,46,177809,6,0,P|102:93|176:170,1,213.750008153916,4|0,0:2|2:0,0:0:0:0:
319,142,178392,2,0,P|286:129|251:125,1,71.2500027179719,8|0,0:0|2:0,0:0:0:0:
118,268,178683,5,0,0:0:0:0:
372,232,178829,1,8,0:0:0:0:
160,68,178974,2,0,P|148:118|155:169,1,104.500003189087,8|0,0:0|2:0,0:0:0:0:
358,359,179265,1,8,0:0:0:0:
250,124,179411,1,8,0:0:0:0:
138,359,179557,5,2,0:2:0:0:
340,220,179702,2,8,P|315:214|271:213,1,54.6250010418892
139,263,179848,1,2,0:2:0:0:
210,93,179994,2,8,P|210:119|216:148,1,54.6250010418892
302,296,180139,1,8,0:2:0:0:
353,61,180285,1,8,0:2:0:0:
500,284,180430,6,0,P|444:277|389:290,1,113.999996520996,4|0,0:2|2:0,0:0:0:0:
101,369,180722,2,0,P|127:318|138:263,1,113.999996520996,0|0,0:0|2:0,0:0:0:0:
134,30,181013,1,0,0:0:0:0:
271,266,181159,1,2,2:0:0:0:
437,67,181304,2,0,P|351:109|217:95,1,227.999993041992,8|0,0:0|0:0,0:0:0:0:
468,194,181741,1,2,2:0:0:0:
249,256,181887,2,0,P|165:243|63:263,1,170.999994781494,0|0,0:0|2:0,0:0:0:0:
14,198,182178,6,0,P|76:219|126:219,1,113.999996520996,2|0,0:2|2:0,0:0:0:0:
404,103,182469,2,0,P|342:135|305:173,1,113.999996520996,0|0,0:0|2:0,0:0:0:0:
118,339,182761,2,0,P|175:323|225:284,1,113.999996520996,0|0,0:0|2:0,0:0:0:0:
196,15,183052,2,0,L|206:142,1,113.999996520996,8|0,0:0|2:0,0:0:0:0:
345,292,183343,1,0,0:0:0:0:
101,176,183488,1,8,0:0:0:0:
326,65,183634,1,8,0:2:0:0:
204,317,183780,1,8,0:2:0:0:
460,357,183926,6,0,L|434:119,1,227.999993041992,4|0,0:2|0:0,0:0:0:0:
311,299,184363,1,0,2:0:0:0:
326,65,184508,2,0,L|318:192,1,113.999996520996,0|2,0:0|2:0,0:0:0:0:
54,323,184799,2,0,P|15:232|67:115,1,227.999993041992,8|0,0:0|0:0,0:0:0:0:
218,58,185236,1,2,2:0:0:0:
143,225,185382,1,0,0:0:0:0:
143,225,185528,1,0,0:0:0:0:
119,17,185673,5,2,0:2:0:0:
238,276,185819,1,8,0:0:0:0:
8,134,185964,2,0,B|62:119|62:119|126:127,1,113.999996520996,8|0,0:0|2:0,0:0:0:0:
342,249,186256,1,8,0:0:0:0:
73,222,186401,1,8,0:0:0:0:
347,128,186547,5,0,0:0:0:0:
161,314,186693,2,8,L|155:235,1,56.9999982604981
144,119,186838,1,8,0:0:0:0:
250,282,186984,2,8,L|256:212,1,56.9999982604981
270,39,187130,1,8,0:2:0:0:
342,249,187275,1,8,0:2:0:0:
423,17,187421,5,4,0:2:0:0:
505,87,187712,1,0,0:0:0:0:
466,186,188003,1,0,0:0:0:0:
131,189,188295,6,0,P|75:167|35:121,1,104.500003189087,8|0,0:0|2:0,0:0:0:0:
219,28,188586,2,0,P|232:92|226:146,1,104.500003189087,2|0,0:2|2:0,0:0:0:0:
365,116,188877,2,0,P|355:174|331:224,1,104.500003189087,2|0,0:2|2:0,0:0:0:0:
149,332,189168,5,0,0:0:0:0:
10,206,189460,1,0,0:0:0:0:
116,51,189751,1,0,0:0:0:0:
437,191,190042,6,0,P|389:211|337:215,1,104.500003189087,8|0,0:0|2:0,0:0:0:0:
220,204,190333,1,0,0:0:0:0:
289,109,190479,5,8,0:0:0:0:
267,309,190625,1,8,0:2:0:0:
104,194,190770,1,8,0:2:0:0:
338,216,190916,5,4,0:2:0:0:
86,297,191062,1,0,2:0:0:0:
128,49,191207,2,0,L|291:61,1,156.750004783631,0|0,0:0|2:0,0:0:0:0:
436,72,191498,2,0,B|421:101|421:101|361:125|304:84,1,156.750004783631,0|0,0:0|2:0,0:0:0:0:
168,182,191790,6,0,P|234:173|277:177,1,104.500003189087,12|0,0:2|2:0,0:0:0:0:
503,204,192081,2,0,P|453:219|394:223,1,104.500003189087,0|0,0:0|2:0,0:0:0:0:
144,76,192372,1,0,0:0:0:0:
309,278,192518,1,8,0:2:0:0:
74,255,192664,5,4,0:2:0:0:
351,106,192810,1,8,0:0:0:0:
5,50,192955,2,0,P|-1:106|12:163,1,113.999996520996,8|0,0:0|2:0,0:0:0:0:
366,200,193247,1,8,0:0:0:0:
116,99,193392,1,8,0:0:0:0:
387,18,193537,5,4,0:2:0:0:
220,234,193683,2,8,P|212:202|209:167,1,61.7499971733095
279,22,193829,1,8,0:0:0:0:
329,279,193974,2,8,P|335:253|339:214,1,61.7499971733095
175,19,194120,2,0,P|181:50|192:79,1,61.7499971733095,8|0,0:2|2:0,0:0:0:0:
403,131,194265,2,0,P|370:115|331:107,1,61.7499971733095,10|0,0:2|2:0,0:0:0:0:
115,164,194411,6,0,P|186:190|303:111,1,227.999993041992,4|0,0:2|0:0,0:0:0:0:
79,54,194848,1,0,2:0:0:0:
203,236,194994,2,0,P|223:298|230:351,1,113.999996520996,0|2,0:0|2:0,0:0:0:0:
403,131,195285,2,0,P|383:64|378:15,1,113.999996520996,8|0,0:0|2:0,0:0:0:0:
100,152,195577,2,0,P|81:211|76:268,1,113.999996520996,0|0,0:0|2:0,0:0:0:0:
389,373,195868,2,0,P|383:324|361:251,1,113.999996520996,0|0,0:0|2:0,0:0:0:0:
170,48,196159,5,2,0:2:0:0:
229,346,196304,1,8,0:0:0:0:
319,53,196450,1,8,0:0:0:0:
319,53,196741,5,8,0:0:0:0:
165,190,196887,1,8,0:0:0:0:
170,48,197032,1,0,0:0:0:0:
314,195,197178,1,0,0:0:0:0:
94,263,197324,1,8,0:2:0:0:
242,120,197469,1,8,0:2:0:0:
379,282,197615,2,0,B|324:300|324:300|258:291,1,113.999996520996,8|0,0:2|0:0,0:0:0:0:
101,154,197906,5,4,0:2:0:0:
314,195,198052,1,0,2:0:0:0:
94,263,198197,5,0,0:0:0:0:
272,95,198343,1,2,2:0:0:0:
173,339,198489,5,2,0:2:0:0:
170,58,198634,1,2,2:0:0:0:
379,306,198780,6,0,P|324:291|267:291,1,113.999996520996,12|0,0:2|2:0,0:0:0:0:
293,28,199071,2,0,P|307:83|336:132,1,113.999996520996,0|0,0:0|2:0,0:0:0:0:
95,241,199363,2,0,P|136:201|164:152,1,113.999996520996,2|0,0:2|2:0,0:0:0:0:
197,351,199654,5,4,0:2:0:0:
41,135,199799,1,8,0:0:0:0:
259,60,199945,2,0,P|283:113|290:167,1,113.999996520996,8|2,0:0|2:0,0:0:0:0:
71,363,200236,1,8,0:0:0:0:
163,152,200382,1,8,0:0:0:0:
360,318,200528,6,0,B|335:303|304:301|304:301|256:342|194:327,1,170.999994781494,6|0,0:2|2:0,0:0:0:0:
121,293,200819,1,12,0:2:0:0:
211,154,200964,1,8,0:0:0:0:
225,191,201037,1,8,0:0:0:0:
226,230,201110,1,8,0:2:0:0:
282,53,201256,1,0,0:0:0:0:
102,145,201401,6,0,B|157:131|212:154|212:154|268:177|326:165,1,227.999993041992,4|0,0:2|0:0,0:0:0:0:
398,73,201838,1,0,2:0:0:0:
148,252,201984,2,0,P|96:253|16:273,1,113.999996520996,0|2,0:0|2:0,0:0:0:0:
361,383,202275,2,0,L|342:270,1,113.999996520996,8|0,0:0|2:0,0:0:0:0:
504,29,202566,2,0,L|487:151,1,113.999996520996,0|0,0:0|2:0,0:0:0:0:
164,143,202858,2,0,L|179:30,1,113.999996520996,0|0,0:0|2:0,0:0:0:0:
342,270,203149,5,4,0:2:0:0:
45,229,203295,1,8,0:0:0:0:
316,106,203440,1,8,0:0:0:0:
316,106,203731,5,8,0:0:0:0:
214,292,203877,1,8,0:0:0:0:
182,79,204023,1,8,0:2:0:0:
329,227,204168,2,8,P|301:214|256:201,1,56.9999982604981
119,195,204314,1,8,0:0:0:0:
316,106,204460,2,8,P|343:102|377:91,1,56.9999982604981
182,79,204605,1,8,0:2:0:0:
435,182,204751,1,8,0:2:0:0:
183,308,204897,6,0,P|120:295|74:297,1,104.500003189087,4|0,0:2|2:0,0:0:0:0:
324,350,205188,2,0,P|382:335|436:331,1,104.500003189087,2|0,0:2|2:0,0:0:0:0:
256,191,205479,2,0,B|229:133|236:62|236:62|260:80,1,156.750004783631,2|0,0:2|2:2,0:2:0:0:
353,146,205770,6,0,L|345:266,1,104.500003189087,4|0,0:2|2:0,0:0:0:0:
143,78,206062,2,0,P|144:128|157:198,1,104.500003189087,2|0,0:2|2:0,0:0:0:0:
468,38,206353,2,0,P|467:89|455:150,1,104.500003189087,2|2,0:2|2:0,0:0:0:0:
255,303,206644,6,0,P|199:294|145:296,1,104.500003189087,6|0,0:2|2:0,0:0:0:0:
305,110,206935,2,0,P|324:176|343:218,1,104.500003189087,2|0,0:2|2:0,0:0:0:0:
121,375,207227,2,0,P|115:287|78:212,1,156.750004783631,2|0,0:2|2:0,0:0:0:0:
75,102,207518,2,0,P|63:164|65:211,1,104.500003189087,4|0,0:2|2:0,0:0:0:0:
262,344,207809,5,2,0:2:0:0:
166,170,207955,1,8,0:0:0:0:
380,100,208100,1,10,0:2:0:0:
254,237,208246,1,8,0:2:0:0:
467,284,208392,6,0,P|466:232|451:177,1,104.500003189087,4|0,0:2|2:0,0:0:0:0:
184,28,208683,2,0,L|171:143,1,104.500003189087,2|0,0:2|2:0,0:0:0:0:
291,369,208974,2,0,B|307:336|307:336|294:212,1,156.750004783631,2|0,0:2|2:0,0:0:0:0:
166,170,209265,6,0,B|162:223|162:223|179:279,1,104.500003189087,4|0,0:2|2:0,0:0:0:0:
415,114,209557,2,0,L|292:99,1,104.500003189087,2|0,0:2|2:0,0:0:0:0:
73,284,209848,2,0,L|196:269,1,104.500003189087,2|2,0:2|2:0,0:0:0:0:
469,324,210139,5,4,0:2:0:0:
207,267,210285,1,8,0:0:0:0:
474,223,210430,2,0,B|485:273|485:273|466:333,1,104.500003189087,8|0,0:0|2:0,0:0:0:0:
256,192,210722,1,8,0:0:0:0:
441,22,210867,1,8,0:0:0:0:
354,269,211013,5,2,0:2:0:0:
159,117,211159,1,8,0:0:0:0:
150,66,211231,1,8,0:0:0:0:
166,16,211304,1,8,0:0:0:0:
381,144,211450,1,8,0:0:0:0:
388,188,211523,1,8,0:0:0:0:
380,232,211596,1,8,0:0:0:0:
140,363,211741,1,10,0:2:0:0:
256,192,211887,5,6,0:2:0:0:
256,192,211960,12,0,218877,0:0:0:0:
