osu file format v14

[General]
AudioFilename: audio.mp3
AudioLeadIn: 0
PreviewTime: 14280
Countdown: 0
SampleSet: Soft
StackLeniency: 0.7
Mode: 3
LetterboxInBreaks: 0
SpecialStyle: 0
WidescreenStoryboard: 1

[Editor]
DistanceSpacing: 1.2
BeatDivisor: 4
GridSize: 4
TimelineZoom: 2.2

[Metadata]
Title:escape (TV Size)
TitleUnicode:escape (TV Size)
Artist:XX:me
ArtistUnicode:XX:me
Creator:_Asha
Version:Chilly's Hard
Source:ダーリン・イン・ザ・フランキス
Tags:darling in the franxx ed ending キス・ミー Chilly-
BeatmapID:1845012
BeatmapSetID:882486

[Difficulty]
HPDrainRate:8
CircleSize:4
OverallDifficulty:8
ApproachRate:5
SliderMultiplier:1.4
SliderTickRate:1

[Events]
//Background and Video events
0,0,"bg.jpg",0,0
//Break Periods
//Storyboard Layer 0 (Background)
//Storyboard Layer 1 (Fail)
//Storyboard Layer 2 (Pass)
//Storyboard Layer 3 (Foreground)
//Storyboard Sound Samples

[TimingPoints]
300,291.26213592233,6,2,1,50,1,0
43989,-100,6,2,1,50,0,1
50833,-100,6,2,1,50,0,0
50979,-100,6,2,1,50,0,1
57969,-100,6,2,1,50,0,0
75445,-100,6,2,1,50,0,1
82435,375,4,2,1,30,1,0

[HitObjects]
320,192,300,128,0,372:0:0:0:0:
192,192,445,1,0,0:0:0:0:
64,192,591,1,0,0:0:0:0:
192,192,736,1,0,0:0:0:0:
320,192,882,1,0,0:0:0:0:
448,192,1028,1,0,0:0:0:0:
192,192,1173,128,0,1246:0:0:0:0:
64,192,1319,1,0,0:0:0:0:
320,192,1465,1,0,0:0:0:0:
192,192,1610,1,0,0:0:0:0:
320,192,1756,1,0,0:0:0:0:
448,192,1901,1,0,0:0:0:0:
64,192,2047,128,0,2120:0:0:0:0:
192,192,2193,1,0,0:0:0:0:
320,192,2338,1,0,0:0:0:0:
192,192,2484,1,0,0:0:0:0:
320,192,2630,1,0,0:0:0:0:
448,192,2775,1,0,0:0:0:0:
192,192,2921,128,0,2994:0:0:0:0:
448,192,3066,1,0,0:0:0:0:
320,192,3212,1,0,0:0:0:0:
192,192,3358,1,0,0:0:0:0:
320,192,3503,1,0,0:0:0:0:
448,192,3649,1,0,0:0:0:0:
320,192,3795,128,0,3867:0:0:0:0:
192,192,3940,1,0,0:0:0:0:
64,192,4086,1,0,0:0:0:0:
192,192,4232,1,0,0:0:0:0:
320,192,4377,1,0,0:0:0:0:
448,192,4523,1,0,0:0:0:0:
192,192,4668,128,0,4741:0:0:0:0:
64,192,4814,1,0,0:0:0:0:
320,192,4960,1,0,0:0:0:0:
192,192,5105,1,0,0:0:0:0:
320,192,5251,1,0,0:0:0:0:
448,192,5397,1,0,0:0:0:0:
192,192,5542,1,8,0:0:0:0:
64,192,5542,1,0,0:0:0:0:
448,192,5688,1,0,0:0:0:50:tong.wav
320,192,5688,1,0,0:0:0:0:
192,192,5979,1,0,0:0:0:50:tong.wav
192,192,6125,1,0,0:0:0:50:tong.wav
320,192,6270,1,0,0:0:0:50:tong.wav
64,192,6416,1,8,0:0:0:0:
448,192,6416,1,0,0:0:0:0:
192,192,6562,1,0,0:0:0:50:tong.wav
320,192,6707,1,0,0:0:0:50:tong.wav
320,192,6853,1,0,0:0:0:50:tong.wav
64,192,6999,128,0,7144:0:0:0:50:tong.wav
448,192,6999,1,0,0:0:0:0:
192,192,7144,128,0,7290:0:0:0:50:tong.wav
448,192,7290,1,4,0:0:0:0:
320,192,7290,1,2,0:0:0:0:
64,192,7290,1,0,0:0:0:0:
320,192,7581,1,0,0:0:0:0:
192,192,7727,1,2,0:0:0:0:
64,192,7727,1,0,0:0:0:0:
320,192,7872,1,2,0:0:0:0:
448,192,7872,1,0,0:0:0:0:
64,192,8164,1,8,0:0:0:0:
448,192,8164,1,0,0:0:0:0:
192,192,8164,1,0,0:0:0:0:
64,192,8455,1,0,0:0:0:0:
192,192,8746,1,2,0:0:0:0:
64,192,8746,128,0,9037:0:0:0:0:
320,192,9037,1,2,0:0:0:0:
448,192,9037,1,0,0:0:0:0:
448,192,9329,1,0,0:0:0:0:
192,192,9474,1,2,0:0:0:0:
64,192,9474,1,0,0:0:0:0:
448,192,9620,1,2,0:0:0:0:
320,192,9620,1,0,0:0:0:0:
64,192,9911,1,8,0:0:0:0:
192,192,9911,1,0,0:0:0:0:
320,192,9911,1,0,0:0:0:0:
192,192,10202,1,0,0:0:0:0:
192,192,10494,1,0,0:0:0:0:
64,192,10639,1,0,0:0:0:0:
448,192,10785,1,2,0:0:0:0:
320,192,10785,1,0,0:0:0:0:
320,192,11076,1,0,0:0:0:0:
192,192,11222,1,2,0:0:0:0:
64,192,11222,1,0,0:0:0:0:
320,192,11367,1,2,0:0:0:0:
448,192,11367,1,0,0:0:0:0:
64,192,11659,1,8,0:0:0:0:
448,192,11659,1,0,0:0:0:0:
192,192,11659,1,0,0:0:0:0:
64,192,11950,1,0,0:0:0:0:
192,192,12241,1,2,0:0:0:0:
64,192,12241,1,0,0:0:0:0:
320,192,12533,1,2,0:0:0:0:
448,192,12533,1,0,0:0:0:0:
448,192,12824,1,0,0:0:0:0:
192,192,12969,1,2,0:0:0:0:
64,192,12969,1,0,0:0:0:0:
448,192,13115,128,0,13406:0:0:0:0:
320,192,13115,1,2,0:0:0:0:
192,192,13406,1,8,0:0:0:0:
64,192,13406,1,0,0:0:0:0:
192,192,13552,1,8,0:0:0:0:
64,192,13552,1,0,0:0:0:0:
320,192,13698,1,2,0:0:0:0:
320,192,13843,1,2,0:0:0:0:
192,192,13989,1,2,0:0:0:0:
192,192,14134,1,2,0:0:0:0:
64,192,14280,128,4,14571:0:0:0:0:
320,192,14280,1,2,0:0:0:0:
448,192,14280,1,0,0:0:0:0:
448,192,14571,1,0,0:0:0:0:
64,192,14717,1,2,0:0:0:0:
320,192,14717,1,0,0:0:0:0:
192,192,14863,1,2,0:0:0:0:
448,192,14863,1,0,0:0:0:0:
192,192,15154,128,8,15736:0:0:0:0:
320,192,15154,1,0,0:0:0:0:
64,192,15154,1,0,0:0:0:0:
320,192,15445,1,0,0:0:0:0:
64,192,15736,1,2,0:0:0:0:
320,192,15736,1,0,0:0:0:0:
448,192,16028,128,2,16319:0:0:0:0:
64,192,16028,1,0,0:0:0:0:
320,192,16319,1,0,0:0:0:0:
64,192,16465,1,2,0:0:0:0:
192,192,16465,1,0,0:0:0:0:
448,192,16610,1,2,0:0:0:0:
320,192,16610,1,0,0:0:0:0:
320,192,16901,128,8,17484:0:0:0:0:
64,192,16901,1,0,0:0:0:0:
448,192,16901,1,0,0:0:0:0:
64,192,17193,1,0,0:0:0:0:
64,192,17484,128,2,17775:0:0:0:0:
192,192,17484,1,0,0:0:0:0:
192,192,17775,1,2,0:0:0:0:
448,192,17775,128,0,18066:0:0:0:0:
64,192,18066,1,0,0:0:0:0:
448,192,18212,1,2,0:0:0:0:
320,192,18212,1,0,0:0:0:0:
192,192,18358,1,2,0:0:0:0:
64,192,18358,1,0,0:0:0:0:
64,192,18649,128,0,18940:0:0:0:0:
320,192,18649,1,8,0:0:0:0:
448,192,18649,1,0,0:0:0:0:
448,192,18940,128,0,19232:0:0:0:0:
192,192,19232,128,2,19523:0:0:0:0:
320,192,19232,1,0,0:0:0:0:
448,192,19523,128,2,19814:0:0:0:0:
320,192,19523,1,0,0:0:0:0:
64,192,19814,1,0,0:0:0:0:
192,192,19960,1,2,0:0:0:0:
448,192,19960,1,0,0:0:0:0:
320,192,20105,1,2,0:0:0:0:
64,192,20105,1,0,0:0:0:0:
64,192,20397,128,8,20979:0:0:0:0:
448,192,20397,1,0,0:0:0:0:
192,192,20397,1,0,0:0:0:0:
448,192,20688,1,0,0:0:0:0:
448,192,20979,128,2,21270:0:0:0:0:
320,192,20979,1,0,0:0:0:0:
192,192,21270,128,4,21562:0:0:0:0:
64,192,21270,1,2,0:0:0:0:
320,192,21270,1,0,0:0:0:0:
448,192,21562,1,0,0:0:0:0:
64,192,21707,1,2,0:0:0:0:
192,192,21707,1,0,0:0:0:0:
320,192,21853,1,2,0:0:0:0:
448,192,21853,1,0,0:0:0:0:
448,192,22144,128,8,22727:0:0:0:0:
192,192,22144,1,0,0:0:0:0:
64,192,22144,1,0,0:0:0:0:
192,192,22435,1,0,0:0:0:0:
320,192,22727,1,2,0:0:0:0:
192,192,22727,1,0,0:0:0:0:
64,192,23018,128,2,23309:0:0:0:0:
320,192,23018,1,0,0:0:0:0:
448,192,23309,1,0,0:0:0:0:
64,192,23455,1,2,0:0:0:0:
320,192,23455,1,0,0:0:0:0:
192,192,23600,1,2,0:0:0:0:
448,192,23600,1,0,0:0:0:0:
320,192,23892,128,8,24474:0:0:0:0:
64,192,23892,1,0,0:0:0:0:
448,192,23892,1,0,0:0:0:0:
64,192,24183,1,0,0:0:0:0:
64,192,24474,1,2,0:0:0:0:
448,192,24474,1,0,0:0:0:0:
448,192,24766,1,0,0:0:0:0:
192,192,24766,128,2,25057:0:0:0:0:
320,192,25057,1,0,0:0:0:0:
64,192,25202,1,2,0:0:0:0:
192,192,25202,1,0,0:0:0:0:
320,192,25348,1,2,0:0:0:0:
448,192,25348,1,0,0:0:0:0:
448,192,25639,128,8,25931:0:0:0:0:
192,192,25639,1,0,0:0:0:0:
64,192,25639,1,0,0:0:0:0:
64,192,25931,128,0,26222:0:0:0:0:
320,192,26222,128,2,26513:0:0:0:0:
448,192,26222,1,0,0:0:0:0:
192,192,26513,1,8,0:0:0:0:
64,192,26513,1,0,0:0:0:0:
448,192,26659,1,0,0:0:0:50:tong.wav
320,192,26659,1,0,0:0:0:0:
448,192,26950,1,2,0:0:0:0:
64,192,26950,1,0,0:0:0:0:
320,192,27096,1,2,0:0:0:0:
192,192,27096,1,0,0:0:0:0:
192,192,27387,1,8,0:0:0:0:
64,192,27387,1,0,0:0:0:0:
64,192,27533,1,8,0:0:0:0:
192,192,27533,1,0,0:0:0:0:
320,192,27678,1,2,0:0:0:0:
448,192,27678,1,0,0:0:0:0:
64,192,27824,1,0,0:0:0:0:
192,192,27969,1,2,0:0:0:0:
448,192,27969,1,0,0:0:0:0:
320,192,28115,1,0,0:0:0:0:
64,192,28261,1,4,0:0:0:0:
192,192,28261,1,2,0:0:0:0:
448,192,28261,1,0,0:0:0:0:
320,192,28552,1,2,0:0:0:0:
64,192,28698,1,2,0:0:0:0:
320,192,28843,1,2,0:0:0:0:
448,192,28843,1,0,0:0:0:0:
192,192,29134,1,8,0:0:0:0:
448,192,29134,1,0,0:0:0:0:
64,192,29134,1,0,0:0:0:0:
320,192,29426,1,2,0:0:0:0:
192,192,29571,1,2,0:0:0:0:
320,192,29717,1,2,0:0:0:0:
64,192,29717,1,0,0:0:0:0:
192,192,30008,1,2,0:0:0:0:
320,192,30008,1,0,0:0:0:0:
64,192,30299,1,2,0:0:0:0:
448,192,30445,1,2,0:0:0:0:
64,192,30591,1,2,0:0:0:0:
192,192,30591,1,0,0:0:0:0:
320,192,30882,128,8,31173:0:0:0:0:
64,192,30882,1,0,0:0:0:0:
448,192,30882,1,0,0:0:0:0:
192,192,31173,1,2,0:0:0:0:
320,192,31319,1,2,0:0:0:0:
64,192,31465,1,2,0:0:0:0:
448,192,31465,128,0,31756:0:0:0:0:
192,192,31756,1,2,0:0:0:0:
64,192,31756,1,0,0:0:0:0:
320,192,32047,1,2,0:0:0:0:
64,192,32193,1,2,0:0:0:0:
192,192,32338,1,2,0:0:0:0:
320,192,32338,1,0,0:0:0:0:
448,192,32630,1,8,0:0:0:0:
64,192,32630,1,0,0:0:0:0:
192,192,32630,1,0,0:0:0:0:
320,192,32921,1,2,0:0:0:0:
192,192,33066,1,2,0:0:0:0:
64,192,33212,1,2,0:0:0:0:
448,192,33212,1,0,0:0:0:0:
320,192,33503,1,2,0:0:0:0:
448,192,33503,1,0,0:0:0:0:
192,192,33795,1,2,0:0:0:0:
448,192,33940,1,2,0:0:0:0:
64,192,34086,1,2,0:0:0:0:
192,192,34086,1,0,0:0:0:0:
64,192,34377,1,8,0:0:0:0:
320,192,34377,128,4,34668:0:0:0:0:
448,192,34377,1,0,0:0:0:0:
192,192,34668,1,4,0:0:0:0:
64,192,34668,128,2,35251:0:0:0:0:
320,192,34960,1,2,0:0:0:0:
448,192,35251,128,2,35542:0:0:0:0:
192,192,35251,1,4,0:0:0:0:
320,192,35251,1,0,0:0:0:0:
64,192,35542,1,2,0:0:0:0:
192,192,35688,1,2,0:0:0:0:
320,192,35833,1,2,0:0:0:0:
448,192,35833,1,0,0:0:0:0:
192,192,36125,1,0,0:0:0:0:
64,192,36125,1,8,0:0:0:0:
320,192,36125,1,0,0:0:0:0:
448,192,36416,1,2,0:0:0:0:
192,192,36562,1,2,0:0:0:0:
320,192,36707,1,2,0:0:0:0:
448,192,36707,1,0,0:0:0:0:
64,192,36999,128,4,37290:0:0:0:0:
192,192,36999,1,2,0:0:0:0:
320,192,36999,1,0,0:0:0:0:
448,192,37290,1,2,0:0:0:0:
320,192,37435,1,2,0:0:0:0:
64,192,37581,1,2,0:0:0:0:
192,192,37581,1,0,0:0:0:0:
192,192,37872,1,8,0:0:0:0:
448,192,37872,1,0,0:0:0:0:
320,192,37872,1,0,0:0:0:0:
64,192,38164,1,2,0:0:0:0:
448,192,38309,1,2,0:0:0:0:
64,192,38455,1,0,0:0:0:0:
320,192,38455,1,2,0:0:0:0:
448,192,38746,128,4,39037:0:0:0:0:
192,192,38746,1,2,0:0:0:0:
64,192,38746,1,0,0:0:0:0:
320,192,39037,1,2,0:0:0:0:
64,192,39183,1,2,0:0:0:0:
192,192,39329,1,2,0:0:0:0:
448,192,39329,1,0,0:0:0:0:
448,192,39620,128,8,39911:0:0:0:0:
320,192,39620,1,0,0:0:0:0:
64,192,39620,1,4,0:0:0:0:
192,192,39911,1,2,0:0:0:0:
64,192,40057,1,2,0:0:0:0:
448,192,40202,1,2,0:0:0:0:
320,192,40202,1,0,0:0:0:0:
64,192,40494,128,4,40785:0:0:0:0:
192,192,40494,1,2,0:0:0:0:
448,192,40494,1,0,0:0:0:0:
320,192,40785,1,2,0:0:0:0:
192,192,40931,1,2,0:0:0:0:
64,192,41076,1,2,0:0:0:0:
448,192,41076,1,0,0:0:0:0:
192,192,41367,1,8,0:0:0:0:
448,192,41367,1,0,0:0:0:0:
320,192,41513,1,8,0:0:0:0:
192,192,41586,1,8,0:0:0:0:
64,192,41659,1,2,0:0:0:0:
448,192,41659,1,0,0:0:0:0:
320,192,41804,1,8,0:0:0:0:
448,192,41804,1,0,0:0:0:0:
64,192,41950,1,8,0:0:0:0:
192,192,41950,1,0,0:0:0:0:
192,192,42096,1,8,0:0:0:0:
64,192,42096,1,0,0:0:0:0:
448,192,42241,1,4,0:0:0:0:
320,192,42241,1,2,0:0:0:0:
192,192,42387,1,0,0:0:0:0:
448,192,42533,1,0,0:0:0:0:
64,192,42678,1,8,0:0:0:0:
192,192,42678,1,0,0:0:0:0:
320,192,42824,1,0,0:0:0:0:
192,192,42969,1,0,0:0:0:0:
448,192,43115,128,4,43261:0:0:0:0:
64,192,43115,1,2,0:0:0:0:
320,192,43261,128,0,43406:0:0:0:0:
64,192,43406,128,0,43552:0:0:0:0:
192,192,43552,1,4,0:0:0:0:
448,192,43552,128,2,43698:0:0:0:0:
320,192,43698,128,0,43843:0:0:0:0:
64,192,43843,128,0,43989:0:0:0:0:
448,192,43989,128,4,44571:0:0:0:0:
192,192,43989,1,2,0:0:0:0:
320,192,43989,1,0,0:0:0:0:
192,192,44280,1,2,0:0:0:0:
192,192,44571,1,2,0:0:0:0:
448,192,44863,1,8,0:0:0:0:
64,192,44863,128,0,45445:0:0:0:0:
320,192,44863,1,0,0:0:0:0:
448,192,45154,1,2,0:0:0:0:
448,192,45445,128,0,45736:0:0:0:0:
192,192,45445,1,2,0:0:0:0:
192,192,45736,128,2,46319:0:0:0:0:
320,192,45736,1,0,0:0:0:0:
320,192,46028,1,2,0:0:0:0:
320,192,46319,1,2,0:0:0:0:
448,192,46610,1,8,0:0:0:0:
64,192,46610,128,0,46901:0:0:0:0:
192,192,46610,1,0,0:0:0:0:
448,192,46901,1,2,0:0:0:0:
64,192,47047,1,8,0:0:0:0:
192,192,47047,1,0,0:0:0:0:
448,192,47193,1,2,0:0:0:0:
192,192,47338,1,2,0:0:0:0:
64,192,47484,128,2,48066:0:0:0:0:
320,192,47484,1,4,0:0:0:0:
448,192,47484,1,0,0:0:0:0:
320,192,47775,1,2,0:0:0:0:
320,192,48066,1,2,0:0:0:0:
320,192,48358,128,8,48940:0:0:0:0:
64,192,48358,1,0,0:0:0:0:
448,192,48358,1,0,0:0:0:0:
64,192,48649,1,2,0:0:0:0:
64,192,48940,1,2,0:0:0:0:
192,192,49086,1,2,0:0:0:0:
320,192,49232,1,2,0:0:0:0:
448,192,49232,1,0,0:0:0:0:
192,192,49377,1,8,0:0:0:0:
64,192,49377,1,0,0:0:0:0:
64,192,49523,1,8,0:0:0:0:
192,192,49523,1,0,0:0:0:0:
448,192,49814,1,8,0:0:0:0:
320,192,49814,1,0,0:0:0:0:
320,192,49960,1,8,0:0:0:0:
448,192,49960,1,0,0:0:0:0:
192,192,50105,1,2,0:0:0:0:
64,192,50105,1,0,0:0:0:0:
320,192,50251,1,8,0:0:0:0:
192,192,50324,1,8,0:0:0:0:
64,192,50397,1,2,0:0:0:0:
320,192,50397,1,0,0:0:0:0:
192,192,50542,1,8,0:0:0:0:
320,192,50615,1,8,0:0:0:0:
448,192,50688,1,2,0:0:0:0:
192,192,50688,1,0,0:0:0:0:
320,192,50833,1,2,0:0:0:0:
64,192,50979,1,2,0:0:0:0:
448,192,50979,128,4,51562:0:0:0:0:
192,192,50979,1,0,0:0:0:0:
64,192,51270,1,2,0:0:0:0:
64,192,51562,1,2,0:0:0:0:
192,192,51853,128,8,52435:0:0:0:0:
448,192,51853,1,0,0:0:0:0:
320,192,51853,1,0,0:0:0:0:
448,192,52144,1,2,0:0:0:0:
448,192,52435,128,0,52727:0:0:0:0:
64,192,52435,1,2,0:0:0:0:
64,192,52727,128,2,53309:0:0:0:0:
320,192,52727,1,0,0:0:0:0:
320,192,53018,1,2,0:0:0:0:
320,192,53309,1,2,0:0:0:0:
64,192,53600,1,8,0:0:0:0:
448,192,53600,128,0,53892:0:0:0:0:
192,192,53600,1,0,0:0:0:0:
64,192,53892,1,2,0:0:0:0:
448,192,54037,1,8,0:0:0:0:
320,192,54037,1,0,0:0:0:0:
64,192,54183,1,2,0:0:0:0:
320,192,54329,1,2,0:0:0:0:
448,192,54474,128,2,55057:0:0:0:0:
192,192,54474,1,4,0:0:0:0:
64,192,54474,1,0,0:0:0:0:
192,192,54766,1,2,0:0:0:0:
192,192,55057,1,2,0:0:0:0:
64,192,55348,128,8,55931:0:0:0:0:
320,192,55348,1,0,0:0:0:0:
448,192,55348,1,0,0:0:0:0:
320,192,55639,1,2,0:0:0:0:
320,192,55931,1,2,0:0:0:0:
448,192,56076,1,2,0:0:0:0:
192,192,56222,1,2,0:0:0:0:
64,192,56222,1,0,0:0:0:0:
320,192,56367,1,8,0:0:0:0:
448,192,56367,1,0,0:0:0:0:
320,192,56513,1,8,0:0:0:0:
448,192,56513,1,0,0:0:0:0:
64,192,56804,1,8,0:0:0:0:
192,192,56804,1,0,0:0:0:0:
192,192,56950,1,8,0:0:0:0:
64,192,56950,1,0,0:0:0:0:
320,192,57096,1,2,0:0:0:0:
448,192,57096,1,0,0:0:0:0:
192,192,57241,1,8,0:0:0:0:
320,192,57314,1,8,0:0:0:0:
64,192,57387,1,0,0:0:0:0:
448,192,57387,1,2,0:0:0:0:
320,192,57533,1,8,0:0:0:0:
192,192,57605,1,8,0:0:0:0:
64,192,57678,128,2,57969:0:0:0:0:
448,192,57678,1,0,0:0:0:0:
448,192,57969,1,2,0:0:0:0:
320,192,57969,1,4,0:0:0:0:
192,192,57969,1,0,0:0:0:0:
448,192,58261,1,2,0:0:0:0:
448,192,58552,1,2,0:0:0:0:
320,192,58843,128,8,59426:0:0:0:0:
64,192,58843,1,0,0:0:0:0:
192,192,58843,1,0,0:0:0:0:
64,192,59134,1,2,0:0:0:0:
64,192,59426,1,2,0:0:0:0:
192,192,59717,128,2,60299:0:0:0:0:
448,192,59717,1,0,0:0:0:0:
448,192,60008,1,2,0:0:0:0:
448,192,60299,1,2,0:0:0:0:
320,192,60591,128,8,60882:0:0:0:0:
192,192,60591,1,0,0:0:0:0:
64,192,60591,1,0,0:0:0:0:
192,192,60882,1,2,0:0:0:0:
448,192,61028,1,8,0:0:0:0:
320,192,61028,1,0,0:0:0:0:
64,192,61173,1,2,0:0:0:0:
320,192,61319,1,2,0:0:0:0:
64,192,61465,1,4,0:0:0:0:
192,192,61465,1,0,0:0:0:0:
448,192,61465,128,2,61756:0:0:0:0:
64,192,61756,1,2,0:0:0:0:
64,192,62047,1,2,0:0:0:0:
320,192,62338,1,4,0:0:0:0:
192,192,62338,128,8,62630:0:0:0:0:
448,192,62338,1,0,0:0:0:0:
320,192,62630,1,2,0:0:0:0:
320,192,62921,1,2,0:0:0:0:
192,192,63066,1,2,0:0:0:0:
320,192,63212,1,4,0:0:0:0:
448,192,63212,1,2,0:0:0:0:
192,192,63358,1,8,0:0:0:0:
64,192,63358,1,0,0:0:0:0:
64,192,63503,1,8,0:0:0:0:
192,192,63503,1,0,0:0:0:0:
320,192,63795,1,8,0:0:0:0:
448,192,63795,1,0,0:0:0:0:
320,192,63940,1,8,0:0:0:0:
448,192,63940,1,0,0:0:0:0:
64,192,64086,1,2,0:0:0:0:
192,192,64086,1,4,0:0:0:0:
320,192,64232,1,8,0:0:0:0:
192,192,64304,1,8,0:0:0:0:
320,192,64377,1,2,0:0:0:0:
448,192,64377,1,0,0:0:0:0:
64,192,64523,1,8,0:0:0:0:
192,192,64596,1,8,0:0:0:0:
320,192,64668,1,2,0:0:0:0:
448,192,64668,1,0,0:0:0:0:
192,192,64814,1,2,0:0:0:0:
64,192,64960,1,2,0:0:0:0:
448,192,64960,128,4,65542:0:0:0:0:
320,192,64960,1,0,0:0:0:0:
64,192,65251,1,2,0:0:0:0:
64,192,65542,1,2,0:0:0:0:
448,192,65833,1,8,0:0:0:0:
192,192,65833,128,0,66125:0:0:0:0:
320,192,65833,1,0,0:0:0:0:
320,192,66125,128,0,66416:0:0:0:0:
64,192,66125,1,2,0:0:0:0:
448,192,66416,1,2,0:0:0:0:
64,192,66416,128,0,66707:0:0:0:0:
448,192,66707,1,2,0:0:0:0:
320,192,66707,1,0,0:0:0:0:
192,192,66853,1,8,0:0:0:0:
64,192,66853,1,0,0:0:0:0:
192,192,66999,1,8,0:0:0:0:
64,192,66999,1,0,0:0:0:0:
320,192,67290,1,8,0:0:0:0:
448,192,67290,1,0,0:0:0:0:
320,192,67435,1,8,0:0:0:0:
448,192,67435,1,0,0:0:0:0:
64,192,67581,1,2,0:0:0:0:
64,192,67727,1,2,0:0:0:0:
448,192,67872,1,2,0:0:0:0:
448,192,68018,1,2,0:0:0:0:
192,192,68164,1,2,0:0:0:0:
192,192,68309,1,2,0:0:0:0:
64,192,68455,1,4,0:0:0:0:
448,192,68455,128,2,68600:0:0:0:0:
320,192,68455,1,0,0:0:0:0:
192,192,68600,128,0,68746:0:0:0:0:
320,192,68746,128,2,68892:0:0:0:0:
64,192,68892,128,0,69037:0:0:0:0:
448,192,69037,128,2,69183:0:0:0:0:
192,192,69183,128,0,69329:0:0:0:0:
320,192,69329,128,8,69620:0:0:0:0:
448,192,69329,1,4,0:0:0:0:
64,192,69329,1,0,0:0:0:0:
64,192,69620,128,2,69911:0:0:0:0:
448,192,69911,128,2,70202:0:0:0:0:
192,192,70202,1,2,0:0:0:0:
64,192,70202,1,4,0:0:0:0:
320,192,70348,1,8,0:0:0:0:
448,192,70348,1,0,0:0:0:0:
320,192,70494,1,8,0:0:0:0:
448,192,70494,1,0,0:0:0:0:
192,192,70785,1,8,0:0:0:0:
64,192,70785,1,0,0:0:0:0:
192,192,70931,1,8,0:0:0:0:
64,192,70931,1,0,0:0:0:0:
320,192,71076,1,2,0:0:0:0:
448,192,71076,1,4,0:0:0:0:
192,192,71367,1,4,0:0:0:0:
64,192,71367,1,2,0:0:0:0:
320,192,71513,1,8,0:0:0:0:
192,192,71586,1,8,0:0:0:0:
64,192,71659,1,2,0:0:0:0:
448,192,71659,1,0,0:0:0:0:
320,192,71804,1,2,0:0:0:0:
448,192,71950,128,2,72533:0:0:0:0:
192,192,71950,1,4,0:0:0:0:
64,192,71950,1,0,0:0:0:0:
192,192,72241,1,2,0:0:0:0:
192,192,72533,1,2,0:0:0:0:
320,192,72824,128,8,73115:0:0:0:0:
448,192,72824,1,0,0:0:0:0:
64,192,72824,1,0,0:0:0:0:
192,192,73115,128,0,73406:0:0:0:0:
64,192,73115,1,2,0:0:0:0:
448,192,73406,1,2,0:0:0:0:
320,192,73552,1,2,0:0:0:0:
192,192,73698,1,2,0:0:0:0:
64,192,73698,1,4,0:0:0:0:
448,192,73843,1,8,0:0:0:0:
320,192,73843,1,0,0:0:0:0:
320,192,73989,1,8,0:0:0:0:
448,192,73989,1,0,0:0:0:0:
192,192,74280,1,8,0:0:0:0:
64,192,74280,1,0,0:0:0:0:
192,192,74426,1,8,0:0:0:0:
64,192,74426,1,0,0:0:0:0:
320,192,74571,1,4,0:0:0:0:
448,192,74571,1,2,0:0:0:0:
192,192,74717,1,8,0:0:0:0:
320,192,74790,1,8,0:0:0:0:
64,192,74863,1,2,0:0:0:0:
192,192,74863,1,0,0:0:0:0:
448,192,75008,1,8,0:0:0:0:
320,192,75081,1,8,0:0:0:0:
64,192,75154,1,0,0:0:0:0:
192,192,75154,1,2,0:0:0:0:
320,192,75299,1,0,0:0:0:0:
64,192,75445,128,4,75736:0:0:0:0:
448,192,75445,1,2,0:0:0:0:
192,192,75445,1,0,0:0:0:0:
448,192,75736,1,2,0:0:0:0:
448,192,76028,1,2,0:0:0:0:
192,192,76319,128,8,76610:0:0:0:0:
320,192,76319,1,4,0:0:0:0:
64,192,76319,1,0,0:0:0:0:
320,192,76610,1,2,0:0:0:0:
320,192,76901,1,2,0:0:0:0:
64,192,77193,1,4,0:0:0:0:
448,192,77193,128,2,77484:0:0:0:0:
192,192,77193,1,0,0:0:0:0:
64,192,77484,1,2,0:0:0:0:
64,192,77775,1,2,0:0:0:0:
320,192,78066,128,4,78358:0:0:0:0:
448,192,78066,1,8,0:0:0:0:
192,192,78066,1,0,0:0:0:0:
64,192,78358,1,2,0:0:0:0:
192,192,78358,1,0,0:0:0:0:
448,192,78503,1,8,0:0:0:0:
320,192,78503,1,0,0:0:0:0:
192,192,78649,1,2,0:0:0:0:
448,192,78795,1,2,0:0:0:0:
320,192,78940,1,2,0:0:0:0:
192,192,78940,128,4,79232:0:0:0:0:
64,192,78940,1,0,0:0:0:0:
320,192,79232,1,2,0:0:0:0:
320,192,79523,1,2,0:0:0:0:
64,192,79814,128,8,80105:0:0:0:0:
448,192,79814,1,4,0:0:0:0:
192,192,79814,1,0,0:0:0:0:
448,192,80105,1,2,0:0:0:0:
448,192,80397,1,2,0:0:0:0:
320,192,80542,1,2,0:0:0:0:
192,192,80688,1,4,0:0:0:0:
64,192,80688,1,2,0:0:0:0:
320,192,80833,1,8,0:0:0:0:
448,192,80833,1,0,0:0:0:0:
320,192,80979,1,8,0:0:0:0:
448,192,80979,1,0,0:0:0:0:
192,192,81270,1,8,0:0:0:0:
64,192,81270,1,0,0:0:0:0:
192,192,81416,1,8,0:0:0:0:
64,192,81416,1,0,0:0:0:0:
320,192,81562,1,2,0:0:0:0:
448,192,81562,1,0,0:0:0:0:
192,192,81707,1,8,0:0:0:0:
448,192,81780,1,8,0:0:0:0:
64,192,81853,1,2,0:0:0:0:
320,192,81853,1,0,0:0:0:0:
320,192,81999,1,8,0:0:0:0:
64,192,82071,1,8,0:0:0:0:
192,192,82144,1,2,0:0:0:0:
448,192,82144,1,0,0:0:0:0:
192,192,82290,1,2,0:0:0:0:
448,192,82435,1,2,0:0:0:0:
64,192,82435,128,4,85435:0:0:0:0:
320,192,82435,1,0,0:0:0:0:
320,192,83185,1,8,0:0:0:0:
448,192,83185,1,0,0:0:0:0:
320,192,83747,1,8,0:0:0:0:
192,192,83935,1,2,0:0:0:0:
320,192,84122,1,8,0:0:0:0:
192,192,84310,1,2,0:0:0:0:
448,192,84685,1,0,0:0:0:0:
320,192,84685,1,8,0:0:0:0:
320,192,85060,1,8,0:0:0:0:
448,192,85060,1,0,0:0:0:0:
320,192,85247,1,8,0:0:0:0:
448,192,85247,1,0,0:0:0:0:
