osu file format v14

[General]
AudioFilename: audio.mp3
AudioLeadIn: 0
PreviewTime: 14280
Countdown: 0
SampleSet: Soft
StackLeniency: 0.7
Mode: 0
LetterboxInBreaks: 0
WidescreenStoryboard: 0

[Editor]
DistanceSpacing: 1.2
BeatDivisor: 4
GridSize: 4
TimelineZoom: 1

[Metadata]
Title:escape (TV Size)
TitleUnicode:escape (TV Size)
Artist:XX:me
ArtistUnicode:XX:me
Creator:Nozhomi
Version:Normal
Source:ダーリン・イン・ザ・フランキス
Tags:darling in the franxx ed ending キス・ミー kiss me mir pachiru spotty
BeatmapID:1644652
BeatmapSetID:782869

[Difficulty]
HPDrainRate:3
CircleSize:3
OverallDifficulty:3.9
ApproachRate:5
SliderMultiplier:0.7
SliderTickRate:1

[Events]
//Background and Video events
0,0,"wanttobemydarling.jpg",0,0
//Break Periods
//Storyboard Layer 0 (Background)
//Storyboard Layer 1 (Fail)
//Storyboard Layer 2 (Pass)
//Storyboard Layer 3 (Foreground)
//Storyboard Sound Samples

[TimingPoints]
300,291.26213592233,6,2,1,30,1,0
5542,-100,3,3,2,40,0,0
5615,-100,3,2,1,40,0,0
5979,-100,3,3,2,40,0,0
6052,-100,3,2,1,40,0,0
6416,-100,3,3,2,40,0,0
7290,-100,3,2,1,40,0,0
13406,-100,3,3,2,40,0,0
14280,-100,3,2,1,40,0,0
43989,-100,3,2,1,50,0,1
50833,-100,3,2,1,50,0,0
50979,-100,3,2,1,50,0,1
57969,-100,3,2,1,50,0,0
75445,-100,3,2,1,50,0,1
82435,375,4,2,1,50,1,0
82528,-100,3,2,1,40,0,0
85435,-100,3,2,1,5,0,0

[Colours]
Combo1 : 153,14,237
Combo2 : 180,12,16
Combo3 : 28,168,198
Combo4 : 226,116,69

[HitObjects]
92,184,300,6,0,P|89:260|140:316,1,140,2|2,0:0|0:0,0:0:0:0:
208,328,1173,2,0,P|275:292|299:219,1,140,2|2,0:0|0:0,0:0:0:0:
275,155,2047,2,0,P|210:114|135:130,1,140,2|2,0:0|0:0,0:0:0:0:
92,184,2921,2,0,L|8:188,2,70,2|2|2,0:0|0:0|0:0,0:0:0:0:
152,244,3795,6,0,P|220:249|276:210,1,140,2|2,0:0|0:0,0:0:0:0:
288,128,4668,2,0,P|299:60|351:15,1,140,2|2,0:0|0:0,0:0:0:0:
428,52,5542,2,0,L|432:176,2,105,0|4|0,1:0|0:0|1:0,0:0:0:0:
351,15,6707,1,4,0:0:0:0:
293,76,6999,1,2,0:0:0:0:
224,32,7290,6,0,P|156:15|90:36,1,140,4|2,3:2|0:0,0:0:0:0:
44,104,8164,2,0,L|48:248,1,140,0|2,1:0|3:2,0:0:0:0:
132,252,9037,2,0,L|128:112,1,140,0|2,3:0|0:0,0:0:0:0:
212,124,9911,2,0,L|214:193,1,70,0|2,1:0|0:0,0:0:0:0:
288,237,10494,1,2,0:0:0:0:
338,168,10785,6,0,P|404:153|463:187,1,140,0|2,3:0|0:0,0:0:0:0:
498,264,11659,2,0,P|477:329|418:363,1,140,0|2,1:0|3:2,0:0:0:0:
334,356,12533,2,0,P|287:305|287:237,1,140,0|2,3:0|0:0,0:0:0:0:
340,172,13406,1,0,1:0:0:0:
392,236,13698,1,8,3:0:0:0:
444,172,13989,1,2,0:0:0:0:
392,108,14280,6,0,P|327:90|269:129,1,140,4|2,3:2|0:0,0:0:0:0:
212,190,15154,1,0,1:0:0:0:
160,124,15445,2,0,L|164:40,1,70,2|0,0:0|3:0,0:0:0:0:
84,24,16028,2,0,L|76:163,1,140,0|2,3:0|0:0,0:0:0:0:
142,218,16902,1,0,1:0:0:0:
220,184,17193,2,0,P|252:180|300:192,1,70,2|2,0:0|0:0,0:0:0:0:
340,256,17775,6,0,P|404:276|496:236,1,140,0|2,3:0|0:0,0:0:0:0:
500,176,18649,1,0,1:0:0:0:
452,108,18940,1,2,0:0:0:0:
368,96,19232,1,0,3:0:0:0:
300,144,19523,2,0,P|224:176|144:152,1,140,0|2,3:0|0:0,0:0:0:0:
88,144,20397,2,0,L|92:220,1,70,0|0,1:0|0:0,0:0:0:0:
96,296,20979,1,2,0:0:0:0:
12,280,21270,6,0,L|4:140,1,140,4|2,3:2|0:0,0:0:0:0:
60,76,22144,2,0,P|124:112|192:100,1,140,0|0,1:0|3:0,0:0:0:0:
264,68,23018,2,0,P|332:59|391:94,1,140,0|2,3:0|0:0,0:0:0:0:
436,164,23892,1,0,1:0:0:0:
440,248,24183,2,0,L|440:324,1,70,2|2,0:0|0:0,0:0:0:0:
356,336,24766,6,0,L|356:196,1,140,0|0,3:0|0:0,0:0:0:0:
308,128,25640,1,0,1:0:0:0:
224,124,25931,1,2,0:0:0:0:
167,186,26222,1,0,3:0:0:0:
156,268,26513,2,0,P|184:308|240:332,2,105,0|8|0,1:0|3:0|1:0,0:0:0:0:
72,280,27678,2,0,P|73:245|92:212,1,70,8|4,3:0|3:0,0:0:0:0:
167,186,28261,5,4,3:2:0:0:
232,236,28552,2,0,P|300:248|408:224,1,140,0|0,3:0|1:0,0:0:0:0:
436,188,29426,2,0,B|444:153|444:153|436:120,1,70,0|8,3:0|3:0,0:0:0:0:
356,96,30008,2,0,P|289:84|259:23,1,140,0|8,3:0|3:0,0:0:0:0:
184,60,30882,2,0,P|176:92|148:124,2,70,0|0|8,1:0|3:0|3:0,0:0:0:0:
99,54,31756,5,0,3:0:0:0:
67,131,32047,2,0,P|100:191|167:205,1,140,0|0,3:0|1:0,0:0:0:0:
222,142,32921,2,0,P|255:133|289:141,1,70,0|8,3:0|3:0,0:0:0:0:
344,205,33503,2,0,P|411:191|444:131,1,140,0|8,3:0|3:0,0:0:0:0:
416,52,34377,1,0,1:0:0:0:
332,48,34668,1,2,0:0:0:0:
256,196,35251,5,4,3:2:0:0:
284,276,35542,2,0,P|264:328|164:336,1,140,0|0,3:0|1:0,0:0:0:0:
120,296,36416,2,0,L|128:208,1,70,0|8,3:0|3:0,0:0:0:0:
96,148,36999,1,4,3:2:0:0:
176,120,37290,2,0,P|242:131|272:192,1,140,0|0,3:0|1:0,0:0:0:0:
283,275,38164,2,0,P|297:308|323:330,1,70,0|8,3:0|3:0,0:0:0:0:
408,344,38746,6,0,P|456:312|464:228,1,140,4|8,3:2|3:0,0:0:0:0:
416,168,39620,1,4,1:2:0:0:
340,207,39911,2,0,P|306:216|272:207,1,70,2|4,0:0|3:0,0:0:0:0:
208,152,40494,2,0,B|180:176|184:211|184:211|132:212|116:256,1,140,4|8,3:2|3:0,0:0:0:0:
80,316,41367,2,0,L|0:320,2,70,0|0|0,1:0|1:0|1:0,0:0:0:0:
160,344,42241,6,0,L|240:348,2,70,2|2|2,3:2|0:0|0:0,0:0:0:0:
144,260,43115,2,0,L|249:266,1,105,2|2,3:2|3:2,0:0:0:0:
376,276,43989,6,0,P|332:300|313:335,1,70,4|0,3:2|3:0,0:0:0:0:
394,358,44571,1,0,3:0:0:0:
460,304,44863,2,0,L|452:152,1,140,0|0,1:0|3:0,0:0:0:0:
368,160,45736,2,0,L|360:20,1,140,0|0,3:0|3:0,0:0:0:0:
280,44,46610,2,0,P|248:44|204:28,2,70,0|0|0,1:0|3:0|3:0,0:0:0:0:
360,20,47484,6,0,P|393:9|427:8,1,70,4|0,3:2|3:0,0:0:0:0:
496,56,48066,1,0,3:0:0:0:
448,124,48358,2,0,L|452:272,1,140,0|8,1:0|3:0,0:0:0:0:
408,336,49232,2,0,P|368:328|324:328,1,70,0|0,3:0|1:0,0:0:0:0:
256,340,49814,1,0,1:0:0:0:
173,326,50105,2,0,P|138:327|103:335,1,70,0|8,3:0|3:0,0:0:0:0:
24,364,50688,1,8,3:0:0:0:
28,280,50979,6,0,L|24:192,1,70,4|0,3:2|3:0,0:0:0:0:
20,128,51561,1,0,3:0:0:0:
96,164,51853,2,0,P|148:184|232:156,1,140,0|0,1:0|3:0,0:0:0:0:
220,76,52727,2,0,P|168:56|84:84,1,140,0|0,3:0|3:0,0:0:0:0:
20,128,53600,2,0,L|12:224,2,70,0|0|8,1:0|3:0|3:0,0:0:0:0:
100,160,54474,6,0,L|106:234,1,70,4|0,3:2|3:0,0:0:0:0:
176,276,55056,1,0,3:0:0:0:
248,232,55348,2,0,B|316:220|316:220|385:231,1,140,0|8,1:0|3:0,0:0:0:0:
448,288,56222,1,0,3:0:0:0:
492,216,56513,2,0,P|496:176|488:140,1,70,0|0,1:0|1:0,0:0:0:0:
444,76,57096,2,0,P|418:44|387:25,1,70,0|0,3:0|3:0,0:0:0:0:
312,12,57678,1,8,3:0:0:0:
264,80,57969,6,0,L|268:232,1,140,4|0,3:2|3:0,0:0:0:0:
184,236,58843,2,0,L|180:96,1,140,0|0,1:0|3:0,0:0:0:0:
96,108,59717,2,0,L|99:247,1,140,0|0,3:0|3:0,0:0:0:0:
152,312,60591,1,0,1:0:0:0:
224,356,60882,2,0,P|258:360|293:356,1,70,0|8,3:0|3:0,0:0:0:0:
356,300,61465,6,0,P|380:240|356:160,1,140,4|2,3:2|0:0,0:0:0:0:
316,100,62338,2,0,P|256:76|176:100,1,140,4|8,1:2|3:0,0:0:0:0:
124,152,63212,2,0,P|100:212|124:292,1,140,4|0,3:2|1:0,0:0:0:0:
176,344,64086,1,0,3:0:0:0:
240,288,64377,2,0,L|236:208,1,70,8|8,3:0|3:0,0:0:0:0:
232,136,64960,6,0,P|292:176|372:164,1,140,4|0,3:2|3:0,0:0:0:0:
441,159,65833,2,0,L|445:243,2,70,0|0|0,1:0|3:0|3:0,0:0:0:0:
388,92,66707,2,0,P|328:52|248:64,1,140,0|0,3:0|1:0,0:0:0:0:
188,96,67581,2,0,P|152:80|128:48,2,70,8|4|0,3:0|3:0|3:0,0:0:0:0:
260,140,68455,6,0,P|268:172|248:228,1,70,4|0,3:2|0:0,0:0:0:0:
220,280,69037,2,0,P|203:308|149:333,1,70,0|0,3:0|1:0,0:0:0:0:
92,352,69620,1,0,3:0:0:0:
12,328,69911,1,0,3:0:0:0:
52,256,70202,2,0,B|68:208|68:208|52:156,2,105,2|2|4,3:2|0:0|3:2,0:0:0:0:
12,328,71367,2,0,P|44:340|78:333,1,70,0|8,0:0|3:0,0:0:0:0:
136,272,71950,6,0,P|204:264|276:272,1,140,0|0,3:0|3:0,0:0:0:0:
352,304,72823,2,0,P|360:332|400:380,2,70,0|0|0,1:0|3:0|3:0,0:0:0:0:
342,220,73698,2,0,P|350:144|308:80,1,140,4|0,3:2|1:0,0:0:0:0:
243,56,74571,2,0,L|156:60,2,70,0|8|8,3:0|3:0|3:0,0:0:0:0:
252,140,75445,6,0,L|90:148,1,140,4|2,3:2|3:2,0:0:0:0:
40,108,76319,1,0,1:0:0:0:
24,192,76610,2,0,P|24:224|48:280,1,70,2|2,3:2|3:2,0:0:0:0:
112,296,77192,2,0,P|176:280|252:288,1,140,4|2,1:2|3:2,0:0:0:0:
320,332,78066,1,0,1:0:0:0:
388,284,78358,1,2,3:2:0:0:
444,344,78649,1,8,3:0:0:0:
500,280,78940,6,0,P|472:204|476:116,1,140,4|2,3:2|3:2,0:0:0:0:
500,68,79814,1,4,1:2:0:0:
416,80,80105,2,0,L|340:72,1,70,2|2,3:2|3:2,0:0:0:0:
272,112,80687,2,0,L|202:118,2,70,4|0|0,3:2|1:0|1:2,0:0:0:0:
344,156,81561,1,0,3:0:0:0:
336,240,81853,1,8,3:0:0:0:
272,292,82144,1,8,3:0:0:0:
188,292,82435,5,4,3:1:0:0:
256,192,82622,12,0,85435,0:0:0:0:
