osu file format v14

[General]
AudioFilename: audio.mp3
AudioLeadIn: 0
PreviewTime: 43981
Countdown: 0
SampleSet: Soft
StackLeniency: 0.7
Mode: 0
LetterboxInBreaks: 0
EpilepsyWarning: 1
WidescreenStoryboard: 1

[Editor]
Bookmarks: 583,4660,37864
DistanceSpacing: 1
BeatDivisor: 4
GridSize: 8
TimelineZoom: 3.699999

[Metadata]
Title:escape (TV Size)
TitleUnicode:escape (TV Size)
Artist:XX:me
ArtistUnicode:XX:me
Creator:Mohab500
Version:Normal: Chlorophytum
Source:ダーリン・イン・ザ・フランキス
Tags:DARLING in the FRANXX Pandize -Aqua -Mo- [[Pika]] キス・ミー kiss me ending ed Haruka Tomatsu 02 Zero Two Kana Ichinose Ichigo Nanami Yamashita Miku Shizuka Ishigami Ikuno Saori Hayami Kokoro Katsuhiko Sugiyama
BeatmapID:1734239
BeatmapSetID:786195

[Difficulty]
HPDrainRate:4
CircleSize:2.5
OverallDifficulty:4
ApproachRate:5
SliderMultiplier:0.9
SliderTickRate:1

[Events]
//Background and Video events
0,0,"bg3.jpg",0,0
//Break Periods
//Storyboard Layer 0 (Background)
Sprite,Background,Centre,"sb\glow.png",0,0 C,0,5539,,255,128,255 M,0,5539,5575,371,271,379.4694,263.6289 F,2,5539,6421,1,0 S,2,5539,6421,1.5,0.3 P,0,5539,6421,A M,0,5575,5611,379.4694,263.6289,387.129,255.4316 M,0,5611,5648,387.129,255.4316,394.0492,246.6006 M,0,5648,5684,394.0492,246.6006,399.647,236.8741 M,0,5684,5721,399.647,236.8741,404.4955,226.7385 M,0,5721,5757,404.4955,226.7385,407.7376,215.9897 M,0,5757,5793,407.7376,215.9897,409.8544,204.9726 M,0,5793,5830,409.8544,204.9726,410.9924,193.8128 M,0,5830,5866,410.9924,193.8128,410.5499,182.5996 M,0,5866,5903,410.5499,182.5996,409.2401,171.4431 M,0,5903,5939,409.2401,171.4431,406.2595,160.6196 M,0,5939,5975,406.2595,160.6196,402.1834,150.1679 M,0,5975,6012,402.1834,150.1679,397.1896,140.1249 M,0,6012,6048,397.1896,140.1249,390.8432,130.8706 M,0,6048,6085,390.8432,130.8706,383.782,122.1372 M,0,6085,6121,383.782,122.1372,375.4951,114.5644
Sprite,Background,Centre,"sb\glow.png",324,188 C,0,6413,,255,128,255 F,2,6413,6713,1,0 S,2,6413,6713,1.5,0.3 P,0,6413,6713,A
Sprite,Background,Centre,"sb\glow.png",254,131 C,0,6704,,255,128,255 F,2,6704,7004,1,0 S,2,6704,7004,1.5,0.3 P,0,6704,7004,A
Sprite,Background,Centre,"sb\glow.png",0,0 C,0,6996,,255,128,255 M,0,6996,7032,209,209,197.8756,210.6763 F,2,6996,7441,1,0 S,2,6996,7441,1.5,0.3 P,0,6996,7441,A M,0,7032,7068,197.8756,210.6763,186.7512,212.3526 M,0,7068,7105,186.7512,212.3526,175.6268,214.0288 M,0,7105,7141,175.6268,214.0288,164.5023,215.7051
Sprite,Background,Centre,"sb\ring.png",123,196 C,0,7287,,0,255,64 F,0,7287,8087,1,0 S,0,7287,8287,1.5,2
Sprite,Background,Centre,"sb\glow.png",0,0 C,0,13403,,255,255,128 M,0,13403,13439,235,109,229.296,118.6968 F,2,13403,13848,1,0 S,2,13403,13848,1.5,0.3 P,0,13403,13848,A M,0,13439,13475,229.296,118.6968,223.592,128.3935 M,0,13475,13512,223.592,128.3935,217.8881,138.0903 M,0,13512,13548,217.8881,138.0903,212.1841,147.787
Sprite,Background,Centre,"sb\glow.png",176,176 C,0,13695,,255,255,128 F,2,13695,13995,1,0 S,2,13695,13995,1.5,0.3 P,0,13695,13995,A
Sprite,Background,Centre,"sb\glow.png",164,265 C,0,13986,,255,255,128 F,2,13986,14286,1,0 S,2,13986,14286,1.5,0.3 P,0,13986,14286,A
Sprite,Background,Centre,"sb\ring.png",204,345 C,0,14277,,0,255,128 F,0,14277,15077,1,0 S,0,14277,15277,1.5,2
Sprite,Background,Centre,"sb\ring.png",326,190 C,0,21267,,0,255,64 F,0,21267,22067,1,0 S,0,21267,22267,1.5,2
Sprite,Background,Centre,"sb\glow.png",437,384 C,0,26510,,255,255,128 F,2,26510,26810,1,0 S,2,26510,26810,1.5,0.3 P,0,26510,26810,A
Sprite,Background,Centre,"sb\glow.png",512,335 C,0,26801,,255,255,128 F,2,26801,27101,1,0 S,2,26801,27101,1.5,0.3 P,0,26801,27101,A
Sprite,Background,Centre,"sb\glow.png",531,246 C,0,27093,,255,255,128 F,2,27093,27393,1,0 S,2,27093,27393,1.5,0.3 P,0,27093,27393,A
Sprite,Background,Centre,"sb\glow.png",0,0 C,0,27384,,255,255,128 M,0,27384,27420,477,173,465.9501,175.1125 F,2,27384,27829,1,0 S,2,27384,27829,1.5,0.3 P,0,27384,27829,A M,0,27420,27456,465.9501,175.1125,454.9002,177.2249 M,0,27456,27493,454.9002,177.2249,443.8503,179.3374 M,0,27493,27529,443.8503,179.3374,432.8005,181.4499
Sprite,Background,Centre,"sb\glow.png",0,0 C,0,27675,,255,255,128 M,0,27675,27711,395,156,399.4599,166.3282 F,2,27675,28411,1,0 S,2,27675,28411,1.5,0.3 P,0,27675,28411,A M,0,27711,27747,399.4599,166.3282,403.9198,176.6564 M,0,27747,27784,403.9198,176.6564,408.3797,186.9846 M,0,27784,27820,408.3797,186.9846,412.8396,197.3128 M,0,27820,27857,412.8396,197.3128,413.7971,208.3205 M,0,27857,27893,413.7971,208.3205,413.5228,219.5672 M,0,27893,27929,413.5228,219.5672,413.2484,230.8138 M,0,27929,27966,413.2484,230.8138,412.9741,242.0605 M,0,27966,28002,412.9741,242.0605,412.6998,253.3071 M,0,28002,28039,412.6998,253.3071,412.4255,264.5538 M,0,28039,28075,412.4255,264.5538,412.1512,275.8004 M,0,28075,28111,412.1512,275.8004,411.8769,287.0471
Sprite,Background,Centre,"sb\ring.png",389,326 C,0,28258,,0,255,128 F,0,28258,29058,1,0 S,0,28258,29258,1.5,2
Sprite,Background,Centre,"sb\ring.png",391,355 C,0,31753,,255,0,0 F,0,31753,32553,1,0 S,0,31753,32753,1.5,2
Sprite,Background,Centre,"sb\glow.png",0,0 C,0,34374,,255,0,0 M,0,34374,34410,329,396,339.8578,393.0555 F,2,34374,34819,1,0 S,2,34374,34819,1.5,0.3 P,0,34374,34819,A M,0,34410,34446,339.8578,393.0555,350.7157,390.111 M,0,34446,34483,350.7157,390.111,361.5735,387.1665 M,0,34483,34519,361.5735,387.1665,372.4313,384.222
Sprite,Background,Centre,"sb\glow.png",0,0 C,0,34666,,255,0,0 M,0,34666,34702,407,412,401.5293,402.1843 F,2,34666,35402,1,0 S,2,34666,35402,1.5,0.3 P,0,34666,35402,A M,0,34702,34738,401.5293,402.1843,396.8507,391.9734 M,0,34738,34775,396.8507,391.9734,392.7501,381.5067 M,0,34775,34811,392.7501,381.5067,389.9038,370.6362 M,0,34811,34848,389.9038,370.6362,387.9231,359.5807 M,0,34848,34884,387.9231,359.5807,386.576,348.4216 M,0,34884,34920,386.576,348.4216,386.5341,337.1852 M,0,34920,34957,386.5341,337.1852,387.3767,325.9856 M,0,34957,34993,387.3767,325.9856,388.8685,314.846 M,0,34993,35030,388.8685,314.846,391.6335,303.9554 M,0,35030,35066,391.6335,303.9554,395.2459,293.3212 M,0,35066,35102,395.2459,293.3212,399.4631,282.9021
Sprite,Background,Centre,"sb\ring.png",426,246 C,0,35248,,255,128,255 F,0,35248,36048,1,0 S,0,35248,36248,1.5,2
Sprite,Background,Centre,"sb\ring.png",232,264 C,0,36996,,255,128,255 F,0,36996,37796,1,0 S,0,36996,37996,1.5,2
Sprite,Background,Centre,"sb\ring.png",70,360 C,0,38743,,0,255,64 F,0,38743,39543,1,0 S,0,38743,39743,1.5,2
Sprite,Background,Centre,"sb\ring.png",302,279 C,0,39617,,0,255,64 F,0,39617,40417,1,0 S,0,39617,40617,1.5,2
Sprite,Background,Centre,"sb\ring.png",373,334 C,0,40491,,0,255,64 F,0,40491,41291,1,0 S,0,40491,41491,1.5,2
Sprite,Background,Centre,"sb\glow.png",0,0 C,0,41365,,0,255,64 M,0,41365,41401,385,244,387.4932,233.0298 F,2,41365,41710,1,0 S,2,41365,41710,2,0.4 P,0,41365,41710,A M,0,41401,41437,387.4932,233.0298,389.9865,222.0595 M,0,41437,41474,389.9865,222.0595,392.4797,211.0893 M,0,41474,41510,392.4797,211.0893,394.973,200.119
Sprite,Background,Centre,"sb\glow.png",0,0 C,0,41656,,0,255,64 M,0,41656,41692,395,154,392.5068,143.0298 F,2,41656,42001,1,0 S,2,41656,42001,2,0.4 P,0,41656,42001,A M,0,41692,41728,392.5068,143.0298,390.0135,132.0595 M,0,41728,41765,390.0135,132.0595,387.5203,121.0893 M,0,41765,41801,387.5203,121.0893,385.027,110.119
Sprite,Background,Centre,"sb\glow.png",416,78 C,0,41947,,0,255,64 F,2,41947,42147,1,0 S,2,41947,42147,2,0.4 P,0,41947,42147,A
Sprite,Background,Centre,"sb\glow.png",0,0 C,0,42238,,255,255,128 M,0,42238,42274,499,110,509.3255,114.3485 F,2,42238,43020,1,0 S,2,42238,43020,2,0.4 P,0,42238,43020,A M,0,42274,42310,509.3255,114.3485,518.8644,120.1861 M,0,42310,42347,518.8644,120.1861,527.4113,127.3826 M,0,42347,42383,527.4113,127.3826,534.9053,135.6553 M,0,42383,42420,534.9053,135.6553,540.6538,145.2484 M,0,42420,42456,540.6538,145.2484,544.8934,155.5859 M,0,42456,42492,544.8934,155.5859,547.705,166.3888 M,0,42492,42529,547.705,166.3888,548.3544,177.5537 M,0,42529,42565,548.3544,177.5537,547.705,166.3888 M,0,42565,42602,547.705,166.3888,544.8934,155.5859 M,0,42602,42638,544.8934,155.5859,540.6538,145.2484 M,0,42638,42674,540.6538,145.2484,534.9053,135.6553 M,0,42674,42711,534.9053,135.6553,527.4113,127.3826 M,0,42711,42747,527.4113,127.3826,518.8644,120.1861 M,0,42747,42784,518.8644,120.1861,509.3255,114.3485 M,0,42784,42820,509.3255,114.3485,499,110
Sprite,Background,Centre,"sb\glow.png",0,0 C,0,43112,,255,255,128 M,0,43112,43148,460,191,459.9055,202.2496 F,2,43112,43603,1,0 S,2,43112,43603,2,0.4 P,0,43112,43603,A M,0,43148,43184,459.9055,202.2496,459.8109,213.4992 M,0,43184,43221,459.8109,213.4992,459.7164,224.7488 M,0,43221,43257,459.7164,224.7488,459.6219,235.9984 M,0,43257,43294,459.6219,235.9984,459.5273,247.248 M,0,43294,43330,459.5273,247.248,459.4328,258.4976 M,0,43330,43366,459.4328,258.4976,459.3383,269.7472 M,0,43366,43403,459.3383,269.7472,459.2437,280.9968
Sprite,Background,Centre,"sb\glow.png",0,0 C,0,43549,,255,255,128 M,0,43549,43585,487,315,476.1576,312.0829 F,2,43549,44040,1,0 S,2,43549,44040,2,0.4 P,0,43549,44040,A M,0,43585,43621,476.1576,312.0829,465.0808,310.3062 M,0,43621,43658,465.0808,310.3062,453.8861,309.3473 M,0,43658,43694,453.8861,309.3473,442.6856,310.1258 M,0,43694,43731,442.6856,310.1258,431.6353,312.0587 M,0,43731,43767,431.6353,312.0587,420.7433,314.8111 M,0,43767,43803,420.7433,314.8111,410.4095,319.1998 M,0,43803,43840,410.4095,319.1998,400.5941,324.6308
Sprite,Background,Centre,"sb\ring.png",379,366 C,0,43986,,0,255,128 F,0,43986,44786,1,0 S,0,43986,44986,1.5,2
Sprite,Background,Centre,"sb\glow.png",0,0 C,0,49229,,255,128,255 M,0,49229,49265,410,395,402.018,403.7076 F,2,49229,49720,1,0 S,2,49229,49720,1.5,0.3 P,0,49229,49720,A M,0,49265,49301,402.018,403.7076,394.036,412.4153 M,0,49301,49338,394.036,412.4153,386.054,421.1229 M,0,49338,49374,386.054,421.1229,378.072,429.8305 M,0,49374,49411,378.072,429.8305,386.054,421.1229 M,0,49411,49447,386.054,421.1229,394.036,412.4153 M,0,49447,49483,394.036,412.4153,402.018,403.7076 M,0,49483,49520,402.018,403.7076,410,395
Sprite,Background,Centre,"sb\glow.png",0,0 C,0,49811,,255,128,255 M,0,49811,49847,458,312,449.0078,304.34 F,2,49811,50156,1,0 S,2,49811,50156,1.5,0.3 P,0,49811,50156,A M,0,49847,49883,449.0078,304.34,440.0156,296.68 M,0,49883,49920,440.0156,296.68,431.0234,289.02 M,0,49920,49956,431.0234,289.02,422.0313,281.36
Sprite,Background,Centre,"sb\glow.png",0,0 C,0,50102,,255,128,255 M,0,50102,50138,374,281,377.8947,269.8852 F,2,50102,50884,1,0 S,2,50102,50884,1.5,0.3 P,0,50102,50884,A M,0,50138,50174,377.8947,269.8852,380.3597,258.3812 M,0,50174,50211,380.3597,258.3812,381.4261,246.6784 M,0,50211,50247,381.4261,246.6784,380.588,234.9422 M,0,50247,50284,380.588,234.9422,378.394,223.3934 M,0,50284,50320,378.394,223.3934,374.3185,212.3546 M,0,50320,50356,374.3185,212.3546,369.0309,201.8503 M,0,50356,50393,369.0309,201.8503,362.0402,192.3833 M,0,50393,50429,362.0402,192.3833,369.0309,201.8503 M,0,50429,50466,369.0309,201.8503,374.3185,212.3546 M,0,50466,50502,374.3185,212.3546,378.394,223.3934 M,0,50502,50538,378.394,223.3934,380.588,234.9423 M,0,50538,50575,380.588,234.9423,381.4261,246.6784 M,0,50575,50611,381.4261,246.6784,380.3597,258.3812 M,0,50611,50648,380.3597,258.3812,377.8947,269.8852 M,0,50648,50684,377.8947,269.8852,374,281
Sprite,Background,Centre,"sb\glow.png",0,0 C,0,56219,,0,255,128 M,0,56219,56255,320,386,331.7943,386.6552 F,2,56219,56564,1,0 S,2,56219,56564,1.5,0.3 P,0,56219,56564,A M,0,56255,56291,331.7943,386.6552,343.5886,387.3105 M,0,56291,56328,343.5886,387.3105,355.3829,387.9657 M,0,56328,56364,355.3829,387.9657,367.1772,388.621
Sprite,Background,Centre,"sb\glow.png",414,394 C,0,56510,,0,255,128 F,2,56510,56710,1,0 S,2,56510,56710,1.5,0.3 P,0,56510,56710,A
Sprite,Background,Centre,"sb\glow.png",0,0 C,0,56801,,0,255,128 M,0,56801,56837,449,306,437.1978,306.4918 F,2,56801,57146,1,0 S,2,56801,57146,1.5,0.3 P,0,56801,57146,A M,0,56837,56873,437.1978,306.4918,425.3955,306.9835 M,0,56873,56910,425.3955,306.9835,413.5932,307.4753 M,0,56910,56946,413.5932,307.4753,401.791,307.967
Sprite,Background,Centre,"sb\glow.png",0,0 C,0,57093,,0,255,128 M,0,57093,57129,363,279,369.3203,269.0206 F,2,57093,57875,1,0 S,2,57093,57875,1.5,0.3 P,0,57093,57875,A M,0,57129,57165,369.3203,269.0206,375.6406,259.0411 M,0,57165,57202,375.6406,259.0411,381.9609,249.0617 M,0,57202,57238,381.9609,249.0617,381.1753,237.2896 M,0,57238,57275,381.1753,237.2896,380.3455,225.5063 M,0,57275,57311,380.3455,225.5063,379.5157,213.7229 M,0,57311,57347,379.5157,213.7229,378.6859,201.9396 M,0,57347,57384,378.6859,201.9396,377.8561,190.1563 M,0,57384,57420,377.8561,190.1563,378.6859,201.9396 M,0,57420,57457,378.6859,201.9396,379.5157,213.7229 M,0,57457,57493,379.5157,213.7229,380.3455,225.5063 M,0,57493,57529,380.3455,225.5063,381.1753,237.2896 M,0,57529,57566,381.1753,237.2896,381.9609,249.0617 M,0,57566,57602,381.9609,249.0617,375.6406,259.0411 M,0,57602,57639,375.6406,259.0411,369.3203,269.0206 M,0,57639,57675,369.3203,269.0206,363,279
Sprite,Background,Centre,"sb\glow.png",0,0 C,0,63209,,255,128,255 M,0,63209,63245,233,310,244.5927,312.2681 F,2,63209,63554,1,0 S,2,63209,63554,1.5,0.3 P,0,63209,63554,A M,0,63245,63281,244.5927,312.2681,256.1854,314.5363 M,0,63281,63318,256.1854,314.5363,267.7781,316.8044 M,0,63318,63354,267.7781,316.8044,279,319
Sprite,Background,Centre,"sb\glow.png",320,296 C,0,63500,,255,128,255 F,2,63500,63700,1,0 S,2,63500,63700,1.5,0.3 P,0,63500,63700,A
Sprite,Background,Centre,"sb\glow.png",0,0 C,0,63792,,255,128,255 M,0,63792,63828,276,211,264.5067,208.2728 F,2,63792,64137,1,0 S,2,63792,64137,1.5,0.3 P,0,63792,64137,A M,0,63828,63864,264.5067,208.2728,253.0133,205.5455 M,0,63864,63901,253.0133,205.5455,241.5199,202.8183 M,0,63901,63937,241.5199,202.8183,230.0266,200.091
Sprite,Background,Centre,"sb\glow.png",0,0 C,0,64083,,255,128,255 M,0,64083,64119,182,204,190.7235,196.101 F,2,64083,64865,1,0 S,2,64083,64865,1.5,0.3 P,0,64083,64865,A M,0,64119,64155,190.7235,196.101,198.2319,187.0614 M,0,64155,64192,198.2319,187.0614,204.5759,177.1742 M,0,64192,64228,204.5759,177.1742,208.9071,166.2446 M,0,64228,64265,208.9071,166.2446,212.0157,154.8902 M,0,64265,64301,212.0157,154.8902,212.738,143.1487 M,0,64301,64337,212.738,143.1487,211.7944,131.4375 M,0,64337,64374,211.7944,131.4375,209.3484,119.9581 M,0,64374,64410,209.3484,119.9581,211.7944,131.4375 M,0,64410,64447,211.7944,131.4375,212.738,143.1487 M,0,64447,64483,212.738,143.1487,212.0157,154.8902 M,0,64483,64519,212.0157,154.8902,208.9071,166.2446 M,0,64519,64556,208.9071,166.2446,204.5759,177.1742 M,0,64556,64592,204.5759,177.1742,198.2319,187.0614 M,0,64592,64629,198.2319,187.0614,190.7235,196.101 M,0,64629,64665,190.7235,196.101,182,204
Sprite,Background,Centre,"sb\glow.png",0,0 C,0,66704,,0,255,64 M,0,66704,66740,215,308,226.8023,307.5082 F,2,66704,67049,1,0 S,2,66704,67049,1.5,0.3 P,0,66704,67049,A M,0,66740,66776,226.8023,307.5082,238.6045,307.0165 M,0,66776,66813,238.6045,307.0165,250.4068,306.5247 M,0,66813,66849,250.4068,306.5247,262.209,306.033
Sprite,Background,Centre,"sb\glow.png",309,314 C,0,66996,,0,255,64 F,2,66996,67196,1,0 S,2,66996,67196,1.5,0.3 P,0,66996,67196,A
Sprite,Background,Centre,"sb\glow.png",0,0 C,0,67287,,0,255,64 M,0,67287,67323,392,355,403.8034,354.5371 F,2,67287,67632,1,0 S,2,67287,67632,1.5,0.3 P,0,67287,67632,A M,0,67323,67359,403.8034,354.5371,415.6068,354.0742 M,0,67359,67396,415.6068,354.0742,427.4103,353.6114 M,0,67396,67432,427.4103,353.6114,439.2137,353.1485
Sprite,Background,Centre,"sb\glow.png",483,369 C,0,67578,,0,255,64 F,2,67578,67778,1,0 S,2,67578,67778,1.5,0.3 P,0,67578,67778,A
Sprite,Background,Centre,"sb\glow.png",475,274 C,0,67869,,0,255,64 F,2,67869,68069,1,0 S,2,67869,68069,1.5,0.3 P,0,67869,68069,A
Sprite,Background,Centre,"sb\glow.png",406,210 C,0,68161,,0,255,64 F,2,68161,68361,1,0 S,2,68161,68361,1.5,0.3 P,0,68161,68361,A
Sprite,Background,Centre,"sb\ring.png",302,339 C,0,71947,,0,255,128 F,0,71947,72747,1,0 S,0,71947,72947,1.5,2
Sprite,Background,Centre,"sb\glow.png",0,0 C,0,73695,,0,255,128 M,0,73695,73731,270,212,270.3633,200.1931 F,2,73695,74040,1,0 S,2,73695,74040,1.5,0.3 P,0,73695,74040,A M,0,73731,73767,270.3633,200.1931,270.7266,188.3862 M,0,73767,73804,270.7266,188.3862,271.0899,176.5793 M,0,73804,73840,271.0899,176.5793,271.4532,164.7724
Sprite,Background,Centre,"sb\glow.png",242,127 C,0,73986,,0,255,128 F,2,73986,74186,1,0 S,2,73986,74186,1.5,0.3 P,0,73986,74186,A
Sprite,Background,Centre,"sb\glow.png",0,0 C,0,74277,,0,255,128 M,0,74277,74313,151,155,150.8064,166.8109 F,2,74277,74622,1,0 S,2,74277,74622,1.5,0.3 P,0,74277,74622,A M,0,74313,74349,150.8064,166.8109,150.6128,178.6218 M,0,74349,74386,150.6128,178.6218,150.4191,190.4327 M,0,74386,74422,150.4191,190.4327,150.2255,202.2437
Sprite,Background,Centre,"sb\glow.png",0,0 C,0,74568,,0,255,128 M,0,74568,74604,159,248,149.6665,240.8532 F,2,74568,75350,1,0 S,2,74568,75350,1.5,0.3 P,0,74568,75350,A M,0,74604,74640,149.6665,240.8532,139.3221,235.3199 M,0,74640,74677,139.3221,235.3199,128.35,231.0986 M,0,74677,74713,128.35,231.0986,116.7048,229.5466 M,0,74713,74750,116.7048,229.5466,104.9826,229.8965 M,0,74750,74786,104.9826,229.8965,93.40121,231.7921 M,0,74786,74822,93.40121,231.7921,82.53463,236.2399 M,0,74822,74859,82.53463,236.2399,72.54459,242.3768 M,0,74859,74895,72.54459,242.3768,82.53464,236.2399 M,0,74895,74932,82.53464,236.2399,93.40121,231.7921 M,0,74932,74968,93.40121,231.7921,104.9826,229.8965 M,0,74968,75004,104.9826,229.8965,116.7048,229.5466 M,0,75004,75041,116.7048,229.5466,128.35,231.0986 M,0,75041,75077,128.35,231.0986,139.3221,235.3199 M,0,75077,75114,139.3221,235.3199,149.6665,240.8532 M,0,75114,75150,149.6665,240.8532,159,248
Sprite,Background,Centre,"sb\ring.png",248,216 C,0,75442,,255,0,0 F,0,75442,76242,1,0 S,0,75442,76442,1.5,2
Sprite,Background,Centre,"sb\glow.png",0,0 C,0,80685,,255,128,255 M,0,80685,80721,401,263,389.2234,263.92 F,2,80685,81030,1,0 S,2,80685,81030,1.5,0.3 P,0,80685,81030,A M,0,80721,80757,389.2234,263.92,377.4468,264.8401 M,0,80757,80794,377.4468,264.8401,365.6702,265.7601 M,0,80794,80830,365.6702,265.7601,353.8936,266.6802
Sprite,Background,Centre,"sb\glow.png",336,310 C,0,80976,,255,128,255 F,2,80976,81176,1,0 S,2,80976,81176,1.5,0.3 P,0,80976,81176,A
Sprite,Background,Centre,"sb\glow.png",0,0 C,0,81267,,255,128,255 M,0,81267,81303,248,274,236.2105,274.7368 F,2,81267,81612,1,0 S,2,81267,81612,1.5,0.3 P,0,81267,81612,A M,0,81303,81339,236.2105,274.7368,224.421,275.4737 M,0,81339,81376,224.421,275.4737,212.6315,276.2105 M,0,81376,81412,212.6315,276.2105,200.842,276.9474
Sprite,Background,Centre,"sb\glow.png",0,0 C,0,81559,,255,128,255 M,0,81559,81595,177,318,179.9339,306.5577 F,2,81559,82341,1,0 S,2,81559,82341,1.5,0.3 P,0,81559,82341,A M,0,81595,81631,179.9339,306.5577,182.8679,295.1153 M,0,81631,81668,182.8679,295.1153,185.8018,283.673 M,0,81668,81704,185.8018,283.673,184.2952,272.5563 M,0,81704,81741,184.2952,272.5563,179.7233,261.6644 M,0,81741,81777,179.7233,261.6644,175.1514,250.7726 M,0,81777,81813,175.1514,250.7726,170.5795,239.8807 M,0,81813,81850,170.5795,239.8807,166.0076,228.9888 M,0,81850,81886,166.0076,228.9888,170.5795,239.8807 M,0,81886,81923,170.5795,239.8807,175.1514,250.7726 M,0,81923,81959,175.1514,250.7726,179.7233,261.6644 M,0,81959,81995,179.7233,261.6644,184.2952,272.5563 M,0,81995,82032,184.2952,272.5563,185.8018,283.673 M,0,82032,82068,185.8018,283.673,182.8679,295.1153 M,0,82068,82105,182.8679,295.1153,179.9339,306.5577 M,0,82105,82141,179.9339,306.5577,177,318
Sprite,Background,Centre,"bg3.jpg",320,240 S,0,0,,0.4549763 S,0,0,,0.4549763 F,0,0,6408,0.7,0 F,7,6704,7141,0,0.2 F,7,7141,7287,0.2,0.4 F,7,7287,12530,0.4,0.6 F,7,12530,13112,0.6,0 F,7,13258,13403,0,0.6 F,7,41219,41364,0.6,0.3 F,7,42238,43913,0.3,0 F,7,43913,43986,0,1 F,7,49156,49229,1,0.4 F,7,50030,50102,0.3,0.1 F,7,50248,50903,0.1,0.2 F,7,50903,50976,0.2,1 F,7,56146,56219,1,0.2 F,7,56219,56947,0.2,0.3 F,7,57020,57093,0.3,0 F,7,57238,57894,0.1,0.5 F,7,57894,57966,0.5,1 F,7,63136,63209,1,0.4 F,7,64010,64083,0.4,0.1 F,7,64083,64884,0.1,0.3 F,7,64884,64957,0.3,1 F,7,66631,66704,1,0.1 F,7,67214,67287,0.1,0.7 F,7,68379,68452,0.7,1 F,7,73622,73695,1,0.3 F,7,74204,74277,0.3,0.1 F,7,74496,74568,0.1,0.4 F,7,75369,75442,0.4,1 F,7,75442,81267,1,0.3 F,7,81267,82432,0.3,0 F,0,85243,,0
Sprite,Background,Centre,"sb\ring.png",287,319 C,0,50976,,0,255,64 F,0,50976,51776,1,0 S,0,50976,51976,1.5,2
Sprite,Background,Centre,"sb\ring.png",302,339 C,0,71947,,0,255,128 F,0,71947,72747,1,0 S,0,71947,72947,1.5,2
Sprite,Background,Centre,"sb\ring.png",293,215 C,0,57966,,255,0,0 F,0,57966,58766,1,0 S,0,57966,58966,1.5,2
Sprite,Background,Centre,"sb\ring.png",94,241 C,0,64957,,0,255,64 F,0,64957,65757,1,0 S,0,64957,65957,1.5,2
Sprite,Background,Centre,"sb\ring.png",362,125 C,0,68452,,255,255,128 F,0,68452,69252,1,0 S,0,68452,69452,1.5,2
Sprite,Background,Centre,"sb\ring.png",379,366 C,0,43986,,0,255,128 F,0,43986,44786,1,0 S,0,43986,44986,1.5,2
//Storyboard Layer 1 (Fail)
//Storyboard Layer 2 (Pass)
//Storyboard Layer 3 (Foreground)
//Storyboard Sound Samples

[TimingPoints]
297,291.26213592233,6,2,1,35,1,0
5539,-100,6,2,1,50,0,0
7287,-100,6,2,1,70,0,0
13403,-100,6,2,1,90,0,0
14277,-100,6,2,1,80,0,0
28185,-100,6,2,1,5,0,0
28258,-100,6,2,1,80,0,0
28476,-100,6,2,1,5,0,0
28549,-100,6,2,1,80,0,0
31971,-100,6,2,1,5,0,0
32044,-100,6,2,1,80,0,0
35466,-100,6,2,1,5,0,0
35539,-100,6,2,1,80,0,0
37214,-100,6,2,1,5,0,0
37287,-100,6,2,1,80,0,0
43986,-95.2380952380952,6,2,1,90,0,1
50903,-95.2380952380952,6,2,1,5,0,1
50976,-95.2380952380952,6,2,1,90,0,1
57894,-95.2380952380952,6,2,1,5,0,1
57966,-95.2380952380952,6,2,1,90,0,1
64884,-95.2380952380952,6,2,1,5,0,1
64957,-95.2380952380952,6,2,1,90,0,1
71874,-95.2380952380952,6,2,1,5,0,1
71947,-95.2380952380952,6,2,1,90,0,1
75442,-95.2380952380952,6,2,1,90,0,0
82505,-95.2380952380952,6,2,1,60,0,0
85248,-95.2380952380952,6,2,1,20,0,0
85345,-95.2380952380952,6,2,1,20,0,0

[Colours]
Combo1 : 255,255,128
Combo2 : 0,255,128
Combo3 : 255,0,0
Combo4 : 255,128,255
Combo5 : 0,255,64

[HitObjects]
76,252,297,6,0,L|69:53,1,180,2|0,0:0|0:0,0:0:0:0:
158,83,1170,2,0,L|164:262,1,180,2|0,0:0|0:0,0:0:0:0:
253,274,2044,2,0,L|246:94,1,180,2|0,0:0|0:0,0:0:0:0:
332,118,2918,2,0,L|338:297,1,180,2|0,0:0|0:0,0:0:0:0:
277,364,3792,6,0,L|70:368,1,180,2|0,0:0|0:0,0:0:0:0:
64,283,4666,2,0,L|243:279,1,180,2|0,0:0|0:0,0:0:0:0:
307,215,5539,6,0,P|347:129|295:47,1,180,8|0,0:0|1:0,0:0:0:0:
260,132,6413,1,8,0:0:0:0:
190,75,6704,1,0,1:0:0:0:
145,153,6996,2,0,L|72:164,1,45,2|2,1:2|1:2,0:0:0:0:
59,140,7287,6,0,B|87:179|87:179|87:328,1,180,6|2,1:1|0:0,0:0:0:0:
177,310,8161,2,0,L|175:118,1,180,10|2,0:0|0:3,0:0:0:0:
220,52,9034,2,0,B|276:33|276:33|398:55,1,180,2|2,1:2|0:0,0:0:0:0:
404,145,9908,2,0,L|284:147,2,90,10|2|2,0:0|0:0|0:3,0:0:0:0:
438,228,10782,6,0,L|259:231,1,180,2|2,1:0|0:0,0:0:0:0:
205,304,11656,2,0,P|171:223|241:144,1,180,10|2,0:0|0:3,0:0:0:0:
259,72,12530,2,0,P|294:99|306:148,2,90,2|2|2,1:2|0:0|0:0,0:0:0:0:
171,53,13403,2,0,L|141:104,1,45,10|10,0:0|0:0,0:0:0:0:
112,120,13695,1,2,0:0:0:0:
100,209,13986,1,0,1:2:0:0:
140,289,14277,6,0,B|195:265|195:265|349:264,1,180,6|2,1:2|1:0,0:0:0:0:
303,353,15151,2,0,L|413:351,2,90,10|0|0,0:0|0:0|0:0,0:0:0:0:
210,352,16025,2,0,L|87:354,1,90,2|0,1:2|0:0,0:0:0:0:
99,265,16607,1,2,1:2:0:0:
179,225,16899,2,0,P|229:136|175:58,1,180,10|0,0:0|0:0,0:0:0:0:
142,144,17772,6,0,L|34:144,1,90,2|0,1:2|0:0,0:0:0:0:
37,233,18355,1,2,1:2:0:0:
47,322,18646,2,0,L|139:321,2,90,10|2|2,0:0|0:0|0:0,0:0:0:0:
37,233,19520,6,0,L|129:232,1,90,2|0,1:2|0:0,0:0:0:0:
216,238,20102,1,2,1:2:0:0:
303,217,20394,2,0,P|348:122|294:48,1,180,10|0,0:0|0:0,0:0:0:0:
262,134,21267,6,0,B|173:110|172:169|69:131,1,180,6|2,1:2|1:2,0:0:0:0:
82,226,22141,2,0,L|87:16,1,180,10|2,0:0|1:2,0:0:0:0:
1,77,23015,2,0,L|-2:188,1,90,2|0,1:2|0:0,0:0:0:0:
0,256,23598,1,2,1:2:0:0:
65,318,23889,2,0,L|179:320,2,90,10|0|0,0:0|0:0|0:0,0:0:0:0:
82,226,24763,6,0,L|196:228,1,90,2|0,1:2|0:0,0:0:0:0:
238,288,25345,1,2,1:2:0:0:
321,255,25636,2,0,P|309:203|260:162,2,90,10|2|2,0:0|0:0|0:0,0:0:0:0:
373,328,26510,1,10,1:2:0:0:
448,279,26801,1,2,0:0:0:0:
467,190,27093,1,2,1:2:0:0:
413,117,27384,2,0,L|345:130,1,45,10|8,0:0|0:0,0:0:0:0:
331,100,27675,2,0,B|350:144|350:144|347:267,1,135,6|0,0:1|0:0,0:0:0:0:
325,270,28258,5,6,1:2:0:0:
262,205,28549,2,0,L|153:206,1,90,2|2,1:2|1:2,0:0:0:0:
123,281,29132,2,0,P|96:251|94:176,1,90,10|0,0:0|0:0,0:0:0:0:
76,113,29714,1,2,1:2:0:0:
165,113,30005,2,0,L|296:111,1,90,2|0,1:2|0:0,0:0:0:0:
342,89,30588,1,2,1:2:0:0:
394,162,30879,2,0,B|371:250|436:235|405:354,1,180,10|0,0:0|1:0,0:0:0:0:
327,299,31753,5,2,1:2:0:0:
303,212,32044,2,0,L|303:89,1,90,2|2,1:2|1:2,0:0:0:0:
366,58,32627,2,0,P|327:34|262:44,1,90,10|0,0:0|0:0,0:0:0:0:
210,85,33209,1,2,1:2:0:0:
206,171,33500,2,0,L|209:302,1,90,2|0,1:2|0:0,0:0:0:0:
176,345,34083,1,2,1:2:0:0:
265,340,34374,2,0,L|324:324,1,45,10|0,0:0|0:0,0:0:0:0:
343,356,34666,2,0,P|323:298|339:220,1,135,6|0,1:2|0:0,0:0:0:0:
362,190,35248,5,6,1:2:0:0:
310,116,35539,2,0,L|331:26,1,90,2|2,1:2|1:2,0:0:0:0:
241,40,36122,2,0,L|220:127,1,90,10|0,0:0|0:0,0:0:0:0:
259,208,36704,1,2,1:2:0:0:
168,208,36996,1,6,1:1:0:0:
123,129,37287,2,0,L|148:37,1,90,2|2,1:2|1:2,0:0:0:0:
57,51,37869,2,0,L|32:142,1,90,10|0,0:0|0:0,0:0:0:0:
52,225,38452,1,2,1:2:0:0:
6,304,38743,6,0,B|101:343|99:255|216:303,1,180,6|2,1:2|1:2,0:0:0:0:
238,223,39617,2,0,P|226:167|232:116,2,90,6|2|2,1:1|1:2|1:2,0:0:0:0:
309,278,40491,2,0,P|365:266|416:272,2,90,6|0|2,1:2|0:0|1:2,0:0:0:0:
321,188,41365,2,0,L|336:122,1,45,6|8,1:1|3:2,0:0:0:0:
331,98,41656,2,0,L|316:32,1,45,0|0,0:0|1:0,0:0:0:0:
352,22,41947,1,8,0:0:0:0:
435,54,42238,6,0,P|470:78|479:149,2,90,14|0|0,1:2|0:0|0:0,0:0:0:0:
396,135,43112,2,0,L|395:254,1,90,10|2,0:0|0:0,0:0:0:0:
423,259,43549,2,0,P|378:254|321:280,1,90,10|2,0:0|0:0,0:0:0:0:
315,310,43986,6,0,L|284:185,2,94.499997116089,6|2|2,1:1|1:2|1:2,0:0:0:0:
221,295,44860,2,0,L|190:170,1,94.499997116089,14|0,0:0|0:0,0:0:0:0:
163,115,45442,1,2,1:2:0:0:
102,187,45733,2,0,P|83:231|102:295,2,94.499997116089,6|0|0,1:1|1:0|1:0,0:0:0:0:
66,99,46607,1,14,0:0:0:0:
112,17,46899,1,2,1:2:0:0:
206,17,47190,1,2,1:2:0:0:
265,90,47481,6,0,L|429:83,1,141.749995674133,6|2,1:2|1:2,0:0:0:0:
454,86,48064,1,2,1:2:0:0:
408,167,48355,2,0,P|389:221|415:289,1,94.499997116089,14|0,2:1|0:0,0:0:0:0:
441,338,48937,1,2,1:2:0:0:
346,339,49229,6,0,L|313:375,2,47.2499985580445,6|8|8,1:2|0:0|0:0,0:0:0:0:
394,256,49811,2,0,L|340:210,1,47.2499985580445,2|2,1:2|1:2,0:0:0:0:
310,225,50102,2,0,P|311:157|272:115,2,94.499997116089,6|8|4,1:0|0:0|0:3,0:0:0:0:
223,263,50976,6,0,L|123:266,2,94.499997116089,6|2|2,1:1|1:2|1:2,0:0:0:0:
184,176,51850,2,0,L|78:179,1,94.499997116089,14|0,0:0|0:0,0:0:0:0:
37,100,52433,1,2,1:2:0:0:
111,40,52724,2,0,P|158:26|229:65,2,94.499997116089,6|0|0,1:1|1:0|1:0,0:0:0:0:
157,122,53598,1,14,0:0:0:0:
251,111,53889,1,2,0:0:0:0:
343,129,54180,1,2,1:2:0:0:
376,217,54471,6,0,L|281:217,1,94.499997116089,6|0,1:2|0:0,0:0:0:0:
186,223,55054,1,2,1:2:0:0:
110,166,55345,2,0,P|90:212|113:278,1,94.499997116089,14|0,2:1|0:0,0:0:0:0:
163,317,55928,1,2,1:2:0:0:
256,330,56219,6,0,L|346:335,1,47.2499985580445,6|8,1:2|0:0,0:0:0:0:
350,338,56510,1,8,0:0:0:0:
385,250,56801,2,0,L|337:252,1,47.2499985580445,8|10,0:0|0:0,0:0:0:0:
299,223,57093,2,0,B|318:193|318:193|313:122,2,94.499997116089,6|10|8,1:1|0:0|0:3,0:0:0:0:
229,159,57966,6,0,P|256:66|365:63,1,188.999994232178,6|2,1:2|1:2,0:0:0:0:
430,65,58840,2,0,L|444:281,1,188.999994232178,10|2,0:0|1:2,0:0:0:0:
350,237,59714,2,0,L|337:48,1,188.999994232178,6|2,1:1|1:2,0:0:0:0:
243,31,60588,2,0,L|253:162,2,94.499997116089,10|0|2,0:0|0:0|1:2,0:0:0:0:
153,65,61462,6,0,L|171:285,1,188.999994232178,6|2,1:2|1:2,0:0:0:0:
75,253,62335,2,0,L|85:360,2,94.499997116089,14|0|2,1:1|0:0|1:2,0:0:0:0:
169,254,63209,2,0,L|215:263,1,47.2499985580445,6|10,1:2|0:0,0:0:0:0:
256,240,63500,1,10,0:0:0:0:
212,155,63792,2,0,L|153:141,1,47.2499985580445,10|8,0:0|3:0,0:0:0:0:
118,148,64083,2,0,P|144:114|136:44,2,94.499997116089,6|10|4,1:1|0:0|0:3,0:0:0:0:
30,185,64957,6,0,B|11:243|11:243|23:380,1,188.999994232178,6|0,1:2|1:0,0:0:0:0:
111,338,65831,2,0,L|225:333,2,94.499997116089,14|2|2,0:1|1:2|1:2,0:0:0:0:
151,252,66704,2,0,L|223:249,1,47.2499985580445,6|8,1:2|0:0,0:0:0:0:
245,258,66996,1,8,0:0:0:0:
328,299,67287,2,0,L|379:297,1,47.2499985580445,10|8,0:0|0:0,0:0:0:0:
419,313,67578,1,14,1:1:0:0:
411,218,67869,1,6,1:3:0:0:
342,154,68161,1,6,1:3:0:0:
298,69,68452,6,0,P|347:56|411:90,2,94.499997116089,6|2|2,1:2|0:0|1:2,0:0:0:0:
214,113,69326,2,0,L|119:114,2,94.499997116089,12|2|2,2:1|0:0|0:0,0:0:0:0:
262,194,70199,2,0,L|344:193,1,47.2499985580445,6|8,1:1|0:0,0:0:0:0:
351,215,70491,2,0,L|427:213,1,47.2499985580445,0|2,0:0|1:2,0:0:0:0:
438,189,70782,1,2,1:2:0:0:
482,272,71073,1,6,1:2:0:0:
403,324,71365,2,0,L|235:325,1,141.749995674133,2|0,1:2|1:0,0:0:0:0:
238,283,71947,6,0,L|234:395,2,94.499997116089,6|0|0,1:2|1:0|1:0,0:0:0:0:
155,236,72821,2,0,P|138:282|181:348,2,94.499997116089,14|2|2,2:1|1:2|1:2,0:0:0:0:
206,156,73695,2,0,L|208:91,1,47.2499985580445,6|8,1:2|0:0,0:0:0:0:
178,71,73986,1,8,0:0:0:0:
87,99,74277,2,0,L|86:160,1,47.2499985580445,10|8,0:0|0:0,0:0:0:0:
95,192,74568,2,0,P|49:173|1:192,2,94.499997116089,6|10|8,1:1|0:0|0:3,0:0:0:0:
184,160,75442,6,0,L|182:373,1,188.999994232178,6|0,1:1|0:0,0:0:0:0:
275,334,76316,2,0,L|276:145,1,188.999994232178,10|2,0:0|0:3,0:0:0:0:
367,119,77190,2,0,L|365:307,1,188.999994232178,6|0,1:1|0:0,0:0:0:0:
458,292,78064,2,0,L|458:99,1,188.999994232178,10|0,0:0|1:0,0:0:0:0:
380,48,78937,6,0,B|347:27|347:27|281:30,2,94.499997116089,6|0|0,1:1|0:0|0:0,0:0:0:0:
314,116,79811,2,0,B|258:118|258:118|225:97,2,94.499997116089,14|0|2,0:0|0:0|0:3,0:0:0:0:
337,207,80685,2,0,L|273:212,1,47.2499985580445,6|10,1:1|0:0,0:0:0:0:
272,254,80976,1,10,0:0:0:0:
184,218,81267,2,0,L|120:222,1,47.2499985580445,10|10,0:0|0:0,0:0:0:0:
113,262,81559,2,0,B|123:223|123:223|89:142,2,94.499997116089,6|10|10,1:1|0:0|0:0,0:0:0:0:
165,340,82433,5,6,1:2:0:0:
256,192,82724,12,0,85248,0:0:0:0:
