osu file format v14

[General]
AudioFilename: audio.mp3
AudioLeadIn: 0
PreviewTime: 43981
Countdown: 0
SampleSet: Soft
StackLeniency: 0.7
Mode: 0
LetterboxInBreaks: 0
StoryFireInFront: 0
EpilepsyWarning: 1
WidescreenStoryboard: 1

[Editor]
Bookmarks: 583,13762,14855,16020,23010,43981,51845,53592,56505,57525,64515
DistanceSpacing: 1.4
BeatDivisor: 4
GridSize: 4
TimelineZoom: 3.699999

[Metadata]
Title:escape (TV Size)
TitleUnicode:escape (TV Size)
Artist:XX:me
ArtistUnicode:XX:me
Creator:Mohab500
Version:Insane: Delphinium
Source:ダーリン・イン・ザ・フランキス
Tags:DARLING in the FRANXX Pandize -Aqua -Mo- [[Pika]] キス・ミー kiss me ending ed Haruka Tomatsu 02 Zero Two Kana Ichinose Ichigo Nanami Yamashita Miku Shizuka Ishigami Ikuno Saori Hayami Kokoro Katsuhiko Sugiyama
BeatmapID:1683474
BeatmapSetID:786195

[Difficulty]
HPDrainRate:5
CircleSize:4.2
OverallDifficulty:7.5
ApproachRate:9.1
SliderMultiplier:1.5
SliderTickRate:1

[Events]
//Background and Video events
0,0,"bg1.jpg",0,0
//Break Periods
//Storyboard Layer 0 (Background)
Sprite,Background,Centre,"sb\glow.png",372,299 C,0,5539,,0,255,128 F,2,5539,5839,1,0 S,2,5539,5839,1.5,0.3 P,0,5539,5839,A
Sprite,Background,Centre,"sb\glow.png",0,0 C,0,5685,,0,255,128 M,0,5685,5721,452,311,452.8584,292.35 F,2,5685,6276,1,0 S,2,5685,6276,1.5,0.3 P,0,5685,6276,A M,0,5721,5757,452.8584,292.35,449.1955,274.0762 M,0,5757,5794,449.1955,274.0762,441.2381,257.2484 M,0,5794,5830,441.2381,257.2484,429.4604,242.8509 M,0,5830,5867,429.4604,242.8509,414.7307,231.4465 M,0,5867,5903,414.7307,231.4465,397.4559,224.4231 M,0,5903,5939,397.4559,224.4231,379.0226,221.7823 M,0,5939,5976,379.0226,221.7823,360.5137,223.6697
Sprite,Background,Centre,"sb\glow.png",372,299 C,0,6122,,0,255,128 F,2,6122,6422,1,0 S,2,6122,6422,1.5,0.3 P,0,6122,6422,A
Sprite,Background,Centre,"sb\glow.png",452,311 C,0,6268,,0,255,128 F,2,6268,6568,1,0 S,2,6268,6568,1.5,0.3 P,0,6268,6568,A
Sprite,Background,Centre,"sb\glow.png",0,0 C,0,6413,,0,255,128 M,0,6413,6449,321,362,302.25,362 F,2,6413,6858,1,0 S,2,6413,6858,1.5,0.3 P,0,6413,6858,A M,0,6449,6485,302.25,362,283.5,362 M,0,6485,6522,283.5,362,264.75,362 M,0,6522,6558,264.75,362,246,362
Sprite,Background,Centre,"sb\glow.png",293,288 C,0,6705,,0,255,128 F,2,6705,7005,1,0 S,2,6705,7005,1.5,0.3 P,0,6705,7005,A
Sprite,Background,Centre,"sb\glow.png",372,299 C,0,6850,,0,255,128 F,2,6850,7150,1,0 S,2,6850,7150,1.5,0.3 P,0,6850,7150,A
Sprite,Background,Centre,"sb\glow.png",351,436 C,0,6996,,0,255,128 F,2,6996,7296,1,0 S,2,6996,7296,1.5,0.3 P,0,6996,7296,A
Sprite,Background,Centre,"sb\glow.png",235,357 C,0,7141,,0,255,128 F,2,7141,7441,1,0 S,2,7141,7441,1.5,0.3 P,0,7141,7441,A
Sprite,Background,Centre,"sb\ring.png",343,226 C,0,7287,,255,0,0 F,0,7287,8087,1,0 S,0,7287,8287,1.5,2
Sprite,Background,Centre,"sb\glow.png",354,398 C,0,13404,,255,255,128 F,2,13404,13704,1,0 S,2,13404,13704,1.5,0.3 P,0,13404,13704,A
Sprite,Background,Centre,"sb\glow.png",347,260 C,0,13549,,255,255,128 F,2,13549,13849,1,0 S,2,13549,13849,1.5,0.3 P,0,13549,13849,A
Sprite,Background,Centre,"sb\glow.png",273,348 C,0,13695,,255,255,128 F,2,13695,13995,1,0 S,2,13695,13995,1.5,0.3 P,0,13695,13995,A
Sprite,Background,Centre,"sb\glow.png",429,332 C,0,13840,,255,255,128 F,2,13840,14140,1,0 S,2,13840,14140,1.5,0.3 P,0,13840,14140,A
Sprite,Background,Centre,"sb\glow.png",349,287 C,0,13986,,255,255,128 F,2,13986,14286,1,0 S,2,13986,14286,1.5,0.3 P,0,13986,14286,A
Sprite,Background,Centre,"sb\glow.png",352,377 C,0,14132,,255,255,128 F,2,14132,14432,1,0 S,2,14132,14432,1.5,0.3 P,0,14132,14432,A
Sprite,Background,Centre,"sb\ring.png",417,241 C,0,14277,,0,255,128 F,0,14277,15077,1,0 S,0,14277,15277,1.5,2
Sprite,Background,Centre,"sb\ring.png",534,184 C,0,21268,,255,255,128 F,0,21268,22068,1,0 S,0,21268,22268,1.5,2
Sprite,Background,Centre,"sb\glow.png",339,293 C,0,26510,,255,128,255 F,2,26510,26810,1,0 S,2,26510,26810,1.5,0.3 P,0,26510,26810,A
Sprite,Background,Centre,"sb\glow.png",0,0 C,0,26656,,255,128,255 M,0,26656,26692,248,266,235.0425,263.9101 F,2,26656,27101,1,0 S,2,26656,27101,1.5,0.3 P,0,26656,27101,A M,0,26692,26728,235.0425,263.9101,222.0849,261.8201 M,0,26728,26765,222.0849,261.8201,209.1274,259.7302 M,0,26765,26801,209.1274,259.7302,196.1698,257.6403
Sprite,Background,Centre,"sb\glow.png",342,192 C,0,26947,,255,128,255 F,2,26947,27247,1,0 S,2,26947,27247,1.5,0.3 P,0,26947,27247,A
Sprite,Background,Centre,"sb\glow.png",0,0 C,0,27093,,255,128,255 M,0,27093,27129,342,192,354.9253,189.7191 F,2,27093,27538,1,0 S,2,27093,27538,1.5,0.3 P,0,27093,27538,A M,0,27129,27165,354.9253,189.7191,367.8506,187.4381 M,0,27165,27202,367.8506,187.4381,380.7758,185.1572 M,0,27202,27238,380.7758,185.1572,393,183
Sprite,Background,Centre,"sb\glow.png",270,359 C,0,27384,,255,128,255 F,2,27384,27684,1,0 S,2,27384,27684,1.5,0.3 P,0,27384,27684,A
Sprite,Background,Centre,"sb\glow.png",317,200 C,0,27530,,255,128,255 F,2,27530,27830,1,0 S,2,27530,27830,1.5,0.3 P,0,27530,27830,A
Sprite,Background,Centre,"sb\glow.png",0,0 C,0,27675,,255,128,255 M,0,27675,27711,472,310,458.8845,309.5004 F,2,27675,28266,1,0 S,2,27675,28266,1.5,0.3 P,0,27675,28266,A M,0,27711,27747,458.8845,309.5004,445.769,309.0007 M,0,27747,27784,445.769,309.0007,432.6535,308.5011 M,0,27784,27820,432.6535,308.5011,419.5381,308.0015 M,0,27820,27857,419.5381,308.0015,406.4226,307.5018 M,0,27857,27893,406.4226,307.5018,393.3071,307.0022 M,0,27893,27929,393.3071,307.0022,380.1916,306.5025 M,0,27929,27966,380.1916,306.5025,367.0761,306.0029
Sprite,Background,Centre,"sb\ring.png",229,431 C,0,28258,,0,255,64 F,0,28258,29058,1,0 S,0,28258,29258,1.5,2
Sprite,Background,Centre,"sb\ring.png",561,110 C,0,31753,,0,255,128 F,0,31753,32553,1,0 S,0,31753,32753,1.5,2
Sprite,Background,Centre,"sb\glow.png",242,194 C,0,34374,,255,0,0 F,2,34374,34674,1,0 S,2,34374,34674,1.5,0.3 P,0,34374,34674,A
Sprite,Background,Centre,"sb\glow.png",0,0 C,0,34666,,255,0,0 M,0,34666,34702,242,194,254.9931,195.8562 F,2,34666,35257,1,0 S,2,34666,35257,1.5,0.3 P,0,34666,35257,A M,0,34702,34738,254.9931,195.8562,267.9862,197.7123 M,0,34738,34775,267.9862,197.7123,280.9792,199.5685 M,0,34775,34811,280.9792,199.5685,293.9724,201.4246 M,0,34811,34848,293.9724,201.4246,306.9655,203.2808 M,0,34848,34884,306.9655,203.2808,319.9585,205.1369 M,0,34884,34920,319.9585,205.1369,332.9516,206.9931 M,0,34920,34957,332.9516,206.9931,345.9447,208.8492
Sprite,Background,Centre,"sb\ring.png",166,420 C,0,35248,,255,128,255 F,0,35248,36048,1,0 S,0,35248,36248,1.5,2
Sprite,Background,Centre,"sb\ring.png",261,304 C,0,36996,,0,255,64 F,0,36996,37796,1,0 S,0,36996,37996,1.5,2
Sprite,Background,Centre,"sb\ring.png",337,164 C,0,38743,,255,255,128 F,0,38743,39543,1,0 S,0,38743,39743,1.5,2
Sprite,Background,Centre,"sb\ring.png",424,237 C,0,39617,,255,255,128 F,0,39617,40417,1,0 S,0,39617,40617,1.5,2
Sprite,Background,Centre,"sb\ring.png",519,405 C,0,40491,,0,255,128 F,0,40491,41291,1,0 S,0,40491,41491,1.5,2
Sprite,Background,Centre,"sb\glow.png",328,341 C,0,41365,,0,255,128 F,2,41365,41565,1,0 S,2,41365,41565,2,0.4 P,0,41365,41565,A
Sprite,Background,Centre,"sb\glow.png",0,0 C,0,41510,,0,255,128 M,0,41510,41546,445,324,445.9135,342.7277 F,2,41510,41855,1,0 S,2,41510,41855,2,0.4 P,0,41510,41855,A M,0,41546,41582,445.9135,342.7277,446.8271,361.4555 M,0,41582,41619,446.8271,361.4555,445.9135,342.7277 M,0,41619,41655,445.9135,342.7277,445,324
Sprite,Background,Centre,"sb\glow.png",325,427 C,0,41802,,0,255,128 F,2,41802,42002,1,0 S,2,41802,42002,2,0.4 P,0,41802,42002,A
Sprite,Background,Centre,"sb\glow.png",378,258 C,0,41947,,0,255,128 F,2,41947,42147,1,0 S,2,41947,42147,2,0.4 P,0,41947,42147,A
Sprite,Background,Centre,"sb\glow.png",313,329 C,0,42093,,0,255,128 F,2,42093,42293,1,0 S,2,42093,42293,2,0.4 P,0,42093,42293,A
Sprite,Background,Centre,"sb\glow.png",0,0 C,0,42239,,255,0,0 M,0,42239,42275,381,167,381.25,185.7483 F,2,42239,42584,1,0 S,2,42239,42584,2,0.4 P,0,42239,42584,A M,0,42275,42311,381.25,185.7483,381.5,204.4967 M,0,42311,42348,381.5,204.4967,381.7499,223.245 M,0,42348,42384,381.7499,223.245,381.9999,241.9933
Sprite,Background,Centre,"sb\glow.png",270,239 C,0,42530,,255,0,0 F,2,42530,42730,1,0 S,2,42530,42730,2,0.4 P,0,42530,42730,A
Sprite,Background,Centre,"sb\glow.png",313,329 C,0,42675,,255,0,0 F,2,42675,42875,1,0 S,2,42675,42875,2,0.4 P,0,42675,42875,A
Sprite,Background,Centre,"sb\glow.png",0,0 C,0,42821,,255,0,0 M,0,42821,42857,268,224,267.559,205.2552 F,2,42821,43166,1,0 S,2,42821,43166,2,0.4 P,0,42821,43166,A M,0,42857,42893,267.559,205.2552,267.1179,186.5104 M,0,42893,42930,267.1179,186.5104,266.6768,167.7656 M,0,42930,42966,266.6768,167.7656,266.2358,149.0208
Sprite,Background,Centre,"sb\glow.png",184,333 C,0,43112,,255,128,255 F,2,43112,43312,1,0 S,2,43112,43312,2,0.4 P,0,43112,43312,A
Sprite,Background,Centre,"sb\glow.png",135,254 C,0,43258,,255,128,255 F,2,43258,43458,1,0 S,2,43258,43458,2,0.4 P,0,43258,43458,A
Sprite,Background,Centre,"sb\glow.png",178,172 C,0,43404,,255,128,255 F,2,43404,43604,1,0 S,2,43404,43604,2,0.4 P,0,43404,43604,A
Sprite,Background,Centre,"sb\glow.png",171,351 C,0,43549,,0,255,64 F,2,43549,43749,1,0 S,2,43549,43749,2,0.4 P,0,43549,43749,A
Sprite,Background,Centre,"sb\glow.png",114,255 C,0,43695,,0,255,64 F,2,43695,43895,1,0 S,2,43695,43895,2,0.4 P,0,43695,43895,A
Sprite,Background,Centre,"sb\glow.png",166,157 C,0,43840,,0,255,64 F,2,43840,44040,1,0 S,2,43840,44040,2,0.4 P,0,43840,44040,A
Sprite,Background,Centre,"sb\ring.png",324,259 C,0,43986,,255,255,128 F,0,43986,44786,1,0 S,0,43986,44986,1.5,2
Sprite,Background,Centre,"sb\glow.png",350,262 C,0,49229,,255,128,255 F,2,49229,49429,1,0 S,2,49229,49429,1.5,0.3 P,0,49229,49429,A
Sprite,Background,Centre,"sb\glow.png",273,195 C,0,49374,,255,128,255 F,2,49374,49574,1,0 S,2,49374,49574,1.5,0.3 P,0,49374,49574,A
Sprite,Background,Centre,"sb\glow.png",249,307 C,0,49520,,255,128,255 F,2,49520,49720,1,0 S,2,49520,49720,1.5,0.3 P,0,49520,49720,A
Sprite,Background,Centre,"sb\glow.png",346,190 C,0,49666,,255,128,255 F,2,49666,49866,1,0 S,2,49666,49866,1.5,0.3 P,0,49666,49866,A
Sprite,Background,Centre,"sb\glow.png",218,244 C,0,49811,,255,128,255 F,2,49811,50011,1,0 S,2,49811,50011,1.5,0.3 P,0,49811,50011,A
Sprite,Background,Centre,"sb\glow.png",320,331 C,0,49957,,255,128,255 F,2,49957,50157,1,0 S,2,49957,50157,1.5,0.3 P,0,49957,50157,A
Sprite,Background,Centre,"sb\glow.png",316,98 C,0,50103,,255,128,255 F,2,50103,50303,1,0 S,2,50103,50303,1.5,0.3 P,0,50103,50303,A
Sprite,Background,Centre,"sb\glow.png",0,0 C,0,50248,,255,128,255 M,0,50248,50284,179,139,155.9525,146.9344 F,2,50248,50593,1,0 S,2,50248,50593,1.5,0.3 P,0,50248,50593,A M,0,50284,50320,155.9525,146.9344,132.905,154.8687 M,0,50320,50357,132.905,154.8687,155.9525,146.9344 M,0,50357,50393,155.9525,146.9344,179,139
Sprite,Background,Centre,"sb\glow.png",0,0 C,0,50539,,255,128,255 M,0,50539,50575,349,170,372.0475,177.9344 F,2,50539,50884,1,0 S,2,50539,50884,1.5,0.3 P,0,50539,50884,A M,0,50575,50611,372.0475,177.9344,395.095,185.8688 M,0,50611,50648,395.095,185.8688,372.0475,177.9344 M,0,50648,50684,372.0475,177.9344,349,170
Sprite,Background,Centre,"sb\glow.png",317,85 C,0,50831,,255,128,255 F,2,50831,51031,1,0 S,2,50831,51031,1.5,0.3 P,0,50831,51031,A
Sprite,Background,Centre,"sb\glow.png",255,142 C,0,56219,,255,0,0 F,2,56219,56419,1,0 S,2,56219,56419,1.5,0.3 P,0,56219,56419,A
Sprite,Background,Centre,"sb\glow.png",360,316 C,0,56365,,255,0,0 F,2,56365,56565,1,0 S,2,56365,56565,1.5,0.3 P,0,56365,56565,A
Sprite,Background,Centre,"sb\glow.png",0,0 C,0,56510,,255,0,0 M,0,56510,56546,360,316,384.375,316 F,2,56510,56855,1,0 S,2,56510,56855,1.5,0.3 P,0,56510,56855,A M,0,56546,56582,384.375,316,408.75,316 M,0,56582,56619,408.75,316,433.125,316 M,0,56619,56655,433.125,316,457,316
Sprite,Background,Centre,"sb\glow.png",229,165 C,0,56802,,255,0,0 F,2,56802,57002,1,0 S,2,56802,57002,1.5,0.3 P,0,56802,57002,A
Sprite,Background,Centre,"sb\glow.png",189,324 C,0,56947,,255,0,0 F,2,56947,57147,1,0 S,2,56947,57147,1.5,0.3 P,0,56947,57147,A
Sprite,Background,Centre,"sb\glow.png",64,227 C,0,57093,,255,0,0 F,2,57093,57293,1,0 S,2,57093,57293,1.5,0.3 P,0,57093,57293,A
Sprite,Background,Centre,"sb\glow.png",0,0 C,0,57239,,255,0,0 M,0,57239,57275,246,151,270.3361,149.6225 F,2,57239,57584,1,0 S,2,57239,57584,1.5,0.3 P,0,57239,57584,A M,0,57275,57311,270.3361,149.6225,294.6721,148.245 M,0,57311,57348,294.6721,148.245,270.3361,149.6225 M,0,57348,57384,270.3361,149.6225,246,151
Sprite,Background,Centre,"sb\glow.png",0,0 C,0,57530,,255,0,0 M,0,57530,57566,135,216,110.6453,216.9941 F,2,57530,57802,1,0 S,2,57530,57802,1.5,0.3 P,0,57530,57802,A M,0,57566,57602,110.6453,216.9941,86.29056,217.9881
Sprite,Background,Centre,"sb\glow.png",0,0 C,0,57675,,255,0,0 M,0,57675,57711,283,257,307.3682,257.5756 F,2,57675,58020,1,0 S,2,57675,58020,1.5,0.3 P,0,57675,58020,A M,0,57711,57747,307.3682,257.5756,331.7364,258.1512 M,0,57747,57784,331.7364,258.1512,356.1046,258.7269 M,0,57784,57820,356.1046,258.7269,380.4728,259.3025
Sprite,Background,Centre,"sb\glow.png",299,76 C,0,63209,,0,255,128 F,2,63209,63409,1,0 S,2,63209,63409,1.5,0.3 P,0,63209,63409,A
Sprite,Background,Centre,"sb\glow.png",239,245 C,0,63355,,0,255,128 F,2,63355,63555,1,0 S,2,63355,63555,1.5,0.3 P,0,63355,63555,A
Sprite,Background,Centre,"sb\glow.png",0,0 C,0,63501,,0,255,128 M,0,63501,63537,80,143,104.358,142.0894 F,2,63501,63846,1,0 S,2,63501,63846,1.5,0.3 P,0,63501,63846,A M,0,63537,63573,104.358,142.0894,128.716,141.1788 M,0,63573,63610,128.716,141.1788,153.074,140.2683 M,0,63610,63646,153.074,140.2683,177.4319,139.3577
Sprite,Background,Centre,"sb\glow.png",255,256 C,0,63792,,0,255,128 F,2,63792,63992,1,0 S,2,63792,63992,1.5,0.3 P,0,63792,63992,A
Sprite,Background,Centre,"sb\glow.png",312,56 C,0,63938,,0,255,128 F,2,63938,64138,1,0 S,2,63938,64138,1.5,0.3 P,0,63938,64138,A
Sprite,Background,Centre,"sb\glow.png",82,119 C,0,64083,,0,255,128 F,2,64083,64283,1,0 S,2,64083,64283,1.5,0.3 P,0,64083,64283,A
Sprite,Background,Centre,"sb\glow.png",0,0 C,0,64229,,0,255,128 M,0,64229,64265,248,153,272.2908,150.9758 F,2,64229,64574,1,0 S,2,64229,64574,1.5,0.3 P,0,64229,64574,A M,0,64265,64301,272.2908,150.9758,296.5816,148.9515 M,0,64301,64338,296.5816,148.9515,272.2908,150.9758 M,0,64338,64374,272.2908,150.9758,248,153
Sprite,Background,Centre,"sb\glow.png",0,0 C,0,64520,,0,255,128 M,0,64520,64556,138,268,127.4257,289.9619 F,2,64520,64865,1,0 S,2,64520,64865,1.5,0.3 P,0,64520,64865,A M,0,64556,64592,127.4257,289.9619,116.8515,311.9238 M,0,64592,64629,116.8515,311.9238,127.4258,289.9619 M,0,64629,64665,127.4258,289.9619,138,268
Sprite,Background,Centre,"sb\glow.png",157,176 C,0,64811,,0,255,128 F,2,64811,65011,1,0 S,2,64811,65011,1.5,0.3 P,0,64811,65011,A
Sprite,Background,Centre,"sb\glow.png",534,367 C,0,66705,,255,128,255 F,2,66705,66905,1,0 S,2,66705,66905,1.5,0.3 P,0,66705,66905,A
Sprite,Background,Centre,"sb\glow.png",482,228 C,0,66850,,255,128,255 F,2,66850,67050,1,0 S,2,66850,67050,1.5,0.3 P,0,66850,67050,A
Sprite,Background,Centre,"sb\glow.png",336,312 C,0,66996,,255,128,255 F,2,66996,67196,1,0 S,2,66996,67196,1.5,0.3 P,0,66996,67196,A
Sprite,Background,Centre,"sb\glow.png",336,312 C,0,67287,,255,128,255 F,2,67287,67487,1,0 S,2,67287,67487,1.5,0.3 P,0,67287,67487,A
Sprite,Background,Centre,"sb\glow.png",406,131 C,0,67433,,255,128,255 F,2,67433,67633,1,0 S,2,67433,67633,1.5,0.3 P,0,67433,67633,A
Sprite,Background,Centre,"sb\glow.png",255,230 C,0,67578,,255,128,255 F,2,67578,67778,1,0 S,2,67578,67778,1.5,0.3 P,0,67578,67778,A
Sprite,Background,Centre,"sb\glow.png",482,228 C,0,67724,,255,128,255 F,2,67724,67924,1,0 S,2,67724,67924,1.5,0.3 P,0,67724,67924,A
Sprite,Background,Centre,"sb\glow.png",336,312 C,0,67870,,255,128,255 F,2,67870,68070,1,0 S,2,67870,68070,1.5,0.3 P,0,67870,68070,A
Sprite,Background,Centre,"sb\glow.png",406,229 C,0,68015,,255,128,255 F,2,68015,68215,1,0 S,2,68015,68215,1.5,0.3 P,0,68015,68215,A
Sprite,Background,Centre,"sb\glow.png",334,230 C,0,68161,,255,128,255 F,2,68161,68361,1,0 S,2,68161,68361,1.5,0.3 P,0,68161,68361,A
Sprite,Background,Centre,"sb\glow.png",405,314 C,0,68306,,255,128,255 F,2,68306,68506,1,0 S,2,68306,68506,1.5,0.3 P,0,68306,68506,A
Sprite,Background,Centre,"sb\ring.png",408,147 C,0,71947,,0,255,128 F,0,71947,72747,1,0 S,0,71947,72947,1.5,2
Sprite,Background,Centre,"sb\glow.png",155,269 C,0,73695,,255,0,0 F,2,73695,73895,1,0 S,2,73695,73895,1.5,0.3 P,0,73695,73895,A
Sprite,Background,Centre,"sb\glow.png",268,421 C,0,73840,,255,0,0 F,2,73840,74040,1,0 S,2,73840,74040,1.5,0.3 P,0,73840,74040,A
Sprite,Background,Centre,"sb\glow.png",346,243 C,0,73986,,255,0,0 F,2,73986,74186,1,0 S,2,73986,74186,1.5,0.3 P,0,73986,74186,A
Sprite,Background,Centre,"sb\glow.png",346,243 C,0,74277,,255,0,0 F,2,74277,74477,1,0 S,2,74277,74477,1.5,0.3 P,0,74277,74477,A
Sprite,Background,Centre,"sb\glow.png",257,323 C,0,74423,,255,0,0 F,2,74423,74623,1,0 S,2,74423,74623,1.5,0.3 P,0,74423,74623,A
Sprite,Background,Centre,"sb\glow.png",313,151 C,0,74569,,255,0,0 F,2,74569,74769,1,0 S,2,74569,74769,1.5,0.3 P,0,74569,74769,A
Sprite,Background,Centre,"sb\glow.png",0,0 C,0,74714,,255,0,0 M,0,74714,74750,218,243,193.6453,242.0059 F,2,74714,74986,1,0 S,2,74714,74986,1.5,0.3 P,0,74714,74986,A M,0,74750,74786,193.6453,242.0059,169.2906,241.0119
Sprite,Background,Centre,"sb\glow.png",346,243 C,0,74860,,255,0,0 F,2,74860,75060,1,0 S,2,74860,75060,1.5,0.3 P,0,74860,75060,A
Sprite,Background,Centre,"sb\glow.png",0,0 C,0,75006,,255,0,0 M,0,75006,75042,235,167,210.6453,166.0059 F,2,75006,75278,1,0 S,2,75006,75278,1.5,0.3 P,0,75006,75278,A M,0,75042,75078,210.6453,166.0059,186.2906,165.0119
Sprite,Background,Centre,"sb\glow.png",0,0 C,0,75151,,255,0,0 M,0,75151,75187,345,242,369.3433,240.758 F,2,75151,75496,1,0 S,2,75151,75496,1.5,0.3 P,0,75151,75496,A M,0,75187,75223,369.3433,240.758,393.6867,239.516 M,0,75223,75260,393.6867,239.516,418.03,238.274 M,0,75260,75296,418.03,238.274,442.3734,237.032
Sprite,Background,Centre,"sb\ring.png",195,423 C,0,75442,,255,128,255 F,0,75442,76242,1,0 S,0,75442,76442,1.5,2
Sprite,Background,Centre,"sb\glow.png",275,303 C,0,80685,,0,255,128 F,2,80685,80885,1,0 S,2,80685,80885,1.5,0.3 P,0,80685,80885,A
Sprite,Background,Centre,"sb\glow.png",286,221 C,0,80831,,0,255,128 F,2,80831,81031,1,0 S,2,80831,81031,1.5,0.3 P,0,80831,81031,A
Sprite,Background,Centre,"sb\glow.png",199,335 C,0,80976,,0,255,128 F,2,80976,81176,1,0 S,2,80976,81176,1.5,0.3 P,0,80976,81176,A
Sprite,Background,Centre,"sb\glow.png",199,335 C,0,81268,,0,255,128 F,2,81268,81468,1,0 S,2,81268,81468,1.5,0.3 P,0,81268,81468,A
Sprite,Background,Centre,"sb\glow.png",341,354 C,0,81413,,0,255,128 F,2,81413,81613,1,0 S,2,81413,81613,1.5,0.3 P,0,81413,81613,A
Sprite,Background,Centre,"sb\glow.png",286,221 C,0,81559,,0,255,128 F,2,81559,81759,1,0 S,2,81559,81759,1.5,0.3 P,0,81559,81759,A
Sprite,Background,Centre,"sb\glow.png",0,0 C,0,81705,,0,255,128 M,0,81705,81741,262,390,260.695,408.7045 F,2,81705,82050,1,0 S,2,81705,82050,1.5,0.3 P,0,81705,82050,A M,0,81741,81777,260.695,408.7045,259.3901,427.4091 M,0,81777,81814,259.3901,427.4091,260.695,408.7045 M,0,81814,81850,260.695,408.7045,262,390
Sprite,Background,Centre,"sb\glow.png",0,0 C,0,81996,,0,255,128 M,0,81996,82032,173,254,175.511,235.4189 F,2,81996,82268,1,0 S,2,81996,82268,1.5,0.3 P,0,81996,82268,A M,0,82032,82068,175.511,235.4189,178,217
Sprite,Background,Centre,"sb\glow.png",284,207 C,0,82141,,0,255,128 F,2,82141,82341,1,0 S,2,82141,82341,1.5,0.3 P,0,82141,82341,A
Sprite,Background,Centre,"sb\glow.png",338,343 C,0,82287,,0,255,128 F,2,82287,82487,1,0 S,2,82287,82487,1.5,0.3 P,0,82287,82487,A
Sprite,Background,Centre,"bg1.jpg",320,240 S,0,0,,0.4549763 S,0,0,,0.4549763 F,0,0,6408,0.7,0 F,7,6704,7141,0,0.2 F,7,7141,7287,0.2,0.4 F,7,7287,12530,0.4,0.6 F,7,12530,13112,0.6,0 F,7,13258,13403,0,0.6 F,7,41219,41364,0.6,0.3 F,7,42238,43913,0.3,0 F,7,43913,43986,0,1 F,7,49156,49229,1,0.4 F,7,50030,50102,0.3,0.1 F,7,50248,50903,0.1,0.2 F,7,50903,50976,0.2,1 F,7,56146,56219,1,0.2 F,7,56219,56947,0.2,0.3 F,7,57020,57093,0.3,0 F,7,57238,57894,0.1,0.5 F,7,57894,57966,0.5,1 F,7,63136,63209,1,0.4 F,7,64010,64083,0.4,0.1 F,7,64083,64884,0.1,0.3 F,7,64884,64957,0.3,1 F,7,66631,66704,1,0.1 F,7,67214,67287,0.1,0.7 F,7,68379,68452,0.7,1 F,7,73622,73695,1,0.3 F,7,74204,74277,0.3,0.1 F,7,74496,74568,0.1,0.4 F,7,75369,75442,0.4,1 F,7,75442,81267,1,0.3 F,7,81267,82432,0.3,0 F,0,85243,,0
Sprite,Background,Centre,"sb\ring.png",492,185 C,0,50976,,0,255,64 F,0,50976,51776,1,0 S,0,50976,51976,1.5,2
Sprite,Background,Centre,"sb\ring.png",408,147 C,0,71947,,0,255,128 F,0,71947,72747,1,0 S,0,71947,72947,1.5,2
Sprite,Background,Centre,"sb\ring.png",516,367 C,0,57967,,255,128,255 F,0,57967,58767,1,0 S,0,57967,58967,1.5,2
Sprite,Background,Centre,"sb\ring.png",293,273 C,0,64957,,255,0,0 F,0,64957,65757,1,0 S,0,64957,65957,1.5,2
Sprite,Background,Centre,"sb\ring.png",336,150 C,0,68452,,0,255,64 F,0,68452,69252,1,0 S,0,68452,69452,1.5,2
Sprite,Background,Centre,"sb\ring.png",324,259 C,0,43986,,255,255,128 F,0,43986,44786,1,0 S,0,43986,44986,1.5,2
//Storyboard Layer 1 (Fail)
//Storyboard Layer 2 (Pass)
//Storyboard Layer 3 (Foreground)
//Storyboard Sound Samples

[TimingPoints]
297,291.26213592233,6,2,1,50,1,0
5539,-100,6,2,1,50,0,0
7287,-100,6,2,1,70,0,0
13403,-100,6,2,1,90,0,0
14277,-142.857142857143,6,2,1,80,0,0
28185,-142.857142857143,6,2,1,5,0,0
28258,-142.857142857143,6,2,1,80,0,0
28476,-142.857142857143,6,2,1,5,0,0
28549,-142.857142857143,6,2,1,80,0,0
31971,-142.857142857143,6,2,1,5,0,0
32044,-142.857142857143,6,2,1,80,0,0
35466,-142.857142857143,6,2,1,5,0,0
35539,-142.857142857143,6,2,1,80,0,0
37214,-142.857142857143,6,2,1,5,0,0
37287,-142.857142857143,6,2,1,80,0,0
38743,-117.647058823529,6,2,1,80,0,0
39617,-100,6,2,1,80,0,0
42238,-100,6,2,1,80,0,0
43986,-76.9230769230769,6,2,1,90,0,1
50903,-76.9230769230769,6,2,1,5,0,1
50976,-76.9230769230769,6,2,1,90,0,1
57894,-76.9230769230769,6,2,1,5,0,1
57966,-100,6,2,1,90,0,1
61753,-76.9230769230769,6,2,1,90,0,1
64884,-76.9230769230769,6,2,1,5,0,1
64957,-76.9230769230769,6,2,1,90,0,1
71874,-76.9230769230769,6,2,1,5,0,1
71947,-76.9230769230769,6,2,1,90,0,1
75442,-100,6,2,1,90,0,0
82505,-125,6,2,1,60,0,0
85248,-125,6,2,1,20,0,0
85345,-125,6,2,1,20,0,0

[Colours]
Combo1 : 255,255,128
Combo2 : 0,255,128
Combo3 : 255,0,0
Combo4 : 255,128,255
Combo5 : 0,255,64

[HitObjects]
308,243,5539,5,8,0:0:0:0:
388,255,5685,2,0,P|358:180|287:170,1,150,0|0,1:0|1:0,0:0:0:0:
308,243,6122,1,0,1:0:0:0:
388,255,6268,1,0,1:0:0:0:
257,306,6413,2,0,L|163:306,1,75,8|0,0:0|1:0,0:0:0:0:
229,232,6705,1,0,1:0:0:0:
308,243,6850,1,0,1:0:0:0:
287,380,6996,1,2,1:2:0:0:
171,301,7141,1,2,1:2:0:0:
279,170,7287,6,0,P|305:109|266:20,1,150,6|0,1:1|0:0,0:0:0:0:
225,102,7724,1,0,0:0:0:0:
279,32,7870,2,0,L|364:31,1,75,2|0,0:0|0:0,0:0:0:0:
429,170,8161,2,0,L|279:170,1,150,10|2,0:0|0:0,0:0:0:0:
135,247,8743,1,2,0:3:0:0:
135,247,9035,6,0,L|302:250,1,150,2|2,1:2|0:0,0:0:0:0:
296,326,9472,1,0,0:0:0:0:
222,361,9617,2,0,L|128:369,1,75,2|2,0:0|0:0,0:0:0:0:
368,344,9908,2,0,P|344:265|282:251,2,150,10|2|2,0:0|0:0|0:3,0:0:0:0:
296,326,10637,1,0,0:3:0:0:
350,186,10782,6,0,L|512:184,1,150,2|2,1:0|0:0,0:0:0:0:
472,277,11219,1,0,0:3:0:0:
499,184,11365,2,0,P|513:138|499:84,1,75,2|2,0:0|0:0,0:0:0:0:
441,0,11656,2,0,P|394:81|404:141,1,150,10|2,0:0|0:0,0:0:0:0:
173,123,12239,1,2,0:3:0:0:
173,123,12530,6,0,B|255:155|248:102|320:124,1,150,2|2,1:2|0:0,0:0:0:0:
218,52,12967,1,2,0:0:0:0:
174,124,13112,1,2,0:0:0:0:
290,342,13404,1,10,0:0:0:0:
283,204,13549,1,10,0:0:0:0:
209,292,13695,1,2,0:0:0:0:
365,276,13840,1,0,0:0:0:0:
285,231,13986,1,0,1:2:0:0:
288,321,14132,1,0,1:2:0:0:
353,185,14277,6,0,P|349:110|282:73,1,157.499995193482,6|0,1:2|1:0,0:0:0:0:
234,153,14860,2,0,L|287:149,1,52.4999983978272,2|0,1:0|0:0,0:0:0:0:
354,260,15151,2,0,L|479:272,2,104.999996795654,10|0|0,0:0|0:0|0:0,0:0:0:0:
156,262,16025,6,0,L|31:274,1,104.999996795654,2|0,1:2|0:0,0:0:0:0:
99,193,16462,1,2,1:2:0:0:
188,179,16607,2,0,L|259:172,1,52.4999983978272,2|0,1:2|0:0,0:0:0:0:
275,333,16899,2,0,P|234:301|228:250,2,104.999996795654,10|0|0,0:0|0:0|0:0,0:0:0:0:
91,93,17772,6,0,P|144:79|207:102,1,104.999996795654,2|0,1:2|0:0,0:0:0:0:
251,152,18209,1,2,1:2:0:0:
340,138,18355,2,0,L|402:139,1,52.4999983978272,2|0,1:2|0:0,0:0:0:0:
240,203,18646,2,0,L|251:152,1,52.4999983978272,10|0,0:0|0:0,0:0:0:0:
200,39,18938,2,0,L|191:91,1,52.4999983978272,2|0,0:0|0:0,0:0:0:0:
283,69,19229,2,0,L|292:17,1,52.4999983978272,2|0,0:0|0:0,0:0:0:0:
308,223,19520,6,0,L|421:224,1,104.999996795654,2|0,1:2|0:0,0:0:0:0:
342,302,19957,1,2,1:2:0:0:
257,292,20103,2,0,L|195:289,1,52.4999983978272,2|0,1:2|0:0,0:0:0:0:
370,380,20394,2,0,P|420:341|425:286,2,104.999996795654,10|0|0,0:0|0:0|0:0,0:0:0:0:
470,128,21268,6,0,B|406:129|406:129|361:148|361:148|312:149,1,157.499995193482,6|0,1:2|1:0,0:0:0:0:
288,81,21850,2,0,L|348:80,1,52.4999983978272,2|0,1:2|0:0,0:0:0:0:
482,197,22141,2,0,B|416:199|416:199|378:215|378:215|328:217,1,157.499995193482,10|0,0:0|0:0,0:0:0:0:
420,130,22724,2,0,L|472:128,1,52.4999983978272,2|0,1:2|0:0,0:0:0:0:
413,57,23015,6,0,P|365:80|348:131,1,104.999996795654,2|0,1:2|0:0,0:0:0:0:
341,201,23452,1,2,1:2:0:0:
433,206,23598,2,0,L|507:205,1,52.4999983978272,2|0,1:2|0:0,0:0:0:0:
341,201,23889,2,0,L|355:306,2,104.999996795654,10|0|0,0:0|0:0|0:0,0:0:0:0:
156,305,24763,6,0,L|170:200,1,104.999996795654,2|0,1:2|0:0,0:0:0:0:
183,96,25200,1,2,1:2:0:0:
93,150,25345,2,0,L|98:202,1,52.4999983978272,2|0,1:2|0:0,0:0:0:0:
190,44,25637,2,0,L|184:96,1,52.4999983978272,10|0,0:0|0:0,0:0:0:0:
256,134,25928,2,0,L|261:81,1,52.4999983978272,2|0,0:0|0:0,0:0:0:0:
339,49,26219,2,0,L|334:106,1,52.4999983978272,2|0,0:0|0:0,0:0:0:0:
275,237,26510,5,10,1:2:0:0:
184,210,26656,2,0,L|122:200,1,52.4999983978272,0|2,1:2|0:0,0:0:0:0:
278,136,26947,1,0,1:2:0:0:
278,136,27093,2,0,L|329:127,1,52.4999983978272,2|0,1:2|0:0,0:0:0:0:
206,303,27384,1,10,0:0:0:0:
253,144,27530,1,8,0:0:0:0:
408,254,27675,2,0,L|303:250,1,104.999996795654,6|0,0:1|1:0,0:0:0:0:
165,375,28258,5,6,1:2:0:0:
165,375,28549,2,0,L|99:375,1,52.4999983978272,2|0,1:2|0:0,0:0:0:0:
61,298,28840,2,0,L|114:298,1,52.4999983978272,2|0,1:2|0:0,0:0:0:0:
6,221,29132,2,0,L|112:220,1,104.999996795654,10|0,0:0|0:0,0:0:0:0:
43,135,29569,1,2,1:2:0:0:
124,111,29714,2,0,L|193:114,1,52.4999983978272,2|0,1:2|0:0,0:0:0:0:
114,35,30006,6,0,L|10:30,1,104.999996795654,2|0,1:2|0:0,0:0:0:0:
201,3,30442,1,2,1:2:0:0:
286,98,30588,2,0,L|233:95,1,52.4999983978272,2|0,1:2|0:0,0:0:0:0:
328,160,30879,2,0,P|361:120|356:69,2,104.999996795654,10|0|0,0:0|0:0|1:0,0:0:0:0:
497,54,31753,5,2,1:2:0:0:
497,54,32044,2,0,L|445:48,1,52.4999983978272,2|0,1:2|0:0,0:0:0:0:
400,130,32336,2,0,L|452:136,1,52.4999983978272,2|0,1:2|0:0,0:0:0:0:
329,200,32627,2,0,L|452:218,1,104.999996795654,10|0,0:0|0:0,0:0:0:0:
423,295,33064,1,2,1:2:0:0:
352,333,33209,2,0,L|294:327,1,52.4999983978272,2|0,1:2|0:0,0:0:0:0:
449,368,33501,6,0,P|488:336|499:285,1,104.999996795654,2|0,1:2|0:0,0:0:0:0:
474,201,33938,1,2,1:2:0:0:
381,227,34083,2,0,L|319:222,1,52.4999983978272,2|0,1:2|0:0,0:0:0:0:
178,138,34374,1,10,0:0:0:0:
178,138,34666,2,0,L|283:153,1,104.999996795654,6|0,1:2|0:0,0:0:0:0:
102,364,35248,5,6,1:2:0:0:
102,364,35539,2,0,L|44:368,1,52.4999983978272,2|0,1:2|0:0,0:0:0:0:
173,320,35831,2,0,L|225:316,1,52.4999983978272,2|0,1:2|0:0,0:0:0:0:
399,379,36122,2,0,L|291:369,1,104.999996795654,10|0,0:0|0:0,0:0:0:0:
225,315,36559,1,2,1:2:0:0:
310,294,36705,2,0,L|383:301,1,52.4999983978272,2|0,1:2|0:0,0:0:0:0:
197,248,36996,5,6,1:1:0:0:
197,248,37287,2,0,L|146:218,1,52.4999983978272,2|0,1:2|0:0,0:0:0:0:
229,174,37578,2,0,L|281:206,1,52.4999983978272,2|0,1:2|0:0,0:0:0:0:
175,117,37870,2,0,P|228:97|283:115,1,104.999996795654,10|0,0:0|0:0,0:0:0:0:
229,174,38306,1,2,1:2:0:0:
154,191,38452,2,0,L|101:187,1,52.4999983978272,2|0,1:2|0:0,0:0:0:0:
273,108,38743,6,0,B|344:108|344:108|407:88|407:88|468:84,1,191.250003647804,6|0,1:2|0:0,0:0:0:0:
392,13,39326,2,0,L|330:31,1,63.7500012159348,2|0,1:2|0:0,0:0:0:0:
360,181,39617,2,0,L|440:156,1,75,6|0,1:1|0:0,0:0:0:0:
502,134,39908,2,0,L|413:164,1,75,2|0,1:2|0:0,0:0:0:0:
288,202,40200,2,0,L|367:178,1,75,2|0,1:2|0:0,0:0:0:0:
455,349,40491,6,0,P|407:329|443:192,1,225,6|0,1:2|0:0,0:0:0:0:
460,269,41073,1,2,1:2:0:0:
449,362,41219,1,2,1:2:0:0:
264,285,41365,1,6,1:1:0:0:
381,268,41510,2,0,L|383:309,2,37.5,8|0|0,3:2|3:0|3:0,0:0:0:0:
261,371,41802,1,0,1:0:0:0:
314,202,41947,1,8,0:0:0:0:
249,273,42093,1,0,1:0:0:0:
317,111,42239,6,0,L|318:186,1,75,14|0,1:2|0:0,0:0:0:0:
206,183,42530,1,0,0:0:0:0:
249,273,42675,1,10,0:0:0:0:
204,168,42821,2,0,L|202:83,1,75,0|0,0:0|0:0,0:0:0:0:
120,277,43112,5,10,0:0:0:0:
71,198,43258,1,2,0:0:0:0:
114,116,43404,1,2,0:0:0:0:
107,295,43549,5,10,0:0:0:0:
50,199,43695,1,2,0:0:0:0:
102,101,43840,1,2,0:0:0:0:
260,203,43986,6,0,L|140:204,1,97.4999955368044,6|0,1:1|0:0,0:0:0:0:
243,290,44277,2,0,L|341:289,1,97.4999955368044,2|0,1:2|0:0,0:0:0:0:
401,244,44569,2,0,P|422:285|408:335,1,97.4999955368044,2|0,1:2|0:0,0:0:0:0:
328,145,44860,2,0,P|328:45|415:10,1,194.999991073609,14|0,0:0|0:0,0:0:0:0:
403,97,45297,1,2,1:2:0:0:
300,134,45442,2,0,L|203:136,1,97.4999955368044,2|0,1:2|0:0,0:0:0:0:
59,32,45733,6,0,B|131:34|131:34|171:61|171:61|252:60,2,194.999991073609,6|0|0,1:1|1:0|1:0,0:0:0:0:
246,205,46607,2,0,P|266:250|251:303,1,97.4999955368044,14|0,0:0|0:0,0:0:0:0:
182,258,46899,1,2,1:2:0:0:
286,143,47044,1,8,2:0:0:0:
301,328,47190,2,0,L|200:334,1,97.4999955368044,2|0,1:2|0:0,0:0:0:0:
273,131,47481,6,0,B|200:134|200:134|153:114|153:114|82:114,1,194.999991073609,6|0,1:2|0:0,0:0:0:0:
142,188,47918,1,2,1:2:0:0:
210,60,48064,2,0,B|170:43|170:43|104:44,1,97.4999955368044,2|0,1:2|0:0,0:0:0:0:
0,183,48355,2,0,B|144:185|144:185|190:209|190:209|292:206,1,292.499986610413,14|0,2:1|1:0,0:0:0:0:
209,139,48938,2,0,B|164:116|164:116|106:116,1,97.4999955368044,2|0,1:2|0:0,0:0:0:0:
286,206,49229,5,6,1:2:0:0:
209,139,49374,1,8,0:0:0:0:
185,251,49520,1,8,0:0:0:0:
282,134,49666,1,2,1:2:0:0:
154,188,49811,1,2,1:2:0:0:
256,275,49957,1,2,1:2:0:0:
252,42,50103,1,6,1:0:0:0:
115,83,50248,2,0,L|54:104,2,48.7499977684022,8|8|8,0:0|0:0|0:0,0:0:0:0:
285,114,50539,2,0,L|346:135,2,48.7499977684022,8|8|8,0:0|0:0|0:0,0:0:0:0:
253,29,50831,1,4,1:3:0:0:
428,129,50976,6,0,L|314:129,1,97.4999955368044,6|0,1:1|0:0,0:0:0:0:
464,54,51268,2,0,L|346:54,1,97.4999955368044,2|0,1:2|0:0,0:0:0:0:
477,200,51559,2,0,P|509:169|511:108,1,97.4999955368044,2|0,1:2|0:0,0:0:0:0:
374,224,51850,2,0,B|296:222|296:222|238:239|238:239|147:238,1,194.999991073609,14|0,0:0|0:0,0:0:0:0:
241,153,52287,1,2,1:2:0:0:
301,294,52433,2,0,B|249:308|249:308|197:307,1,97.4999955368044,2|0,1:2|0:0,0:0:0:0:
423,306,52724,6,0,P|478:226|433:138,2,194.999991073609,6|0|0,1:1|1:0|1:0,0:0:0:0:
119,267,53598,2,0,L|107:169,1,97.4999955368044,14|0,0:0|0:0,0:0:0:0:
196,194,53889,1,2,0:0:0:0:
39,329,54035,1,8,2:2:0:0:
24,130,54180,2,0,L|16:28,1,97.4999955368044,2|0,1:2|0:0,0:0:0:0:
206,180,54472,6,0,B|284:180|284:180|335:208|335:208|402:205,1,194.999991073609,6|0,1:2|0:0,0:0:0:0:
352,108,54908,1,2,1:2:0:0:
261,251,55054,2,0,B|317:280|317:280|354:279,1,97.4999955368044,2|0,1:2|0:0,0:0:0:0:
442,115,55345,2,0,P|351:15|273:144,1,292.499986610413,14|0,2:1|1:0,0:0:0:0:
345,205,55928,2,0,L|351:108,1,97.4999955368044,2|0,1:2|0:0,0:0:0:0:
191,86,56219,5,6,1:2:0:0:
296,260,56365,1,8,0:0:0:0:
296,260,56510,2,0,L|393:260,1,97.4999955368044,8|0,0:0|0:0,0:0:0:0:
165,109,56802,1,8,0:0:0:0:
125,268,56947,1,10,0:0:0:0:
0,171,57093,1,6,1:1:0:0:
182,95,57239,2,0,L|235:92,2,48.7499977684022,8|8|10,0:0|0:0|0:0,0:0:0:0:
71,160,57530,2,0,L|22:162,1,48.7499977684022,8|8,0:0|0:0,0:0:0:0:
219,201,57675,2,0,L|346:204,1,97.4999955368044,8|4,0:3|0:3,0:0:0:0:
452,311,57967,6,0,B|380:311|380:311|315:275|315:275|217:273,1,225,6|0,1:2|0:0,0:0:0:0:
337,204,58549,2,0,L|402:240,1,75,2|0,1:2|0:0,0:0:0:0:
437,384,58840,2,0,B|365:384|365:384|300:348|300:348|221:346,1,225,10|0,0:0|0:0,0:0:0:0:
161,271,59423,2,0,L|236:273,1,75,2|0,1:2|0:0,0:0:0:0:
337,204,59714,6,0,P|389:279|296:348,1,225,6|0,1:1|0:0,0:0:0:0:
337,204,60297,2,0,L|336:119,1,75,2|0,1:2|0:0,0:0:0:0:
416,246,60588,2,0,L|416:160,1,75,10|0,0:0|0:0,0:0:0:0:
489,117,60879,1,0,0:0:0:0:
416,276,61025,1,8,0:0:0:0:
492,192,61171,2,0,L|489:106,1,75,2|0,1:2|0:0,0:0:0:0:
324,194,61462,5,6,1:2:0:0:
415,306,61607,1,2,0:0:0:0:
491,173,61753,2,0,L|490:71,1,97.4999955368044,2|0,1:2|0:0,0:0:0:0:
408,31,62044,2,0,L|409:140,1,97.4999955368044,2|0,1:2|0:0,0:0:0:0:
302,309,62336,2,0,B|303:242|303:242|328:176|328:176|330:77,1,194.999991073609,14|0,1:1|0:0,0:0:0:0:
331,13,62772,1,8,0:0:0:0:
246,32,62918,2,0,L|246:130,1,97.4999955368044,2|0,1:2|0:0,0:0:0:0:
235,20,63209,5,6,1:2:0:0:
175,189,63355,1,10,0:0:0:0:
16,87,63501,2,0,L|123:83,1,97.4999955368044,10|0,0:0|0:0,0:0:0:0:
191,200,63792,1,10,0:0:0:0:
248,0,63937,1,8,3:0:0:0:
18,63,64083,1,6,1:1:0:0:
184,97,64229,2,0,L|244:92,2,48.7499977684022,8|8|10,0:0|0:0|0:0,0:0:0:0:
74,212,64520,2,0,L|48:266,2,48.7499977684022,8|8|10,0:0|0:0|1:2,0:0:0:0:
93,120,64811,1,4,1:3:0:0:
229,217,64957,6,0,B|309:218|309:218|368:198|368:198|434:199,2,194.999991073609,6|0|0,1:2|1:0|1:0,0:0:0:0:
502,384,65831,2,0,L|375:380,1,97.4999955368044,14|0,0:1|0:0,0:0:0:0:
368,286,66122,2,0,L|466:290,1,97.4999955368044,2|0,1:2|0:0,0:0:0:0:
420,198,66413,2,0,L|306:194,1,97.4999955368044,2|0,1:2|0:0,0:0:0:0:
470,311,66705,5,6,1:2:0:0:
418,172,66850,1,8,0:0:0:0:
272,256,66996,1,8,0:0:0:0:
272,256,67287,1,10,0:0:0:0:
342,75,67433,1,8,0:0:0:0:
191,174,67578,1,14,1:1:0:0:
418,172,67724,1,8,1:3:0:0:
272,256,67870,1,6,1:3:0:0:
342,173,68015,1,4,1:3:0:0:
270,174,68161,1,6,1:3:0:0:
341,258,68306,1,4,1:3:0:0:
272,94,68452,6,0,L|373:100,1,97.4999955368044,6|0,1:2|0:0,0:0:0:0:
460,115,68743,1,2,0:0:0:0:
377,239,68889,1,2,0:0:0:0:
227,171,69035,2,0,L|328:177,1,97.4999955368044,2|2,1:2|0:0,0:0:0:0:
440,280,69326,2,0,L|342:274,1,97.4999955368044,12|2,2:1|0:0,0:0:0:0:
337,353,69617,2,0,L|435:359,1,97.4999955368044,2|0,0:2|0:0,0:0:0:0:
263,314,69908,2,0,L|160:318,1,97.4999955368044,2|0,0:0|1:0,0:0:0:0:
227,171,70200,5,6,1:1:0:0:
151,334,70345,2,8,L|50:336,1,97.4999955368044,8|0,0:0|0:0,0:0:0:0:
123,244,70637,1,2,1:2:0:0:
225,256,70782,1,2,1:2:0:0:
156,348,70928,1,8,0:0:0:0:
36,239,71073,1,6,1:2:0:0:
36,239,71365,1,2,1:2:0:0:
88,153,71510,2,0,L|99:104,2,48.7499977684022,8|8|8,0:0|0:0|1:0,0:0:0:0:
225,231,71802,1,4,1:3:0:0:
344,91,71947,6,0,B|344:149|344:149|366:229|366:229|368:301,2,194.999991073609,6|0|0,1:2|1:0|1:0,0:0:0:0:
58,291,72821,2,0,P|105:300|152:288,1,97.4999955368044,14|0,2:1|0:0,0:0:0:0:
233,121,73112,2,0,P|200:156|187:203,1,97.4999955368044,2|0,1:2|0:0,0:0:0:0:
292,357,73404,2,0,P|276:311|243:276,1,97.4999955368044,2|0,1:2|0:0,0:0:0:0:
91,213,73695,5,6,1:2:0:0:
204,365,73840,1,8,0:0:0:0:
282,187,73986,1,8,0:0:0:0:
282,187,74277,1,10,0:0:0:0:
193,267,74423,1,8,0:0:0:0:
249,95,74569,1,6,1:1:0:0:
154,187,74714,2,0,L|105:185,1,48.7499977684022,8|8,0:0|0:0,0:0:0:0:
282,187,74860,1,10,0:0:0:0:
171,111,75006,2,0,L|122:109,1,48.7499977684022,8|8,0:0|0:0,0:0:0:0:
281,186,75151,2,0,L|379:181,1,97.4999955368044,8|4,0:3|1:3,0:0:0:0:
131,367,75442,6,0,P|163:302|128:238,2,150,6|0|0,1:1|0:0|0:0,0:0:0:0:
381,367,76316,2,0,P|349:302|384:238,2,150,10|0|2,0:0|0:0|0:3,0:0:0:0:
350,108,77190,6,0,B|354:174|354:174|313:194|296:233,2,150,6|0|0,1:1|0:0|0:0,0:0:0:0:
168,175,78064,2,0,B|203:193|216:233,1,75,10|0,0:0|0:0,0:0:0:0:
241,327,78355,1,0,0:0:0:0:
50,258,78501,2,0,P|91:248|132:251,1,75,8|0,0:0|1:0,0:0:0:0:
215,230,78792,1,0,1:0:0:0:
153,104,78938,6,0,L|4:97,2,150,6|0|0,1:1|0:0|0:0,0:0:0:0:
358,104,79811,2,0,L|508:97,2,150,14|0|2,0:0|0:0|0:3,0:0:0:0:
211,247,80685,5,6,1:1:0:0:
222,165,80831,1,10,0:0:0:0:
135,279,80976,1,10,0:0:0:0:
135,279,81268,1,10,0:0:0:0:
277,298,81413,1,10,0:0:0:0:
222,165,81559,1,6,1:1:0:0:
198,334,81705,2,0,L|195:377,2,37.5,8|0|10,0:0|0:0|0:0,0:0:0:0:
109,198,81996,2,0,L|114:161,1,37.5,8|0,0:0|0:0,0:0:0:0:
220,151,82141,1,10,0:0:0:0:
274,287,82287,1,0,1:0:0:0:
442,299,82433,5,6,1:2:0:0:
256,192,82506,12,0,85249,0:0:0:0:
