osu file format v14

[General]
AudioFilename: audio.mp3
AudioLeadIn: 0
PreviewTime: 43902
Countdown: 0
SampleSet: Soft
StackLeniency: 0.7
Mode: 0
LetterboxInBreaks: 0
EpilepsyWarning: 1
WidescreenStoryboard: 1

[Editor]
DistanceSpacing: 1.3
BeatDivisor: 4
GridSize: 32
TimelineZoom: 2.919999

[Metadata]
Title:escape (TV Size)
TitleUnicode:escape (TV Size)
Artist:XX:me
ArtistUnicode:XX:me
Creator:Half
Version:Agatsu's Hard
Source:ダーリン・イン・ザ・フランキス
Tags:Rieri Agatsu Rolniczy Uta fluffy hair darling in the franxx ed ending 02 zero two
BeatmapID:1803610
BeatmapSetID:805539

[Difficulty]
HPDrainRate:5
CircleSize:3.8
OverallDifficulty:6
ApproachRate:8
SliderMultiplier:1.5
SliderTickRate:1

[Events]
//Background and Video events
0,0,"BG.png",0,0
//Break Periods
//Storyboard Layer 0 (Background)
//Storyboard Layer 1 (Fail)
//Storyboard Layer 2 (Pass)
//Storyboard Layer 3 (Foreground)
//Storyboard Sound Samples

[TimingPoints]
286,291.26213592233,6,2,1,60,1,0
43101,-100,6,2,1,80,0,0
43174,-100,6,2,1,5,0,0
43247,-100,6,2,1,80,0,0
43319,-100,6,2,1,5,0,0
43392,-100,6,2,1,80,0,0
43465,-100,6,2,1,5,0,0
43538,-100,6,2,1,80,0,0
43611,-100,6,2,1,5,0,0
43684,-100,6,2,1,80,0,0
43756,-100,6,2,1,5,0,0
43829,-100,6,2,1,80,0,0
43902,-100,6,2,1,5,0,0
43975,-100,6,2,1,60,0,1
57955,-100,6,2,1,60,0,0
75431,-100,6,2,1,60,0,0
82421,375,6,2,1,60,1,0
82514,-100,6,2,1,45,0,0

[Colours]
Combo1 : 255,204,204
Combo2 : 179,102,102
Combo3 : 255,64,64
Combo4 : 85,85,85

[HitObjects]
89,193,286,6,0,L|83:117,2,75,2|0|0,0:0|0:0|0:0,0:0:0:0:
161,257,722,1,0,0:0:0:0:
161,257,868,2,0,L|251:265,1,75,0|0,0:0|0:0,0:0:0:0:
332,274,1159,2,0,L|326:348,2,75,2|0|0,0:0|0:0|0:0,0:0:0:0:
417,226,1596,1,0,0:0:0:0:
417,226,1742,2,0,L|411:151,1,75,0|0,0:0|0:0,0:0:0:0:
394,54,2033,6,0,P|345:50|308:63,1,75,2|0,0:0|0:0,0:0:0:0:
260,134,2324,2,0,P|211:138|174:125,1,75,0|0,0:0|0:0,0:0:0:0:
95,92,2616,2,0,L|89:175,1,75,0|0,0:0|0:0,0:0:0:0:
74,264,2907,2,0,L|-3:255,2,75,2|0|0,0:0|0:0|0:0,0:0:0:0:
141,334,3344,1,0,0:0:0:0:
141,334,3489,2,0,L|218:325,1,75,0|0,0:0|0:0,0:0:0:0:
312,310,3781,6,0,P|358:320|408:314,2,75,2|0|0,0:0|0:0|0:0,0:0:0:0:
251,233,4218,1,0,0:0:0:0:
251,233,4363,2,0,L|258:149,1,75,0|0,0:0|0:0,0:0:0:0:
331,94,4654,2,0,L|324:10,2,75,2|0|0,0:0|0:0|0:0,0:0:0:0:
418,137,5091,1,0,0:0:0:0:
417,136,5237,2,0,L|424:211,1,75,0|0,0:0|0:0,0:0:0:0:
440,342,5528,5,10,0:0:0:0:
351,301,5674,2,0,B|272:295|282:333|203:326,1,150,0|0,1:0|1:0,0:0:0:0:
130,263,6111,2,0,L|135:174,1,75,0|0,1:0|1:0,0:0:0:0:
143,90,6402,1,10,0:0:0:0:
225,142,6548,1,0,1:0:0:0:
225,142,6693,2,0,P|266:141|308:128,1,75,0|0,1:0|1:0,0:0:0:0:
349,47,6985,2,0,P|390:48|432:61,1,75,2|2,1:2|1:2,0:0:0:0:
488,158,7276,6,0,L|496:308,2,150,6|2|2,1:2|0:0|1:2,0:0:0:0:
377,319,8150,2,0,L|297:309,1,75,10|0,0:0|0:0,0:0:0:0:
242,232,8441,2,0,L|162:242,1,75,2|0,0:0|0:0,0:0:0:0:
88,299,8732,1,2,1:2:0:0:
166,120,9023,6,0,P|150:37|85:14,2,150,2|2|2,1:2|0:0|1:2,0:0:0:0:
347,47,9897,2,0,P|334:85|339:132,1,75,10|0,0:0|0:0,0:0:0:0:
411,180,10188,2,0,P|424:218|419:265,1,75,2|0,0:0|0:0,0:0:0:0:
354,323,10480,1,2,0:0:0:0:
175,245,10771,6,0,B|91:236|101:274|9:266,2,150,2|2|2,1:2|0:0|0:0,0:0:0:0:
318,112,11645,2,0,B|319:72|319:72|301:29,1,75,10|0,0:0|0:0,0:0:0:0:
211,13,11936,2,0,B|175:32|175:32|147:69,1,75,2|0,0:0|0:0,0:0:0:0:
175,155,12227,1,2,1:2:0:0:
366,192,12519,6,0,B|425:187|425:187|452:201|452:201|528:194,2,150,2|2|2,1:2|0:0|0:0,0:0:0:0:
226,327,13392,1,10,0:2:0:0:
226,327,13538,1,10,0:2:0:0:
318,359,13684,2,0,L|399:351,1,75,2|2,1:2|1:2,0:0:0:0:
489,340,13975,2,0,L|496:251,1,75,2|2,1:2|1:2,0:0:0:0:
451,153,14266,6,0,P|462:80|407:24,1,150,6|0,1:2|0:0,0:0:0:0:
229,91,14849,1,2,1:2:0:0:
364,231,15140,2,0,L|368:322,1,75,10|0,0:0|0:0,0:0:0:0:
296,372,15431,2,0,L|203:362,1,75,0|0,0:0|0:0,0:0:0:0:
124,352,15722,1,0,1:0:0:0:
115,181,16014,6,0,B|186:173|180:212|273:206,1,150,2|0,1:2|0:0,0:0:0:0:
339,148,16451,1,2,1:2:0:0:
339,148,16596,2,0,P|341:104|347:55,1,75,2|0,1:2|0:0,0:0:0:0:
426,19,16887,2,0,P|499:26|517:108,2,150,10|0|0,0:0|0:0|0:0,0:0:0:0:
501,199,17761,6,0,P|498:277|488:362,1,150,2|0,1:2|0:0,0:0:0:0:
394,368,18198,1,2,1:2:0:0:
394,368,18344,2,0,L|312:361,1,75,2|0,0:0|0:0,0:0:0:0:
256,286,18635,2,0,L|174:293,1,75,10|0,0:0|0:0,0:0:0:0:
84,305,18926,2,0,P|77:258|81:211,1,75,2|0,0:0|0:0,0:0:0:0:
105,136,19218,1,2,1:2:0:0:
293,185,19509,6,0,B|352:178|352:178|382:196|382:196|464:188,1,150,2|0,1:2|0:0,0:0:0:0:
502,117,19946,1,2,1:2:0:0:
502,117,20091,2,0,P|504:74|510:31,1,75,2|0,1:2|0:0,0:0:0:0:
414,10,20383,2,0,P|337:18|243:24,2,150,10|0|0,0:0|0:0|0:0,0:0:0:0:
278,150,21256,6,0,P|214:124|140:181,1,150,6|0,1:2|0:0,0:0:0:0:
98,246,21693,1,0,1:0:0:0:
98,246,21839,2,0,P|102:289|110:328,1,75,2|0,1:2|0:0,0:0:0:0:
192,370,22130,2,0,B|270:366|253:330|337:330,1,150,10|0,0:0|0:0,0:0:0:0:
463,181,22713,2,0,L|455:266,1,75,2|0,1:2|0:0,0:0:0:0:
370,208,23004,6,0,P|308:201|272:113,1,150,2|0,1:2|0:0,0:0:0:0:
286,32,23441,1,2,1:2:0:0:
286,32,23586,2,0,L|194:25,1,75,2|0,1:2|0:0,0:0:0:0:
120,64,23878,2,0,B|79:46|79:46|63:159,2,150,10|0|0,0:0|0:0|1:0,0:0:0:0:
137,258,24752,6,0,P|203:272|269:215,1,150,2|0,1:2|0:0,0:0:0:0:
251,128,25188,1,2,1:2:0:0:
251,128,25334,2,0,P|255:81|262:40,1,75,2|0,0:0|0:0,0:0:0:0:
345,8,25625,2,0,L|435:18,1,75,10|0,0:0|0:0,0:0:0:0:
489,85,25917,2,0,P|485:132|478:173,1,75,2|0,0:0|0:0,0:0:0:0:
415,232,26208,1,2,1:2:0:0:
251,128,26499,5,10,0:0:0:0:
174,189,26645,2,0,B|83:182|83:182|101:248,1,150,0|0,1:0|1:0,0:0:0:0:
127,331,27082,2,0,L|221:335,1,75,2|0,1:2|0:0,0:0:0:0:
287,287,27373,1,2,0:0:0:0:
368,339,27519,1,0,0:0:0:0:
368,339,27664,2,0,L|462:343,1,75,6|0,1:1|0:0,0:0:0:0:
507,268,27955,2,0,P|508:224|514:181,1,75,0|0,1:0|0:0,0:0:0:0:
450,84,28247,6,0,P|386:86|356:179,2,150,4|2|2,1:2|0:0|1:2,0:0:0:0:
259,44,29120,2,0,P|196:47|93:46,1,150,10|0,0:0|1:0,0:0:0:0:
29,103,29557,1,2,1:0:0:0:
29,103,29703,2,0,L|33:190,1,75,2|0,1:0|0:0,0:0:0:0:
37,275,29994,6,0,B|113:273|95:309|186:311,1,150,2|0,1:2|1:0,0:0:0:0:
259,252,30431,1,2,1:0:0:0:
259,252,30577,2,0,P|260:207|268:164,1,75,2|0,1:0|0:0,0:0:0:0:
328,103,30868,2,0,P|398:99|444:181,1,150,10|0,0:0|1:0,0:0:0:0:
428,254,31305,1,0,1:0:0:0:
428,254,31451,2,0,P|427:299|419:342,1,75,0|0,1:0|0:0,0:0:0:0:
336,375,31742,5,0,1:0:0:0:
192,243,32033,2,0,L|107:241,1,75,2|0,0:0|1:0,0:0:0:0:
19,240,32324,2,0,P|14:189|20:150,1,75,2|0,1:2|0:0,0:0:0:0:
68,81,32616,2,0,B|130:74|130:74|155:92|155:92|238:86,1,150,10|0,0:0|1:0,0:0:0:0:
300,48,33052,1,2,1:2:0:0:
300,48,33198,2,0,P|340:53|380:55,1,75,2|0,1:2|0:0,0:0:0:0:
466,20,33489,6,0,P|514:53|499:144,1,150,0|0,1:0|1:0,0:0:0:0:
419,181,33926,1,2,1:2:0:0:
419,181,34072,1,2,1:2:0:0:
500,357,34363,1,10,0:0:0:0:
331,259,34654,2,0,B|214:240|252:321|105:300,1,225,6|0,1:1|0:0,0:0:0:0:
35,217,35237,6,0,P|40:170|41:119,1,75,4|0,1:2|0:0,0:0:0:0:
103,67,35528,2,0,L|186:62,1,75,2|0,0:0|1:0,0:0:0:0:
260,114,35819,2,0,P|261:151|266:188,1,75,2|0,1:2|0:0,0:0:0:0:
355,229,36111,2,0,P|377:295|312:358,1,150,10|0,0:0|1:0,0:0:0:0:
233,339,36548,1,2,1:2:0:0:
233,339,36693,2,0,L|154:334,1,75,2|0,1:2|0:0,0:0:0:0:
59,328,36985,5,6,1:0:0:0:
185,180,37276,2,0,P|182:130|173:89,1,75,2|0,1:2|1:0,0:0:0:0:
244,34,37567,2,0,L|323:28,1,75,2|0,1:2|0:0,0:0:0:0:
407,68,37858,2,0,B|448:47|448:47|466:93|462:152,1,150,10|0,0:0|1:0,0:0:0:0:
406,229,38295,1,2,1:2:0:0:
406,229,38441,2,0,P|400:272|399:317,1,75,2|0,1:2|0:0,0:0:0:0:
464,375,38732,6,0,P|394:347|312:351,1,150,6|0,1:2|1:0,0:0:0:0:
226,374,39169,1,0,1:0:0:0:
226,374,39315,1,2,1:2:0:0:
293,191,39606,2,0,P|292:146|288:103,1,75,14|0,0:1|0:0,0:0:0:0:
210,58,39897,2,0,L|132:62,1,75,2|0,1:2|1:0,0:0:0:0:
63,128,40188,2,0,P|64:173|68:216,1,75,2|0,1:2|0:0,0:0:0:0:
12,285,40480,6,0,P|52:348|133:344,1,150,6|0,1:2|1:0,0:0:0:0:
202,296,40917,1,0,1:0:0:0:
202,296,41062,2,0,P|241:298|288:304,1,75,2|2,1:2|0:0,0:0:0:0:
354,361,41353,1,10,0:0:0:0:
440,314,41499,2,0,L|506:318,2,37.5,8|8|8,0:0|0:0|1:2,0:0:0:0:
362,253,41790,1,8,0:0:0:0:
432,184,41936,1,8,1:2:0:0:
432,184,42082,1,8,0:0:0:0:
366,111,42227,6,0,P|366:64|370:21,2,75,6|2|2,1:2|0:0|0:0,0:0:0:0:
278,155,42664,2,0,P|278:202|274:245,2,75,10|2|0,0:0|0:0|0:0,0:0:0:0:
200,95,43101,2,0,L|116:88,1,75,6|2,1:2|0:0,0:0:0:0:
45,145,43392,1,2,0:0:0:0:
110,217,43538,2,0,P|112:255|108:305,1,75,6|2,1:0|0:0,0:0:0:0:
170,368,43829,1,2,0:0:0:0:
221,233,43975,6,0,P|275:196|356:218,2,150,6|2|2,1:2|1:0|1:0,0:0:0:0:
445,330,44849,2,0,P|446:253|454:174,1,150,10|0,0:0|1:0,0:0:0:0:
398,100,45285,1,2,0:0:0:0:
398,100,45431,2,0,L|318:106,1,75,2|0,1:0|0:0,0:0:0:0:
240,53,45722,6,0,P|163:54|126:126,1,150,2|0,1:0|1:0,0:0:0:0:
183,189,46159,1,0,0:0:0:0:
183,189,46305,2,0,P|179:231|178:286,1,75,0|0,1:0|0:0,0:0:0:0:
243,336,46596,2,0,L|326:342,1,75,10|0,0:0|0:0,0:0:0:0:
395,281,46887,1,2,1:0:0:0:
395,281,47033,1,8,0:0:0:0:
366,187,47179,2,0,P|367:149|371:112,1,75,2|0,1:0|1:0,0:0:0:0:
421,28,47470,6,0,B|332:36|357:5|253:8,1,150,6|0,1:2|1:0,0:0:0:0:
185,49,47907,1,2,0:0:0:0:
185,49,48052,2,0,L|175:129,1,75,2|0,1:0|0:0,0:0:0:0:
239,198,48344,2,0,P|163:167|101:193,1,150,10|0,0:0|1:0,0:0:0:0:
40,265,48781,1,0,0:0:0:0:
40,265,48926,2,0,P|42:309|41:355,1,75,2|0,1:0|1:0,0:0:0:0:
133,376,49218,5,2,1:0:0:0:
222,337,49363,1,8,0:0:0:0:
222,337,49509,2,0,L|303:342,1,75,8|2,1:2|0:0,0:0:0:0:
385,382,49800,1,10,1:2:0:0:
385,382,49946,1,10,0:0:0:0:
469,334,50091,1,2,1:0:0:0:
431,243,50237,2,0,L|385:250,2,37.5,8|8|0,0:0|0:0|1:0,0:0:0:0:
466,151,50528,2,0,L|512:158,2,37.5,8|8|0,0:0|0:0|1:0,0:0:0:0:
412,69,50819,1,0,1:0:0:0:
314,148,50965,6,0,P|270:146|221:137,1,75,6|0,1:2|0:0,0:0:0:0:
171,71,51256,2,0,P|127:73|78:82,1,75,2|0,1:0|0:0,0:0:0:0:
32,152,51548,2,0,L|24:233,1,75,2|0,1:0|0:0,0:0:0:0:
72,311,51839,2,0,B|148:304|132:335|237:327,1,150,10|0,0:0|1:0,0:0:0:0:
306,282,52276,1,2,0:0:0:0:
306,282,52421,2,0,P|309:235|315:193,1,75,2|0,1:0|0:0,0:0:0:0:
378,134,52713,6,0,P|450:138|486:218,2,150,2|0|0,1:0|1:0|1:0,0:0:0:0:
209,231,53586,2,0,P|168:228|124:222,1,75,10|0,0:0|0:0,0:0:0:0:
69,149,53878,1,2,1:0:0:0:
69,149,54023,1,8,0:0:0:0:
146,89,54169,2,0,P|187:92|231:98,1,75,2|0,1:0|1:0,0:0:0:0:
289,165,54460,6,0,B|364:166|347:198|444:195,1,150,6|0,1:2|1:0,0:0:0:0:
500,267,54897,1,2,0:0:0:0:
500,267,55043,2,0,P|495:304|492:353,1,75,2|0,1:0|0:0,0:0:0:0:
403,381,55334,2,0,B|348:375|348:375|326:349|326:349|253:338,1,150,10|0,0:0|1:0,0:0:0:0:
172,368,55771,1,0,0:0:0:0:
172,368,55917,1,2,1:0:0:0:
15,251,56208,5,0,1:0:0:0:
87,186,56353,1,8,0:0:0:0:
87,186,56499,2,0,P|85:135|84:95,1,75,10|0,0:0|0:0,0:0:0:0:
163,53,56790,1,10,0:0:0:0:
163,53,56936,1,8,0:0:0:0:
245,105,57082,1,2,1:0:0:0:
323,48,57227,2,0,L|325:4,2,37.5,8|8|2,0:0|0:0|1:0,0:0:0:0:
410,93,57519,2,0,L|411:130,2,37.5,8|8|2,0:0|0:0|1:0,0:0:0:0:
489,36,57810,1,0,1:0:0:0:
504,173,57955,6,0,P|442:172|365:240,1,150,6|0,1:2|1:0,0:0:0:0:
373,222,58538,1,2,1:0:0:0:
250,374,58829,2,0,P|153:364|78:359,1,150,10|0,0:0|1:0,0:0:0:0:
100,360,59412,1,2,1:0:0:0:
180,182,59703,6,0,P|170:107|167:32,1,150,2|0,1:0|1:0,0:0:0:0:
167,32,60285,1,2,1:0:0:0:
316,157,60577,2,0,P|312:231|303:306,1,150,10|0,0:0|1:0,0:0:0:0:
220,357,61014,1,8,0:0:0:0:
220,357,61159,2,0,L|136:348,1,75,2|0,1:0|1:0,0:0:0:0:
76,278,61451,6,0,P|79:240|80:203,1,75,6|2,1:2|0:0,0:0:0:0:
149,134,61742,2,0,L|223:141,1,75,2|0,1:0|0:0,0:0:0:0:
301,200,62033,2,0,L|375:192,1,75,2|0,1:0|0:0,0:0:0:0:
464,152,62324,2,0,P|469:90|479:-5,2,150,14|2|2,0:1|1:2|1:2,0:0:0:0:
323,16,63198,5,6,1:2:0:0:
237,61,63344,1,10,0:0:0:0:
237,61,63489,2,0,L|157:52,1,75,10|0,0:0|0:0,0:0:0:0:
78,104,63781,1,10,0:0:0:0:
78,104,63926,2,0,P|80:145|80:188,1,75,8|6,0:0|1:0,0:0:0:0:
145,252,64218,2,0,L|199:256,2,37.5,8|8|2,0:0|0:0|1:0,0:0:0:0:
72,318,64509,2,0,L|18:322,2,37.5,8|8|0,0:0|0:0|1:0,0:0:0:0:
156,367,64800,1,0,1:0:0:0:
279,312,64946,6,0,B|357:304|346:337|433:329,1,150,6|0,1:2|1:0,0:0:0:0:
426,329,65528,1,0,1:0:0:0:
299,182,65819,2,0,P|300:111|306:24,1,150,10|2,0:0|1:2,0:0:0:0:
305,32,66402,1,2,1:2:0:0:
461,147,66693,5,2,1:2:0:0:
415,233,66839,1,8,0:0:0:0:
415,233,66985,2,0,P|410:280|410:331,1,75,8|0,0:0|0:0,0:0:0:0:
333,369,67276,1,10,0:0:0:0:
333,369,67421,1,8,0:0:0:0:
253,312,67567,2,0,P|209:309|174:310,1,75,2|0,3:2|3:0,0:0:0:0:
104,245,67858,2,0,L|100:166,1,75,2|0,3:2|3:0,0:0:0:0:
145,82,68150,1,2,3:2:0:0:
145,82,68295,1,0,3:0:0:0:
237,114,68441,6,0,P|288:111|327:111,1,75,6|2,1:2|0:0,0:0:0:0:
392,165,68732,2,0,P|429:164|466:161,2,75,2|2|2,1:0|0:0|1:0,0:0:0:0:
324,235,69169,1,2,0:0:0:0:
382,313,69315,2,0,P|319:285|240:287,2,150,14|2|2,0:1|1:2|1:2,0:0:0:0:
166,360,70188,5,6,1:2:0:0:
99,288,70334,1,8,0:0:0:0:
99,288,70480,2,0,P|104:239|104:196,1,75,0|2,1:0|0:0,0:0:0:0:
39,140,70771,1,10,0:0:0:0:
39,140,70917,1,8,0:0:0:0:
95,60,71062,1,6,1:2:0:0:
243,186,71353,1,6,1:1:0:0:
318,124,71499,2,0,L|317:70,2,37.5,8|8|0,0:0|0:0|1:0,0:0:0:0:
401,174,71790,1,0,1:0:0:0:
479,116,71936,6,0,P|496:173|499:271,1,150,6|0,1:2|1:0,0:0:0:0:
499,263,72519,1,0,1:0:0:0:
317,334,72810,2,0,P|254:289|172:299,1,150,10|2,0:0|1:2,0:0:0:0:
184,293,73392,1,2,1:2:0:0:
359,206,73684,5,6,1:2:0:0:
284,144,73829,1,8,0:0:0:0:
284,144,73975,2,0,P|287:97|285:53,1,75,8|0,0:0|0:0,0:0:0:0:
201,21,74266,1,10,0:0:0:0:
201,21,74412,1,8,0:0:0:0:
107,46,74557,1,6,1:0:0:0:
70,136,74703,2,0,L|25:133,2,37.5,8|8|2,0:0|0:0|1:2,0:0:0:0:
137,206,74994,2,0,L|174:208,2,37.5,8|8|2,0:0|0:0|1:2,0:0:0:0:
60,266,75285,1,0,0:0:0:0:
186,321,75431,6,0,B|269:316|247:345|348:340,1,150,6|2,1:2|1:0,0:0:0:0:
333,340,76014,1,2,1:0:0:0:
469,200,76305,2,0,P|468:123|401:78,1,150,14|2,0:1|1:0,0:0:0:0:
414,80,76887,1,2,1:0:0:0:
258,199,77179,6,0,P|192:191|85:185,1,150,6|2,1:2|1:0,0:0:0:0:
108,185,77761,1,2,1:0:0:0:
199,356,78052,2,0,P|265:348|372:342,1,150,14|2,0:1|1:0,0:0:0:0:
424,281,78489,1,8,0:0:0:0:
424,281,78635,2,0,P|427:229|432:191,1,75,2|2,1:0|1:0,0:0:0:0:
357,140,78926,6,0,P|324:93|364:6,2,150,6|2|2,1:2|1:0|1:0,0:0:0:0:
174,209,79800,2,0,P|207:256|167:343,2,150,14|2|2,0:1|1:0|1:0,0:0:0:0:
4,121,80674,5,6,1:2:0:0:
88,73,80819,1,8,0:0:0:0:
88,73,80965,2,0,P|92:110|100:155,1,75,10|0,0:0|0:0,0:0:0:0:
174,209,81256,1,10,0:0:0:0:
174,209,81402,1,8,0:0:0:0:
240,137,81548,1,2,1:0:0:0:
313,200,81693,2,0,L|308:253,2,37.5,10|8|10,0:0|0:0|0:0,0:0:0:0:
392,141,81985,2,0,L|388:103,2,37.5,10|8|10,0:0|0:0|0:0,0:0:0:0:
471,197,82276,1,2,1:0:0:0:
414,311,82421,5,6,1:2:0:0:
256,192,82514,12,0,85233,0:0:0:0:
