osu file format v14

[General]
AudioFilename: audio.mp3
AudioLeadIn: 0
PreviewTime: 42969
Countdown: 1
SampleSet: Soft
StackLeniency: 0.7
Mode: 0
LetterboxInBreaks: 0
WidescreenStoryboard: 0

[Editor]
DistanceSpacing: 1
BeatDivisor: 4
GridSize: 16
TimelineZoom: 1

[Metadata]
Title:escape (TV Size)
TitleUnicode:escape (TV Size)
Artist:XX:me
ArtistUnicode:XX:me
Creator:Sakura Blossom
Version:Insane
Source:ダーリン・イン・ザ・フランキス
Tags:Darling Escape TV size XX:me Sakura Blossom Ameyy
BeatmapID:2024516
BeatmapSetID:967359

[Difficulty]
HPDrainRate:4.5
CircleSize:4
OverallDifficulty:8
ApproachRate:9.1
SliderMultiplier:1.2
SliderTickRate:1

[Events]
//Background and Video events
0,0,"darling-in-the-franxx-zero-two-x-hiro-romance-couple-profile-view-anime-21093.jpg",0,0
//Break Periods
//Storyboard Layer 0 (Background)
//Storyboard Layer 1 (Fail)
//Storyboard Layer 2 (Pass)
//Storyboard Layer 3 (Foreground)
//Storyboard Sound Samples

[TimingPoints]
300,291.26213592233,6,2,1,25,1,0
5542,-71.4285714285714,6,2,1,35,0,0
6416,-83.3333333333333,6,2,1,35,0,0
14280,-90.9090909090909,6,2,1,35,0,0
28261,-100,6,2,1,35,0,0
34086,-142.857142857143,6,2,1,35,0,0
34377,-71.4285714285714,6,2,1,35,0,0
34668,-200,6,2,1,35,0,0
35251,-100,6,2,1,35,0,0
38746,-90.9090909090909,6,2,1,35,0,0
39620,-83.3333333333333,6,2,1,35,0,0
40494,-76.9230769230769,6,2,1,35,0,0
43115,-76.9230769230769,6,2,1,45,0,1
57969,-83.3333333333333,6,2,1,35,0,0
68455,-76.9230769230769,6,2,1,35,0,0
71076,-142.857142857143,6,2,1,35,0,0
71367,-76.9230769230769,6,2,1,35,0,0
82435,375,4,2,1,40,1,0
85435,-100,4,2,1,5,0,0

[Colours]
Combo1 : 153,14,237
Combo2 : 180,12,16
Combo3 : 28,168,198
Combo4 : 226,116,69

[HitObjects]
66,244,300,6,0,P|108:224|137:225,1,60
213,176,591,2,0,P|209:222|193:246,1,60
198,337,882,2,0,P|159:310|146:285,1,60
310,210,1173,6,0,L|303:269,1,60
390,248,1465,2,0,L|396:188,1,60
485,167,1756,2,0,L|478:226,1,60
440,89,2047,6,0,P|404:80|376:58,1,60
310,129,2338,2,0,P|299:94|304:59,1,60,0|0,0:0|0:0,0:0:0:0:
211,36,2629,2,0,P|235:9|268:-3,1,60,0|0,0:0|0:0,0:0:0:0:
185,146,2921,6,0,L|173:216,1,60
74,265,3212,2,0,L|19:219,1,60,0|0,0:0|0:0,0:0:0:0:
26,109,3503,2,0,L|92:84,1,60,0|0,0:0|0:0,0:0:0:0:
286,117,3795,6,0,P|308:157|312:196,1,60
185,223,4086,2,0,P|209:183|240:160,1,60
328,257,4377,2,0,P|281:255|245:240,1,60
152,68,4668,6,0,P|191:84|213:105,1,60
210,363,4960,2,0,P|204:319|212:291,1,60
436,165,5251,2,0,P|401:191|372:199,1,60
129,258,5542,5,0,0:0:0:0:
303,33,5688,2,0,L|290:182,1,125.999996154785
297,169,5979,1,0,0:0:0:0:
204,107,6125,1,0,0:0:0:0:
204,107,6270,1,0,0:0:0:0:
411,185,6416,6,0,P|446:190|475:212,1,71.9999978027344
349,295,6707,2,0,P|353:330|340:364,1,71.9999978027344
282,253,6999,1,0,0:0:0:0:
155,302,7144,1,0,0:0:0:0:
149,68,7290,6,0,L|126:210,1,143.999995605469
150,297,7727,1,0,0:0:0:0:
0,298,7872,2,0,P|52:276|90:278,1,71.9999978027344
206,357,8164,2,0,P|259:375|336:323,2,143.999995605469
410,371,8892,1,0,0:0:0:0:
512,225,9037,6,0,L|359:204,1,143.999995605469
287,240,9474,1,0,0:0:0:0:
426,129,9620,2,0,P|378:109|346:114,1,71.9999978027344
151,7,9911,2,0,L|170:167,2,143.999995605469
110,217,10639,1,0,0:0:0:0:
228,351,10785,6,0,P|288:360|360:308,1,143.999995605469
432,346,11222,1,0,0:0:0:0:
512,229,11367,2,0,P|470:204|427:207,1,71.9999978027344
239,197,11659,2,0,L|219:362,2,143.999995605469
136,294,12387,1,0,0:0:0:0:
0,155,12533,6,0,P|67:166|133:106,1,143.999995605469
49,79,12969,1,0,0:0:0:0:
245,8,13115,2,0,L|255:121,1,107.999996704102
256,124,13406,5,0,0:0:0:0:
418,71,13552,1,0,0:0:0:0:
295,193,13698,1,0,0:0:0:0:
383,215,13843,1,0,0:0:0:0:
313,267,13989,1,0,0:0:0:0:
336,298,14134,1,0,0:0:0:0:
199,221,14280,6,0,L|44:201,1,132.00000402832
0,301,14717,1,0,0:0:0:0:
63,358,14863,2,0,P|83:311|81:278,1,66.0000020141602
7,108,15154,2,0,P|63:117|141:54,1,132.00000402832
199,133,15591,1,0,0:0:0:0:
261,7,15736,2,0,L|271:76,1,66.0000020141602
335,233,16028,6,0,P|366:191|355:103,1,132.00000402832
286,162,16465,1,0,0:0:0:0:
417,55,16610,2,0,P|389:40|341:34,1,66.0000020141602
196,153,16901,2,0,B|158:170|158:170|37:158,2,132.00000402832
38,84,17630,1,0,0:0:0:0:
98,249,17775,6,0,L|106:383,1,132.00000402832
181,327,18212,1,0,0:0:0:0:
18,301,18358,2,0,P|8:345|14:376,1,66.0000020141602
252,376,18649,2,0,P|265:336|224:253,2,132.00000402832
512,145,19523,6,0,L|375:127,1,132.00000402832
304,165,19960,1,0,0:0:0:0:
237,65,20105,2,0,P|287:76|317:98,1,66.0000020141602
159,131,20397,2,0,L|141:-24,2,132.00000402832
94,243,21125,1,0,0:0:0:0:
53,172,21270,6,0,P|104:162|169:215,1,132.00000402832
181,293,21707,1,0,0:0:0:0:
248,185,21853,2,0,L|242:115,1,66.0000020141602
283,23,22144,2,0,P|327:70|391:79,1,132.00000402832
460,24,22581,1,0,0:0:0:0:
458,112,22727,2,0,L|467:177,1,66.0000020141602
489,209,23018,6,0,P|442:240|425:326,1,132.00000402832
462,373,23455,1,0,0:0:0:0:
302,291,23600,2,0,L|219:307,1,66.0000020141602
70,211,23892,2,0,B|102:191|102:191|223:206,2,132.00000402832
165,292,24620,1,0,0:0:0:0:
251,148,24766,6,0,L|236:-4,1,132.00000402832
165,82,25202,1,0,0:0:0:0:
324,196,25348,2,0,P|335:161|333:118,1,66.0000020141602
394,39,25639,2,0,P|437:70|527:56,2,132.00000402832
394,39,26513,5,0,0:0:0:0:
158,95,26659,2,0,L|286:81,1,99.0000030212403
267,89,26950,1,0,0:0:0:0:
96,162,27096,2,0,P|44:157|13:133,1,66.0000020141602
169,224,27387,1,0,0:0:0:0:
169,224,27533,1,0,0:0:0:0:
346,124,27678,2,0,P|352:97|291:6,1,132.00000402832
114,281,28261,6,0,L|244:266,1,120
308,304,28698,1,0,0:0:0:0:
428,256,28843,2,0,P|378:235|359:237,1,60
267,379,29134,2,0,P|324:386|384:339,1,120
462,368,29571,1,0,0:0:0:0:
508,273,29717,2,0,L|513:209,1,60
434,119,30008,6,0,L|420:-4,1,120
507,53,30445,1,0,0:0:0:0:
352,83,30591,2,0,P|314:66|281:66,1,60
130,165,30882,2,0,P|180:175|245:128,1,120
171,92,31319,1,0,0:0:0:0:
41,146,31465,2,0,P|31:195|19:222,1,60
103,49,31756,6,0,L|236:32,1,120
306,62,32193,1,0,0:0:0:0:
229,176,32338,2,0,L|244:98,1,60
384,16,32630,2,0,P|395:76|360:138,1,120
458,161,33066,1,0,0:0:0:0:
406,316,33212,2,0,P|423:363|450:384,1,60
512,249,33503,6,0,L|366:231,1,120
297,304,33940,1,0,0:0:0:0:
201,247,34086,6,0,P|163:251|136:268,1,62.9999980773926
137,268,34377,6,0,L|163:112,1,125.999996154785
163,139,34668,6,0,P|140:115|80:105,1,90
28,288,35251,6,0,P|84:298|145:254,1,120
205,318,35688,1,0,0:0:0:0:
332,224,35833,2,0,P|275:197|255:200,1,60
255,383,36125,2,0,P|285:337|271:270,1,120
203,223,36562,1,0,0:0:0:0:
187,139,36707,2,0,L|197:55,1,60
362,0,36999,6,0,L|376:135,1,120
436,184,37435,1,0,0:0:0:0:
512,89,37581,2,0,P|477:74|446:73,1,60
323,215,37872,2,0,P|271:242|213:228,1,120
259,160,38309,1,0,0:0:0:0:
97,237,38455,2,0,P|110:281|109:307,1,60
30,151,38746,6,0,L|180:165,1,132.00000402832
248,153,39183,1,0,0:0:0:0:
248,275,39329,2,0,P|203:266|174:241,1,66.0000020141602
320,0,39620,6,0,L|342:171,1,143.999995605469
393,215,40057,1,0,0:0:0:0:
331,315,40202,2,0,P|312:345|309:381,1,71.9999978027344
154,176,40494,6,0,L|-34:154,1,155.999992858887
115,254,40931,1,0,0:0:0:0:
241,68,41076,2,0,P|186:41|157:42,1,77.9999964294435
272,165,41367,5,0,0:0:0:0:
365,99,41513,1,0,0:0:0:0:
365,99,41586,1,0,0:0:0:0:
365,99,41659,1,0,0:0:0:0:
288,256,41804,1,0,0:0:0:0:
202,219,41950,1,0,0:0:0:0:
276,161,42096,1,0,0:0:0:0:
143,330,42241,6,0,P|196:311|233:308,1,77.9999964294435
310,365,42533,1,0,0:0:0:0:
485,166,42678,2,0,P|420:170|336:110,1,155.999992858887
228,181,43115,5,0,0:0:0:0:
162,88,43261,1,0,0:0:0:0:
232,188,43406,1,0,0:0:0:0:
278,35,43552,1,0,0:0:0:0:
235,195,43698,1,0,0:0:0:0:
157,79,43843,1,0,0:0:0:0:
0,246,43989,6,0,L|181:224,2,155.999992858887
156,122,44717,1,0,0:0:0:0:
255,239,44863,2,0,P|250:312|196:401,1,155.999992858887
164,248,45299,1,0,0:0:0:0:
257,146,45445,2,0,P|322:170|343:194,1,77.9999964294435
445,158,45736,6,0,L|467:-25,1,155.999992858887
501,227,46173,1,0,0:0:0:0:
346,25,46319,2,0,L|360:118,1,77.9999964294435
187,237,46610,2,0,P|110:200|23:209,1,155.999992858887
228,380,47047,1,0,0:0:0:0:
294,204,47193,2,0,L|279:290,1,77.9999964294435
193,0,47484,6,0,P|217:109|222:175,1,155.999992858887
293,44,47921,1,0,0:0:0:0:
71,180,48066,2,0,P|118:191|155:211,1,77.9999964294435
376,255,48358,2,0,P|390:180|323:101,2,155.999992858887
437,331,49086,1,0,0:0:0:0:
290,297,49232,5,0,0:0:0:0:
290,297,49377,1,0,0:0:0:0:
162,383,49523,2,0,L|173:261,1,116.999994644165
168,260,49814,1,0,0:0:0:0:
76,195,49960,1,0,0:0:0:0:
128,126,50105,5,0,0:0:0:0:
238,186,50251,2,0,L|248:232,2,38.9999982147218
293,72,50542,2,0,L|301:33,2,38.9999982147218
327,202,50833,1,0,0:0:0:0:
512,158,50979,6,0,P|468:126|355:122,2,155.999992858887
320,192,51707,1,0,0:0:0:0:
172,0,51853,2,0,L|190:190,1,155.999992858887
128,234,52290,1,0,0:0:0:0:
11,88,52435,2,0,P|74:63|112:60,1,77.9999964294435
274,191,52727,6,0,P|215:243|123:227,2,155.999992858887
188,155,53455,1,0,0:0:0:0:
52,320,53600,2,0,P|115:330|154:352,1,77.9999964294435
242,377,53892,1,0,0:0:0:0:
319,284,54037,1,0,0:0:0:0:
436,304,54183,1,0,0:0:0:0:
436,304,54329,1,0,0:0:0:0:
352,364,54474,6,0,L|328:184,1,155.999992858887
383,133,54911,1,0,0:0:0:0:
194,180,55057,2,0,P|251:153|293:153,1,77.9999964294435
480,100,55348,2,0,P|427:108|341:32,1,155.999992858887
439,11,55785,1,0,0:0:0:0:
261,0,55931,2,0,L|246:109,1,77.9999964294435
218,222,56222,5,0,0:0:0:0:
218,222,56367,1,0,0:0:0:0:
339,142,56513,2,0,L|352:266,1,116.999994644165
346,268,56804,1,0,0:0:0:0:
422,172,56950,1,0,0:0:0:0:
246,128,57096,5,0,0:0:0:0:
204,218,57241,2,0,L|207:256,2,38.9999982147218
0,176,57533,1,0,0:0:0:0:
0,176,57605,1,0,0:0:0:0:
0,176,57678,2,0,L|131:155,1,116.999994644165
124,157,57969,6,0,P|157:108|149:22,2,143.999995605469
287,32,58843,2,0,P|337:54|359:77,1,71.9999978027344
360,220,59134,2,0,P|353:165|363:134,1,71.9999978027344
487,62,59426,2,0,P|442:94|411:102,1,71.9999978027344
284,259,59717,6,0,P|408:292|438:311,2,143.999995605469
42,377,60591,2,0,P|17:331|18:295,1,71.9999978027344
109,212,60882,1,0,0:0:0:0:
95,309,61028,1,0,0:0:0:0:
186,240,61173,2,0,P|211:286|210:322,1,71.9999978027344
51,144,61465,6,0,L|68:-4,2,143.999995605469
150,98,62193,1,0,0:0:0:0:
0,222,62338,2,0,P|48:238|83:269,1,71.9999978027344
162,191,62630,2,0,P|172:240|162:286,1,71.9999978027344
269,315,62921,2,0,P|231:348|186:363,1,71.9999978027344
109,380,63212,5,0,0:0:0:0:
109,380,63358,1,0,0:0:0:0:
68,236,63503,2,0,L|58:162,1,71.9999978027344
137,89,63795,1,0,0:0:0:0:
137,89,63940,1,0,0:0:0:0:
230,207,64086,5,0,0:0:0:0:
308,35,64232,2,0,L|315:-8,2,35.9999989013672
401,102,64523,2,0,L|406:137,2,35.9999989013672
483,65,64814,1,0,0:0:0:0:
462,203,64960,6,0,P|391:218|323:152,2,143.999995605469
512,281,65688,1,0,0:0:0:0:
339,384,65833,2,0,P|360:330|383:307,1,71.9999978027344
336,167,66125,2,0,P|278:175|247:166,1,71.9999978027344
150,278,66416,2,0,P|185:323|194:354,1,71.9999978027344
190,336,66707,5,0,0:0:0:0:
51,263,66853,1,0,0:0:0:0:
51,263,66999,2,0,L|63:174,1,71.9999978027344
21,68,67290,1,0,0:0:0:0:
21,68,67435,1,0,0:0:0:0:
156,188,67581,5,0,0:0:0:0:
217,81,67727,1,0,0:0:0:0:
124,11,67872,1,0,0:0:0:0:
283,146,68018,1,0,0:0:0:0:
387,51,68164,1,0,0:0:0:0:
210,85,68309,1,0,0:0:0:0:
380,151,68455,6,0,P|361:208|361:240,1,77.9999964294435
506,330,68746,2,0,P|466:285|438:269,1,77.9999964294435
287,349,69037,2,0,P|345:336|373:320,1,77.9999964294435
186,308,69329,2,0,L|-1:329,2,155.999992858887
131,56,70202,5,0,0:0:0:0:
263,147,70348,1,0,0:0:0:0:
263,147,70494,1,0,0:0:0:0:
47,83,70639,1,0,0:0:0:0:
232,2,70785,1,0,0:0:0:0:
232,2,70931,1,0,0:0:0:0:
172,131,71076,6,0,P|154:169|150:192,1,62.9999980773926
156,198,71367,6,0,L|172:295,1,77.9999964294435
168,274,71586,1,0,0:0:0:0:
168,274,71659,1,0,0:0:0:0:
61,186,71804,1,0,0:0:0:0:
274,185,71950,6,0,L|253:368,2,155.999992858887
353,245,72678,1,0,0:0:0:0:
334,125,72824,2,0,P|302:104|264:97,1,77.9999964294435
131,230,73115,2,0,P|166:213|192:184,1,77.9999964294435
140,2,73407,2,0,P|138:41|151:78,1,77.9999964294435
265,214,73698,5,0,0:0:0:0:
111,154,73843,1,0,0:0:0:0:
111,154,73989,2,0,L|94:294,1,116.999994644165
101,277,74280,1,0,0:0:0:0:
18,202,74426,1,0,0:0:0:0:
82,362,74571,6,0,P|131:356|164:330,1,77.9999964294435
154,340,74790,1,0,0:0:0:0:
154,340,74863,1,0,0:0:0:0:
251,238,75008,1,0,0:0:0:0:
251,238,75081,1,0,0:0:0:0:
251,238,75154,2,0,P|297:247|330:275,1,77.9999964294435
91,249,75445,6,0,L|108:57,2,155.999992858887
421,249,76319,2,0,L|404:57,2,155.999992858887
126,299,77193,6,0,L|143:107,2,155.999992858887
386,299,78066,2,0,L|369:107,1,155.999992858887
302,0,78503,1,0,0:0:0:0:
167,69,78649,2,0,L|178:164,1,77.9999964294435
244,300,78940,6,0,P|182:256|89:272,1,155.999992858887
200,383,79377,1,0,0:0:0:0:
343,339,79523,2,0,L|329:254,1,77.9999964294435
411,89,79814,2,0,P|349:133|256:117,1,155.999992858887
367,6,80251,1,0,0:0:0:0:
510,50,80397,2,0,L|496:135,1,77.9999964294435
478,234,80688,5,0,0:0:0:0:
363,230,80833,1,0,0:0:0:0:
363,230,80979,2,0,L|378:329,1,77.9999964294435
445,374,81270,1,0,0:0:0:0:
445,374,81416,1,0,0:0:0:0:
286,278,81562,5,0,0:0:0:0:
468,210,81707,2,0,L|477:166,2,38.9999982147218
351,340,81999,2,0,L|358:378,2,38.9999982147218
276,272,82290,1,0,0:0:0:0:
195,294,82435,5,0,0:0:0:0:
256,192,82528,12,0,85435,0:0:0:0:
