osu file format v14

[General]
AudioFilename: audio.mp3
AudioLeadIn: 0
PreviewTime: 43996
Countdown: 0
SampleSet: Soft
StackLeniency: 0.7
Mode: 2
LetterboxInBreaks: 0
WidescreenStoryboard: 1

[Editor]
DistanceSpacing: 0.9
BeatDivisor: 4
GridSize: 4
TimelineZoom: 2.7

[Metadata]
Title:escape (TV Size)
TitleUnicode:escape (TV Size)
Artist:XX:me
ArtistUnicode:XX:me
Creator:My Angel RangE
Version:Salad
Source:ダーリン・イン・ザ・フランキス
Tags:japanese anime pop jpop female vocal j-pop DARLING in the FRANXX kiss me ed5 ending 5 Haruka Tomatsu 02 Zero Two Kana Ichinose Ichigo Nanami Yamashita Miku Shizuka Ishigami Ikuno Saori Hayami Kokoro Katsuhiko Sugiyama
BeatmapID:2680859
BeatmapSetID:1290873

[Difficulty]
HPDrainRate:4
CircleSize:3
OverallDifficulty:7
ApproachRate:7
SliderMultiplier:1.35
SliderTickRate:1

[Events]
//Background and Video events
0,0,"78578.jpg",0,0
//Break Periods
//Storyboard Layer 0 (Background)
//Storyboard Layer 1 (Fail)
//Storyboard Layer 2 (Pass)
//Storyboard Layer 3 (Foreground)
//Storyboard Layer 4 (Overlay)
//Storyboard Sound Samples

[TimingPoints]
380,291.26213592233,3,2,0,40,1,0
5622,-100,3,2,0,60,0,0
7370,-100,3,2,0,70,0,0
14360,-100,3,2,0,60,0,0
28341,-100,3,2,0,50,0,0
35331,-100,3,2,0,60,0,0
38826,-100,3,2,0,70,0,0
44069,-100,3,2,0,80,0,1
58049,-100,3,2,0,70,0,0

[Colours]
Combo1 : 255,172,89
Combo2 : 128,128,255
Combo3 : 198,0,0

[HitObjects]
184,192,380,6,0,L|20:192,2,135,2|0|0,0:0|0:0|0:0,0:0:0:0:
308,192,1253,1,2,0:0:0:0:
444,192,1545,2,0,L|444:52,1,135,0|0,0:0|0:0,0:0:0:0:
312,48,2127,6,0,L|172:48,2,135,2|0|0,0:0|0:0|0:0,0:0:0:0:
448,140,3001,1,2,0:0:0:0:
312,136,3292,1,2,0:0:0:0:
176,136,3583,1,0,0:0:0:0:
308,188,3875,6,0,L|468:188,2,135,2|0|0,0:0|0:0|0:0,0:0:0:0:
168,188,4748,1,2,0:0:0:0:
32,184,5040,2,0,L|32:36,1,135,0|0,0:0|0:0,0:0:0:0:
288,68,5622,6,0,L|288:140,1,67.5,0|4,1:0|3:0,0:0:0:0:
192,136,6059,2,0,L|112:136,2,67.5,4|4|4,3:0|3:0|3:0,0:0:0:0:
336,136,6496,1,0,1:0:0:0:
412,288,6642,2,0,L|412:64,1,202.5,0|4,0:0|3:0,0:0:0:0:
168,288,7370,5,4,1:0:0:0:
60,288,7661,2,0,L|212:288,1,135,4|4,3:0|3:0,0:0:0:0:
320,288,8244,1,0,1:0:0:0:
440,148,8535,2,0,L|440:288,1,135,4|4,3:0|3:0,0:0:0:0:
324,283,9117,5,0,1:0:0:0:
324,283,9409,1,4,3:0:0:0:
440,283,9700,1,4,3:0:0:0:
180,280,9991,1,0,1:0:0:0:
76,280,10282,2,0,L|232:280,1,135,4|4,3:0|3:0,0:0:0:0:
328,280,10865,5,0,1:0:0:0:
456,276,11156,2,0,L|460:136,1,135,4|4,3:0|3:0,0:0:0:0:
184,140,11739,1,0,1:0:0:0:
76,140,12030,2,0,L|76:284,1,135,4|4,3:0|3:0,0:0:0:0:
192,285,12612,5,0,1:0:0:0:
192,285,12904,1,4,3:0:0:0:
76,285,13195,1,4,3:0:0:0:
344,184,13486,2,0,L|488:184,2,135,0|8|4,1:0|3:0|3:0,0:0:0:0:
64,184,14360,6,0,L|64:328,1,135,4|0,0:2|0:0,0:0:0:0:
180,324,14943,1,4,3:0:0:0:
428,328,15234,2,0,L|428:184,1,135,0|4,1:0|3:0,0:0:0:0:
304,184,15816,1,4,3:0:0:0:
184,188,16108,5,0,1:0:0:0:
304,184,16399,1,0,0:0:0:0:
364,184,16545,1,8,3:0:0:0:
424,184,16690,1,4,3:0:0:0:
159,180,16981,2,0,L|160:32,1,135,0|4,1:0|3:0,0:0:0:0:
271,32,17564,1,4,3:0:0:0:
392,32,17855,6,0,L|268:100,1,135,0|0,1:0|0:0,0:0:0:0:
208,28,18292,1,8,3:0:0:0:
148,28,18438,1,4,3:0:0:0:
400,180,18729,2,0,L|400:24,1,135,0|4,1:0|3:0,0:0:0:0:
292,27,19312,1,4,3:0:0:0:
176,27,19603,6,0,L|24:28,2,135,0|0|4,1:0|0:0|3:0,0:0:0:0:
440,88,20477,1,0,1:0:0:0:
316,88,20768,1,4,3:0:0:0:
316,88,21059,1,4,3:0:0:0:
40,88,21350,5,4,3:0:0:0:
156,88,21642,2,0,L|156:232,1,135,4|4,3:0|3:0,0:0:0:0:
420,228,22224,2,0,L|280:228,2,135,0|4|4,1:0|3:0|3:0,0:0:0:0:
296,256,23098,5,4,3:0:0:0:
172,256,23389,1,4,3:0:0:0:
112,256,23535,1,8,3:0:0:0:
48,256,23680,1,4,3:0:0:0:
316,232,23972,2,0,L|456:232,2,135,0|4|4,1:0|3:0|3:0,0:0:0:0:
188,232,24846,6,0,L|40:232,1,135,0|0,1:0|0:0,0:0:0:0:
48,160,25282,1,8,3:0:0:0:
108,160,25428,1,4,3:0:0:0:
360,232,25719,2,0,L|495:232,2,135,0|4|4,1:0|3:0|3:0,0:0:0:0:
100,224,26593,6,0,L|100:312,1,67.5,0|4,1:0|3:0,0:0:0:0:
224,156,27030,2,0,L|224:236,1,67.5,8|4,3:0|3:0,0:0:0:0:
476,136,27467,2,0,L|476:288,1,135,4|0,3:0|1:0,0:0:0:0:
344,184,28341,6,0,L|500:184,2,135,4|0|4,2:0|0:0|3:0,0:0:0:0:
196,184,29214,2,0,P|108:172|196:92,1,270,4|4,3:0|3:0,0:0:0:0:
344,156,30088,6,0,L|116:156,1,202.5,4|4,3:0|3:0,0:0:0:0:
141,156,30671,1,4,3:0:0:0:
256,80,30962,2,0,P|356:136|248:176,1,270,4|4,3:0|3:0,0:0:0:0:
98,188,31836,6,0,L|258:188,1,135,4|4,3:0|3:0,0:0:0:0:
372,184,32418,1,4,3:0:0:0:
233,188,32710,2,0,P|160:224|249:268,1,202.5,4|4,3:0|3:0,0:0:0:0:
232,281,33292,1,4,3:0:0:0:
376,272,33583,6,0,L|164:80,1,270,4|4,3:0|3:0,0:0:0:0:
436,216,34457,2,0,L|436:68,1,135,0|4,1:0|0:1,0:0:0:0:
228,188,35331,6,0,L|88:188,2,135,4|4|4,2:0|3:0|3:0,0:0:0:0:
384,188,36205,2,0,P|456:144|384:96,1,202.5,4|4,3:0|3:0,0:0:0:0:
304,140,36787,1,4,3:0:0:0:
140,184,37078,6,0,P|68:136|156:124,1,202.5,4|0,2:0|0:0,0:0:0:0:
216,108,37661,1,4,3:0:0:0:
216,108,37952,2,0,L|0:108,1,202.5,4|4,3:0|3:0,0:0:0:0:
76,108,38535,1,4,3:0:0:0:
308,212,38826,6,0,L|443:212,2,135,4|4|4,2:0|3:0|3:0,0:0:0:0:
80,112,39700,1,0,1:0:0:0:
196,112,39991,1,4,3:0:0:0:
312,112,40282,1,4,3:0:0:0:
80,112,40574,6,0,P|16:168|140:236,1,270,0|0,1:0|3:0,0:0:0:0:
212,240,41302,1,0,0:0:0:0:
348,240,41447,2,0,L|460:132,2,135,0|4|4,1:0|3:0|3:0,0:0:0:0:
116,236,42321,6,0,P|28:208|128:132,1,270,0|4,1:0|3:0,0:0:0:0:
336,92,43195,2,0,L|336:312,1,202.5,0|0,1:0|1:0,0:0:0:0:
240,292,44069,6,0,L|92:292,2,135,4|4|4,1:0|3:0|3:0,0:0:0:0:
368,292,44943,2,0,P|436:224|356:196,1,202.5,0|0,1:0|0:0,0:0:0:0:
292,192,45525,1,4,3:0:0:0:
8,120,45816,6,0,L|156:120,2,135,0|4|4,1:0|3:0|3:0,0:0:0:0:
140,204,46690,1,0,1:0:0:0:
276,204,46981,1,4,3:0:0:0:
344,204,47127,1,4,3:0:0:0:
408,204,47273,1,12,3:0:0:0:
140,204,47564,6,0,P|68:156|148:124,1,202.5,0|0,1:0|0:0,0:0:0:0:
220,160,48146,1,4,3:0:0:0:
368,160,48438,1,0,1:0:0:0:
236,160,48729,1,4,3:0:0:0:
104,160,49020,1,4,3:0:0:0:
368,160,49312,5,0,1:0:0:0:
300,160,49457,1,4,3:0:0:0:
236,160,49603,2,0,L|236:20,1,135,4|4,3:0|3:0,0:0:0:0:
164,160,50040,1,4,3:0:0:0:
96,160,50185,1,0,1:0:0:0:
224,160,50477,1,4,3:0:0:0:
96,160,50768,1,4,3:0:0:0:
356,184,51059,6,0,L|504:184,2,135,4|4|4,1:0|3:0|3:0,0:0:0:0:
236,184,51933,2,0,L|16:184,1,202.5,0|4,1:0|3:0,0:0:0:0:
112,184,52515,1,4,3:0:0:0:
388,120,52806,6,0,L|236:120,2,135,0|4|4,1:0|3:0|3:0,0:0:0:0:
388,208,53680,1,0,1:0:0:0:
256,208,53971,1,4,3:0:0:0:
188,208,54117,1,4,3:0:0:0:
124,208,54263,1,4,3:0:0:0:
388,208,54554,6,0,P|464:160|380:128,1,202.5,0|0,1:0|0:0,0:0:0:0:
320,120,55136,1,4,3:0:0:0:
188,120,55428,1,0,1:0:0:0:
320,120,55719,1,4,3:0:0:0:
452,120,56010,1,4,3:0:0:0:
172,164,56302,6,0,L|308:164,2,135,0|4|4,1:0|3:0|3:0,0:0:0:0:
307,164,57175,1,0,1:0:0:0:
439,164,57467,1,4,3:0:0:0:
374,164,57613,1,4,3:0:0:0:
307,164,57758,1,4,3:0:0:0:
48,168,58049,6,0,P|16:184|72:252,1,135,0|4,1:0|3:0,0:0:0:0:
136,260,58632,1,4,3:0:0:0:
396,256,58923,2,0,L|528:176,2,135,0|4|4,1:0|3:0|3:0,0:0:0:0:
260,260,59797,6,0,L|124:260,2,135,0|4|4,1:0|3:0|3:0,0:0:0:0:
512,260,60671,2,0,L|372:260,1,135,0|4,1:0|3:0,0:0:0:0:
376,168,61253,1,4,3:0:0:0:
112,168,61545,5,0,1:0:0:0:
8,168,61836,2,0,L|8:24,1,135,4|4,3:0|3:0,0:0:0:0:
272,168,62418,2,0,L|412:168,2,135,0|4|4,1:0|3:0|3:0,0:0:0:0:
172,168,63292,5,0,1:0:0:0:
272,168,63583,1,4,3:0:0:0:
372,168,63875,1,4,3:0:0:0:
104,168,64166,1,0,1:0:0:0:
216,168,64457,2,0,L|372:168,1,135,4|4,3:0|3:0,0:0:0:0:
72,316,65040,6,0,L|72:20,1,270,0|4,1:0|3:0,0:0:0:0:
320,132,65913,2,0,L|464:132,2,135,0|4|0,1:0|3:0|1:0,0:0:0:0:
184,132,66787,1,0,0:0:0:0:
120,132,66933,1,0,0:0:0:0:
56,132,67079,1,0,0:0:0:0:
96,132,67370,1,4,3:0:0:0:
360,136,67661,2,0,L|500:136,2,135,0|4|4,1:0|3:0|3:0,0:0:0:0:
96,52,68535,6,0,L|96:348,1,270,0|4,1:0|3:0,0:0:0:0:
360,316,69409,2,0,L|508:316,2,135,0|4|4,1:0|3:0|3:0,0:0:0:0:
228,320,70282,6,0,P|136:288|240:236,1,270,0|4,1:0|3:0,0:0:0:0:
508,144,71156,2,0,L|360:144,1,135,0|0,1:0|1:0,0:0:0:0:
412,300,72030,6,0,P|496:224|400:224,1,270,0|4,1:0|3:0,0:0:0:0:
176,228,72904,1,0,1:0:0:0:
52,228,73195,1,4,3:0:0:0:
172,228,73486,1,4,3:0:0:0:
416,232,73778,6,0,P|500:144|380:88,1,270,0|0,1:0|1:0,0:0:0:0:
164,80,74651,1,4,3:0:0:0:
56,80,74943,1,4,3:0:0:0:
56,192,75234,1,4,3:0:0:0:
336,288,75525,5,4,1:0:0:0:
452,288,75816,2,0,L|452:148,1,135,4|4,3:0|3:0,0:0:0:0:
184,144,76399,1,0,1:0:0:0:
76,144,76690,2,0,L|76:280,1,135,4|4,3:0|3:0,0:0:0:0:
348,300,77272,5,0,1:0:0:0:
232,300,77564,1,4,3:0:0:0:
116,300,77855,1,4,3:0:0:0:
380,220,78146,1,0,1:0:0:0:
480,224,78437,2,0,L|480:80,1,135,4|4,3:0|3:0,0:0:0:0:
212,280,79020,5,0,1:0:0:0:
100,280,79311,2,0,L|100:144,1,135,4|4,3:0|3:0,0:0:0:0:
372,140,79894,1,0,1:0:0:0:
480,140,80185,2,0,L|480:280,1,135,4|0,3:0|1:0,0:0:0:0:
216,296,80767,5,0,1:0:0:0:
332,296,81059,1,4,3:0:0:0:
448,296,81350,1,4,3:0:0:0:
200,184,81641,2,0,L|56:184,2,135,0|8|4,1:0|3:0|3:0,0:0:0:0:
476,184,82515,5,4,1:0:0:0:
256,192,82807,12,0,85355,0:0:0:0:
