osu file format v14

[General]
AudioFilename: audio.mp3
AudioLeadIn: 0
PreviewTime: 43996
Countdown: 0
SampleSet: Soft
StackLeniency: 0.7
Mode: 2
LetterboxInBreaks: 0
WidescreenStoryboard: 1

[Editor]
Bookmarks: 10875
DistanceSpacing: 0.8
BeatDivisor: 2
GridSize: 4
TimelineZoom: 2.6

[Metadata]
Title:escape (TV Size)
TitleUnicode:escape (TV Size)
Artist:XX:me
ArtistUnicode:XX:me
Creator:My Angel RangE
Version:Rain
Source:ダーリン・イン・ザ・フランキス
Tags:japanese anime pop jpop female vocal j-pop DARLING in the FRANXX kiss me ed5 ending 5 Haruka Tomatsu 02 Zero Two Kana Ichinose Ichigo Nanami Yamashita Miku Shizuka Ishigami Ikuno Saori Hayami Kokoro Katsuhiko Sugiyama
BeatmapID:2679545
BeatmapSetID:1290873

[Difficulty]
HPDrainRate:5
CircleSize:4
OverallDifficulty:9
ApproachRate:9
SliderMultiplier:1.9
SliderTickRate:2

[Events]
//Background and Video events
0,0,"78578.jpg",0,0
//Break Periods
//Storyboard Layer 0 (Background)
//Storyboard Layer 1 (Fail)
//Storyboard Layer 2 (Pass)
//Storyboard Layer 3 (Foreground)
//Storyboard Layer 4 (Overlay)
//Storyboard Sound Samples

[TimingPoints]
380,291.26213592233,3,2,0,40,1,0
5622,-100,3,2,0,60,0,0
7370,-100,3,2,0,70,0,0
14360,-100,3,2,0,60,0,0
28341,-100,3,2,0,50,0,0
35331,-100,3,2,0,60,0,0
38826,-100,3,2,0,70,0,0
44069,-100,3,2,0,80,0,1
58049,-100,3,2,0,70,0,0

[Colours]
Combo1 : 255,172,89
Combo2 : 128,128,255
Combo3 : 198,0,0

[HitObjects]
116,288,380,5,2,0:0:0:0:
40,252,525,1,0,0:0:0:0:
32,168,671,1,0,0:0:0:0:
104,112,816,1,0,0:0:0:0:
212,288,962,2,0,L|80:288,1,95,0|0,0:0|0:0,0:0:0:0:
320,128,1253,5,2,0:0:0:0:
396,164,1398,1,0,0:0:0:0:
404,248,1544,1,0,0:0:0:0:
332,304,1689,1,0,0:0:0:0:
224,128,1835,2,0,L|340:128,1,95,0|0,0:0|0:0,0:0:0:0:
112,132,2127,5,2,0:0:0:0:
188,128,2273,1,0,0:0:0:0:
112,132,2418,1,0,0:0:0:0:
188,128,2564,1,0,0:0:0:0:
280,124,2710,2,0,L|280:236,1,95,0|0,0:0|0:0,0:0:0:0:
72,216,3001,6,0,L|200:216,1,95,2|0,0:0|0:0,0:0:0:0:
292,236,3292,2,0,L|164:236,1,95,2|0,0:0|0:0,0:0:0:0:
104,240,3583,2,0,L|104:120,1,95,0|0,0:0|0:0,0:0:0:0:
360,124,3875,5,2,0:0:0:0:
436,160,4020,1,0,0:0:0:0:
444,244,4166,1,0,0:0:0:0:
372,300,4311,1,0,0:0:0:0:
264,124,4457,2,0,L|396:124,1,95,0|0,0:0|0:0,0:0:0:0:
156,284,4748,5,2,0:0:0:0:
80,248,4893,1,0,0:0:0:0:
72,164,5040,1,0,0:0:0:0:
144,108,5185,1,0,0:0:0:0:
252,284,5331,2,0,L|136:284,1,95,0|0,0:0|0:0,0:0:0:0:
376,284,5622,6,0,L|516:288,1,95,0|4,1:0|3:0,0:0:0:0:
220,288,6059,2,0,L|220:184,1,95,4|4,3:0|3:0,0:0:0:0:
320,192,6350,1,4,3:0:0:0:
116,192,6496,6,0,L|8:192,1,95,0|0,1:0|0:0,0:0:0:0:
148,112,6787,2,0,L|256:60,1,95,8|8,3:0|3:0,0:0:0:0:
76,112,7079,2,0,L|44:-4,1,95,4|4,3:0|3:0,0:0:0:0:
332,112,7370,6,0,L|204:112,1,95,4|0,1:0|0:0,0:0:0:0:
100,176,7661,2,0,L|228:176,1,95,4|0,3:0|0:0,0:0:0:0:
332,236,7952,2,0,L|204:236,1,95,4|0,3:0|0:0,0:0:0:0:
464,232,8244,6,0,L|464:100,1,95,0|0,1:0|0:0,0:0:0:0:
332,236,8535,2,0,L|332:104,1,95,4|0,3:0|0:0,0:0:0:0:
464,232,8826,2,0,L|352:232,1,95,4|0,3:0|0:0,0:0:0:0:
160,232,9117,6,0,L|160:100,1,95,0|0,1:0|0:0,0:0:0:0:
292,236,9408,2,0,L|292:104,1,95,4|0,3:0|0:0,0:0:0:0:
160,232,9700,2,0,L|272:232,1,95,4|0,3:0|0:0,0:0:0:0:
44,232,9991,6,0,L|44:112,1,95,0|0,1:0|0:0,0:0:0:0:
172,232,10282,2,0,L|172:112,1,95,4|0,3:0|0:0,0:0:0:0:
304,236,10574,2,0,L|304:116,1,95,4|0,3:0|0:0,0:0:0:0:
100,116,10865,6,0,L|228:116,1,95,0|0,1:0|0:0,0:0:0:0:
336,36,11156,2,0,L|208:36,2,95,4|0|4,3:0|0:0|3:0,0:0:0:0:
456,40,11593,1,0,0:0:0:0:
200,208,11739,6,0,L|200:76,1,95,0|0,1:0|0:0,0:0:0:0:
332,212,12030,2,0,L|332:80,1,95,4|0,3:0|0:0,0:0:0:0:
192,208,12321,2,0,L|304:208,1,95,4|0,3:0|0:0,0:0:0:0:
496,208,12612,6,0,L|428:104,1,95,0|0,1:0|0:0,0:0:0:0:
316,128,12904,2,0,L|384:24,1,95,4|0,3:0|0:0,0:0:0:0:
496,208,13195,2,0,L|384:208,1,95,4|0,3:0|0:0,0:0:0:0:
160,168,13486,5,0,1:0:0:0:
76,232,13632,1,8,3:0:0:0:
88,328,13778,1,8,3:0:0:0:
172,352,13923,1,4,3:0:0:0:
60,336,14069,2,0,L|176:316,1,95,4|4,3:0|3:0,0:0:0:0:
368,332,14360,6,0,P|436:288|360:272,1,190,4|0,0:2|0:0,0:0:0:0:
280,300,14797,1,8,3:0:0:0:
180,300,14943,2,0,L|176:184,1,95,4|0,3:0|0:0,0:0:0:0:
384,200,15234,6,0,L|188:200,2,190,0|4|4,1:0|3:0|3:0,0:0:0:0:
488,204,15962,1,0,0:0:0:0:
280,216,16108,6,0,P|216:196|304:164,1,190,0|0,1:0|0:0,0:0:0:0:
356,168,16545,1,8,3:0:0:0:
440,164,16690,2,0,L|308:164,1,95,4|0,3:0|0:0,0:0:0:0:
136,84,16981,6,0,L|326:84,2,190,0|4|4,1:0|3:0|3:0,0:0:0:0:
236,84,17710,1,0,0:0:0:0:
440,168,17855,6,0,P|496:156|420:104,1,190,0|0,1:0|0:0,0:0:0:0:
344,128,18292,1,8,3:0:0:0:
248,124,18438,2,0,L|120:124,1,95,4|0,3:0|0:0,0:0:0:0:
364,200,18729,6,0,L|174:200,2,190,0|4|4,1:0|3:0|3:0,0:0:0:0:
456,204,19457,1,0,0:0:0:0:
200,248,19603,6,0,P|136:216|208:160,1,190,0|0,1:0|0:0,0:0:0:0:
296,208,20040,1,8,3:0:0:0:
388,208,20185,2,0,L|496:208,1,95,4|0,3:0|0:0,0:0:0:0:
276,112,20477,6,0,L|468:112,2,190,0|4|4,1:0|3:0|3:0,0:0:0:0:
372,112,21205,1,0,0:0:0:0:
120,116,21350,6,0,P|64:140|148:204,1,190,4|4,3:0|3:0,0:0:0:0:
212,168,21787,1,0,0:0:0:0:
121,219,21933,2,0,L|-8:220,1,95,4|0,3:0|0:0,0:0:0:0:
232,288,22224,6,0,L|436:288,2,190,0|4|4,1:0|3:0|3:0,0:0:0:0:
136,288,22952,1,0,0:0:0:0:
400,280,23098,6,0,P|468:244|376:208,1,190,4|4,3:0|3:0,0:0:0:0:
312,236,23535,1,8,3:0:0:0:
220,236,23680,2,0,L|220:100,1,95,4|0,3:0|0:0,0:0:0:0:
428,136,23972,6,0,L|224:136,2,190,0|4|4,1:0|3:0|3:0,0:0:0:0:
328,136,24700,1,0,0:0:0:0:
112,132,24846,6,0,P|44:168|132:204,1,190,0|0,1:0|0:0,0:0:0:0:
216,220,25282,1,8,3:0:0:0:
310,221,25428,2,0,L|198:219,1,95,4|0,3:0|0:0,0:0:0:0:
12,292,25719,6,0,L|244:292,2,190,0|4|4,1:0|3:0|3:0,0:0:0:0:
96,292,26447,1,0,0:0:0:0:
316,296,26593,5,0,1:0:0:0:
188,252,26739,2,0,L|156:152,1,95,4|4,3:0|3:0,0:0:0:0:
368,164,27030,1,8,3:0:0:0:
464,164,27176,2,0,L|496:280,1,95,4|4,3:0|3:0,0:0:0:0:
248,244,27467,6,0,L|144:248,1,95,4|4,3:0|3:0,0:0:0:0:
360,248,27758,1,0,1:0:0:0:
124,248,28049,1,0,0:0:0:0:
360,248,28341,6,0,L|152:248,1,190,4|0,2:0|0:0,0:0:0:0:
80,248,28778,1,4,3:0:0:0:
188,216,28923,2,0,L|264:124,1,95,4|0,3:0|0:0,0:0:0:0:
40,196,29214,6,0,L|276:196,1,190,4|4,3:0|3:0,0:0:0:0:
136,200,29651,1,4,3:0:0:0:
260,200,29797,2,0,L|372:200,1,95,4|0,3:0|0:0,0:0:0:0:
144,256,30088,6,0,P|88:244|152:168,1,190,4|4,3:0|3:0,0:0:0:0:
236,204,30525,1,4,3:0:0:0:
336,204,30671,2,0,L|440:204,1,95,4|0,3:0|0:0,0:0:0:0:
224,120,30962,6,0,L|452:120,1,190,4|4,3:0|3:0,0:0:0:0:
512,120,31399,1,4,3:0:0:0:
414,120,31545,2,0,L|414:12,1,95,4|0,3:0|0:0,0:0:0:0:
200,120,31836,6,0,P|136:180|216:200,1,190,4|4,3:0|3:0,0:0:0:0:
304,208,32273,1,4,3:0:0:0:
201,209,32418,2,0,L|97:209,1,95,4|0,3:0|0:0,0:0:0:0:
312,208,32710,6,0,P|380:188|300:152,1,190,4|4,3:0|3:0,0:0:0:0:
209,209,33146,1,4,3:0:0:0:
312,208,33292,2,0,L|424:208,1,95,4|0,3:0|0:0,0:0:0:0:
176,208,33583,6,0,P|108:176|188:148,1,190,4|4,3:0|3:0,0:0:0:0:
265,173,34020,1,4,3:0:0:0:
360,168,34166,2,0,L|360:64,1,95,4|0,3:0|0:0,0:0:0:0:
148,168,34457,5,0,1:0:0:0:
360,168,34748,1,4,0:1:0:0:
136,240,35331,6,0,L|336:300,1,190,4|4,2:0|3:0,0:0:0:0:
400,240,35768,1,0,0:0:0:0:
248,192,35913,2,0,L|248:80,1,95,4|0,3:0|0:0,0:0:0:0:
456,188,36204,6,0,L|220:188,1,190,4|4,3:0|3:0,0:0:0:0:
360,192,36641,1,4,3:0:0:0:
236,192,36787,2,0,L|124:192,1,95,4|0,3:0|0:0,0:0:0:0:
352,248,37078,6,0,P|408:236|344:160,1,190,4|4,2:0|3:0,0:0:0:0:
260,196,37515,1,0,0:0:0:0:
160,196,37661,2,0,L|56:196,1,95,4|0,3:0|0:0,0:0:0:0:
272,112,37952,6,0,L|44:112,1,190,4|4,3:0|3:0,0:0:0:0:
176,108,38389,1,4,3:0:0:0:
304,108,38535,2,0,L|432:108,1,95,4|0,3:0|0:0,0:0:0:0:
184,208,38826,6,0,L|68:208,1,95,4|0,2:0|0:0,0:0:0:0:
264,208,39117,2,0,L|264:100,1,95,4|4,3:0|3:0,0:0:0:0:
40,208,39409,1,4,3:0:0:0:
276,260,39700,6,0,L|376:260,1,95,0|0,1:0|0:0,0:0:0:0:
204,264,39991,2,0,L|204:136,1,95,4|4,3:0|3:0,0:0:0:0:
460,264,40282,1,4,3:0:0:0:
200,344,40574,6,0,P|116:312|200:272,1,190,0|4,1:0|3:0,0:0:0:0:
296,324,41011,1,0,3:0:0:0:
164,344,41156,2,0,L|40:336,1,95,0|0,3:0|0:0,0:0:0:0:
364,324,41447,5,0,1:0:0:0:
392,296,41520,1,0,0:0:0:0:
364,264,41593,1,8,3:0:0:0:
120,280,41739,1,4,3:0:0:0:
20,260,41884,1,4,3:0:0:0:
120,240,42030,1,4,3:0:0:0:
352,252,42176,1,4,3:0:0:0:
108,264,42321,5,0,1:0:0:0:
192,216,42467,1,4,3:0:0:0:
108,172,42613,1,4,3:0:0:0:
352,228,42758,1,0,1:0:0:0:
452,224,42904,2,0,L|452:120,1,95,4|4,3:0|3:0,0:0:0:0:
192,216,43195,6,0,L|92:204,2,95,0|0|0,1:0|1:0|1:0,0:0:0:0:
404,204,43632,1,0,1:0:0:0:
300,204,43778,1,0,1:0:0:0:
200,204,43923,1,0,1:0:0:0:
468,248,44069,6,0,L|468:136,1,95,4|0,1:0|0:0,0:0:0:0:
232,248,44360,2,0,L|212:136,1,95,4|0,3:0|0:0,0:0:0:0:
476,248,44651,2,0,L|364:248,1,95,4|0,3:0|0:0,0:0:0:0:
132,320,44943,6,0,P|60:308|140:248,1,190,0|4,1:0|3:0,0:0:0:0:
224,272,45379,1,0,0:0:0:0:
16,200,45525,2,0,L|136:200,1,95,4|0,3:0|0:0,0:0:0:0:
384,188,45816,6,0,L|444:88,1,95,0|0,1:0|0:0,0:0:0:0:
316,192,46108,2,0,L|208:188,1,95,4|0,3:0|0:0,0:0:0:0:
384,188,46399,2,0,L|524:184,1,95,4|0,3:0|0:0,0:0:0:0:
216,244,46690,6,0,L|196:112,1,95,0|4,1:0|3:0,3:3:0:0:
300,152,46981,1,4,3:0:0:0:
96,272,47127,1,4,3:0:0:0:
12,224,47273,1,12,3:0:0:0:
92,168,47418,1,4,3:0:0:0:
464,304,47564,6,0,L|256:308,1,190,0|4,1:0|3:0,0:0:0:0:
152,304,48001,1,0,0:0:0:0:
360,248,48146,2,0,L|412:140,1,95,4|0,3:0|0:0,0:0:0:0:
104,200,48438,6,0,L|328:196,1,190,0|4,1:0|3:0,0:0:0:0:
200,208,48875,1,0,0:0:0:0:
416,204,49020,2,0,L|364:100,1,95,4|0,3:0|0:0,0:0:0:0:
164,208,49312,5,0,1:0:0:0:
304,208,49457,2,0,L|436:208,2,95,4|4|4,3:0|3:0|3:0,0:0:0:0:
148,208,49894,2,0,L|243:208,1,95,4|4,3:0|3:0,0:0:0:0:
464,208,50185,6,0,L|420:88,1,95,0|4,1:0|3:0,0:0:0:0:
276,192,50477,2,0,L|320:72,1,95,4|4,3:0|3:0,0:0:0:0:
456,216,50768,2,0,L|412:96,1,95,4|4,3:0|3:0,0:0:0:0:
96,232,51059,6,0,L|76:120,1,95,4|0,1:0|0:0,0:0:0:0:
296,236,51350,2,0,L|316:124,1,95,4|0,3:0|0:0,0:0:0:0:
52,236,51641,2,0,L|164:236,1,95,4|0,3:0|0:0,0:0:0:0:
396,308,51933,6,0,P|468:296|388:236,1,190,0|4,1:0|3:0,0:0:0:0:
304,260,52369,1,4,3:0:0:0:
512,188,52515,2,0,L|392:188,1,95,4|0,3:0|0:0,0:0:0:0:
128,188,52806,6,0,L|68:88,1,95,0|0,1:0|0:0,0:0:0:0:
196,176,53098,2,0,L|304:172,1,95,4|0,3:0|0:0,0:0:0:0:
128,188,53389,2,0,L|-12:184,1,95,4|0,3:0|0:0,0:0:0:0:
292,232,53680,6,0,L|324:100,1,95,0|4,1:0|3:0,0:0:0:0:
212,140,53971,1,4,3:0:0:0:
428,144,54117,1,4,3:0:0:0:
496,208,54263,1,4,3:0:0:0:
416,252,54408,1,4,3:0:0:0:
64,292,54554,6,0,L|272:296,1,190,0|4,1:0|3:0,0:0:0:0:
376,292,54991,1,0,0:0:0:0:
168,236,55136,2,0,L|116:128,1,95,4|0,3:0|0:0,0:0:0:0:
444,236,55428,6,0,L|220:236,1,190,0|4,1:0|3:0,0:0:0:0:
348,236,55865,1,0,0:0:0:0:
140,236,56010,2,0,L|24:236,1,95,4|0,3:0|0:0,0:0:0:0:
256,136,56302,5,0,1:0:0:0:
364,136,56447,2,0,L|459:136,2,95,4|4|4,3:0|3:0|3:0,0:0:0:0:
84,212,56884,2,0,L|179:212,1,95,4|4,3:0|3:0,0:0:0:0:
436,200,57175,6,0,L|480:80,1,95,0|4,1:0|3:0,0:0:0:0:
232,196,57467,2,0,L|188:76,1,95,4|4,3:0|3:0,0:0:0:0:
436,200,57758,2,0,L|480:80,1,95,4|4,3:0|3:0,0:0:0:0:
200,196,58049,6,0,L|-28:184,2,190,0|4|4,1:0|3:0|3:0,0:0:0:0:
108,232,58778,1,0,0:0:0:0:
440,236,58923,6,0,P|500:180|412:184,1,190,0|4,1:0|3:0,0:0:0:0:
332,200,59360,1,0,0:0:0:0:
236,200,59506,2,0,L|120:200,1,95,4|0,3:0|0:0,0:0:0:0:
372,200,59797,6,0,P|444:164|360:144,1,190,0|4,1:0|3:0,0:0:0:0:
280,160,60234,1,0,0:0:0:0:
372,200,60379,2,0,L|492:200,1,95,4|0,3:0|0:0,0:0:0:0:
224,192,60671,6,0,L|24:192,1,190,0|4,1:0|3:0,0:0:0:0:
128,192,61108,1,0,1:0:0:0:
224,192,61253,2,0,L|328:192,1,95,4|0,3:0|0:0,0:0:0:0:
104,80,61545,6,0,L|240:80,1,95,0|0,1:0|0:0,0:0:0:0:
316,80,61836,2,0,P|384:128|304:140,1,190,4|4,3:0|3:0,0:0:0:0:
224,116,62273,1,0,0:0:0:0:
0,120,62418,6,0,L|196:120,2,190,0|4|4,1:0|3:0|3:0,0:0:0:0:
96,120,63146,1,0,0:0:0:0:
312,120,63292,6,0,L|420:104,1,95,0|4,1:0|3:0,0:0:0:0:
284,120,63583,2,0,L|240:24,1,95,4|0,3:0|0:0,0:0:0:0:
384,180,63875,2,0,L|488:124,1,95,4|4,3:0|3:0,0:0:0:0:
184,184,64166,5,0,1:0:0:0:
424,196,64312,1,4,3:0:0:0:
456,196,64384,1,4,3:0:0:0:
424,196,64457,1,4,3:0:0:0:
204,152,64603,1,4,3:0:0:0:
172,152,64676,1,4,3:0:0:0:
204,152,64748,1,4,3:0:0:0:
332,152,64894,1,4,3:0:0:0:
124,216,65040,6,0,P|60:208|132:196,1,190,0|4,1:0|3:0,0:0:0:0:
240,200,65477,1,0,0:0:0:0:
352,200,65622,2,0,L|352:100,1,95,4|0,3:0|0:0,0:0:0:0:
124,196,65913,6,0,L|12:196,1,95,0|0,1:0|0:0,0:0:0:0:
248,128,66205,2,0,L|360:128,1,95,4|0,3:0|0:0,0:0:0:0:
80,212,66496,2,0,L|80:104,1,95,0|0,1:0|0:0,0:0:0:0:
292,212,66787,5,0,1:0:0:0:
144,212,66933,2,0,L|49:212,1,95,0|4,1:0|3:0,0:0:0:0:
296,128,67370,2,0,L|201:128,1,95,4|4,3:0|3:0,0:0:0:0:
408,48,67661,5,0,1:0:0:0:
480,96,67807,1,8,3:0:0:0:
228,188,67952,1,4,3:0:0:0:
176,144,68098,1,4,3:0:0:0:
412,180,68244,2,0,L|436:340,1,95,4|4,3:0|3:0,0:0:0:0:
96,160,68535,6,0,L|-16:160,1,95,0|4,1:0|3:0,0:0:0:0:
128,76,68826,2,0,L|240:76,1,95,4|4,3:0|3:0,0:0:0:0:
84,112,69117,2,0,L|32:24,1,95,4|4,3:0|3:0,0:0:0:0:
312,76,69409,6,0,P|380:100|300:144,1,190,0|4,1:0|3:0,0:0:0:0:
220,160,69846,1,0,0:0:0:0:
125,160,69991,2,0,L|241:160,1,95,4|0,3:0|0:0,0:0:0:0:
16,240,70282,6,0,L|80:124,1,95,0|8,1:0|3:0,0:0:0:0:
232,160,70574,2,0,L|168:44,1,95,4|4,3:0|3:0,0:0:0:0:
40,164,70865,2,0,L|144:164,1,95,4|4,3:0|3:0,0:0:0:0:
356,160,71156,5,0,1:0:0:0:
120,200,71447,1,0,1:0:0:0:
240,204,71593,1,4,3:0:0:0:
284,184,71666,1,4,3:0:0:0:
240,160,71739,2,0,L|120:160,1,95,4|4,3:0|3:0,0:0:0:0:
372,160,72030,6,0,P|440:136|360:104,1,190,0|4,1:0|3:0,0:0:0:0:
284,128,72467,1,0,0:0:0:0:
188,128,72613,2,0,L|283:127,1,95,4|0,3:0|0:0,0:0:0:0:
492,216,72904,6,0,L|284:216,2,190,0|4|4,1:0|3:0|3:0,0:0:0:0:
388,244,73632,1,0,0:0:0:0:
176,240,73778,5,0,1:0:0:0:
144,240,73850,1,0,0:0:0:0:
176,240,73923,1,4,3:0:0:0:
304,240,74069,2,0,L|304:132,1,95,4|4,3:0|3:0,0:0:0:0:
81,240,74360,2,0,L|189:240,1,95,0|4,1:0|3:0,0:0:0:0:
388,244,74651,6,0,L|432:148,1,95,4|4,3:0|3:0,0:0:0:0:
272,184,74943,2,0,L|228:88,1,95,4|4,3:0|3:0,0:0:0:0:
384,152,75234,2,0,L|408:32,1,95,4|0,3:0|0:0,0:0:0:0:
184,124,75525,6,0,L|312:124,1,95,4|0,1:0|0:0,0:0:0:0:
416,188,75816,2,0,L|288:188,1,95,4|0,3:0|0:0,0:0:0:0:
184,248,76107,2,0,L|312:248,1,95,4|0,3:0|0:0,0:0:0:0:
52,244,76399,6,0,L|52:112,1,95,0|0,1:0|0:0,0:0:0:0:
184,248,76690,2,0,L|184:116,1,95,4|0,3:0|0:0,0:0:0:0:
52,244,76981,2,0,L|164:244,1,95,4|0,3:0|0:0,0:0:0:0:
356,244,77272,6,0,L|356:112,1,95,0|0,1:0|0:0,0:0:0:0:
224,248,77564,2,0,L|224:116,1,95,4|0,3:0|0:0,0:0:0:0:
356,244,77855,2,0,L|244:244,1,95,4|0,3:0|0:0,0:0:0:0:
472,244,78146,6,0,L|472:124,1,95,0|0,1:0|0:0,0:0:0:0:
336,244,78438,1,4,3:0:0:0:
468,232,78583,1,0,0:0:0:0:
212,248,78729,2,0,L|212:128,1,95,4|4,3:0|3:0,0:0:0:0:
416,128,79020,6,0,L|288:128,1,95,0|0,1:0|0:0,0:0:0:0:
180,48,79311,2,0,L|308:48,2,95,4|0|4,3:0|0:0|3:0,0:0:0:0:
60,52,79748,1,0,0:0:0:0:
316,220,79894,6,0,L|316:88,1,95,0|0,1:0|0:0,0:0:0:0:
184,224,80185,2,0,L|184:92,1,95,4|0,3:0|0:0,0:0:0:0:
324,220,80476,2,0,L|212:220,1,95,0|0,1:0|0:0,0:0:0:0:
20,220,80768,5,0,1:0:0:0:
232,184,80913,1,4,3:0:0:0:
112,184,81059,2,0,L|112:292,1,95,4|4,3:0|3:0,0:0:0:0:
326,183,81350,2,0,L|231:183,1,95,4|4,3:0|3:0,0:0:0:0:
448,188,81642,6,0,L|516:96,1,95,0|8,1:0|3:0,0:0:0:0:
290,261,81933,2,0,L|130:265,1,95,8|4,3:0|3:0,0:0:0:0:
400,260,82224,2,0,L|488:220,1,95,4|4,3:0|3:0,0:0:0:0:
196,264,82515,5,4,1:0:0:0:
256,192,82661,12,0,85355,0:0:0:0:
