osu file format v14

[General]
AudioFilename: audio.mp3
AudioLeadIn: 0
PreviewTime: 43996
Countdown: 0
SampleSet: Soft
StackLeniency: 0.7
Mode: 2
LetterboxInBreaks: 0
WidescreenStoryboard: 1

[Editor]
Bookmarks: 14360
DistanceSpacing: 1.1
BeatDivisor: 4
GridSize: 4
TimelineZoom: 2.6

[Metadata]
Title:escape (TV Size)
TitleUnicode:escape (TV Size)
Artist:XX:me
ArtistUnicode:XX:me
Creator:My Angel RangE
Version:Platter
Source:ダーリン・イン・ザ・フランキス
Tags:japanese anime pop jpop female vocal j-pop DARLING in the FRANXX kiss me ed5 ending 5 Haruka Tomatsu 02 Zero Two Kana Ichinose Ichigo Nanami Yamashita Miku Shizuka Ishigami Ikuno Saori Hayami Kokoro Katsuhiko Sugiyama
BeatmapID:2680736
BeatmapSetID:1290873

[Difficulty]
HPDrainRate:5
CircleSize:3.5
OverallDifficulty:8
ApproachRate:8
SliderMultiplier:1.5
SliderTickRate:1

[Events]
//Background and Video events
0,0,"78578.jpg",0,0
//Break Periods
//Storyboard Layer 0 (Background)
//Storyboard Layer 1 (Fail)
//Storyboard Layer 2 (Pass)
//Storyboard Layer 3 (Foreground)
//Storyboard Layer 4 (Overlay)
//Storyboard Sound Samples

[TimingPoints]
380,291.26213592233,3,2,0,40,1,0
5622,-100,3,2,0,60,0,0
7370,-100,3,2,0,70,0,0
14360,-100,3,2,0,60,0,0
28341,-100,3,2,0,50,0,0
35331,-100,3,2,0,60,0,0
38826,-100,3,2,0,70,0,0
44069,-100,3,2,0,80,0,1
58049,-100,3,2,0,70,0,0

[Colours]
Combo1 : 255,172,89
Combo2 : 128,128,255
Combo3 : 198,0,0

[HitObjects]
88,248,380,6,0,P|40:216|100:168,1,150,2|0,0:0|0:0,0:0:0:0:
172,208,816,1,0,0:0:0:0:
260,204,962,2,0,L|260:104,1,75,0|0,0:0|0:0,0:0:0:0:
108,56,1253,6,0,L|280:56,1,150,2|0,0:0|0:0,0:0:0:0:
352,56,1690,1,0,0:0:0:0:
258,56,1836,2,0,L|259:164,1,75,0|0,0:0|0:0,0:0:0:0:
428,252,2127,6,0,P|480:216|416:172,1,150,2|0,0:0|0:0,0:0:0:0:
344,216,2563,1,0,0:0:0:0:
260,216,2710,2,0,L|152:216,1,75,0|0,0:0|0:0,0:0:0:0:
24,208,3001,6,0,L|192:208,1,150,2|2,0:0|0:0,0:0:0:0:
264,208,3438,1,0,0:0:0:0:
174,208,3583,2,0,L|172:112,1,75,0|0,0:0|0:0,0:0:0:0:
340,96,3875,6,0,P|392:140|338:181,1,150,2|0,0:0|0:0,0:0:0:0:
268,180,4312,1,0,0:0:0:0:
187,179,4457,2,0,L|271:178,1,75,0|0,0:0|0:0,0:0:0:0:
420,204,4748,6,0,L|244:204,1,150,2|0,0:0|0:0,0:0:0:0:
184,204,5185,1,0,0:0:0:0:
93,204,5331,2,0,L|185:204,1,75,0|0,0:0|0:0,0:0:0:0:
384,200,5622,5,0,1:0:0:0:
312,200,5768,1,4,3:0:0:0:
224,120,6059,2,0,L|320:120,2,75,4|4|4,3:0|3:0|3:0,0:0:0:0:
149,120,6496,6,0,L|313:120,1,150,0|8,1:0|3:0,0:0:0:0:
228,120,6933,1,8,3:0:0:0:
120,116,7079,2,0,L|120:220,1,75,4|4,3:0|3:0,0:0:0:0:
332,200,7370,6,0,L|496:200,1,150,4|4,1:0|3:0,0:0:0:0:
400,200,7807,1,0,0:0:0:0:
332,200,7952,2,0,L|236:200,1,75,4|0,3:0|0:0,0:0:0:0:
40,199,8244,6,0,L|200:200,2,150,0|4|4,1:0|3:0|3:0,0:0:0:0:
120,199,8972,1,0,0:0:0:0:
260,260,9117,6,0,P|304:200|248:192,1,150,0|4,1:0|3:0,0:0:0:0:
176,216,9554,1,0,0:0:0:0:
101,216,9700,2,0,L|200:216,1,75,4|0,3:0|0:0,0:0:0:0:
384,200,9991,6,0,L|504:96,2,150,0|4|4,1:0|3:0|3:0,0:0:0:0:
288,200,10719,1,0,0:0:0:0:
136,196,10865,6,0,L|304:200,1,150,0|4,1:0|3:0,0:0:0:0:
208,200,11302,1,0,0:0:0:0:
136,148,11447,2,0,L|216:148,1,75,4|0,3:0|0:0,0:0:0:0:
484,152,11739,6,0,L|324:152,2,150,0|4|4,1:0|3:0|3:0,0:0:0:0:
392,152,12467,1,0,0:0:0:0:
240,152,12613,6,0,L|68:152,1,150,0|4,1:0|3:0,0:0:0:0:
160,228,13049,1,0,0:0:0:0:
68,228,13195,2,0,L|68:312,1,75,4|0,3:0|0:0,0:0:0:0:
316,248,13486,6,0,L|424:248,2,75,0|8|8,1:0|3:0|3:0,0:0:0:0:
200,252,13923,2,0,L|96:252,2,75,4|4|4,3:0|3:0|3:0,0:0:0:0:
412,168,14360,6,0,L|268:72,1,150,4|0,0:1|0:0,0:0:0:0:
192,84,14797,1,8,3:0:0:0:
285,159,14943,2,0,L|287:79,1,75,4|0,3:0|0:0,0:0:0:0:
41,172,15234,6,0,L|180:80,2,150,0|4|4,1:0|3:0|3:0,0:0:0:0:
124,172,15962,1,0,0:0:0:0:
272,172,16108,6,0,P|372:104|440:188,1,225,0|8,1:0|3:0,0:0:0:0:
352,172,16690,2,0,L|257:172,1,75,4|0,3:0|0:0,0:0:0:0:
36,220,16981,6,0,L|168:120,2,150,0|4|4,1:0|3:0|3:0,0:0:0:0:
140,224,17710,1,0,0:0:0:0:
296,224,17855,6,0,L|476:224,1,150,0|0,1:0|0:0,0:0:0:0:
388,224,18292,1,8,3:0:0:0:
296,236,18438,2,0,L|296:316,1,75,4|0,3:0|0:0,0:0:0:0:
88,112,18729,6,0,L|232:204,2,150,0|4|4,1:0|3:0|3:0,0:0:0:0:
176,112,19457,1,0,0:0:0:0:
308,112,19603,6,0,P|352:176|288:200,1,150,0|0,1:0|0:0,0:0:0:0:
212,160,20040,1,8,3:0:0:0:
116,160,20185,2,0,L|116:248,1,75,4|0,3:0|0:0,0:0:0:0:
324,264,20477,6,0,L|468:192,2,150,0|4|4,1:0|3:0|3:0,0:0:0:0:
224,264,21205,1,0,0:0:0:0:
56,268,21350,6,0,L|200:352,2,150,0|4|4,1:0|3:0|3:0,0:0:0:0:
144,268,22079,1,0,0:0:0:0:
352,176,22224,6,0,L|496:72,2,150,0|4|4,1:0|3:0|3:0,0:0:0:0:
252,176,22952,1,0,0:0:0:0:
124,176,23098,6,0,P|76:156|128:96,1,150,0|4,1:0|3:0,0:0:0:0:
208,136,23535,1,8,3:0:0:0:
124,176,23680,2,0,L|124:72,1,75,4|0,3:0|0:0,0:0:0:0:
332,96,23972,6,0,L|468:192,2,150,0|4|4,1:0|3:0|3:0,0:0:0:0:
224,96,24700,1,0,0:0:0:0:
96,96,24846,6,0,L|256:96,1,150,0|0,1:0|0:0,0:0:0:0:
352,96,25282,1,8,3:0:0:0:
256,96,25428,2,0,L|256:176,1,75,4|0,3:0|0:0,0:0:0:0:
16,208,25719,6,0,L|164:120,2,150,0|4|4,1:0|3:0|3:0,0:0:0:0:
104,200,26447,1,0,0:0:0:0:
320,204,26593,5,0,1:0:0:0:
232,208,26739,2,0,L|232:108,1,75,4|4,3:0|3:0,0:0:0:0:
332,124,27030,2,0,L|428:124,2,75,8|4|4,3:0|3:0|3:0,0:0:0:0:
168,124,27467,5,4,3:0:0:0:
168,124,27613,1,4,3:0:0:0:
415,124,27758,1,0,1:0:0:0:
444,124,28341,6,0,P|492:180|424:196,1,150,4|0,3:0|0:0,0:0:0:0:
364,208,28778,1,4,3:0:0:0:
288,208,28923,2,0,L|288:116,1,75,4|0,3:0|0:0,0:0:0:0:
80,284,29214,6,0,P|28:240|84:208,1,150,4|4,3:0|3:0,0:0:0:0:
160,244,29651,1,4,3:0:0:0:
240,244,29797,2,0,L|165:244,1,75,4|0,3:0|0:0,0:0:0:0:
36,188,30088,6,0,L|176:88,1,150,4|4,3:0|3:0,0:0:0:0:
236,104,30525,1,4,3:0:0:0:
316,108,30671,2,0,L|315:182,1,75,4|0,3:0|0:0,0:0:0:0:
80,136,30962,6,0,L|256:136,1,150,4|4,3:0|3:0,0:0:0:0:
316,136,31399,1,4,3:0:0:0:
396,136,31545,2,0,L|396:32,1,75,4|0,3:0|0:0,0:0:0:0:
240,120,31836,6,0,L|60:120,1,150,4|4,3:0|3:0,0:0:0:0:
152,120,32273,1,4,3:0:0:0:
72,120,32418,2,0,L|72:208,1,75,4|0,3:0|0:0,0:0:0:0:
280,212,32710,6,0,L|452:212,1,150,4|4,3:0|3:0,0:0:0:0:
364,208,33146,1,4,3:0:0:0:
280,212,33292,2,0,L|280:104,1,75,4|0,3:0|0:0,0:0:0:0:
432,124,33583,6,0,P|480:176|420:216,1,150,4|4,3:0|3:0,0:0:0:0:
352,216,34020,1,4,3:0:0:0:
272,216,34166,2,0,L|197:216,1,75,4|0,3:0|0:0,0:0:0:0:
120,216,34457,5,0,1:0:0:0:
408,280,34748,1,4,0:1:0:0:
412,120,35331,6,0,P|460:184|404:192,1,150,4|4,3:0|3:0,0:0:0:0:
340,200,35768,1,0,0:0:0:0:
252,200,35913,2,0,L|252:288,1,75,4|0,3:0|0:0,0:0:0:0:
96,208,36204,6,0,P|44:164|96:122,1,150,4|4,3:0|3:0,0:0:0:0:
184,120,36641,1,4,3:0:0:0:
280,120,36787,2,0,L|280:216,1,75,4|0,3:0|0:0,0:0:0:0:
488,204,37078,6,0,L|316:160,1,150,4|4,3:0|3:0,0:0:0:0:
260,164,37515,1,0,0:0:0:0:
176,164,37661,2,0,L|176:248,1,75,4|0,3:0|0:0,0:0:0:0:
342,166,37952,6,0,P|394:126|330:98,1,150,4|4,3:0|3:0,0:0:0:0:
260,92,38389,1,4,3:0:0:0:
168,92,38535,2,0,L|84:92,1,75,4|0,3:0|0:0,0:0:0:0:
304,192,38826,6,0,L|472:192,1,150,0|4,1:0|3:0,0:0:0:0:
384,192,39263,1,4,3:0:0:0:
284,192,39409,1,4,3:0:0:0:
52,196,39700,6,0,L|232:196,1,150,0|4,1:0|3:0,0:0:0:0:
132,196,40137,1,4,3:0:0:0:
44,196,40282,1,4,3:0:0:0:
260,200,40574,6,0,L|440:200,2,150,0|4|0,1:0|3:0|3:0,0:0:0:0:
160,200,41302,1,0,0:0:0:0:
368,212,41447,6,0,P|420:160|364:132,1,150,0|4,1:0|3:0,0:0:0:0:
268,176,41884,1,4,3:0:0:0:
164,176,42030,2,0,L|164:96,1,75,4|4,3:0|3:0,0:0:0:0:
376,184,42321,6,0,L|472:184,2,75,0|4|4,1:0|3:0|3:0,0:0:0:0:
296,184,42758,1,0,1:0:0:0:
220,184,42904,1,4,3:0:0:0:
140,184,43049,1,4,3:0:0:0:
240,216,43195,6,0,L|332:216,2,75,0|0|0,1:0|1:0|1:0,0:0:0:0:
108,216,43632,2,0,L|0:216,2,75,0|0|0,1:0|1:0|1:0,0:0:0:0:
316,224,44069,6,0,L|492:224,2,150,4|4|4,1:0|3:0|3:0,0:0:0:0:
220,224,44797,1,0,0:0:0:0:
72,224,44943,6,0,L|212:308,1,150,0|4,1:0|3:0,0:0:0:0:
276,304,45379,1,0,0:0:0:0:
352,304,45525,2,0,L|432:304,1,75,4|0,3:0|0:0,0:0:0:0:
208,152,45816,6,0,L|28:152,2,150,0|4|4,1:0|3:0|3:0,0:0:0:0:
292,152,46545,1,0,0:0:0:0:
448,156,46690,6,0,P|496:100|452:52,1,150,0|4,1:0|3:0,3:3:0:0:
368,52,47127,1,4,3:0:0:0:
276,52,47273,2,0,L|276:144,1,75,12|4,3:0|3:0,0:0:0:0:
32,156,47564,6,0,L|216:156,1,150,0|4,1:0|3:0,0:0:0:0:
112,156,48001,1,0,0:0:0:0:
32,156,48146,2,0,L|128:156,1,75,4|0,3:0|0:0,0:0:0:0:
256,156,48438,6,0,L|440:156,2,150,0|4|4,1:0|3:0|3:0,0:0:0:0:
160,156,49166,1,0,0:0:0:0:
272,156,49312,6,0,L|376:156,2,75,0|4|4,1:0|3:0|3:0,0:0:0:0:
160,156,49748,2,0,L|52:156,2,75,4|4|4,3:0|3:0|3:0,0:0:0:0:
472,156,50185,6,0,L|300:156,1,150,0|4,1:0|3:0,0:0:0:0:
384,156,50622,1,4,3:0:0:0:
472,156,50768,2,0,L|472:56,1,75,4|4,3:0|3:0,0:0:0:0:
224,224,51059,6,0,L|40:224,2,150,4|4|4,1:0|3:0|3:0,0:0:0:0:
320,224,51787,1,0,0:0:0:0:
468,224,51933,6,0,L|304:224,1,150,0|4,1:0|3:0,0:0:0:0:
216,228,52369,1,4,3:0:0:0:
112,232,52515,2,0,L|112:136,1,75,4|0,3:0|0:0,0:0:0:0:
332,152,52806,6,0,L|508:152,2,150,0|4|4,1:0|3:0|3:0,0:0:0:0:
248,152,53535,1,0,0:0:0:0:
92,156,53680,6,0,P|40:100|100:80,1,150,0|4,1:0|3:0,0:0:0:0:
176,64,54117,1,4,3:0:0:0:
264,52,54263,2,0,L|264:144,1,75,4|4,3:0|3:0,0:0:0:0:
480,156,54554,6,0,L|296:160,1,150,0|4,1:0|3:0,0:0:0:0:
400,156,54991,1,0,0:0:0:0:
480,156,55136,2,0,L|392:156,1,75,4|0,3:0|0:0,0:0:0:0:
248,160,55428,6,0,L|72:160,2,150,0|4|4,1:0|3:0|3:0,0:0:0:0:
328,160,56156,1,0,0:0:0:0:
240,160,56302,6,0,P|188:120|248:88,1,150,0|4,1:0|3:0,0:0:0:0:
320,128,56739,1,4,3:0:0:0:
240,160,56884,2,0,L|144:160,1,75,4|4,3:0|3:0,0:0:0:0:
312,232,57176,6,0,L|488:232,2,150,0|4|4,1:0|3:0|3:0,0:0:0:0:
104,232,58049,6,0,P|56:200|120:152,1,150,0|4,1:0|3:0,0:0:0:0:
252,196,58632,1,4,3:0:0:0:
444,196,58923,6,0,L|272:196,2,150,0|4|4,1:0|3:0|3:0,0:0:0:0:
280,328,59797,6,0,L|112:328,2,150,0|4|4,1:0|3:0|3:0,0:0:0:0:
464,328,60671,6,0,L|464:152,1,150,0|4,1:0|3:0,0:0:0:0:
304,156,61253,1,4,3:0:0:0:
72,156,61545,6,0,L|248:156,2,150,0|4|4,1:0|3:0|3:0,0:0:0:0:
316,248,62418,6,0,L|144:248,2,150,0|4|4,1:0|3:0|3:0,0:0:0:0:
72,156,63292,6,0,L|172:156,1,75,0|4,1:0|3:0,0:0:0:0:
240,156,63583,1,4,3:0:0:0:
72,156,63875,1,4,3:0:0:0:
316,248,64166,6,0,L|496:248,2,150,0|4|4,1:0|3:0|3:0,0:0:0:0:
144,252,65040,6,0,P|40:228|148:148,1,300,0|4,1:0|3:0,0:0:0:0:
356,192,65913,6,0,L|520:192,2,150,0|4|0,1:0|3:0|1:0,0:0:0:0:
124,192,66787,6,0,L|32:192,2,75,0|0|4,1:0|1:0|3:0,0:0:0:0:
300,192,67370,2,0,L|300:112,1,75,4|4,3:0|3:0,0:0:0:0:
184,112,67661,6,0,L|4:112,2,150,0|4|4,1:0|3:0|3:0,0:0:0:0:
400,116,68535,5,0,1:0:0:0:
476,152,68680,1,4,3:0:0:0:
476,232,68826,1,4,3:0:0:0:
396,272,68972,1,4,3:0:0:0:
304,272,69117,2,0,L|212:272,1,75,4|4,3:0|3:0,0:0:0:0:
440,200,69409,6,0,L|272:200,2,150,0|4|4,1:0|3:0|3:0,0:0:0:0:
239,164,70282,6,0,L|444:32,1,225,0|4,1:0|3:0,0:0:0:0:
316,163,70865,2,0,L|241:163,1,75,4|4,3:0|3:0,0:0:0:0:
136,164,71156,5,0,1:0:0:0:
372,164,71447,1,0,1:0:0:0:
372,164,72030,6,0,L|188:164,2,150,0|4|4,1:0|3:0|3:0,0:0:0:0:
140,256,72904,6,0,L|300:256,2,150,0|4|4,1:0|3:0|3:0,0:0:0:0:
384,312,73778,6,0,P|448:272|384:228,1,150,0|4,1:0|3:0,0:0:0:0:
204,312,74360,1,0,1:0:0:0:
408,200,74651,6,0,L|228:200,2,150,4|4|4,3:0|3:0|3:0,0:0:0:0:
200,184,75525,6,0,L|28:184,1,150,4|4,1:0|3:0,0:0:0:0:
112,184,75962,1,0,0:0:0:0:
200,184,76107,2,0,L|296:184,1,75,4|0,3:0|0:0,0:0:0:0:
492,185,76399,6,0,L|320:184,2,150,0|4|4,1:0|3:0|3:0,0:0:0:0:
412,185,77127,1,0,0:0:0:0:
272,124,77272,6,0,P|240:196|284:192,1,150,0|4,1:0|3:0,0:0:0:0:
356,168,77709,1,0,0:0:0:0:
430,168,77855,2,0,L|355:168,1,75,4|0,3:0|0:0,0:0:0:0:
148,184,78146,6,0,L|0:276,2,150,0|4|4,1:0|3:0|3:0,0:0:0:0:
244,184,78874,1,4,3:0:0:0:
396,188,79020,6,0,L|224:188,1,150,0|4,1:0|3:0,0:0:0:0:
324,184,79457,1,0,0:0:0:0:
396,236,79602,2,0,L|316:236,1,75,4|0,3:0|0:0,0:0:0:0:
48,232,79894,6,0,L|208:232,2,150,0|4|0,1:0|3:0|1:0,0:0:0:0:
140,232,80622,1,0,0:0:0:0:
292,232,80768,6,0,L|464:232,1,150,0|4,1:0|3:0,0:0:0:0:
368,156,81204,1,4,3:0:0:0:
464,156,81350,2,0,L|464:68,1,75,4|4,3:0|3:0,0:0:0:0:
216,136,81641,6,0,L|112:136,2,75,0|8|8,1:0|3:0|3:0,0:0:0:0:
324,120,82079,2,0,L|424:120,2,75,4|4|4,3:0|3:0|3:0,0:0:0:0:
88,168,82515,5,4,1:0:0:0:
256,192,82807,12,0,85355,0:0:0:0:
