osu file format v14

[General]
AudioFilename: audio.mp3
AudioLeadIn: 0
PreviewTime: 43996
Countdown: 0
SampleSet: Soft
StackLeniency: 0.7
Mode: 2
LetterboxInBreaks: 0
WidescreenStoryboard: 0

[Editor]
Bookmarks: 2127,14370,21360,76118
DistanceSpacing: 0.8
BeatDivisor: 4
GridSize: 4
TimelineZoom: 2.6

[Metadata]
Title:escape (TV Size)
TitleUnicode:escape (TV Size)
Artist:XX:me
ArtistUnicode:XX:me
Creator:My Angel RangE
Version:Overdose
Source:ダーリン・イン・ザ・フランキス
Tags:japanese anime pop jpop female vocal j-pop DARLING in the FRANXX kiss me ed5 ending 5 Haruka Tomatsu 02 Zero Two Kana Ichinose Ichigo Nanami Yamashita Miku Shizuka Ishigami Ikuno Saori Hayami Kokoro Katsuhiko Sugiyama
BeatmapID:2679544
BeatmapSetID:1290873

[Difficulty]
HPDrainRate:6
CircleSize:4.2
OverallDifficulty:9.4
ApproachRate:9.4
SliderMultiplier:2.4
SliderTickRate:2

[Events]
//Background and Video events
0,0,"78578.jpg",0,0
//Break Periods
//Storyboard Layer 0 (Background)
//Storyboard Layer 1 (Fail)
//Storyboard Layer 2 (Pass)
//Storyboard Layer 3 (Foreground)
//Storyboard Layer 4 (Overlay)
//Storyboard Sound Samples

[TimingPoints]
380,291.26213592233,3,2,0,40,1,0
5622,-100,3,2,0,60,0,0
7370,-100,3,2,0,70,0,0
14360,-100,3,2,0,60,0,0
28341,-100,3,2,0,50,0,0
35331,-100,3,2,0,60,0,0
38826,-100,3,2,0,70,0,0
44069,-100,3,2,0,80,0,1
58049,-100,3,2,0,70,0,0

[Colours]
Combo1 : 255,172,89
Combo2 : 128,128,255
Combo3 : 198,0,0

[HitObjects]
116,248,380,5,2,0:0:0:0:
28,224,525,1,0,0:0:0:0:
12,132,671,1,0,0:0:0:0:
84,72,816,1,0,0:0:0:0:
244,232,962,2,0,L|84:232,1,120
400,64,1253,5,2,0:0:0:0:
488,88,1398,1,0,0:0:0:0:
504,180,1544,1,0,0:0:0:0:
432,240,1689,1,0,0:0:0:0:
288,208,1835,2,0,L|432:208,1,120
140,208,2127,5,2,0:0:0:0:
236,176,2272,1,0,0:0:0:0:
140,180,2418,1,0,0:0:0:0:
236,176,2563,1,0,0:0:0:0:
140,180,2709,2,0,L|8:180,1,120
296,180,3001,5,2,0:0:0:0:
296,180,3146,1,0,0:0:0:0:
192,180,3292,1,2,0:0:0:0:
192,180,3437,1,0,0:0:0:0:
76,180,3583,2,0,L|76:300,1,120
288,168,3875,5,2,0:0:0:0:
380,144,4020,1,0,0:0:0:0:
448,212,4166,1,0,0:0:0:0:
408,304,4312,1,0,0:0:0:0:
260,304,4457,2,0,L|416:304,1,120
104,304,4748,5,2,0:0:0:0:
32,232,4894,1,0,0:0:0:0:
68,140,5040,1,0,0:0:0:0:
172,136,5185,1,0,0:0:0:0:
328,136,5331,2,0,L|188:136,1,120
480,140,5622,5,0,1:0:0:0:
256,56,5768,2,0,L|376:128,1,120,4|0,3:0|0:0,0:0:0:0:
228,56,6059,1,4,3:0:0:0:
380,120,6205,1,4,3:0:0:0:
136,164,6350,1,4,3:0:0:0:
424,164,6496,5,0,1:0:0:0:
340,200,6642,1,0,0:0:0:0:
424,164,6787,1,8,3:0:0:0:
296,196,6933,1,8,3:0:0:0:
508,228,7079,1,4,3:0:0:0:
196,192,7224,1,4,3:0:0:0:
488,128,7370,6,0,L|368:128,1,120,4|0,1:0|0:0,0:0:0:0:
148,124,7661,1,4,3:0:0:0:
252,72,7807,1,0,0:0:0:0:
48,68,7952,2,0,L|48:208,1,120,4|0,3:0|0:0,0:0:0:0:
264,236,8244,6,0,L|144:236,1,120,0|0,1:0|0:0,0:0:0:0:
352,236,8535,2,0,L|524:236,1,120,4|0,3:0|0:0,0:0:0:0:
264,96,8826,2,0,L|264:240,1,120,4|0,3:0|0:0,0:0:0:0:
476,100,9117,6,0,L|340:100,1,120,0|0,1:0|0:0,0:0:0:0:
144,96,9409,1,4,3:0:0:0:
256,16,9554,1,0,0:0:0:0:
48,96,9700,2,0,L|48:216,1,120,4|0,3:0|0:0,0:0:0:0:
272,204,9991,6,0,L|392:204,1,120,0|0,1:0|0:0,0:0:0:0:
160,200,10282,2,0,L|64:112,1,120,4|0,3:0|0:0,0:0:0:0:
304,156,10574,2,0,L|312:24,1,120,4|0,3:0|0:0,0:0:0:0:
52,88,10865,6,0,L|52:256,1,120,0|0,1:0|0:0,0:0:0:0:
280,208,11156,1,4,3:0:0:0:
384,176,11302,1,0,0:0:0:0:
172,208,11447,2,0,L|107:85,1,120,4|0,3:0|0:0,0:0:0:0:
352,208,11739,6,0,L|504:208,1,120,0|0,1:0|0:0,0:0:0:0:
240,208,12030,2,0,L|168:104,1,120,4|0,3:0|0:0,0:0:0:0:
384,68,12321,2,0,L|384:220,1,120,4|0,3:0|0:0,0:0:0:0:
96,216,12613,6,0,L|96:68,1,120,0|0,1:0|0:0,0:0:0:0:
312,216,12904,1,4,3:0:0:0:
196,216,13049,1,0,0:0:0:0:
440,216,13195,2,0,L|440:80,1,120,4|0,3:0|0:0,0:0:0:0:
212,156,13486,5,0,1:0:0:0:
472,168,13632,1,8,3:0:0:0:
228,236,13778,1,8,3:0:0:0:
388,244,13923,1,4,3:0:0:0:
252,308,14069,1,4,3:0:0:0:
360,312,14214,1,4,3:0:0:0:
96,312,14360,6,0,P|20:244|128:168,1,240,4|0,0:2|0:0,0:0:0:0:
184,160,14797,1,8,3:0:0:0:
272,160,14943,2,0,L|176:80,1,120,4|0,3:0|0:0,0:0:0:0:
384,264,15234,6,0,L|524:264,1,120,0|0,1:0|0:0,0:0:0:0:
260,144,15525,2,0,L|104:144,1,120,4|0,3:0|0:0,0:0:0:0:
360,144,15816,2,0,L|448:32,1,120,4|0,3:0|0:0,0:0:0:0:
116,88,16108,6,0,L|356:88,1,240,0|0,1:0|0:0,0:0:0:0:
248,88,16545,1,8,3:0:0:0:
140,88,16690,2,0,L|292:88,1,120,4|0,3:0|0:0,0:0:0:0:
52,164,16981,6,0,L|52:20,1,120,0|0,1:0|0:0,0:0:0:0:
276,160,17273,2,0,L|428:160,1,120,4|0,3:0|0:0,0:0:0:0:
148,160,17564,2,0,L|148:304,1,120,4|0,3:0|0:0,0:0:0:0:
400,284,17855,6,0,P|488:232|384:224,1,240,0|0,1:0|0:0,0:0:0:0:
320,236,18292,1,8,3:0:0:0:
224,240,18438,2,0,L|224:96,1,120,4|0,3:0|0:0,0:0:0:0:
440,208,18729,6,0,L|440:336,1,120,0|0,1:0|0:0,0:0:0:0:
208,128,19020,2,0,L|208:272,1,120,4|0,3:0|0:0,0:0:0:0:
444,132,19312,2,0,L|308:132,1,120,4|0,3:0|0:0,0:0:0:0:
96,84,19603,6,0,P|12:152|116:152,1,240,0|0,1:0|0:0,0:0:0:0:
172,136,20040,1,8,3:0:0:0:
256,136,20185,2,0,L|156:220,1,120,4|0,3:0|0:0,0:0:0:0:
368,220,20477,6,0,L|444:104,1,120,0|0,1:0|0:0,0:0:0:0:
152,252,20768,2,0,L|60:140,1,120,4|0,3:0|0:0,0:0:0:0:
296,308,21059,2,0,L|296:176,1,120,4|0,3:0|0:0,0:0:0:0:
44,312,21350,6,0,L|312:312,1,240,4|4,3:0|3:0,0:0:0:0:
172,312,21787,1,0,0:0:0:0:
388,312,21933,2,0,L|388:164,1,120,4|0,3:0|0:0,0:0:0:0:
148,136,22224,6,0,P|64:180|156:192,1,240,0|4,1:0|3:0,0:0:0:0:
240,176,22661,1,0,0:0:0:0:
32,248,22807,2,0,L|176:248,1,120,4|0,3:0|0:0,0:0:0:0:
384,248,23098,6,0,P|472:208|360:172,1,240,4|4,3:0|3:0,0:0:0:0:
300,196,23535,1,8,3:0:0:0:
504,192,23680,2,0,L|336:196,1,120,4|0,3:0|0:0,0:0:0:0:
128,200,23972,6,0,L|128:68,1,120,0|0,1:0|0:0,0:0:0:0:
332,152,24263,2,0,L|196:152,1,120,4|0,3:0|0:0,0:0:0:0:
416,200,24554,2,0,L|416:68,1,120,4|0,3:0|0:0,0:0:0:0:
148,112,24846,6,0,P|64:176|168:168,1,240,0|0,1:0|0:0,0:0:0:0:
244,160,25282,1,8,3:0:0:0:
16,200,25428,2,0,L|164:200,1,120,4|0,3:0|0:0,0:0:0:0:
396,232,25719,6,0,L|396:96,1,120,0|0,1:0|0:0,0:0:0:0:
168,224,26011,2,0,L|40:164,1,120,4|0,3:0|0:0,0:0:0:0:
368,184,26302,2,0,L|472:96,1,120,4|0,3:0|0:0,0:0:0:0:
80,192,26593,5,0,1:0:0:0:
196,192,26739,2,0,L|196:48,1,120,4|4,3:0|3:0,0:0:0:0:
48,192,27030,1,8,3:0:0:0:
256,192,27176,2,0,L|112:192,1,120,4|4,3:0|3:0,0:0:0:0:
340,192,27467,5,4,3:0:0:0:
132,232,27613,1,4,3:0:0:0:
392,236,27758,2,0,P|520:176|372:148,1,360,0|0,1:0|0:0,0:0:0:0:
80,168,28341,6,0,L|204:212,1,120,4|0,2:0|0:0,0:0:0:0:
316,168,28632,2,0,L|316:48,1,120,0|4,0:0|3:0,0:0:0:0:
72,96,28923,2,0,L|72:224,1,120,4|0,3:0|0:0,0:0:0:0:
296,216,29214,6,0,P|384:176|292:120,1,240,4|4,3:0|3:0,0:0:0:0:
168,164,29651,1,4,3:0:0:0:
404,216,29797,2,0,L|404:88,1,120,4|0,3:0|0:0,0:0:0:0:
176,216,30088,6,0,P|88:176|180:120,1,240,4|4,3:0|3:0,0:0:0:0:
276,168,30525,1,4,3:0:0:0:
68,216,30671,2,0,L|188:156,1,120,4|0,3:0|0:0,0:0:0:0:
388,168,30962,6,0,L|144:164,1,240,4|4,3:0|3:0,0:0:0:0:
272,168,31399,1,4,3:0:0:0:
68,168,31545,2,0,L|200:168,1,120,4|0,3:0|0:0,0:0:0:0:
392,168,31836,6,0,P|480:200|380:256,1,240,4|4,3:0|3:0,0:0:0:0:
292,224,32273,1,4,3:0:0:0:
496,296,32418,2,0,L|360:296,1,120,4|0,3:0|0:0,0:0:0:0:
132,292,32710,6,0,P|51:231|142:188,1,240,4|4,3:0|3:0,0:0:0:0:
256,244,33146,1,4,3:0:0:0:
48,288,33292,2,0,L|168:288,1,120,4|0,3:0|0:0,0:0:0:0:
392,288,33583,6,0,P|476:236|364:212,1,240,4|4,3:0|3:0,0:0:0:0:
184,188,34020,2,0,L|80:104,2,120,4|4|0,3:0|3:0|0:0,0:0:0:0:
388,268,34457,6,0,P|448:212|364:224,1,180,0|0,1:0|0:0,0:0:0:0:
192,268,34748,2,0,P|76:256|208:204,1,360,4|0,0:1|0:0,0:0:0:0:
440,272,35331,6,0,L|440:104,1,120,4|0,2:0|0:0,0:0:0:0:
212,156,35622,1,4,3:0:0:0:
76,156,35768,1,0,0:0:0:0:
280,256,35913,2,0,L|400:256,1,120,4|0,3:0|0:0,0:0:0:0:
140,268,36205,6,0,P|56:220|176:176,1,240,4|4,3:0|3:0,0:0:0:0:
244,208,36642,1,4,3:0:0:0:
36,320,36787,2,0,L|184:320,1,120,4|0,3:0|0:0,0:0:0:0:
412,268,37079,6,0,L|276:268,1,120,4|0,2:0|0:0,0:0:0:0:
84,264,37370,1,4,3:0:0:0:
200,264,37515,1,0,0:0:0:0:
456,184,37661,2,0,L|456:52,1,120,4|0,3:0|0:0,0:0:0:0:
249,117,37952,6,0,P|163:153|252:184,1,240,4|4,3:0|3:0,0:0:0:0:
460,156,38389,1,4,3:0:0:0:
252,160,38535,2,0,L|372:160,1,120,4|0,3:0|0:0,0:0:0:0:
156,264,38826,6,0,P|68:240|152:184,1,240,4|4,2:0|3:0,0:0:0:0:
252,224,39263,1,4,3:0:0:0:
48,280,39409,2,0,L|48:160,1,120,4|0,3:0|0:0,0:0:0:0:
280,224,39700,6,0,P|360:168|272:168,1,240,0|4,1:0|3:0,0:0:0:0:
176,196,40137,1,4,3:0:0:0:
384,232,40282,2,0,L|384:96,1,120,4|0,3:0|0:0,0:0:0:0:
176,224,40574,6,0,L|28:228,1,120,0|0,1:0|0:0,0:0:0:0:
280,224,40865,1,4,3:0:0:0:
176,224,41011,2,0,L|116:224,2,60,0|0|0,3:0|3:0|3:0,3:0:0:0:
388,224,41302,1,0,0:0:0:0:
100,252,41447,5,0,1:0:0:0:
344,280,41593,1,8,3:0:0:0:
396,248,41666,1,8,3:0:0:0:
348,212,41739,1,4,3:0:0:0:
104,300,41884,1,4,3:0:0:0:
230,287,42030,1,4,3:0:0:0:
104,300,42176,1,4,3:0:0:0:
344,304,42321,5,0,1:0:0:0:
428,296,42467,1,4,3:0:0:0:
344,304,42613,1,4,3:0:0:0:
108,260,42759,1,0,1:0:0:0:
20,252,42904,1,4,3:0:0:0:
108,260,43049,1,4,3:0:0:0:
468,260,43195,5,0,1:0:0:0:
324,272,43341,1,0,1:0:0:0:
468,260,43486,1,0,1:0:0:0:
56,244,43632,1,0,1:0:0:0:
200,208,43778,1,0,1:0:0:0:
56,244,43924,1,0,1:0:0:0:
408,204,44069,6,0,L|456:60,1,120,4|0,1:0|0:0,0:0:0:0:
200,140,44360,2,0,L|56:160,1,120,4|0,3:0|0:0,0:0:0:0:
384,64,44651,2,0,L|408:204,1,120,4|0,3:0|0:0,0:0:0:0:
160,64,44943,6,0,L|399:67,1,240,0|4,1:0|3:0,0:0:0:0:
304,116,45379,1,0,0:0:0:0:
60,140,45525,2,0,L|52:0,1,120,4|0,3:0|0:0,0:0:0:0:
396,196,45816,6,0,L|272:184,1,120,0|0,1:0|0:0,0:0:0:0:
64,136,46108,2,0,L|200:100,1,120,4|0,3:0|0:0,0:0:0:0:
444,200,46399,2,0,L|432:344,1,120,4|0,3:0|0:0,0:0:0:0:
176,256,46690,6,0,L|316:256,1,120,0|4,1:0|3:0,3:0:0:0:
88,176,46981,1,4,3:0:0:0:
376,180,47127,1,4,3:0:0:0:
92,92,47273,2,0,L|220:92,1,120,12|4,3:0|3:0,0:0:0:0:
8,272,47564,6,0,L|264:272,1,240,0|4,1:0|3:0,0:0:0:0:
128,272,48001,1,0,0:0:0:0:
412,272,48146,2,0,L|488:144,1,120,4|0,3:0|0:0,0:0:0:0:
156,116,48438,6,0,P|72:188|152:232,1,240,0|4,1:0|3:0,0:0:0:0:
248,180,48875,1,0,0:0:0:0:
456,180,49020,2,0,L|456:60,1,120,4|0,3:0|0:0,0:0:0:0:
192,204,49312,5,0,1:0:0:0:
424,200,49457,2,0,L|424:48,1,120,4|4,3:0|3:0,0:0:0:0:
172,200,49748,1,4,3:0:0:0:
308,156,49894,1,4,3:0:0:0:
174,127,50040,1,4,3:0:0:0:
424,200,50185,5,0,1:0:0:0:
152,256,50331,1,4,3:0:0:0:
96,256,50404,1,4,3:0:0:0:
152,256,50477,1,4,3:0:0:0:
400,152,50622,1,4,3:0:0:0:
348,152,50695,1,4,3:0:0:0:
176,152,50768,1,4,3:0:0:0:
404,200,50913,1,4,3:0:0:0:
152,256,51059,6,0,L|8:256,1,120,4|0,1:0|0:0,0:0:0:0:
308,256,51350,2,0,L|436:160,1,120,4|0,3:0|0:0,0:0:0:0:
152,148,51642,2,0,L|32:148,1,120,4|0,3:0|0:0,0:0:0:0:
312,256,51933,6,0,P|400:216|288:196,1,240,0|4,1:0|3:0,0:0:0:0:
192,160,52370,1,4,3:0:0:0:
420,164,52515,2,0,L|428:24,1,120,4|0,3:0|0:0,0:0:0:0:
84,220,52807,6,0,L|208:208,1,120,0|0,1:0|0:0,0:0:0:0:
416,160,53099,2,0,L|280:124,1,120,4|0,3:0|0:0,0:0:0:0:
56,224,53390,2,0,L|72:368,1,120,4|0,3:0|0:0,0:0:0:0:
328,288,53680,6,0,L|164:288,1,120,0|4,1:0|3:0,0:0:0:0:
416,244,53972,1,4,3:0:0:0:
128,244,54118,1,4,3:0:0:0:
416,160,54263,2,0,L|292:160,1,120,4|4,3:0|3:0,0:0:0:0:
500,296,54554,6,0,L|244:296,1,240,0|4,1:0|3:0,0:0:0:0:
380,296,54992,1,0,0:0:0:0:
144,296,55137,2,0,L|68:168,1,120,4|0,3:0|0:0,0:0:0:0:
404,136,55428,6,0,P|488:208|408:252,1,240,0|4,1:0|3:0,0:0:0:0:
260,200,55866,1,0,0:0:0:0:
24,204,56011,2,0,L|24:84,1,120,4|0,3:0|0:0,0:0:0:0:
296,228,56303,5,0,1:0:0:0:
152,228,56447,1,4,3:0:0:0:
224,228,56520,1,4,3:0:0:0:
296,228,56593,1,4,3:0:0:0:
168,252,56739,1,4,3:0:0:0:
412,228,56885,1,4,3:0:0:0:
296,252,57031,1,4,3:0:0:0:
88,224,57176,5,0,1:0:0:0:
368,272,57322,1,4,3:0:0:0:
416,236,57395,1,4,3:0:0:0:
368,200,57468,1,4,3:0:0:0:
124,152,57613,1,4,3:0:0:0:
60,152,57686,1,4,3:0:0:0:
368,172,57758,2,0,L|368:48,1,120,4|4,3:0|3:0,0:0:0:0:
84,272,58049,6,0,L|340:272,2,240,0|4|4,1:0|3:0|3:0,0:0:0:0:
80,352,58778,1,0,0:0:0:0:
336,272,58923,6,0,P|424:220|312:176,1,240,0|4,1:0|3:0,0:0:0:0:
232,212,59360,1,0,0:0:0:0:
388,272,59506,2,0,L|496:200,1,120,4|0,3:0|0:0,0:0:0:0:
264,212,59797,6,0,L|16:212,2,240,0|4|4,1:0|3:0|3:0,0:0:0:0:
388,212,60525,1,0,0:0:0:0:
36,296,60671,6,0,L|36:168,1,120,0|0,1:0|0:0,0:0:0:0:
168,180,60962,1,4,3:0:0:0:
372,184,61108,2,0,L|372:56,1,120,0|4,1:0|3:0,0:0:0:0:
232,64,61399,1,0,0:0:0:0:
456,184,61545,6,0,L|324:184,1,120,0|0,1:0|0:0,0:0:0:0:
120,124,61836,2,0,P|60:232|132:232,1,240,4|4,3:0|3:0,0:0:0:0:
212,188,62273,1,0,0:0:0:0:
436,236,62418,6,0,L|472:92,1,120,0|0,1:0|0:0,0:0:0:0:
312,308,62710,2,0,L|280:176,1,120,4|0,3:0|0:0,0:0:0:0:
432,312,63001,2,0,L|468:176,1,120,4|0,3:0|0:0,0:0:0:0:
200,320,63292,6,0,L|76:320,1,120,0|4,1:0|3:0,0:0:0:0:
288,320,63583,2,0,P|372:248|264:248,1,240,4|4,3:0|3:0,0:0:0:0:
176,264,64020,1,4,3:0:0:0:
320,228,64166,5,0,1:0:0:0:
64,208,64312,1,4,3:0:0:0:
120,208,64384,1,4,3:0:0:0:
176,204,64457,1,4,3:0:0:0:
416,120,64603,1,4,3:0:0:0:
360,120,64675,1,4,3:0:0:0:
64,120,64748,1,4,3:0:0:0:
184,120,64894,1,4,3:0:0:0:
488,120,65040,6,0,L|248:120,2,240,0|4|4,1:0|3:0|3:0,0:0:0:0:
372,120,65768,1,0,0:0:0:0:
52,88,65913,6,0,L|292:88,2,240,0|4|0,1:0|3:0|1:0,0:0:0:0:
144,88,66642,1,0,0:0:0:0:
412,88,66787,6,0,L|292:88,1,120,0|0,1:0|1:0,0:0:0:0:
52,88,67079,1,4,3:0:0:0:
256,88,67224,1,8,3:0:0:0:
16,216,67370,2,0,L|64:68,1,120,4|4,3:0|3:0,0:0:0:0:
284,276,67661,5,0,1:0:0:0:
416,248,67807,1,8,3:0:0:0:
284,276,67952,1,4,3:0:0:0:
416,248,68098,1,4,3:0:0:0:
188,208,68244,2,0,L|64:208,1,120,4|4,3:0|3:0,0:0:0:0:
332,96,68535,5,0,1:0:0:0:
464,76,68680,1,4,3:0:0:0:
332,128,68826,1,4,3:0:0:0:
472,128,68972,1,4,3:0:0:0:
244,176,69117,1,4,3:0:0:0:
484,184,69263,1,4,3:0:0:0:
120,292,69409,6,0,L|-4:296,1,120,0|0,1:0|0:0,0:0:0:0:
212,264,69700,2,0,L|280:148,1,120,4|0,3:0|0:0,0:0:0:0:
64,272,69991,2,0,L|28:152,1,120,4|0,3:0|0:0,0:0:0:0:
356,268,70282,5,0,1:0:0:0:
140,264,70428,2,0,L|140:132,1,120,8|4,3:0|3:0,0:0:0:0:
260,144,70719,1,4,3:0:0:0:
160,144,70865,1,4,3:0:0:0:
300,144,71011,1,4,3:0:0:0:
96,140,71156,6,0,L|96:284,1,120,0|0,1:0|0:0,0:0:0:0:
432,136,71447,1,0,1:0:0:0:
160,176,71593,1,4,3:0:0:0:
96,212,71666,1,4,3:0:0:0:
160,248,71739,1,4,3:0:0:0:
320,252,71884,1,4,3:0:0:0:
64,280,72030,6,0,L|324:276,2,240,0|4|4,1:0|3:0|3:0,0:0:0:0:
184,288,72758,1,0,0:0:0:0:
428,188,72904,6,0,L|168:184,2,240,0|4|4,1:0|3:0|3:0,0:0:0:0:
428,108,73632,1,0,0:0:0:0:
144,280,73778,6,0,L|104:116,1,120,0|4,1:0|3:0,0:0:0:0:
320,284,74070,1,4,3:0:0:0:
180,276,74214,1,4,3:0:0:0:
388,280,74360,2,0,L|436:132,1,120,0|4,1:0|3:0,0:0:0:0:
180,276,74652,5,4,3:0:0:0:
64,276,74798,1,4,3:0:0:0:
15,275,74870,1,4,3:0:0:0:
64,276,74943,1,4,3:0:0:0:
216,272,75088,1,4,3:0:0:0:
424,160,75234,2,0,L|424:280,1,120,4|0,3:0|0:0,0:0:0:0:
40,132,75525,6,0,L|160:132,1,120,4|0,1:0|0:0,0:0:0:0:
380,128,75816,1,4,3:0:0:0:
276,76,75962,1,0,0:0:0:0:
480,72,76108,2,0,L|480:192,1,120,4|0,3:0|0:0,0:0:0:0:
264,240,76399,6,0,L|384:240,1,120,0|0,1:0|0:0,0:0:0:0:
176,240,76690,2,0,L|56:240,1,120,4|0,3:0|0:0,0:0:0:0:
264,100,76981,2,0,L|264:220,1,120,4|0,3:0|0:0,0:0:0:0:
52,104,77273,6,0,L|172:104,1,120,0|0,1:0|0:0,0:0:0:0:
384,100,77564,1,4,3:0:0:0:
272,20,77709,1,0,0:0:0:0:
480,100,77855,2,0,L|480:220,1,120,4|0,3:0|0:0,0:0:0:0:
256,208,78146,6,0,L|136:208,1,120,0|0,1:0|0:0,0:0:0:0:
340,212,78438,1,4,3:0:0:0:
120,156,78583,1,0,0:0:0:0:
328,164,78729,2,0,L|336:44,1,120,4|4,3:0|3:0,0:0:0:0:
76,96,79020,6,0,L|76:216,1,120,0|0,1:0|0:0,0:0:0:0:
304,216,79311,1,4,3:0:0:0:
408,184,79457,1,0,0:0:0:0:
196,216,79602,1,4,3:0:0:0:
156,124,79748,1,0,0:0:0:0:
376,216,79894,6,0,L|496:216,1,120,0|0,1:0|0:0,0:0:0:0:
264,216,80185,2,0,L|196:117,1,120,4|0,3:0|0:0,0:0:0:0:
408,76,80477,2,0,L|408:196,1,120,0|0,1:0|0:0,0:0:0:0:
144,204,80768,5,0,1:0:0:0:
348,196,80913,1,4,3:0:0:0:
400,172,80986,1,4,3:0:0:0:
356,136,81059,1,4,3:0:0:0:
236,148,81205,1,4,3:0:0:0:
472,200,81350,1,4,3:0:0:0:
396,220,81496,1,4,3:0:0:0:
136,196,81642,5,0,1:0:0:0:
64,104,81787,1,8,3:0:0:0:
348,196,81933,1,8,3:0:0:0:
448,100,82079,1,4,3:0:0:0:
384,100,82152,1,4,3:0:0:0:
176,104,82225,1,4,3:0:0:0:
392,180,82370,1,4,3:0:0:0:
96,228,82515,5,4,1:0:0:0:
256,192,82588,12,0,85355,0:0:0:0:
