osu file format v14

[General]
AudioFilename: audio.mp3
AudioLeadIn: 0
PreviewTime: 43996
Countdown: 0
SampleSet: Soft
StackLeniency: 0.7
Mode: 2
LetterboxInBreaks: 0
WidescreenStoryboard: 0

[Editor]
Bookmarks: 37962
DistanceSpacing: 0.8
BeatDivisor: 4
GridSize: 4
TimelineZoom: 2.6

[Metadata]
Title:escape (TV Size)
TitleUnicode:escape (TV Size)
Artist:XX:me
ArtistUnicode:XX:me
Creator:My Angel RangE
Version:Cup
Source:ダーリン・イン・ザ・フランキス
Tags:japanese anime pop jpop female vocal j-pop DARLING in the FRANXX kiss me ed5 ending 5 Haruka Tomatsu 02 Zero Two Kana Ichinose Ichigo Nanami Yamashita Miku Shizuka Ishigami Ikuno Saori Hayami Kokoro Katsuhiko Sugiyama
BeatmapID:2680603
BeatmapSetID:1290873

[Difficulty]
HPDrainRate:3
CircleSize:2
OverallDifficulty:6
ApproachRate:6
SliderMultiplier:1.25
SliderTickRate:1

[Events]
//Background and Video events
0,0,"78578.jpg",0,0
//Break Periods
//Storyboard Layer 0 (Background)
//Storyboard Layer 1 (Fail)
//Storyboard Layer 2 (Pass)
//Storyboard Layer 3 (Foreground)
//Storyboard Layer 4 (Overlay)
//Storyboard Sound Samples

[TimingPoints]
380,291.26213592233,3,2,0,40,1,0
5622,-100,3,2,0,60,0,0
7370,-100,3,2,0,70,0,0
14360,-100,3,2,0,60,0,0
28341,-100,3,2,0,50,0,0
35331,-100,3,2,0,60,0,0
38826,-100,3,2,0,70,0,0
44069,-100,3,2,0,80,0,1
58049,-100,3,2,0,70,0,0

[Colours]
Combo1 : 255,172,89
Combo2 : 128,128,255
Combo3 : 198,0,0

[HitObjects]
144,280,381,6,0,P|60:260|152:212,1,250,2|0,0:0|0:0,0:0:0:0:
256,288,1254,2,0,P|344:272|248:220,1,250,2|0,0:0|0:0,0:0:0:0:
144,176,2128,6,0,L|420:176,1,250,2|0,0:0|0:0,0:0:0:0:
288,100,3002,2,0,L|140:100,2,125,2|2|0,0:0|0:0|0:0,0:0:0:0:
400,96,3876,6,0,P|484:112|392:164,1,250,2|0,0:0|0:0,0:0:0:0:
292,92,4749,2,0,P|208:104|300:160,1,250,2|0,0:0|0:0,0:0:0:0:
440,192,5623,6,0,L|176:192,1,250,0|4,1:0|3:0,0:0:0:0:
40,84,6497,2,0,L|304:84,1,250,0|4,1:0|3:0,0:0:0:0:
184,192,7371,6,0,L|40:192,2,125,4|4|4,1:0|3:0|3:0,0:0:0:0:
296,104,8245,2,0,L|432:104,2,125,0|4|4,1:0|3:0|3:0,0:0:0:0:
188,104,9118,6,0,L|188:232,1,125,0|4,1:0|3:0,0:0:0:0:
296,232,9701,1,4,3:0:0:0:
408,232,9992,2,0,L|408:96,1,125,0|4,1:0|3:0,0:0:0:0:
300,112,10575,1,4,3:0:0:0:
192,112,10866,5,0,1:0:0:0:
300,112,11157,1,4,3:0:0:0:
408,112,11448,1,4,3:0:0:0:
300,212,11740,2,0,L|172:212,2,125,0|4|4,1:0|3:0|3:0,0:0:0:0:
408,212,12614,6,0,L|408:356,1,125,0|4,1:0|3:0,0:0:0:0:
300,344,13196,1,4,3:0:0:0:
188,344,13487,2,0,L|40:344,2,125,0|8|4,1:0|3:0|3:0,0:0:0:0:
340,352,14361,6,0,P|468:304|456:188,1,250,4|4,0:1|3:0,0:0:0:0:
360,208,15235,1,0,1:0:0:0:
252,208,15526,2,0,L|108:208,1,125,4|4,3:0|3:0,0:0:0:0:
4,88,16109,6,0,L|280:88,1,250,0|4,1:0|3:0,0:0:0:0:
144,192,16982,1,0,1:0:0:0:
36,192,17274,2,0,L|36:56,1,125,4|4,3:0|3:0,0:0:0:0:
144,68,17856,6,0,L|404:68,1,250,0|4,1:0|3:0,0:0:0:0:
288,148,18730,1,0,1:0:0:0:
180,176,19021,1,4,3:0:0:0:
72,152,19313,1,4,3:0:0:0:
180,148,19604,6,0,L|456:148,1,250,0|4,1:0|3:0,0:0:0:0:
320,80,20478,2,0,L|192:80,2,125,0|4|4,1:0|3:0|3:0,0:0:0:0:
452,168,21351,6,0,L|176:168,1,250,0|4,1:0|3:0,0:0:0:0:
72,168,22225,1,0,1:0:0:0:
180,168,22516,1,4,3:0:0:0:
288,168,22808,1,4,3:0:0:0:
396,168,23099,6,0,P|468:284|396:324,1,250,0|4,1:0|3:0,0:0:0:0:
272,328,23973,2,0,L|128:328,2,125,0|4|4,1:0|3:0|3:0,0:0:0:0:
376,328,24847,6,0,P|456:248|368:236,1,250,0|4,1:0|3:0,0:0:0:0:
240,232,25720,1,0,1:0:0:0:
132,232,26012,2,0,L|132:96,1,125,4|4,3:0|3:0,0:0:0:0:
240,112,26594,6,0,L|384:112,2,125,0|4|4,1:0|3:0|3:0,0:0:0:0:
112,192,27468,2,0,L|112:324,1,125,4|0,3:0|1:0,0:0:0:0:
376,248,28342,6,0,P|460:220|364:160,1,250,4|4,3:0|3:0,0:0:0:0:
244,192,29215,2,0,P|156:160|256:104,1,250,4|4,3:0|3:0,0:0:0:0:
372,96,30089,6,0,P|456:164|364:184,1,250,4|4,3:0|3:0,0:0:0:0:
224,184,30963,2,0,L|76:180,2,125,4|4|4,3:0|3:0|3:0,0:0:0:0:
352,188,31837,6,0,L|500:188,2,125,4|4|4,3:0|3:0|3:0,0:0:0:0:
224,192,32711,2,0,P|136:148|232:88,1,250,4|4,3:0|3:0,0:0:0:0:
360,88,33584,6,0,L|92:88,1,250,4|4,3:0|3:0,0:0:0:0:
236,192,34458,1,0,1:0:0:0:
236,192,34749,1,4,0:1:0:0:
380,252,35332,6,0,P|468:220|368:164,1,250,4|4,3:0|3:0,0:0:0:0:
248,196,36205,2,0,L|-8:196,1,250,4|4,3:0|3:0,0:0:0:0:
148,136,37079,6,0,P|240:196|139:243,1,250,4|4,3:0|3:0,0:0:0:0:
28,240,37953,2,0,L|272:140,1,250,4|4,3:0|3:0,0:0:0:0:
412,232,38827,6,0,P|504:184|412:144,1,250,0|4,1:0|3:0,0:0:0:0:
308,144,39701,2,0,L|160:144,2,125,0|4|4,1:0|3:0|3:0,0:0:0:0:
433,144,40575,6,0,L|183:144,1,250,0|0,1:0|3:0,0:0:0:0:
71,144,41448,1,0,1:0:0:0:
183,144,41739,1,4,3:0:0:0:
295,144,42031,1,4,3:0:0:0:
416,144,42321,6,0,P|472:208|408:208,1,187.5,0|0,1:0|1:0,0:0:0:0:
228,216,43196,2,0,L|24:216,1,187.5,0|0,1:0|1:0,0:0:0:0:
184,172,44070,6,0,L|328:172,2,125,4|4|4,1:0|3:0|3:0,0:0:0:0:
59,172,44944,2,0,L|331:172,1,250,0|4,1:0|3:0,0:0:0:0:
456,172,45817,5,0,1:0:0:0:
332,172,46109,2,0,L|332:40,1,125,4|4,3:0|3:0,0:0:0:0:
200,76,46691,1,0,1:0:0:0:
92,76,46982,1,4,3:0:0:0:
200,76,47274,1,12,3:0:0:0:
328,76,47565,6,0,P|420:112|324:152,1,250,0|4,1:0|3:0,0:0:0:0:
188,152,48439,2,0,P|112:236|192:332,1,250,0|4,1:0|3:0,0:0:0:0:
280,280,49313,5,0,1:0:0:0:
392,284,49603,1,4,3:0:0:0:
272,280,49894,1,4,3:0:0:0:
160,280,50185,1,0,1:0:0:0:
272,280,50477,1,4,3:0:0:0:
160,280,50768,1,4,3:0:0:0:
296,280,51059,6,0,L|428:280,2,125,4|4|4,1:0|3:0|3:0,0:0:0:0:
160,280,51934,2,0,P|72:232|168:172,1,250,0|4,1:0|3:0,0:0:0:0:
268,232,52808,6,0,L|132:232,2,125,0|4|4,1:0|3:0|3:0,0:0:0:0:
404,104,53681,1,0,1:0:0:0:
292,104,53972,1,4,3:0:0:0:
404,104,54264,1,4,3:0:0:0:
280,92,54554,6,0,P|188:128|284:168,1,250,0|4,1:0|3:0,0:0:0:0:
420,168,55428,2,0,P|496:252|416:348,1,250,0|4,1:0|3:0,0:0:0:0:
280,344,56302,5,0,1:0:0:0:
176,344,56593,1,4,3:0:0:0:
76,344,56884,1,4,3:0:0:0:
176,344,57176,1,0,1:0:0:0:
76,344,57467,1,4,3:0:0:0:
176,344,57758,1,4,3:0:0:0:
324,232,58050,6,0,P|408:216|316:152,1,250,0|4,1:0|3:0,0:0:0:0:
184,184,58924,2,0,P|104:168|192:104,1,250,0|4,1:0|3:0,0:0:0:0:
296,156,59798,6,0,L|436:156,2,125,0|4|4,1:0|3:0|3:0,0:0:0:0:
156,136,60672,2,0,L|424:136,1,250,0|4,1:0|3:0,0:0:0:0:
272,156,61546,6,0,P|184:228|284:252,1,250,0|4,1:0|3:0,0:0:0:0:
400,264,62419,2,0,P|492:192|388:168,1,250,0|4,1:0|3:0,0:0:0:0:
288,204,63293,6,0,L|140:204,2,125,0|4|4,1:0|3:0|3:0,0:0:0:0:
424,112,64167,2,0,L|280:112,1,125,0|4,1:0|3:0,0:0:0:0:
228,124,65041,6,0,P|148:172|248:264,1,250,0|4,1:0|3:0,0:0:0:0:
356,272,65914,1,0,1:0:0:0:
484,272,66206,2,0,L|480:144,1,125,4|0,3:0|1:0,0:0:0:0:
344,128,66788,6,0,L|64:128,1,250,0|4,1:0|3:0,0:0:0:0:
188,216,67662,2,0,L|316:216,2,125,0|4|4,1:0|3:0|3:0,0:0:0:0:
56,304,68536,6,0,L|316:304,1,250,0|4,1:0|3:0,0:0:0:0:
188,224,69410,2,0,L|44:224,2,125,0|4|4,1:0|3:0|3:0,0:0:0:0:
344,248,70283,6,0,P|432:208|336:160,1,250,0|4,1:0|3:0,0:0:0:0:
200,200,71157,2,0,L|56:200,1,125,0|0,1:0|1:0,0:0:0:0:
236,200,72031,6,0,L|508:200,1,250,0|4,1:0|3:0,0:0:0:0:
360,148,72905,1,0,1:0:0:0:
256,148,73196,1,4,3:0:0:0:
144,148,73487,1,4,3:0:0:0:
284,148,73779,6,0,P|372:212|268:268,1,250,0|0,1:0|1:0,0:0:0:0:
172,272,74652,2,0,L|68:176,2,125,4|4|4,3:0|3:0|3:0,0:0:0:0:
320,192,75526,6,0,L|456:192,2,125,4|4|4,1:0|3:0|3:0,0:0:0:0:
180,104,76400,2,0,L|44:104,2,125,0|4|4,1:0|3:0|3:0,0:0:0:0:
292,104,77273,6,0,L|292:248,1,125,0|4,1:0|3:0,0:0:0:0:
180,244,77856,1,4,3:0:0:0:
40,236,78147,2,0,L|40:88,1,125,0|4,1:0|3:0,0:0:0:0:
152,104,78730,1,4,3:0:0:0:
264,104,79021,5,0,1:0:0:0:
152,104,79312,1,4,3:0:0:0:
40,100,79603,1,4,3:0:0:0:
180,216,79895,2,0,L|316:216,2,125,0|4|0,1:0|3:0|1:0,0:0:0:0:
68,235,80769,6,0,L|68:360,1,125,0|4,1:0|3:0,0:0:0:0:
180,360,81351,1,4,3:0:0:0:
320,360,81642,2,0,L|445:360,2,125,0|8|4,1:0|3:0|3:0,0:0:0:0:
160,360,82516,5,4,1:0:0:0:
256,192,82807,12,0,85355,0:0:0:0:
