osu file format v14

[General]
AudioFilename: audio.mp3
AudioLeadIn: 0
PreviewTime: 43902
Countdown: 0
SampleSet: Soft
StackLeniency: 0.2
Mode: 0
LetterboxInBreaks: 0
EpilepsyWarning: 1
WidescreenStoryboard: 1

[Editor]
DistanceSpacing: 1
BeatDivisor: 2
GridSize: 4
TimelineZoom: 2.919999

[Metadata]
Title:escape (TV Size)
TitleUnicode:escape (TV Size)
Artist:XX:me
ArtistUnicode:XX:me
Creator:Half
Version:Rieri's Great Escape
Source:ダーリン・イン・ザ・フランキス
Tags:Rieri Agatsu Rolniczy Uta fluffy hair darling in the franxx ed ending 02 zero two
BeatmapID:1865366
BeatmapSetID:805539

[Difficulty]
HPDrainRate:6.5
CircleSize:4.2
OverallDifficulty:8.8
ApproachRate:9.3
SliderMultiplier:1.9
SliderTickRate:1

[Events]
//Background and Video events
0,0,"BG.png",0,0
//Break Periods
//Storyboard Layer 0 (Background)
//Storyboard Layer 1 (Fail)
//Storyboard Layer 2 (Pass)
//Storyboard Layer 3 (Foreground)
//Storyboard Sound Samples

[TimingPoints]
286,291.26213592233,6,2,7,40,1,0
286,-125,3,2,7,40,0,0
7276,-100,3,2,7,60,0,0
8150,-111.111111111111,3,2,7,60,0,0
9023,-125,3,2,7,60,0,0
9897,-142.857142857143,3,2,7,60,0,0
10771,-100,3,2,7,60,0,0
11645,-111.111111111111,3,2,7,60,0,0
12519,-125,3,2,7,60,0,0
14266,-166.666666666667,3,2,7,60,0,0
39606,-125,3,2,7,60,0,0
40480,-100,3,2,7,60,0,0
43975,-100,3,2,7,80,0,1
45722,-83.3333333333333,3,2,7,80,0,1
46887,-90.9090909090909,3,2,7,80,0,1
47179,-100,3,2,7,80,0,1
48344,-83.3333333333333,3,2,7,80,0,1
48926,-100,3,2,7,80,0,1
50892,-100,3,2,7,80,0,0
50965,-100,3,2,7,80,0,1
52713,-83.3333333333333,3,2,7,80,0,1
53586,-90.9090909090909,3,2,7,80,0,1
54169,-100,3,2,7,80,0,1
55334,-83.3333333333333,3,2,7,80,0,1
55917,-100,3,2,7,80,0,1
57955,-111.111111111111,3,2,7,60,0,0
62324,-90.9090909090908,3,2,7,60,0,0
63198,-76.9230769230769,3,2,7,60,0,0
64654,-111.111111111111,3,2,7,60,0,0
68441,-100,3,2,7,60,0,0
71936,-111.111111111111,3,2,7,60,0,0
75431,-100,3,2,7,80,0,0
76305,-111.111111111111,3,2,7,80,0,0
77179,-125,3,2,7,80,0,0
78052,-142.857142857143,3,2,7,80,0,0
78926,-100,3,2,7,80,0,0
79800,-111.111111111111,3,2,7,80,0,0
80674,-125,3,2,7,80,0,0
82421,375,6,2,1,70,1,0
85233,-125,3,2,7,5,0,0

[Colours]
Combo1 : 255,204,204
Combo2 : 179,102,102
Combo3 : 255,64,64
Combo4 : 85,85,85

[HitObjects]
256,384,286,5,2,0:0:0:0:
274,309,431,1,0,0:0:0:0:
227,248,577,1,2,0:3:0:0:
153,262,722,1,0,0:0:0:0:
81,232,868,2,0,P|50:199|39:150,1,76,2|0,0:3|0:0,0:0:0:0:
256,384,1159,5,2,0:0:0:0:
238,308,1305,1,0,0:0:0:0:
287,249,1451,1,2,0:3:0:0:
361,264,1596,1,0,0:0:0:0:
433,239,1742,2,0,P|464:207|477:159,1,76,2|0,0:3|0:0,0:0:0:0:
256,384,2033,5,2,0:0:0:0:
274,309,2179,1,0,0:0:0:0:
250,236,2324,1,2,0:3:0:0:
205,174,2470,1,0,0:0:0:0:
143,129,2616,2,0,P|132:85|144:45,1,76,2|0,0:3|0:0,0:0:0:0:
256,384,2907,5,2,0:0:0:0:
238,309,3052,1,0,0:0:0:0:
262,236,3198,1,2,0:3:0:0:
307,174,3344,1,0,0:0:0:0:
369,129,3489,2,0,P|379:85|367:45,1,76,2|0,0:3|0:0,0:0:0:0:
256,384,3781,5,2,0:0:0:0:
181,368,3926,1,0,0:0:0:0:
146,300,4072,1,2,0:3:0:0:
167,227,4218,1,0,0:0:0:0:
156,151,4363,2,0,P|123:127|74:122,1,76,2|0,0:3|0:0,0:0:0:0:
256,384,4654,5,2,0:0:0:0:
331,368,4800,1,0,0:0:0:0:
366,300,4946,1,2,0:3:0:0:
345,227,5091,1,0,0:0:0:0:
356,151,5237,2,0,P|389:127|438:122,1,76,2|0,0:3|0:0,0:0:0:0:
507,342,5528,5,8,0:0:0:0:
251,270,5674,1,8,0:3:0:0:
251,270,5965,1,8,0:3:0:0:
480,222,6111,1,8,0:3:0:0:
480,222,6256,1,8,0:3:0:0:
256,256,6402,5,8,0:0:0:0:
444,136,6548,1,8,0:3:0:0:
260,244,6693,5,8,0:3:0:0:
344,112,6839,1,8,0:3:0:0:
264,232,6985,5,8,0:3:0:0:
248,136,7130,1,8,0:3:0:0:
12,264,7276,6,0,P|44:292|124:276,1,95,4|0,0:0|0:0,0:0:0:0:
185,378,7567,2,8,P|225:364|251:287,1,95,2|8,0:0|0:1,0:0:0:0:
369,285,7858,2,8,P|376:243|323:182,1,95,2|0,0:0|0:0,0:0:0:0:
108,80,8150,6,0,P|148:56|196:60,1,85.4999973907472,8|0,0:0|0:0,0:0:0:0:
287,12,8441,2,0,P|327:34|348:78,1,85.4999973907472,2|0,0:0|0:0,0:0:0:0:
435,133,8732,2,0,P|435:178|408:218,1,85.4999973907472,2|0,0:0|0:0,0:0:0:0:
164,134,9023,6,0,P|204:153|220:192,1,76,8|0,0:1|0:0,0:0:0:0:
317,195,9315,2,0,P|320:239|294:272,1,76,2|8,0:0|0:1,0:0:0:0:
340,358,9606,2,0,P|303:382|261:376,1,76,2|0,0:0|0:0,0:0:0:0:
136,221,9897,6,0,P|134:271|157:305,1,66.4999979705811,8|0,0:0|0:0,0:0:0:0:
211,332,10188,2,0,P|168:305|127:308,1,66.4999979705811,2|0,0:0|0:0,0:0:0:0:
82,346,10480,2,0,P|126:322|144:285,1,66.4999979705811,2|8,0:0|0:1,0:0:0:0:
39,88,10771,6,0,P|81:57|139:68,1,95,8|0,0:1|0:0,0:0:0:0:
242,24,11062,2,0,P|289:44|309:100,1,95,2|8,0:0|0:1,0:0:0:0:
398,167,11353,2,0,P|404:217|365:263,1,95,2|0,0:0|0:0,0:0:0:0:
111,332,11645,6,0,P|154:349|208:331,1,85.4999973907472,8|0,0:0|0:0,0:0:0:0:
297,379,11936,2,0,P|333:350|344:294,1,85.4999973907472,2|0,0:0|0:0,0:0:0:0:
430,241,12227,2,0,P|422:195|379:157,1,85.4999973907472,2|0,0:0|0:0,0:0:0:0:
160,270,12519,6,0,P|208:242|217:204,1,76,8|0,0:1|0:0,0:0:0:0:
310,199,12810,2,0,P|311:142|282:116,1,76,2|8,0:0|0:1,0:0:0:0:
323,32,13101,2,0,P|274:2|237:13,1,76,2|0,0:0|0:0,0:0:0:0:
44,33,13392,5,8,0:0:0:0:
199,83,13538,1,8,0:0:0:0:
60,119,13684,1,2,0:0:0:0:
157,154,13829,1,8,0:1:0:0:
79,205,13975,1,2,0:0:0:0:
108,222,14120,1,8,0:1:0:0:
4,360,14266,6,0,P|40:314|160:384,1,227.999993041992,4|2,0:0|0:0,0:0:0:0:
248,228,15140,2,0,L|235:358,2,113.999996520996,8|0|2,0:0|0:0|0:0,0:0:0:0:
365,139,16014,6,0,P|408:207|496:176,1,170.999994781494,8|8,0:1|0:1,0:0:0:0:
486,189,16596,1,2,0:0:0:0:
276,85,16887,2,8,L|285:206,2,113.999996520996,0|0|2,0:0|0:0|0:0,0:0:0:0:
60,58,17761,6,8,P|100:30|178:115,1,170.999994781494,8|8,0:1|0:1,0:1:0:0:
181,96,18344,1,2,0:0:0:0:
32,275,18635,1,8,0:0:0:0:
47,190,18926,1,0,0:0:0:0:
113,245,19218,1,2,0:0:0:0:
333,190,19509,6,0,P|274:135|204:199,1,170.999994781494,8|8,0:1|0:1,0:0:0:0:
208,177,20091,1,2,0:0:0:0:
338,283,20383,2,0,L|458:275,2,113.999996520996,8|0|2,0:0|0:0|0:0,0:0:0:0:
44,340,21256,6,0,L|290:362,1,227.999993041992,4|2,0:0|0:0,0:0:0:0:
464,248,22130,2,0,P|382:212|348:324,1,227.999993041992,8|2,0:0|0:0,0:0:0:0:
152,177,23004,6,0,P|195:242|269:215,1,170.999994781494,8|8,0:1|0:1,0:0:0:0:
271,215,23586,1,2,0:0:0:0:
168,96,23878,2,0,L|43:103,2,113.999996520996,8|0|2,0:0|0:0|0:0,0:0:0:0:
385,47,24752,6,0,P|315:20|258:97,1,170.999994781494,8|8,0:1|0:1,0:0:0:0:
257,83,25334,1,2,0:0:0:0:
488,183,25625,1,8,0:0:0:0:
454,102,25917,1,0,0:0:0:0:
402,173,26208,1,2,0:0:0:0:
459,359,26499,5,8,0:0:0:0:
214,332,26645,1,8,0:0:0:0:
224,323,26936,5,8,0:3:0:0:
436,252,27082,1,8,0:3:0:0:
286,92,27373,5,8,0:0:0:0:
332,328,27519,1,8,0:0:0:0:
195,146,27664,1,8,0:3:0:0:
224,323,27810,1,8,0:3:0:0:
104,196,27955,1,8,0:1:0:0:
118,309,28101,1,8,0:1:0:0:
24,72,28247,5,4,0:0:0:0:
200,11,28538,2,0,P|216:51|216:83,1,56.9999982604981,0|8,0:0|0:1,0:0:0:0:
195,146,28829,1,0,0:1:0:0:
24,72,29120,6,8,P|80:84|120:144,1,113.999996520996,8|8,0:0|0:3,0:3:0:0:
128,212,29557,1,8,0:3:0:0:
128,212,29703,1,8,0:3:0:0:
12,352,29994,6,8,L|144:348,1,113.999996520996,8|0,0:1|0:0,0:3:0:0:
216,304,30431,1,8,0:3:0:0:
216,304,30577,2,8,P|252:328|280:332,1,56.9999982604981,8|8,0:3|0:3,0:3:0:0:
496,270,30868,5,8,0:0:0:0:
362,384,31159,1,8,0:1:0:0:
373,297,31305,1,8,0:1:0:0:
384,211,31451,1,8,0:1:0:0:
488,72,31742,5,0,0:0:0:0:
313,18,32033,2,0,P|297:58|297:90,1,56.9999982604981,0|8,0:0|0:1,0:0:0:0:
316,156,32324,1,8,0:1:0:0:
488,72,32616,6,0,P|432:84|392:144,1,113.999996520996,8|8,0:0|0:3,0:0:0:0:
384,212,33052,1,8,0:3:0:0:
384,212,33198,1,8,0:3:0:0:
484,364,33489,6,8,P|440:328|368:348,1,113.999996520996,8|8,0:3|0:3,0:3:0:0:
256,376,33926,1,8,0:3:0:0:
256,376,34072,2,8,P|292:360|308:332,1,56.9999982604981,8|8,0:3|0:3,0:3:0:0:
8,324,34363,5,8,0:0:0:0:
360,196,34654,1,4,0:0:0:0:
168,232,34946,1,8,0:1:0:0:
168,232,35091,1,8,0:1:0:0:
0,41,35237,5,4,0:0:0:0:
194,150,35528,2,0,L|274:146,1,56.9999982604981,0|8,0:0|0:1,0:0:0:0:
342,142,35819,1,0,0:0:0:0:
147,72,36111,6,0,P|111:112|115:192,1,113.999996520996,8|8,0:0|0:3,0:0:0:0:
168,232,36548,1,8,0:3:0:0:
168,232,36693,1,8,0:3:0:0:
416,76,36985,5,4,0:0:0:0:
508,220,37276,2,0,L|424:214,1,56.9999982604981,0|8,0:0|0:1,0:0:0:0:
372,208,37567,1,0,0:0:0:0:
204,320,37858,6,0,P|238:365|307:357,1,113.999996520996,8|8,0:0|0:3,0:0:0:0:
368,331,38295,1,8,0:3:0:0:
368,331,38441,1,8,0:3:0:0:
445,40,38732,6,0,P|386:45|294:116,1,170.999994781494,4|8,0:0|0:3,0:0:0:0:
256,192,39315,1,8,0:3:0:0:
0,80,39606,6,0,P|41:74|96:94,1,76,4|0,0:0|0:0,0:0:0:0:
156,76,39897,2,8,P|194:91|232:136,1,76,8|8,0:3|0:3,0:3:0:0:
256,192,40188,1,8,0:3:0:0:
496,176,40480,6,0,P|380:156|368:308,1,285,4|8,0:0|0:3,0:0:0:0:
425,235,41062,1,8,0:3:0:0:
425,235,41208,1,8,0:3:0:0:
260,302,41353,5,8,0:0:0:0:
262,316,41426,1,8,0:0:0:0:
264,330,41499,1,8,0:0:0:0:
145,152,41645,1,8,0:0:0:0:
52,342,41790,1,8,0:0:0:0:
303,191,41936,1,8,0:0:0:0:
0,221,42082,1,8,0:0:0:0:
250,10,42227,5,4,0:0:0:0:
145,152,42373,1,0,0:0:0:0:
380,72,42519,1,2,0:0:0:0:
155,166,42664,5,8,0:1:0:0:
396,224,42810,1,0,0:0:0:0:
256,308,42955,1,2,0:0:0:0:
118,31,43101,5,4,0:2:0:0:
19,204,43247,1,0,0:0:0:0:
189,371,43392,1,2,0:0:0:0:
135,41,43538,5,4,0:0:0:0:
243,132,43684,1,0,0:0:0:0:
255,237,43829,1,2,0:0:0:0:
41,357,43975,6,0,P|85:335|116:273,1,95,4|0,0:0|0:0,0:0:0:0:
116,143,44266,2,0,P|160:165|191:227,1,95,8|0,0:1|0:0,0:0:0:0:
189,371,44557,2,0,P|233:349|264:287,1,95,10|0,0:1|0:0,0:0:0:0:
309,177,44849,6,0,P|329:219|462:209,1,190,8|8,0:0|0:1,0:0:0:0:
455,217,45285,1,0,0:0:0:0:
224,121,45431,2,0,L|212:236,1,95,2|0,0:0|0:0,0:0:0:0:
282,41,45722,6,0,B|158:-2|180:95|43:44,2,227.999993041992,8|8|10,0:3|0:1|0:1,0:0:0:0:
455,217,46596,2,0,P|411:185|336:197,1,113.999996520996,8|0,0:0|0:0,0:0:0:0:
286,247,46887,1,8,0:1:0:0:
120,135,47033,1,8,0:0:0:0:
51,191,47179,2,0,P|41:231|66:294,1,95,10|0,0:1|0:0,0:0:0:0:
331,357,47470,6,0,B|284:333|278:283|278:283|241:330|190:333,1,190,4|8,0:0|0:1,0:0:0:0:
199,332,47907,1,0,0:0:0:0:
368,271,48052,2,0,P|412:302|462:308,1,95,2|0,0:0|0:0,0:0:0:0:
234,181,48344,6,0,P|378:153|304:26,1,341.999989562989,8|8,0:0|0:1,0:0:0:0:
218,183,48926,2,0,P|210:236|225:289,1,95,2|0,0:0|0:0,0:0:0:0:
306,349,49218,5,8,0:1:0:0:
50,285,49363,1,8,0:0:0:0:
50,285,49509,2,0,L|56:383,1,95,8|0,0:0|0:0,0:0:0:0:
218,183,49800,1,8,0:0:0:0:
174,363,49946,1,8,0:0:0:0:
58,176,50091,5,0,0:0:0:0:
213,197,50237,1,8,0:0:0:0:
68,187,50383,5,0,0:0:0:0:
266,112,50528,1,8,0:0:0:0:
73,203,50674,5,8,0:3:0:0:
236,14,50819,1,8,0:3:0:0:
488,164,50965,6,0,P|446:203|447:267,1,95,4|0,0:0|0:0,0:0:0:0:
401,380,51256,2,0,P|359:341|360:277,1,95,8|0,0:1|0:0,0:0:0:0:
331,153,51548,2,0,P|289:192|290:256,1,95,10|0,0:1|0:0,0:0:0:0:
175,346,51839,6,0,P|157:321|39:387,1,190,8|8,0:0|0:1,0:0:0:0:
38,368,52276,1,0,0:0:0:0:
234,290,52421,2,0,P|206:230|215:167,1,95,2|0,0:0|0:0,0:0:0:0:
254,32,52713,6,0,B|131:83|150:-3|16:52,2,227.999993041992,8|0|10,0:1|0:0|0:1,0:0:0:0:
29,180,53586,2,0,P|80:146|148:166,1,104.500003189087,8|0,0:0|0:0,0:0:0:0:
183,204,53878,1,0,0:0:0:0:
332,27,54023,1,8,0:0:0:0:
398,87,54169,2,8,P|384:144|400:187,1,95,8|8,0:1|0:1,0:1:0:0:
279,332,54460,6,0,B|326:308|332:258|332:258|366:307|420:308,1,190,4|8,0:0|0:1,0:0:0:0:
409,307,54897,1,0,0:0:0:0:
241,248,55043,2,0,P|187:264|150:295,1,95,2|0,0:0|0:0,0:0:0:0:
39,157,55334,6,0,B|121:200|235:172|259:92|235:18|114:25|112:96,1,341.999989562989,8|0,0:0|0:0,0:0:0:0:
26,156,55917,2,0,P|22:215|46:276,1,95,10|0,0:1|0:0,0:0:0:0:
93,340,56208,5,8,0:1:0:0:
284,171,56353,1,8,0:0:0:0:
284,171,56499,2,0,L|274:277,1,95,8|0,0:0|0:0,0:0:0:0:
127,107,56790,1,8,0:0:0:0:
186,320,56936,1,8,0:0:0:0:
376,112,57082,5,8,0:1:0:0:
161,225,57227,1,8,0:0:0:0:
161,225,57300,1,8,0:0:0:0:
161,225,57373,1,8,0:0:0:0:
417,324,57519,1,8,0:0:0:0:
417,324,57591,1,8,0:0:0:0:
417,324,57664,2,0,L|315:317,1,95,8|0,0:0|0:0,0:0:0:0:
50,364,57955,6,0,P|151:363|205:309,1,170.999994781494,4|8,0:0|0:1,0:0:0:0:
199,318,58538,1,10,0:1:0:0:
112,112,58829,2,0,P|75:188|121:281,1,170.999994781494,8|8,0:0|0:1,0:0:0:0:
102,265,59412,1,10,0:1:0:0:
349,184,59703,6,8,B|251:161|270:215|165:189,2,170.999994781494,8|8|10,0:1|0:1|0:1,0:1:0:0:
486,273,60577,2,0,P|496:312|482:372,1,85.4999973907472,8|0,0:0|0:0,0:0:0:0:
303,264,60868,1,8,0:1:0:0:
343,372,61014,1,8,0:0:0:0:
428,147,61159,2,0,P|368:131|315:142,1,85.4999973907472,10|0,0:1|0:0,0:0:0:0:
50,100,61451,5,4,0:0:0:0:
174,134,61596,1,0,0:0:0:0:
279,60,61742,2,0,P|321:40|399:49,1,85.4999973907472,8|0,0:1|0:0,0:0:0:0:
428,147,62033,2,0,P|466:173|497:245,1,85.4999973907472,10|0,0:3|0:0,0:0:0:0:
212,249,62324,6,0,P|309:208|334:217,1,104.500003189087,4|0,0:0|0:0,0:0:0:0:
100,222,62616,2,0,P|87:326|66:343,1,104.500003189087,8|0,0:1|0:0,0:0:0:0:
174,134,62907,2,8,P|89:70|85:44,1,104.500003189087,10|8,0:1|0:1,0:1:0:0:
477,136,63198,5,4,0:0:0:0:
315,30,63344,1,8,0:0:0:0:
174,134,63489,2,0,P|186:206|223:262,1,123.499994346619,8|0,0:0|0:0,0:0:0:0:
482,307,63781,1,10,0:0:0:0:
337,147,63926,1,8,0:0:0:0:
280,371,64072,5,4,0:0:0:0:
409,220,64218,1,8,0:0:0:0:
409,220,64290,1,8,0:0:0:0:
409,220,64363,1,8,0:0:0:0:
170,324,64509,1,8,0:0:0:0:
170,324,64582,1,8,0:0:0:0:
170,324,64654,2,0,P|154:276|157:238,1,85.4999973907472,10|0,0:0|0:0,0:0:0:0:
251,27,64946,6,0,P|183:83|85:46,1,170.999994781494,4|8,0:0|0:1,0:0:0:0:
107,68,65528,1,10,0:1:0:0:
61,301,65819,2,0,B|34:208|95:226|53:122,2,170.999994781494,8|8|10,0:0|0:1|0:1,0:0:0:0:
330,348,66693,5,8,0:1:0:0:
172,259,66839,1,8,0:0:0:0:
330,174,66985,2,0,P|345:218|331:276,1,85.4999973907472,8|0,0:0|0:0,0:0:0:0:
224,96,67276,1,10,0:0:0:0:
224,96,67421,1,0,0:0:0:0:
424,4,67567,5,8,0:1:0:0:
330,174,67713,1,8,0:3:0:0:
486,88,67858,5,8,0:1:0:0:
337,182,68004,1,8,0:3:0:0:
486,198,68150,5,10,0:1:0:0:
342,193,68295,1,8,0:3:0:0:
497,372,68441,6,0,P|463:328|409:324,1,95,4|0,0:0|0:0,0:0:0:0:
342,193,68732,2,0,P|286:200|256:245,1,95,8|0,0:1|0:0,0:0:0:0:
106,261,69023,1,8,0:1:0:0:
146,384,69169,1,0,0:0:0:0:
160,198,69315,6,0,P|103:180|58:191,1,95,4|0,0:0|0:0,0:0:0:0:
261,227,69606,2,0,P|273:285|305:318,1,95,8|0,0:3|0:0,0:0:0:0:
238,123,69897,2,0,P|282:82|295:38,1,95,8|0,0:3|0:0,0:0:0:0:
33,34,70188,5,4,0:0:0:0:
24,251,70334,1,8,0:0:0:0:
148,112,70480,2,0,P|91:109|44:131,1,95,8|0,0:0|0:0,0:0:0:0:
215,235,70771,1,8,0:0:0:0:
152,25,70917,1,8,0:0:0:0:
153,310,71062,6,0,L|37:329,1,95,4|0,0:0|0:0,0:0:0:0:
215,235,71353,1,4,0:0:0:0:
287,377,71499,1,8,0:0:0:0:
287,377,71572,1,8,0:0:0:0:
287,377,71645,1,8,0:0:0:0:
373,283,71790,1,8,0:1:0:0:
117,112,71936,6,0,P|174:154|270:95,1,170.999994781494,4|0,0:0|0:1,0:0:0:0:
259,118,72519,2,0,P|253:176|259:221,1,85.4999973907472,10|0,0:3|0:0,0:0:0:0:
405,350,72810,2,0,B|310:328|332:387|209:352,2,170.999994781494,8|8|10,0:0|0:1|0:1,0:0:0:0:
496,222,73684,5,4,0:0:0:0:
278,277,73829,1,8,0:0:0:0:
384,117,73975,2,0,P|401:173|390:228,1,85.4999973907472,8|0,0:0|0:0,0:0:0:0:
265,50,74266,1,10,0:0:0:0:
499,99,74412,1,8,0:0:0:0:
241,183,74557,5,4,0:0:0:0:
406,22,74703,1,8,0:0:0:0:
406,22,74776,1,8,0:0:0:0:
406,22,74849,1,8,0:0:0:0:
152,72,74994,1,8,0:0:0:0:
384,117,75140,1,10,0:3:0:0:
241,183,75285,1,8,0:3:0:0:
512,270,75431,6,0,P|480:298|400:282,1,95,4|0,0:0|0:0,0:0:0:0:
339,384,75722,2,8,P|299:370|273:293,1,95,8|0,0:1|0:0,0:0:0:0:
153,291,76014,2,8,P|145:249|198:188,1,95,2|0,0:0|0:0,0:0:0:0:
379,72,76305,6,0,P|339:48|291:52,1,85.4999973907472,4|0,0:0|0:0,0:0:0:0:
201,4,76596,2,0,P|161:26|140:70,1,85.4999973907472,8|0,0:1|0:0,0:0:0:0:
53,124,76887,2,0,P|52:169|79:209,1,85.4999973907472,2|0,0:0|0:0,0:0:0:0:
348,134,77179,6,0,P|308:153|292:192,1,76,4|0,0:0|0:0,0:0:0:0:
195,195,77470,2,0,P|192:239|218:272,1,76,8|0,0:1|0:0,0:0:0:0:
171,358,77761,2,0,P|207:382|249:376,1,76,2|0,0:0|0:0,0:0:0:0:
376,221,78052,6,0,P|378:271|355:305,1,66.4999979705811,4|0,0:0|0:0,0:0:0:0:
304,333,78344,1,8,0:1:0:0:
499,252,78489,1,8,0:0:0:0:
324,145,78635,1,8,0:3:0:0:
252,233,78781,1,8,0:3:0:0:
473,133,78926,6,0,P|444:89|385:80,1,95,4|0,0:0|0:0,0:0:0:0:
304,3,79218,2,0,P|252:5|215:51,1,95,8|0,0:1|0:0,0:0:0:0:
107,84,79509,2,0,P|83:129|104:185,1,95,2|0,0:0|0:0,0:0:0:0:
381,336,79800,6,0,P|338:353|284:335,1,85.4999973907472,4|0,0:0|0:0,0:0:0:0:
195,383,80091,2,0,P|159:354|148:298,1,85.4999973907472,8|0,0:1|0:0,0:0:0:0:
61,245,80383,2,0,P|68:199|111:161,1,85.4999973907472,2|0,0:0|0:0,0:0:0:0:
276,240,80674,5,4,0:0:0:0:
201,43,80819,1,8,0:0:0:0:
289,232,80965,5,8,0:0:0:0:
302,79,81111,1,8,0:1:0:0:
305,230,81256,5,8,0:0:0:0:
412,62,81402,1,8,0:0:0:0:
178,155,81548,5,8,0:1:0:0:
435,179,81693,1,8,0:0:0:0:
435,179,81766,1,8,0:0:0:0:
435,179,81839,1,8,0:0:0:0:
220,289,81985,1,8,0:0:0:0:
220,289,82057,1,8,0:0:0:0:
220,289,82130,1,8,0:0:0:0:
370,303,82276,1,8,0:3:0:0:
305,65,82421,5,4,0:0:0:0:
256,192,82514,12,2,85233,0:0:0:0:
