osu file format v14

[General]
AudioFilename: audio.mp3
AudioLeadIn: 0
PreviewTime: 43902
Countdown: 0
SampleSet: Soft
StackLeniency: 0.7
Mode: 0
LetterboxInBreaks: 0
EpilepsyWarning: 1
WidescreenStoryboard: 1

[Editor]
DistanceSpacing: 1
BeatDivisor: 4
GridSize: 32
TimelineZoom: 2.919999

[Metadata]
Title:escape (TV Size)
TitleUnicode:escape (TV Size)
Artist:XX:me
ArtistUnicode:XX:me
Creator:Half
Version:Normal
Source:ダーリン・イン・ザ・フランキス
Tags:Rieri Agatsu Rolniczy Uta fluffy hair darling in the franxx ed ending 02 zero two
BeatmapID:1803611
BeatmapSetID:805539

[Difficulty]
HPDrainRate:4
CircleSize:3
OverallDifficulty:4
ApproachRate:5
SliderMultiplier:1
SliderTickRate:1

[Events]
//Background and Video events
0,0,"BG.png",0,0
//Break Periods
//Storyboard Layer 0 (Background)
//Storyboard Layer 1 (Fail)
//Storyboard Layer 2 (Pass)
//Storyboard Layer 3 (Foreground)
//Storyboard Sound Samples

[TimingPoints]
286,291.26213592233,6,2,1,60,1,0
43975,-100,6,2,1,60,0,1
57955,-100,6,2,1,60,0,0
82421,375,6,2,1,60,1,0

[Colours]
Combo1 : 255,204,204
Combo2 : 179,102,102
Combo3 : 255,64,64
Combo4 : 85,85,85

[HitObjects]
115,278,5528,6,0,L|269:261,1,150,10|0,0:0|0:0,0:0:0:0:
314,255,6111,1,0,1:0:0:0:
367,170,6402,2,0,P|410:146|462:146,2,100,10|0|2,0:0|1:0|1:2,0:0:0:0:
284,112,7276,6,0,L|174:92,2,100,6|2|2,1:2|0:0|1:2,0:0:0:0:
225,193,8150,2,0,L|115:173,2,100,10|2|2,0:0|0:0|1:2,0:0:0:0:
169,276,9023,2,0,L|59:256,2,100,2|2|2,1:2|0:0|1:2,0:0:0:0:
231,354,9897,2,0,L|329:371,1,100,10|2,0:0|0:0,0:0:0:0:
415,319,10480,1,2,0:0:0:0:
367,231,10771,6,0,L|393:130,2,100,2|2|2,1:2|0:0|0:0,0:0:0:0:
286,170,11645,2,0,L|312:69,2,100,10|2|2,0:0|0:0|1:2,0:0:0:0:
202,115,12519,2,0,L|228:14,2,100,2|2|2,1:2|0:0|0:0,0:0:0:0:
106,144,13392,1,10,0:2:0:0:
10,173,13684,1,2,1:2:0:0:
78,246,13975,1,2,1:2:0:0:
150,315,14266,6,0,B|246:349|246:272|343:312,1,200,6|2,1:2|1:2,0:0:0:0:
430,361,15140,1,10,0:0:0:0:
430,261,15431,2,0,L|430:147,1,100,0|0,0:0|1:0,0:0:0:0:
511,102,16014,2,0,P|422:59|342:108,1,200,2|2,1:2|1:2,0:0:0:0:
291,194,16887,1,10,0:0:0:0:
237,108,17179,2,0,P|209:68|163:47,1,100,0|0,0:0|0:0,0:0:0:0:
75,0,17761,6,0,B|35:75|74:97|108:118|74:189,1,200,2|2,1:2|0:0,0:0:0:0:
9,266,18635,1,10,0:0:0:0:
51,356,18926,1,2,0:0:0:0:
140,311,19218,1,2,1:2:0:0:
221,369,19509,2,0,B|296:409|317:370|339:336|410:370,1,200,2|2,1:2|1:2,0:0:0:0:
502,329,20383,1,10,0:0:0:0:
457,239,20674,1,0,0:0:0:0:
510,154,20965,1,0,0:0:0:0:
457,70,21256,6,0,B|395:42|395:42|258:74,1,200,6|2,1:2|1:2,0:0:0:0:
176,27,22130,2,0,B|138:122|220:122|175:221,1,200,10|2,0:0|1:2,0:0:0:0:
237,296,23004,2,0,P|141:318|85:293,1,150,2|0,1:2|0:0,0:0:0:0:
52,275,23586,1,2,1:2:0:0:
35,176,23878,2,0,L|18:63,2,100,10|0|0,0:0|0:0|1:0,0:0:0:0:
113,114,24752,6,0,P|200:72|293:106,1,200,2|2,1:2|0:0,0:0:0:0:
344,190,25625,1,10,0:0:0:0:
322,287,25917,1,2,0:0:0:0:
228,320,26208,1,2,1:2:0:0:
139,272,26499,2,0,P|94:289|42:284,2,100,10|2|2,0:0|0:0|1:2,0:0:0:0:
81,189,27373,2,0,L|65:69,2,100,2|6|0,0:0|1:1|1:0,0:0:0:0:
181,183,28247,5,4,1:2:0:0:
252,113,28538,2,0,P|300:94|350:102,1,100,2|2,0:0|1:2,0:0:0:0:
415,28,29120,2,0,P|446:118|386:193,1,200,10|2,0:0|1:0,0:0:0:0:
319,266,29994,2,0,L|205:275,1,100,2|0,1:2|1:0,0:0:0:0:
119,278,30577,1,2,1:0:0:0:
54,201,30868,2,0,L|41:85,2,100,10|0|0,0:0|1:0|1:0,0:0:0:0:
21,295,31742,6,0,P|89:372|179:357,1,200,0|2,1:0|1:2,0:0:0:0:
222,268,32616,2,0,P|317:257|377:331,1,200,10|2,0:0|1:2,0:0:0:0:
468,288,33489,2,0,L|486:174,1,100,2|0,1:0|1:0,0:0:0:0:
444,96,34072,1,2,1:2:0:0:
365,34,34363,5,10,0:0:0:0:
353,133,34654,1,6,1:1:0:0:
468,288,35237,5,2,1:2:0:0:
391,352,35528,2,0,L|291:361,1,100,2|2,1:2|1:2,0:0:0:0:
200,318,36111,2,0,B|155:260|254:223|207:128,1,200,10|2,0:0|1:2,0:0:0:0:
157,41,36985,1,6,1:0:0:0:
65,82,37276,2,0,L|34:177,1,100,2|2,1:2|1:2,0:0:0:0:
2,271,37858,2,0,B|79:258|94:298|109:344|206:304,1,200,10|2,0:0|1:2,0:0:0:0:
201,208,38732,6,0,B|293:170|293:170|310:69,1,200,6|2,1:2|1:2,0:0:0:0:
394,129,39606,2,0,L|413:19,2,100,14|2|2,0:1|1:2|1:2,0:0:0:0:
452,210,40480,2,0,P|382:277|285:255,1,200,6|2,1:2|1:2,0:0:0:0:
201,208,41353,1,10,0:0:0:0:
102,225,41645,1,8,1:2:0:0:
51,311,41936,1,8,1:2:0:0:
135,364,42227,6,0,L|244:375,1,100,6|2,1:2|0:0,0:0:0:0:
334,382,42810,1,2,0:0:0:0:
414,321,43101,2,0,P|440:282|486:175,1,150,6|2,1:2|0:0,0:0:0:0:
343,250,43975,6,0,P|305:219|257:208,1,100,6|2,1:2|1:0,0:0:0:0:
157,226,44557,1,2,1:0:0:0:
93,303,44849,2,0,P|105:207|47:126,1,200,10|2,0:0|1:0,0:0:0:0:
0,38,45722,2,0,P|89:1|182:36,1,200,2|0,1:0|1:0,0:0:0:0:
258,100,46596,2,0,P|303:107|358:80,1,100,10|2,0:0|1:0,0:0:0:0:
419,12,47179,1,2,1:0:0:0:
442,109,47470,6,0,L|481:318,1,200,6|2,1:2|1:0,0:0:0:0:
387,263,48344,2,0,P|289:263|227:335,1,200,10|2,0:0|1:0,0:0:0:0:
128,356,49218,1,2,1:0:0:0:
40,307,49509,1,8,1:2:0:0:
21,208,49800,1,10,1:2:0:0:
44,111,50091,2,0,L|67:12,2,100,2|8|8,1:0|1:0|1:0,0:0:0:0:
112,184,50965,6,0,P|181:198|218:183,1,100,6|2,1:2|1:0,0:0:0:0:
279,119,51548,1,2,1:0:0:0:
303,22,51839,2,0,P|333:114|428:153,1,200,10|2,0:0|1:0,0:0:0:0:
482,232,52713,2,0,P|383:247|273:241,1,200,2|0,1:0|1:0,0:0:0:0:
220,165,53586,1,10,0:0:0:0:
122,143,53878,1,2,1:0:0:0:
38,197,54169,1,2,1:0:0:0:
28,296,54460,6,0,B|125:328|126:253|226:297,1,200,6|2,1:2|1:0,0:0:0:0:
276,379,55334,2,0,P|319:318|273:213,1,200,10|2,0:0|1:0,0:0:0:0:
174,191,56208,1,0,1:0:0:0:
123,104,56499,1,10,0:0:0:0:
165,13,56790,1,10,0:0:0:0:
264,0,57082,2,0,L|382:16,2,100,2|2|2,1:0|1:0|1:0,0:0:0:0:
225,92,57955,6,0,L|428:120,1,200,6|2,1:2|1:0,0:0:0:0:
423,219,58829,2,0,L|224:191,1,200,10|2,0:0|1:0,0:0:0:0:
125,175,59703,2,0,P|39:220|28:315,1,200,2|2,1:0|1:0,0:0:0:0:
109,373,60577,1,10,0:0:0:0:
205,345,60868,1,0,1:0:0:0:
301,320,61159,1,2,1:0:0:0:
399,299,61451,6,0,L|511:316,2,100,6|2|2,1:2|1:0|1:0,0:0:0:0:
323,233,62324,2,0,L|213:216,2,100,14|2|2,0:1|1:2|1:2,0:0:0:0:
399,168,63198,2,0,L|519:146,2,100,6|10|10,1:2|0:0|0:0,0:0:0:0:
323,102,64072,2,0,L|210:86,1,100,6|2,1:0|1:0,0:0:0:0:
128,126,64654,1,0,1:0:0:0:
51,194,64946,6,0,P|143:224|220:162,1,200,6|0,1:2|1:0,0:0:0:0:
284,90,65819,2,0,P|324:67|377:71,1,100,10|2,0:0|1:2,0:0:0:0:
460,125,66402,1,2,1:2:0:0:
480,224,66693,2,0,L|372:233,1,100,2|8,1:2|0:0,0:0:0:0:
323,314,67276,1,10,0:0:0:0:
259,236,67567,1,2,3:2:0:0:
196,314,67858,1,2,3:2:0:0:
128,239,68150,1,2,3:2:0:0:
59,166,68441,6,0,L|45:59,2,100,6|2|2,1:2|1:0|1:0,0:0:0:0:
140,107,69315,2,0,L|154:0,2,100,14|2|2,0:1|1:2|1:2,0:0:0:0:
218,169,70188,2,0,P|270:170|316:143,1,100,6|0,1:2|1:0,0:0:0:0:
352,56,70771,1,10,0:0:0:0:
437,107,71062,5,6,1:2:0:0:
455,205,71353,1,6,1:1:0:0:
331,315,71936,6,0,P|220:301|154:359,1,200,6|0,1:2|1:0,0:0:0:0:
57,368,72810,1,10,0:0:0:0:
2,284,73101,2,0,L|23:168,1,100,2|2,1:2|1:2,0:0:0:0:
36,86,73684,2,0,B|133:33|133:126|234:81,1,200,6|10,1:2|0:0,0:0:0:0:
315,36,74557,1,6,1:0:0:0:
407,75,74849,2,0,P|431:119|431:169,1,100,2|2,1:2|1:2,0:0:0:0:
411,265,75431,6,0,L|388:375,2,100,6|2|2,1:2|1:0|1:0,0:0:0:0:
311,279,76305,2,0,L|288:389,2,100,14|2|2,0:1|1:0|1:0,0:0:0:0:
211,286,77179,2,0,L|188:396,2,100,6|2|2,1:2|1:0|1:0,0:0:0:0:
143,212,78052,2,0,L|128:108,1,100,14|2,0:1|1:0,0:0:0:0:
180,27,78635,1,2,1:0:0:0:
231,112,78926,6,0,L|350:99,2,100,6|2|2,1:2|1:0|1:0,0:0:0:0:
278,200,79800,2,0,L|397:187,2,100,14|2|2,0:1|1:0|1:0,0:0:0:0:
327,287,80674,2,0,L|446:274,2,100,6|10|10,1:2|0:0|0:0,0:0:0:0:
259,361,81548,2,0,L|159:371,1,100,2|10,1:0|0:0,0:0:0:0:
87,303,82129,1,10,0:0:0:0:
134,213,82421,5,6,1:2:0:0:
256,192,82514,12,0,85233,0:0:0:0:
