osu file format v14

[General]
AudioFilename: audio.mp3
AudioLeadIn: 0
PreviewTime: 300
Countdown: 0
SampleSet: Soft
StackLeniency: 0.7
Mode: 0
LetterboxInBreaks: 0
WidescreenStoryboard: 1

[Editor]
DistanceSpacing: 1.1
BeatDivisor: 4
GridSize: 16
TimelineZoom: 1

[Metadata]
Title:escape (TV Size)
TitleUnicode:escape (TV Size)
Artist:XX:me
ArtistUnicode:XX:me
Creator:Hakura
Version:Extra
Source:ダーリン・イン・ザ・フランキス
Tags:darling in the franxx ed ending icekalt alphabet log off now mir
BeatmapID:1687908
BeatmapSetID:803569

[Difficulty]
HPDrainRate:6
CircleSize:4
OverallDifficulty:8.7
ApproachRate:9.3
SliderMultiplier:3.59999990463257
SliderTickRate:1

[Events]
//Background and Video events
0,0,"Zero.Two.Darling.in.the.FranXX.full.2321459.jpg",0,0
//Break Periods
//Storyboard Layer 0 (Background)
//Storyboard Layer 1 (Fail)
//Storyboard Layer 2 (Pass)
//Storyboard Layer 3 (Foreground)
//Storyboard Sound Samples

[TimingPoints]
300,291.26213592233,6,2,0,45,1,0
300,-266.666666666667,6,2,0,45,0,0
5542,-266.666666666667,6,2,0,55,0,0
7290,-200,6,2,0,60,0,0
14280,-200,6,2,0,65,0,0
28261,-200,6,2,0,55,0,0
42241,-200,6,2,0,65,0,0
43989,-200,6,2,0,75,0,1
57969,-200,6,2,0,65,0,0
63212,-200,6,2,0,65,0,1
64960,-200,6,2,0,65,0,0
66707,-200,6,2,0,65,0,1
68455,-200,6,2,0,65,0,0
70202,-200,6,2,0,65,0,1
71950,-200,6,2,0,65,0,0
73698,-200,6,2,0,65,0,1
75445,-200,6,2,0,60,0,0

[Colours]
Combo1 : 251,130,133
Combo2 : 251,222,164
Combo3 : 245,165,217
Combo4 : 242,166,130

[HitObjects]
137,40,300,6,0,L|69:46,3,67.5000007867814,2|0|0|0,0:0|0:0|0:0|0:0,0:0:0:0:
232,89,882,1,2,0:0:0:0:
232,89,1028,1,2,0:0:0:0:
231,88,1173,6,0,L|298:81,3,67.5000007867814,2|0|0|0,0:0|0:0|0:0|0:0,0:0:0:0:
136,138,1755,1,2,0:0:0:0:
136,138,1901,1,2,0:0:0:0:
136,138,2047,6,0,L|68:144,3,67.5000007867814,2|0|0|0,0:0|0:0|0:0|0:0,0:0:0:0:
231,187,2629,1,2,0:0:0:0:
231,187,2775,1,2,0:0:0:0:
230,186,2921,6,0,L|297:179,3,67.5000007867814,2|0|0|0,0:0|0:0|0:0|0:0,0:0:0:0:
135,236,3502,1,2,0:0:0:0:
135,236,3648,1,2,0:0:0:0:
135,236,3795,6,0,P|137:309|124:331,1,67.5000007867814,2|0,0:0|0:0,0:0:0:0:
225,373,4086,2,0,P|223:300|236:278,3,67.5000007867814,2|0|0|0,0:0|0:0|0:0|0:0,0:0:0:0:
362,323,4668,6,0,P|289:325|267:312,1,67.5000007867814,2|0,0:0|0:0,0:0:0:0:
443,294,4960,2,0,P|447:327|439:360,3,67.5000007867814,2|0|0|0,0:0|0:0|0:0|0:0,0:0:0:0:
377,234,5542,5,8,2:3:0:0:
225,373,5688,1,4,0:3:0:0:
249,116,5979,5,4,0:3:0:0:
313,175,6125,1,4,0:3:0:0:
190,180,6270,1,4,0:3:0:0:
372,111,6416,5,8,0:3:0:0:
254,239,6562,1,8,0:3:0:0:
377,234,6707,1,4,0:3:0:0:
313,175,6853,1,4,0:3:0:0:
318,298,6999,5,4,0:3:0:0:
436,170,7144,1,4,0:3:0:0:
195,303,7290,6,0,P|136:299|73:310,1,89.9999976158143,6|0,1:2|0:0,0:0:0:0:
169,156,7581,2,0,P|115:182|66:223,1,89.9999976158143,2|0,0:0|0:0,0:0:0:0:
72,41,7872,2,0,P|39:90|17:150,1,89.9999976158143,2|0,0:0|0:0,0:0:0:0:
204,310,8164,6,0,P|144:311|83:327,1,89.9999976158143,2|0,1:2|0:0,0:0:0:0:
180,157,8455,2,0,P|129:187|84:232,1,89.9999976158143,2|0,0:0|0:0,0:0:0:0:
82,36,8746,2,0,P|53:87|36:149,1,89.9999976158143,2|0,0:0|0:0,0:0:0:0:
299,77,9037,6,0,L|415:93,1,89.9999976158143,2|0,0:0|0:0,0:0:0:0:
325,212,9329,2,0,L|433:167,1,89.9999976158143,2|0,0:0|0:0,0:0:0:0:
415,315,9620,2,0,L|486:222,1,89.9999976158143,2|0,0:0|0:0,0:0:0:0:
313,64,9911,6,0,L|427:90,1,89.9999976158143,2|0,1:2|0:0,0:0:0:0:
330,193,10202,2,0,L|441:158,1,89.9999976158143,2|0,0:0|0:0,0:0:0:0:
409,296,10494,1,2,0:0:0:0:
470,230,10639,1,2,0:0:0:0:
161,298,10785,6,0,P|125:387|135:412,1,89.9999976158143,2|0,0:0|0:0,0:0:0:0:
236,205,11076,2,0,P|176:130|149:125,1,89.9999976158143,2|0,0:0|0:0,0:0:0:0:
279,316,11367,2,0,P|373:301|390:280,1,89.9999976158143,2|0,0:0|0:0,0:0:0:0:
157,286,11659,6,0,P|107:368|112:394,1,89.9999976158143,2|0,1:2|0:0,0:0:0:0:
247,207,11950,2,0,P|201:123|176:115,1,89.9999976158143,2|0,0:0|0:0,0:0:0:0:
270,324,12241,2,0,P|366:327|386:309,1,89.9999976158143,2|0,0:0|0:0,0:0:0:0:
236,129,12533,6,0,P|258:168|258:212,1,89.9999976158143,2|0,0:0|0:0,0:0:0:0:
95,334,12824,2,0,P|117:296|156:274,1,89.9999976158143,2|0,0:0|0:0,0:0:0:0:
344,354,13115,2,0,P|299:354|261:331,1,89.9999976158143,2|0,0:0|0:0,0:0:0:0:
430,322,13406,5,8,0:3:0:0:
464,91,13552,1,8,0:3:0:0:
438,341,13698,5,4,0:3:0:0:
382,138,13843,1,4,0:3:0:0:
445,359,13989,5,4,0:3:0:0:
510,170,14134,1,4,0:3:0:0:
325,259,14280,6,0,B|251:222|197:259|197:259|142:295|69:259,1,269.999992847443,6|0,1:2|0:0,0:0:0:0:
127,93,14863,2,0,L|142:182,1,89.9999976158143,2|0,0:0|0:0,0:0:0:0:
262,324,15154,2,0,P|245:296|247:232,1,89.9999976158143,2|0,1:2|0:0,0:0:0:0:
348,267,15445,2,0,P|347:234|381:179,1,89.9999976158143
449,261,15736,2,0,P|464:232|521:202,1,89.9999976158143
463,50,16028,6,0,B|376:77|376:77|269:52,1,179.999995231629,2|0,1:2|0:0,0:0:0:0:
164,26,16465,1,2,0:0:0:0:
153,15,16610,2,0,L|138:104,1,89.9999976158143,2|0,0:0|0:0,0:0:0:0:
49,168,16901,2,0,P|32:140|34:76,1,89.9999976158143,2|0,1:2|0:0,0:0:0:0:
149,212,17193,2,0,P|133:240|76:270,1,89.9999976158143
138,103,17484,2,0,P|170:102|225:136,1,89.9999976158143
264,384,17775,6,0,B|237:297|237:297|262:190,1,179.999995231629,2|0,1:2|0:0,0:0:0:0:
435,297,18212,1,2,0:0:0:0:
420,313,18358,2,0,L|331:298,1,89.9999976158143,2|0,0:0|0:0,0:0:0:0:
426,105,18649,2,0,L|441:194,1,89.9999976158143,2|0,1:2|0:0,0:0:0:0:
219,129,18940,2,0,L|234:40,1,89.9999976158143,2|0,0:0|0:0,0:0:0:0:
443,115,19232,2,0,L|458:204,1,89.9999976158143,2|0,0:0|0:0,0:0:0:0:
331,298,19523,6,0,B|244:271|244:271|137:296,1,179.999995231629,2|0,1:2|0:0,0:0:0:0:
74,373,19960,1,2,0:0:0:0:
63,384,20105,2,0,L|48:295,1,89.9999976158143,2|0,0:0|0:0,0:0:0:0:
21,183,20397,2,0,P|49:200|113:198,1,89.9999976158143,2|0,1:2|0:0,0:0:0:0:
144,25,20688,2,0,P|107:49|87:89,1,89.9999976158143
218,210,20979,2,0,P|215:165|191:128,1,89.9999976158143
149,302,21270,6,0,B|222:338|277:302|277:302|331:265|405:302,1,269.999992847443,6|0,1:2|0:0,0:0:0:0:
497,384,21853,2,0,L|512:295,1,89.9999976158143,2|0,0:0|0:0,0:0:0:0:
408,178,22144,2,0,B|335:214|280:178|280:178|226:141|152:178,1,269.999992847443,2|0,1:2|0:0,0:0:0:0:
60,260,22727,2,0,L|45:171,1,89.9999976158143,2|0,0:0|0:0,0:0:0:0:
311,20,23018,6,0,B|338:107|338:107|313:214,1,179.999995231629,2|0,1:2|0:0,0:0:0:0:
297,377,23455,1,2,0:0:0:0:
281,362,23601,2,0,L|296:273,1,89.9999976158143,2|0,0:0|0:0,0:0:0:0:
407,130,23892,2,0,P|424:158|422:222,1,89.9999976158143,2|0,1:2|0:0,0:0:0:0:
219,146,24183,2,0,P|234:117|291:87,1,89.9999976158143
296,273,24474,2,0,L|281:362,1,89.9999976158143
53,228,24766,6,0,B|140:201|140:201|247:226,1,179.999995231629,2|0,1:2|0:0,0:0:0:0:
141,384,25202,1,2,0:0:0:0:
125,369,25348,2,0,L|140:280,1,89.9999976158143,2|0,0:0|0:0,0:0:0:0:
316,160,25639,2,0,P|333:188|331:252,1,89.9999976158143,2|0,1:2|0:0,0:0:0:0:
217,112,25931,2,0,P|241:74|280:54,1,89.9999976158143,2|0,0:0|0:0,0:0:0:0:
225,221,26222,2,0,P|181:218|144:194,1,89.9999976158143,2|0,0:0|0:0,0:0:0:0:
109,90,26513,5,8,0:3:0:0:
139,280,26659,2,0,L|154:369,1,89.9999976158143,4|0,0:3|0:0,0:0:0:0:
66,162,26950,5,4,0:3:0:0:
256,132,27096,2,0,L|345:117,1,89.9999976158143,8|0,0:3|0:0,0:0:0:0:
25,88,27387,5,0,1:0:0:0:
197,206,27533,1,0,1:0:0:0:
41,305,27678,2,0,P|18:281|7:218,1,89.9999976158143,8|0,0:3|0:0,0:0:0:0:
256,132,27969,2,0,P|278:155|289:218,1,89.9999976158143,4|0,0:3|0:0,0:0:0:0:
158,320,28261,6,0,B|245:293|245:293|352:318,1,179.999995231629,6|0,1:2|0:0,0:0:0:0:
463,384,28698,1,8,0:3:0:0:
447,369,28843,2,0,L|462:280,1,89.9999976158143,4|0,0:3|0:0,0:0:0:0:
383,184,29134,2,0,B|296:211|296:211|189:186,1,179.999995231629,0|0,1:0|0:0,0:0:0:0:
78,120,29571,1,8,0:3:0:0:
94,135,29717,2,0,L|79:224,1,89.9999976158143,4|0,0:3|0:0,0:0:0:0:
216,364,30008,6,0,B|189:277|189:277|214:170,1,179.999995231629,0|0,1:0|0:0,0:0:0:0:
392,273,30445,1,8,0:3:0:0:
377,289,30591,2,0,L|288:274,1,89.9999976158143,4|0,0:3|0:0,0:0:0:0:
124,115,30882,2,0,B|211:88|211:88|318:113,1,179.999995231629,0|0,1:0|0:0,0:0:0:0:
210,294,31319,1,8,0:3:0:0:
194,279,31465,2,0,L|209:190,1,89.9999976158143,4|0,0:3|0:0,0:0:0:0:
512,179,31756,6,0,B|425:206|425:206|318:181,1,179.999995231629,0|0,1:0|0:0,0:0:0:0:
271,4,32193,1,8,0:3:0:0:
287,19,32338,2,0,P|304:47|302:111,1,89.9999976158143,4|0,0:3|0:0,0:0:0:0:
51,167,32630,6,0,B|138:140|138:140|245:165,1,179.999995231629,0|0,1:0|0:0,0:0:0:0:
302,351,33066,1,8,0:3:0:0:
286,336,33212,2,0,P|269:308|271:244,1,89.9999976158143,4|0,0:3|0:0,0:0:0:0:
512,179,33503,6,0,B|425:152|425:152|318:177,1,179.999995231629,0|0,1:0|0:0,0:0:0:0:
423,350,33940,1,8,0:3:0:0:
439,335,34086,2,0,L|424:246,1,89.9999976158143,4|0,0:3|0:0,0:0:0:0:
129,384,34377,1,0,1:0:0:0:
129,384,34669,6,0,B|93:311|129:256|129:256|166:202|129:128,1,269.999992847443,6|0,0:0|0:0,0:0:0:0:
41,50,35251,6,0,B|128:23|128:23|235:48,1,179.999995231629,4|0,1:2|0:0,0:0:0:0:
330,103,35688,1,8,0:3:0:0:
346,88,35834,2,0,L|331:-1,1,89.9999976158143,4|0,0:3|0:0,0:0:0:0:
512,189,36125,6,0,B|425:216|425:216|318:191,1,179.999995231629,0|0,1:0|0:0,0:0:0:0:
223,136,36562,1,8,0:3:0:0:
207,151,36708,2,0,L|222:240,1,89.9999976158143,4|0,0:3|0:0,0:0:0:0:
21,345,36999,6,0,B|108:318|108:318|215:343,1,179.999995231629,0|0,1:0|0:0,0:0:0:0:
314,384,37435,1,8,0:3:0:0:
298,369,37581,2,0,L|313:280,1,89.9999976158143,4|0,0:3|0:0,0:0:0:0:
512,175,37872,6,0,B|425:202|425:202|318:177,1,179.999995231629,0|0,1:0|0:0,0:0:0:0:
219,136,38310,1,8,0:3:0:0:
235,151,38455,2,0,L|220:240,1,89.9999976158143,4|0,0:3|0:0,0:0:0:0:
97,366,38746,6,0,B|61:293|97:238|97:238|134:184|97:110,1,269.999992847443,4|8,1:2|0:3,0:0:0:0:
38,29,39329,2,0,P|66:12|130:14,1,89.9999976158143,4|0,0:3|0:0,0:0:0:0:
349,85,39620,2,0,P|321:102|257:100,1,89.9999976158143,4|0,1:2|0:0,0:0:0:0:
171,244,39911,2,0,P|170:211|204:156,1,89.9999976158143,8|8,0:3|0:3,0:0:0:0:
122,10,40202,2,0,P|150:25|180:82,1,89.9999976158143,4|0,0:3|0:0,0:0:0:0:
103,320,40494,6,0,B|176:356|231:320|231:320|285:283|359:320,1,269.999992847443,4|8,1:2|0:3,0:0:0:0:
475,384,41076,2,0,L|490:295,1,89.9999976158143,4|0,0:3|0:0,0:0:0:0:
388,94,41367,1,0,1:0:0:0:
416,252,41513,1,0,1:0:0:0:
416,252,41586,1,0,1:0:0:0:
416,252,41659,5,0,1:0:0:0:
456,55,41804,1,0,1:0:0:0:
302,229,41950,1,0,1:0:0:0:
342,32,42096,1,0,1:0:0:0:
282,328,42241,5,6,1:2:0:0:
322,130,42387,1,2,0:0:0:0:
172,0,42533,1,2,0:0:0:0:
312,321,42678,5,6,1:2:0:0:
317,119,42824,1,2,0:0:0:0:
146,17,42970,1,2,0:0:0:0:
0,213,43115,5,6,0:0:0:0:
172,318,43261,1,2,0:0:0:0:
345,221,43407,1,2,0:0:0:0:
337,191,43552,5,6,0:0:0:0:
183,317,43698,1,2,0:0:0:0:
0,243,43844,1,2,0:0:0:0:
146,17,43989,6,0,P|129:45|131:109,1,89.9999976158143,6|0,1:2|0:0,0:0:0:0:
418,162,44280,2,0,P|402:133|345:103,1,89.9999976158143,2|0,0:0|0:0,0:0:0:0:
156,325,44571,2,0,P|188:325|243:291,1,89.9999976158143,2|0,0:0|0:0,0:0:0:0:
32,174,44863,6,0,B|119:201|119:201|226:176,1,179.999995231629,2|0,1:2|0:0,0:0:0:0:
125,3,45299,1,2,0:0:0:0:
109,18,45445,2,0,L|124:107,1,89.9999976158143,2|0,0:0|0:0,0:0:0:0:
240,57,45737,6,0,B|313:21|368:57|368:57|422:94|496:57,1,269.999992847443,2|0,1:2|0:0,0:0:0:0:
308,134,46319,2,0,L|293:223,1,89.9999976158143
214,384,46610,2,0,L|229:295,1,89.9999976158143,2|0,1:2|0:0,0:0:0:0:
323,314,46901,5,2,0:0:0:0:
198,203,47047,1,4,0:3:0:0:
228,295,47193,1,2,1:2:0:0:
293,222,47339,1,4,0:3:0:0:
115,368,47484,6,0,L|85:190,1,179.999995231629,6|0,1:2|0:0,0:0:0:0:
63,92,47921,1,2,0:0:0:0:
9,254,48067,2,0,L|24:343,1,89.9999976158143,2|0,0:0|0:0,0:0:0:0:
177,229,48358,2,0,B|250:193|305:229|305:229|359:266|433:229,1,269.999992847443,2|0,1:2|0:0,0:0:0:0:
241,300,48940,2,0,P|224:328|226:392,1,89.9999976158143,2|0,0:0|0:0,0:0:0:0:
363,161,49232,5,4,0:3:0:0:
395,376,49377,1,0,1:0:0:0:
377,141,49523,1,0,1:0:0:0:
377,141,49668,1,4,0:3:0:0:
222,384,49814,5,0,1:0:0:0:
190,169,49960,1,0,1:0:0:0:
383,257,50105,1,4,0:3:0:0:
135,285,50251,5,0,1:0:0:0:
135,285,50324,1,0,1:0:0:0:
135,285,50397,1,0,1:0:0:0:
234,56,50542,1,0,1:0:0:0:
234,56,50615,1,0,1:0:0:0:
234,56,50688,1,0,1:0:0:0:
259,271,50833,1,4,0:3:0:0:
310,108,50979,6,0,P|327:80|325:16,1,89.9999976158143,6|0,1:2|0:0,0:0:0:0:
259,271,51271,2,0,P|274:299|331:329,1,89.9999976158143,2|0,0:0|0:0,0:0:0:0:
143,145,51562,2,0,P|110:144|55:178,1,89.9999976158143,2|0,0:0|0:0,0:0:0:0:
282,190,51853,6,0,B|369:217|369:217|476:192,1,179.999995231629,2|0,1:2|0:0,0:0:0:0:
370,24,52290,1,2,0:0:0:0:
354,39,52436,2,0,L|369:128,1,89.9999976158143,2|0,0:0|0:0,0:0:0:0:
485,304,52727,6,0,B|412:268|357:304|357:304|303:341|229:304,1,269.999992847443,2|0,1:2|0:0,0:0:0:0:
136,242,53309,2,0,P|119:270|121:334,1,89.9999976158143
235,193,53601,2,0,P|252:165|250:101,1,89.9999976158143,2|0,1:2|0:0,0:0:0:0:
228,303,53892,5,2,0:0:0:0:
143,132,54037,1,4,0:3:0:0:
136,242,54183,1,2,1:2:0:0:
235,193,54329,1,4,0:3:0:0:
14,357,54474,6,0,L|44:179,1,179.999995231629,6|0,1:2|0:0,0:0:0:0:
50,69,54911,1,2,0:0:0:0:
143,132,55057,2,0,L|232:117,1,89.9999976158143,2|0,0:0|0:0,0:0:0:0:
425,212,55348,2,0,B|352:176|297:212|297:212|243:249|169:212,1,269.999992847443,2|0,1:2|0:0,0:0:0:0:
356,295,55931,2,0,L|341:384,1,89.9999976158143,2|0,0:0|0:0,0:0:0:0:
231,117,56222,5,4,0:3:0:0:
171,375,56367,1,0,1:0:0:0:
220,100,56513,1,0,1:0:0:0:
220,100,56659,1,4,0:3:0:0:
261,359,56804,5,0,1:0:0:0:
62,197,56950,1,0,1:0:0:0:
292,172,57096,1,4,0:3:0:0:
31,384,57241,5,0,1:0:0:0:
31,384,57314,1,0,1:0:0:0:
31,384,57387,1,0,1:0:0:0:
276,265,57533,1,0,1:0:0:0:
276,265,57606,1,0,1:0:0:0:
276,265,57678,1,0,1:0:0:0:
62,197,57824,1,4,0:3:0:0:
209,343,57970,6,0,B|282:379|337:343|337:343|391:306|465:343,1,269.999992847443,6|0,1:2|0:0,0:0:0:0:
290,176,58552,2,0,L|275:265,1,89.9999976158143,2|0,0:0|0:0,0:0:0:0:
240,75,58844,2,0,B|321:80|321:80|402:131|402:131|496:138,1,269.999992847443,2|0,1:2|0:0,0:0:0:0:
275,265,59426,2,0,L|290:176,1,89.9999976158143,2|0,0:0|0:0,0:0:0:0:
339,342,59717,6,0,B|266:378|211:342|211:342|157:305|83:342,1,269.999992847443,2|0,1:2|0:0,0:0:0:0:
260,176,60300,2,0,L|275:265,1,89.9999976158143,2|0,0:0|0:0,0:0:0:0:
349,102,60591,2,0,B|262:75|262:75|155:100,1,179.999995231629,2|0,1:2|0:0,0:0:0:0:
258,279,61028,1,0,1:0:0:0:
274,264,61174,2,0,L|259:175,1,89.9999976158143
134,243,61465,5,6,1:2:0:0:
381,183,61610,1,2,0:0:0:0:
150,266,61756,2,0,P|122:249|58:251,1,89.9999976158143,2|0,0:0|0:0,0:0:0:0:
365,160,62047,2,0,P|393:177|457:175,1,89.9999976158143,2|0,0:0|0:0,0:0:0:0:
211,60,62339,6,0,P|194:88|196:152,1,89.9999976158143,6|0,1:2|0:0,0:0:0:0:
301,324,62630,2,0,P|318:296|316:232,1,89.9999976158143,2|0,0:0|0:0,0:0:0:0:
195,69,62921,2,0,P|178:97|180:161,1,89.9999976158143,2|0,0:0|0:0,0:0:0:0:
289,14,63212,5,4,0:3:0:0:
239,263,63358,1,0,1:0:0:0:
317,6,63503,1,0,1:0:0:0:
317,6,63649,1,4,0:3:0:0:
301,324,63795,5,0,1:0:0:0:
446,132,63940,1,0,1:0:0:0:
217,347,64086,1,4,0:3:0:0:
362,155,64232,5,0,1:0:0:0:
362,155,64304,1,0,1:0:0:0:
362,155,64377,1,0,1:0:0:0:
363,384,64523,1,0,1:0:0:0:
363,384,64596,1,0,1:0:0:0:
363,384,64668,1,0,1:0:0:0:
478,270,64814,1,4,0:3:0:0:
286,272,64960,6,0,B|213:236|158:272|158:272|104:309|30:272,1,269.999992847443,6|0,1:2|0:0,0:0:0:0:
229,341,65542,2,0,P|257:358|321:356,1,89.9999976158143
347,198,65834,2,0,P|319:181|255:183,1,89.9999976158143,2|0,1:2|0:0,0:0:0:0:
455,217,66125,2,0,P|483:201|513:144,1,89.9999976158143,2|0,0:0|0:0,0:0:0:0:
384,301,66416,2,0,P|383:333|417:388,1,89.9999976158143,2|0,0:0|0:0,0:0:0:0:
423,126,66707,5,4,0:3:0:0:
474,321,66853,1,0,1:0:0:0:
436,100,66999,1,0,1:0:0:0:
436,100,67144,1,4,0:3:0:0:
290,359,67290,5,0,1:0:0:0:
512,153,67435,1,0,1:0:0:0:
384,301,67581,5,8,0:3:0:0:
319,116,67727,1,8,0:3:0:0:
362,292,67872,5,4,0:3:0:0:
296,107,68018,1,4,0:3:0:0:
236,232,68164,1,4,0:3:0:0:
422,166,68309,1,4,0:3:0:0:
153,307,68455,6,0,L|138:218,1,89.9999976158143,6|2,1:2|0:0,0:0:0:0:
32,58,68746,2,0,L|47:147,1,89.9999976158143,2|2,0:0|0:0,0:0:0:0:
141,324,69037,1,2,0:0:0:0:
126,235,69184,1,2,0:0:0:0:
20,75,69329,6,0,L|35:164,1,89.9999976158143,6|0,1:2|0:0,0:0:0:0:
242,346,69620,2,0,P|242:313|208:258,1,89.9999976158143,2|0,0:0|0:0,0:0:0:0:
51,303,69911,2,0,P|50:335|84:390,1,89.9999976158143,2|0,0:0|0:0,0:0:0:0:
113,145,70202,5,4,0:3:0:0:
141,324,70348,1,0,1:0:0:0:
136,112,70494,1,0,1:0:0:0:
136,112,70639,1,4,0:3:0:0:
77,384,70785,5,0,1:0:0:0:
231,168,70931,1,0,1:0:0:0:
20,218,71076,1,4,1:2:0:0:
385,384,71367,5,4,3:0:0:0:
202,301,71513,1,0,1:0:0:0:
202,301,71586,1,0,1:0:0:0:
202,301,71659,1,0,1:0:0:0:
365,184,71804,1,4,0:3:0:0:
110,370,71951,6,0,B|74:297|110:242|110:242|147:188|110:114,1,269.999992847443,6|0,1:2|0:0,0:0:0:0:
44,26,72533,2,0,P|72:9|136:11,1,89.9999976158143
292,87,72824,2,0,P|264:104|200:102,1,89.9999976158143,2|0,1:2|0:0,0:0:0:0:
364,23,73115,2,0,P|381:51|379:115,1,89.9999976158143,2|0,0:0|0:0,0:0:0:0:
142,163,73407,2,0,P|125:135|127:71,1,89.9999976158143,2|0,0:0|0:0,0:0:0:0:
285,241,73698,5,4,0:3:0:0:
237,31,73843,1,0,1:0:0:0:
282,269,73989,1,0,1:0:0:0:
282,269,74134,1,4,0:3:0:0:
364,23,74280,5,0,1:0:0:0:
412,233,74426,1,0,1:0:0:0:
206,169,74571,1,4,0:3:0:0:
416,121,74717,5,0,1:0:0:0:
416,121,74790,1,0,1:0:0:0:
416,121,74863,1,0,1:0:0:0:
408,345,75008,1,0,1:0:0:0:
408,345,75081,1,0,1:0:0:0:
408,345,75154,1,0,1:0:0:0:
510,180,75299,1,4,0:3:0:0:
331,288,75445,6,0,P|314:345|325:378,1,89.9999976158143,6|0,1:2|0:0,0:0:0:0:
194,229,75737,2,0,P|207:286|233:309,1,89.9999976158143,2|0,0:0|0:0,0:0:0:0:
45,246,76028,2,0,P|85:289|119:296,1,89.9999976158143,2|0,0:0|0:0,0:0:0:0:
346,273,76319,6,0,P|339:332|356:363,1,89.9999976158143,6|0,1:2|0:0,0:0:0:0:
199,208,76611,2,0,P|222:262|252:280,1,89.9999976158143,2|0,0:0|0:0,0:0:0:0:
38,225,76902,2,0,P|85:260|120:261,1,89.9999976158143,2|0,0:0|0:0,0:0:0:0:
333,137,77193,6,0,L|356:40,1,89.9999976158143,6|0,0:0|0:0,0:0:0:0:
205,96,77484,2,0,L|176:0,1,89.9999976158143,2|0,0:0|0:0,0:0:0:0:
73,124,77776,2,0,L|0:55,1,89.9999976158143,2|0,0:0|0:0,0:0:0:0:
341,151,78067,6,0,L|380:59,1,89.9999976158143,6|0,1:2|0:0,0:0:0:0:
219,104,78358,2,0,L|207:4,1,89.9999976158143,2|0,0:0|1:0,0:0:0:0:
89,124,78649,1,8,0:3:0:0:
35,51,78794,1,4,0:3:0:0:
301,241,78941,6,0,P|356:248|405:228,1,89.9999976158143,6|0,1:2|0:0,0:0:0:0:
191,206,79232,2,0,P|157:250|150:303,1,89.9999976158143,2|0,0:0|0:0,0:0:0:0:
275,128,79523,2,0,P|254:77|212:44,1,89.9999976158143,2|0,0:0|0:0,0:0:0:0:
296,244,79814,6,0,P|350:256|401:240,1,89.9999976158143,6|0,1:2|0:0,0:0:0:0:
190,200,80106,2,0,P|152:241|141:293,1,89.9999976158143,2|0,0:0|0:0,0:0:0:0:
281,130,80397,2,0,P|264:77|225:41,1,89.9999976158143,2|0,0:0|0:0,0:0:0:0:
226,273,80688,5,4,1:2:0:0:
344,62,80833,1,0,1:0:0:0:
239,300,80979,1,0,1:0:0:0:
239,300,81125,1,4,0:3:0:0:
198,119,81270,5,0,1:0:0:0:
80,330,81416,1,0,1:0:0:0:
283,194,81562,1,4,3:0:0:0:
14,157,81708,6,0,L|94:150,1,44.9999988079071,0|0,1:0|1:0,0:0:0:0:
277,114,81853,1,0,1:0:0:0:
462,246,81999,2,0,L|382:239,1,44.9999988079071,0|0,1:0|1:0,0:0:0:0:
199,203,82145,1,0,1:0:0:0:
302,32,82290,5,4,0:3:0:0:
208,340,82435,1,4,1:2:0:0:
