osu file format v14

[General]
AudioFilename: audio.mp3
AudioLeadIn: 0
PreviewTime: -1
Countdown: 1
SampleSet: Soft
StackLeniency: 0.7
Mode: 2
LetterboxInBreaks: 0
WidescreenStoryboard: 0

[Editor]
DistanceSpacing: 1
BeatDivisor: 4
GridSize: 16
TimelineZoom: 2.599999

[Metadata]
Title:escape
TitleUnicode:escape
Artist:XX:me
ArtistUnicode:XX:me
Creator:Destructor09
Version:Darling
Source:ダーリン・イン・ザ・フランキス
Tags:darling in the franxx ed ending
BeatmapID:1818399
BeatmapSetID:870118

[Difficulty]
HPDrainRate:5
CircleSize:4
OverallDifficulty:10
ApproachRate:9.9
SliderMultiplier:1.8
SliderTickRate:2

[Events]
//Background and Video events
0,0,"bg.jpg",0,0
//Break Periods
//Storyboard Layer 0 (Background)
//Storyboard Layer 1 (Fail)
//Storyboard Layer 2 (Pass)
//Storyboard Layer 3 (Foreground)
//Storyboard Sound Samples

[TimingPoints]
350,291.26213592233,4,2,0,50,1,0
7340,-83.3333333333333,4,2,0,50,0,0
14330,-83.3333333333333,4,2,0,50,0,0
44039,-76.9230769230769,4,2,0,50,0,1
68505,-76.9230769230769,4,2,0,50,0,0
75495,-83.3333333333333,4,2,0,50,0,0
105204,-76.9230769230769,4,2,0,50,0,1
129670,-100,4,2,0,35,0,0
162874,-83.3333333333333,4,2,0,50,0,0
173359,-76.9230769230769,4,2,0,50,0,1
175107,-133.333333333333,4,2,0,50,0,0
175981,-100,4,2,0,50,0,0
176854,-76.9230769230769,4,2,0,50,0,1
178602,-76.9230769230769,4,2,0,50,0,0
180349,-76.9230769230769,4,2,0,50,0,1
204816,-83.3333333333333,4,2,0,50,0,0
211806,504.201680672269,4,2,0,40,1,0
211806,-66.6666666666667,4,2,0,40,0,0

[Colours]
Combo1 : 48,89,233
Combo2 : 233,3,3
Combo3 : 12,3,165
Combo4 : 255,53,154

[HitObjects]
160,336,350,5,8,0:0:0:0:
96,272,495,1,0,0:0:0:0:
128,192,641,1,0,0:0:0:0:
224,160,786,1,0,0:0:0:0:
288,128,932,1,0,0:0:0:0:
240,64,1078,1,0,0:0:0:0:
16,240,1224,5,8,0:0:0:0:
144,240,1370,1,0,0:0:0:0:
16,240,1516,1,0,0:0:0:0:
144,240,1661,1,0,0:0:0:0:
272,240,1807,1,0,0:0:0:0:
144,240,1951,1,0,0:0:0:0:
352,336,2097,5,8,0:0:0:0:
416,272,2242,1,0,0:0:0:0:
384,192,2388,1,0,0:0:0:0:
288,160,2533,1,0,0:0:0:0:
224,128,2679,1,0,0:0:0:0:
272,64,2825,1,0,0:0:0:0:
496,240,2971,5,8,0:0:0:0:
368,240,3116,1,0,0:0:0:0:
496,240,3263,1,0,0:0:0:0:
368,240,3408,1,0,0:0:0:0:
240,240,3554,1,0,0:0:0:0:
368,240,3699,1,0,0:0:0:0:
96,320,3845,5,8,0:0:0:0:
32,240,3990,1,0,0:0:0:0:
96,176,4136,1,0,0:0:0:0:
208,176,4282,1,0,0:0:0:0:
336,176,4427,1,0,0:0:0:0:
464,176,4573,1,0,0:0:0:0:
208,224,4718,5,8,0:0:0:0:
304,176,4864,1,0,0:0:0:0:
208,96,5010,1,0,0:0:0:0:
112,96,5155,1,0,0:0:0:0:
16,80,5301,1,0,0:0:0:0:
112,32,5447,1,0,0:0:0:0:
400,32,5592,5,4,0:0:0:0:
32,32,5738,1,0,0:0:0:0:
400,240,6028,5,8,0:0:0:0:
496,192,6174,1,0,0:0:0:0:
400,144,6320,1,0,0:0:0:0:
272,144,6466,1,4,0:0:0:0:
144,144,6612,1,0,0:0:0:0:
16,144,6757,1,0,0:0:0:0:
352,208,6903,1,0,0:0:0:0:
384,96,7049,1,0,0:0:0:0:
32,96,7194,1,0,0:0:0:0:
368,256,7340,6,0,L|480:256,1,107.999996704102,4|0,0:0|0:0,0:0:0:0:
224,256,7631,2,0,L|192:144,1,107.999996704102,8|0,0:0|0:0,0:0:0:0:
320,176,7922,2,0,L|432:128,1,107.999996704102,8|0,0:0|0:0,0:0:0:0:
288,160,8214,6,0,L|160:160,1,107.999996704102,4|0,0:0|0:0,0:0:0:0:
336,96,8505,2,0,L|208:128,1,107.999996704102,8|0,0:0|0:0,0:0:0:0:
464,176,8796,2,0,L|480:32,1,107.999996704102,8|0,0:0|0:0,0:0:0:0:
48,240,9087,6,0,L|32:96,1,107.999996704102,4|0,0:0|0:0,0:0:0:0:
176,128,9379,2,0,L|304:128,1,107.999996704102,8|0,0:0|0:0,0:0:0:0:
128,64,9670,2,0,L|-16:64,1,107.999996704102,8|0,0:0|0:0,0:0:0:0:
352,192,9961,6,0,L|480:192,1,107.999996704102,4|0,0:0|0:0,0:0:0:0:
368,128,10252,2,0,L|240:128,1,107.999996704102,8|0,0:0|0:0,0:0:0:0:
480,64,10544,2,0,L|336:64,1,107.999996704102,8|0,0:0|0:0,0:0:0:0:
96,256,10835,6,0,L|48:128,1,107.999996704102,4|0,0:0|0:0,0:0:0:0:
224,240,11126,2,0,L|240:112,1,107.999996704102,8|0,0:0|0:0,0:0:0:0:
112,80,11417,2,0,L|224:80,1,107.999996704102,8|0,0:0|0:0,0:0:0:0:
368,96,11709,6,0,L|480:96,1,107.999996704102,4|0,0:0|0:0,0:0:0:0:
336,160,12000,2,0,L|464:160,1,107.999996704102,8|0,0:0|0:0,0:0:0:0:
176,160,12291,2,0,L|48:160,1,107.999996704102,8|0,0:0|0:0,0:0:0:0:
352,256,12583,6,0,L|384:112,1,107.999996704102,4|0,0:0|0:0,0:0:0:0:
240,160,12874,2,0,L|320:80,1,107.999996704102,8|0,0:0|0:0,0:0:0:0:
32,64,13165,2,0,L|192:64,1,107.999996704102,8|0,0:0|0:0,0:0:0:0:
368,272,13456,6,0,L|496:272,2,107.999996704102,4|0|8,0:0|0:0|0:0,0:0:0:0:
144,272,13893,2,0,L|0:272,2,107.999996704102,4|0|8,0:0|0:0|0:0,0:0:0:0:
416,240,14330,6,0,P|480:208|384:144,1,215.999993408203,4|0,0:0|0:0,0:0:0:0:
304,128,14767,1,0,0:0:0:0:
192,176,14913,2,0,L|176:48,1,107.999996704102,8|0,0:0|0:0,0:0:0:0:
304,64,15204,6,0,L|432:32,1,107.999996704102,4|0,0:0|0:0,0:0:0:0:
256,208,15495,2,0,L|240:80,1,107.999996704102,8|0,0:0|0:0,0:0:0:0:
400,176,15786,2,0,L|320:80,1,107.999996704102,8|0,0:0|0:0,0:0:0:0:
32,160,16078,5,4,0:0:0:0:
144,160,16223,1,0,0:0:0:0:
256,160,16369,1,0,0:0:0:0:
32,160,16515,6,0,L|48:32,1,107.999996704102,0|8,0:0|0:0,0:0:0:0:
144,64,16806,1,0,0:0:0:0:
400,64,16951,6,0,L|288:64,1,107.999996704102,4|0,0:0|0:0,0:0:0:0:
176,160,17243,2,0,L|288:160,1,107.999996704102,8|0,0:0|0:0,0:0:0:0:
512,160,17534,2,0,L|400:160,1,107.999996704102,8|0,0:0|0:0,0:0:0:0:
96,240,17825,6,0,P|32:208|128:144,1,215.999993408203,4|0,0:0|0:0,0:0:0:0:
208,128,18262,1,0,0:0:0:0:
320,176,18408,2,0,L|336:48,1,107.999996704102,8|0,0:0|0:0,0:0:0:0:
224,64,18699,5,8,0:0:0:0:
448,64,18845,1,0,0:0:0:0:
160,64,18990,1,8,0:0:0:0:
496,64,19136,1,0,0:0:0:0:
224,64,19282,1,8,0:0:0:0:
448,64,19427,1,0,0:0:0:0:
128,224,19573,6,0,L|160:112,1,107.999996704102,4|0,0:0|0:0,0:0:0:0:
304,176,19864,2,0,L|384:80,1,107.999996704102,0|8,0:0|0:0,0:0:0:0:
224,80,20155,2,0,L|112:80,1,107.999996704102,4|0,0:0|0:0,0:0:0:0:
272,240,20447,6,0,L|288:112,1,107.999996704102,8|0,0:0|0:0,0:0:0:0:
176,128,20738,1,8,0:0:0:0:
320,128,20883,1,0,0:0:0:0:
64,224,21029,2,0,L|32:112,1,107.999996704102,8|0,0:0|0:0,0:0:0:0:
336,336,21320,5,4,0:0:0:0:
400,272,21465,1,0,0:0:0:0:
336,192,21611,1,0,0:0:0:0:
224,208,21757,1,0,0:0:0:0:
112,176,21903,2,0,L|96:64,1,107.999996704102,8|0,0:0|0:0,0:0:0:0:
272,144,22194,6,0,L|224:32,1,107.999996704102,4|0,0:0|0:0,0:0:0:0:
112,176,22485,2,0,L|160:64,1,107.999996704102,8|0,0:0|0:0,0:0:0:0:
384,64,22777,2,0,L|496:64,1,107.999996704102,8|0,0:0|0:0,0:0:0:0:
272,224,23068,6,0,L|144:224,2,107.999996704102,4|0|0,0:0|0:0|0:0,0:0:0:0:
48,224,23505,2,0,L|32:112,1,107.999996704102,0|8,0:0|0:0,0:0:0:0:
384,128,23796,1,0,0:0:0:0:
128,256,23942,6,0,P|112:176|176:144,1,161.999995056153,4|0,0:0|0:0,0:0:0:0:
384,208,24233,2,0,P|432:160|384:80,1,161.999995056153,8|0,0:0|0:0,0:0:0:0:
224,80,24524,2,0,L|48:80,1,161.999995056153,8|0,0:0|0:0,0:0:0:0:
288,272,24816,6,0,L|304:144,1,107.999996704102,4|0,0:0|0:0,0:0:0:0:
176,192,25107,2,0,L|144:64,1,107.999996704102
288,96,25398,2,0,L|400:48,1,107.999996704102,8|0,0:0|0:0,0:0:0:0:
240,192,25689,6,0,L|96:192,1,107.999996704102,8|0,0:0|0:0,0:0:0:0:
288,192,25981,2,0,L|304:80,1,107.999996704102,8|0,0:0|0:0,0:0:0:0:
176,96,26272,2,0,L|48:96,1,107.999996704102,8|0,0:0|0:0,0:0:0:0:
400,160,26563,5,4,0:0:0:0:
160,256,26709,2,0,P|96:240|176:176,1,215.999993408203,0|8,0:0|0:0,0:0:0:0:
336,192,27146,2,0,L|352:80,1,107.999996704102,4|0,0:0|0:0,0:0:0:0:
192,96,27437,1,8,0:0:0:0:
320,96,27583,1,0,0:0:0:0:
64,176,27728,6,0,L|256:176,1,161.999995056153,8|0,0:0|0:0,0:0:0:0:
480,176,28019,2,0,L|304:176,1,161.999995056153,8|0,0:0|0:0,0:0:0:0:
80,288,28311,5,4,0:0:0:0:
32,224,28456,1,0,0:0:0:0:
112,192,28602,2,0,L|160:96,1,107.999996704102,8|0,0:0|0:0,0:0:0:0:
256,160,28893,2,0,L|224:48,1,107.999996704102,8|0,0:0|0:0,0:0:0:0:
336,80,29184,2,0,L|224:80,1,107.999996704102,4|0,0:0|0:0,0:0:0:0:
128,80,29476,1,0,0:0:0:0:
384,80,29621,1,8,0:0:0:0:
160,320,29767,6,0,P|112:288|176:224,1,161.999995056153,4|0,0:0|0:0,0:0:0:0:
320,240,30058,2,0,L|336:128,1,107.999996704102,4|0,0:0|0:0,0:0:0:0:
224,160,30349,2,0,L|112:128,1,107.999996704102,0|8,0:0|0:0,0:0:0:0:
272,160,30641,2,0,L|288:48,1,107.999996704102,4|0,0:0|0:0,0:0:0:0:
80,224,30932,5,8,0:0:0:0:
192,224,31078,1,0,0:0:0:0:
304,224,31223,1,8,0:0:0:0:
32,160,31369,1,0,0:0:0:0:
304,160,31515,1,8,0:0:0:0:
192,160,31660,1,0,0:0:0:0:
432,240,31806,6,0,L|384:96,1,107.999996704102,4|0,0:0|0:0,0:0:0:0:
272,256,32097,2,0,L|144:256,1,107.999996704102,8|0,0:0|0:0,0:0:0:0:
272,256,32388,2,0,L|320:160,1,107.999996704102,8|0,0:0|0:0,0:0:0:0:
32,160,32680,6,0,L|272:160,1,215.999993408203,4|0,0:0|0:0,0:0:0:0:
32,160,33116,1,8,0:0:0:0:
112,160,33262,2,0,L|80:48,1,107.999996704102,4|0,0:0|0:0,0:0:0:0:
480,160,33553,2,0,L|240:160,1,215.999993408203,4|0,0:0|0:0,0:0:0:0:
480,160,33989,1,8,0:0:0:0:
400,160,34136,2,0,L|432:48,1,107.999996704102,4|0,0:0|0:0,0:0:0:0:
128,304,34427,6,0,P|112:224|128:128,1,161.999995056153,8|0,0:0|0:0,0:0:0:0:
336,160,34718,2,0,L|144:160,1,161.999995056153,8|0,0:0|0:0,0:0:0:0:
384,304,35010,2,0,P|400:224|384:128,1,161.999995056153,8|0,0:0|0:0,0:0:0:0:
80,240,35301,6,0,L|32:144,1,107.999996704102,4|0,0:0|0:0,0:0:0:0:
240,208,35592,2,0,L|288:112,1,107.999996704102,8|0,0:0|0:0,0:0:0:0:
48,192,35883,2,0,L|32:80,1,107.999996704102,8|0,0:0|0:0,0:0:0:0:
304,160,36175,6,0,L|432:160,2,107.999996704102,4|0|0,0:0|0:0|0:0,0:0:0:0:
192,160,36612,1,8,0:0:0:0:
320,256,36757,2,0,P|336:176|288:112,1,161.999995056153,4|0,0:0|0:0,0:0:0:0:
48,224,37049,6,0,L|64:112,1,107.999996704102,4|0,0:0|0:0,0:0:0:0:
192,128,37340,2,0,L|320:128,1,107.999996704102,8|0,0:0|0:0,0:0:0:0:
160,224,37631,2,0,L|112:96,1,107.999996704102,8|0,0:0|0:0,0:0:0:0:
336,160,37922,2,0,L|112:160,1,215.999993408203,4|0,0:0|0:0,0:0:0:0:
336,160,38359,1,8,0:0:0:0:
208,224,38505,2,0,P|192:160|240:48,1,161.999995056153,8|0,0:0|0:0,0:0:0:0:
480,224,38796,6,0,L|496:96,1,107.999996704102,4|0,0:0|0:0,0:0:0:0:
368,240,39087,2,0,L|368:96,1,107.999996704102,8|0,0:0|0:0,0:0:0:0:
256,240,39379,2,0,L|240:128,1,107.999996704102,8|0,0:0|0:0,0:0:0:0:
480,288,39670,5,4,0:0:0:0:
336,288,39816,1,0,0:0:0:0:
176,288,39961,1,8,0:0:0:0:
32,288,40107,1,0,0:0:0:0:
320,224,40252,1,8,0:0:0:0:
192,224,40398,1,0,0:0:0:0:
400,224,40544,6,0,L|432:96,1,107.999996704102,4|0,0:0|0:0,0:0:0:0:
304,160,40835,2,0,L|240:64,1,107.999996704102,8|0,0:0|0:0,0:0:0:0:
384,160,41126,2,0,L|496:128,1,107.999996704102,8|0,0:0|0:0,0:0:0:0:
192,192,41417,5,4,0:0:0:0:
320,192,41563,1,0,0:0:0:0:
368,192,41635,1,0,0:0:0:0:
320,192,41708,1,0,0:0:0:0:
64,192,41854,1,8,0:0:0:0:
320,288,42000,2,0,L|304:144,1,107.999996704102,4|0,0:0|0:0,0:0:0:0:
48,96,42291,5,2,0:0:0:0:
176,96,42437,1,0,0:0:0:0:
304,96,42583,1,0,0:0:0:0:
48,224,42728,1,2,0:0:0:0:
176,224,42874,1,0,0:0:0:0:
48,224,43019,1,0,0:0:0:0:
464,96,43165,5,2,0:0:0:0:
336,96,43311,1,0,0:0:0:0:
208,96,43457,1,0,0:0:0:0:
464,224,43602,1,2,0:0:0:0:
336,224,43748,1,0,0:0:0:0:
464,224,43893,1,0,0:0:0:0:
96,256,44039,6,0,P|80:192|128:160,1,116.999994644165,4|0,0:0|0:0,0:0:0:0:
464,192,44330,2,0,L|368:112,1,116.999994644165,4|0,0:0|0:0,0:0:0:0:
192,160,44621,2,0,L|288:64,1,116.999994644165,4|0,0:0|0:0,0:0:0:0:
64,160,44913,2,0,L|304:160,1,233.999989288331,4|0,0:0|0:0,0:0:0:0:
64,288,45349,6,0,P|32:240|32:160,1,116.999994644165,0|8,0:0|0:0,0:0:0:0:
128,160,45641,1,0,0:0:0:0:
384,240,45786,2,0,P|400:160|368:128,1,116.999994644165,2|0,0:0|0:0,0:0:0:0:
288,128,46078,1,0,0:0:0:0:
176,128,46223,1,0,0:0:0:0:
320,256,46369,2,0,L|288:112,1,116.999994644165
144,224,46660,6,0,L|16:224,1,116.999994644165,8|0,0:0|0:0,0:0:0:0:
336,224,46951,2,0,L|480:224,1,116.999994644165,8|0,0:0|0:0,0:0:0:0:
144,160,47243,2,0,L|16:160,1,116.999994644165,8|0,0:0|0:0,0:0:0:0:
336,272,47534,5,4,0:0:0:0:
272,208,47680,1,0,0:0:0:0:
160,208,47825,1,0,0:0:0:0:
304,192,47971,2,0,L|240:64,1,116.999994644165,0|8,0:0|0:0,0:0:0:0:
144,80,48262,1,0,0:0:0:0:
320,64,48408,6,0,L|192:64,1,116.999994644165,4|0,0:0|0:0,0:0:0:0:
368,192,48699,2,0,L|384:48,1,116.999994644165
160,144,48990,2,0,L|32:144,1,116.999994644165,4|0,0:0|0:0,0:0:0:0:
384,240,49282,5,8,0:0:0:0:
144,240,49427,2,2,L|400:240,1,233.999989288331
144,240,49864,2,0,P|96:160|96:112,1,116.999994644165,8|0,0:0|0:0,0:0:0:0:
368,144,50155,5,4,0:0:0:0:
224,144,50301,1,0,0:0:0:0:
176,112,50373,1,0,0:0:0:0:
159,57,50446,1,0,0:0:0:0:
464,64,50592,1,4,0:0:0:0:
256,64,50738,1,0,0:0:0:0:
48,64,50883,1,0,0:0:0:0:
464,304,51029,6,0,P|448:240|400:192,1,116.999994644165,4|0,0:0|0:0,0:0:0:0:
256,288,51320,2,0,L|320:160,1,116.999994644165,4|0,0:0|0:0,0:0:0:0:
464,176,51612,2,0,L|352:128,1,116.999994644165,4|0,0:0|0:0,0:0:0:0:
144,144,51903,2,0,P|224:128|144:128,1,233.999989288331,4|0,0:0|0:0,0:0:0:0:
272,240,52340,2,0,L|256:112,1,116.999994644165,0|8,0:0|0:0,0:0:0:0:
144,128,52631,1,0,0:0:0:0:
368,144,52777,6,0,L|384:16,1,116.999994644165,2|0,0:0|0:0,0:0:0:0:
80,176,53068,2,0,L|48:64,1,116.999994644165
192,160,53359,2,0,L|320:160,1,116.999994644165
80,224,53650,5,8,0:0:0:0:
224,224,53796,1,0,0:0:0:0:
128,160,53942,1,8,0:0:0:0:
272,160,54087,1,0,0:0:0:0:
176,96,54233,1,8,0:0:0:0:
320,96,54379,1,0,0:0:0:0:
32,352,54524,6,0,P|16:272|80:112,1,233.999989288331,4|0,0:0|0:0,0:0:0:0:
176,144,54961,1,0,0:0:0:0:
304,208,55107,2,0,L|320:80,1,116.999994644165,8|0,0:0|0:0,0:0:0:0:
176,224,55398,6,0,P|144:160|144:112,1,116.999994644165,4|0,0:0|0:0,0:0:0:0:
272,144,55689,2,0,L|160:64,1,116.999994644165
48,176,55981,2,0,L|80:48,1,116.999994644165,4|0,0:0|0:0,0:0:0:0:
448,224,56272,5,8,0:0:0:0:
336,224,56417,1,0,0:0:0:0:
448,224,56563,1,2,0:0:0:0:
64,224,56709,1,8,0:0:0:0:
176,224,56854,1,0,0:0:0:0:
288,224,57000,1,2,0:0:0:0:
32,160,57146,5,8,0:0:0:0:
256,160,57291,2,0,L|352:160,2,58.4999973220826,8|0|8,0:0|0:0|0:0,0:0:0:0:
80,160,57583,2,0,L|0:160,1,58.4999973220826
320,304,57728,2,0,P|352:240|304:128,1,175.499991966248,2|0,0:0|0:0,0:0:0:0:
80,240,58019,6,0,L|64:112,1,116.999994644165,4|0,0:0|0:0,0:0:0:0:
192,240,58311,2,0,L|224:112,1,116.999994644165
368,240,58602,2,0,L|304:128,1,116.999994644165,8|0,0:0|0:0,0:0:0:0:
16,288,58893,5,4,0:0:0:0:
64,208,59039,1,0,0:0:0:0:
160,192,59184,1,0,0:0:0:0:
240,176,59330,1,0,0:0:0:0:
256,96,59476,1,8,0:0:0:0:
176,64,59621,1,0,0:0:0:0:
480,240,59767,6,0,L|448:128,1,116.999994644165,4|0,0:0|0:0,0:0:0:0:
320,224,60058,2,0,L|352:96,1,116.999994644165
224,80,60349,2,0,L|352:80,1,116.999994644165,4|0,0:0|0:0,0:0:0:0:
96,224,60641,5,8,0:0:0:0:
128,144,60786,1,0,0:0:0:0:
224,144,60932,1,0,0:0:0:0:
320,176,61078,1,0,0:0:0:0:
416,176,61223,1,8,0:0:0:0:
464,96,61369,1,0,0:0:0:0:
160,240,61515,5,4,0:0:0:0:
384,240,61660,1,8,0:0:0:0:
64,256,61806,2,0,L|32:128,1,116.999994644165,8|0,0:0|0:0,0:0:0:0:
288,240,62097,2,0,L|320:128,1,116.999994644165,8|0,0:0|0:0,0:0:0:0:
144,192,62388,2,0,L|96:80,1,116.999994644165,4|0,0:0|0:0,0:0:0:0:
224,128,62680,2,0,P|192:64|128:48,1,116.999994644165,8|0,0:0|0:0,0:0:0:0:
256,128,62971,2,0,P|320:160|384:128,1,116.999994644165,8|0,0:0|0:0,0:0:0:0:
80,224,63262,5,4,0:0:0:0:
336,224,63408,1,8,0:0:0:0:
224,160,63553,2,0,L|352:160,1,116.999994644165,8|0,0:0|0:0,0:0:0:0:
208,208,63845,2,0,P|176:144|208:80,1,116.999994644165,8|0,0:0|0:0,0:0:0:0:
416,160,64136,5,4,0:0:0:0:
192,272,64282,2,0,L|96:272,2,58.4999973220826,8|0|8,0:0|0:0|0:0,0:0:0:0:
448,224,64573,2,0,L|512:224,1,58.4999973220826,8|0,0:0|0:0,0:0:0:0:
320,224,64718,2,0,L|240:224,1,58.4999973220826,8|0,0:0|0:0,0:0:0:0:
448,224,64864,2,0,L|528:224,1,58.4999973220826
240,224,65010,6,0,P|256:144|288:128,1,116.999994644165,4|0,0:0|0:0,0:0:0:0:
176,176,65301,2,0,P|192:128|256:112,1,116.999994644165
112,112,65592,2,0,P|176:80|256:80,1,116.999994644165,8|0,0:0|0:0,0:0:0:0:
336,80,65883,5,4,0:0:0:0:
448,80,66029,1,0,0:0:0:0:
336,80,66175,1,2,0:0:0:0:
224,80,66320,1,0,0:0:0:0:
320,160,66466,1,2,0:0:0:0:
176,160,66612,1,0,0:0:0:0:
448,224,66757,5,4,0:0:0:0:
224,224,66903,1,0,0:0:0:0:
254,174,66975,1,0,0:0:0:0:
288,128,67048,1,0,0:0:0:0:
64,224,67194,1,0,0:0:0:0:
176,224,67340,1,8,0:0:0:0:
48,224,67485,1,0,0:0:0:0:
384,160,67631,5,4,0:0:0:0:
128,160,67777,1,0,0:0:0:0:
432,160,67922,1,4,0:0:0:0:
80,160,68068,1,0,0:0:0:0:
384,160,68214,1,4,0:0:0:0:
128,160,68359,1,0,0:0:0:0:
368,288,68505,6,0,P|416:224|400:160,1,116.999994644165,4|0,0:0|0:0,0:0:0:0:
288,240,68796,2,0,P|304:176|352:112,1,116.999994644165,8|0,0:0|0:0,0:0:0:0:
96,240,69087,2,0,P|48:192|32:112,1,116.999994644165,8|0,0:0|0:0,0:0:0:0:
176,208,69379,2,0,P|224:128|224:64,1,116.999994644165,4|0,0:0|0:0,0:0:0:0:
128,112,69670,2,0,P|160:64|224:32,1,116.999994644165,8|0,0:0|0:0,0:0:0:0:
368,176,69961,2,0,P|416:112|416:48,1,116.999994644165,8|0,0:0|0:0,0:0:0:0:
160,240,70252,6,0,L|144:112,1,116.999994644165,4|0,0:0|0:0,0:0:0:0:
272,224,70544,2,0,P|304:128|288:80,1,116.999994644165,8|0,0:0|0:0,0:0:0:0:
416,208,70835,2,0,P|464:160|464:112,1,116.999994644165,8|0,0:0|0:0,0:0:0:0:
192,208,71126,2,0,P|224:144|224:96,1,116.999994644165,4|0,0:0|0:0,0:0:0:0:
96,208,71417,2,0,L|128:80,1,116.999994644165,8|0,0:0|0:0,0:0:0:0:
272,160,71709,2,0,L|400:160,1,116.999994644165,8|0,0:0|0:0,0:0:0:0:
48,224,72000,6,0,P|96:176|112:112,1,116.999994644165,4|0,0:0|0:0,0:0:0:0:
240,160,72291,2,0,P|208:96|160:64,1,116.999994644165,8|0,0:0|0:0,0:0:0:0:
320,64,72583,2,0,P|240:48|192:48,1,116.999994644165,8|0,0:0|0:0,0:0:0:0:
304,272,72874,2,0,P|336:208|336:144,1,116.999994644165,4|0,0:0|0:0,0:0:0:0:
224,224,73165,2,0,P|272:192|304:144,1,116.999994644165,8|0,0:0|0:0,0:0:0:0:
80,192,73456,2,0,P|144:160|192:128,1,116.999994644165,8|0,0:0|0:0,0:0:0:0:
32,208,73748,6,0,L|64:96,1,116.999994644165,4|0,0:0|0:0,0:0:0:0:
400,208,74039,2,0,L|368:80,1,116.999994644165,8|0,0:0|0:0,0:0:0:0:
128,208,74330,2,0,L|160:80,1,116.999994644165,8|0,0:0|0:0,0:0:0:0:
464,224,74621,5,4,0:0:0:0:
336,224,74767,1,0,0:0:0:0:
464,224,74913,1,8,0:0:0:0:
48,224,75058,1,4,0:0:0:0:
256,224,75204,1,0,0:0:0:0:
464,224,75350,1,8,0:0:0:0:
96,240,75495,6,0,P|32:208|128:144,1,215.999993408203,4|0,0:0|0:0,0:0:0:0:
208,128,75932,1,0,0:0:0:0:
320,176,76078,2,0,L|336:48,1,107.999996704102,8|0,0:0|0:0,0:0:0:0:
208,64,76369,6,0,L|80:32,1,107.999996704102,4|0,0:0|0:0,0:0:0:0:
256,208,76660,2,0,L|272:80,1,107.999996704102,8|0,0:0|0:0,0:0:0:0:
112,176,76951,2,0,L|192:80,1,107.999996704102,8|0,0:0|0:0,0:0:0:0:
480,160,77243,5,4,0:0:0:0:
368,160,77388,1,0,0:0:0:0:
256,160,77534,1,0,0:0:0:0:
480,160,77680,6,0,L|464:32,1,107.999996704102,0|8,0:0|0:0,0:0:0:0:
368,64,77971,1,0,0:0:0:0:
112,64,78116,6,0,L|224:64,1,107.999996704102,4|0,0:0|0:0,0:0:0:0:
336,160,78408,2,0,L|224:160,1,107.999996704102,8|0,0:0|0:0,0:0:0:0:
0,160,78699,2,0,L|112:160,1,107.999996704102,8|0,0:0|0:0,0:0:0:0:
416,240,78990,6,0,P|480:208|384:144,1,215.999993408203,4|0,0:0|0:0,0:0:0:0:
304,128,79427,1,0,0:0:0:0:
192,176,79573,2,0,L|176:48,1,107.999996704102,8|0,0:0|0:0,0:0:0:0:
368,64,79864,5,8,0:0:0:0:
32,64,80010,1,0,0:0:0:0:
304,64,80155,1,8,0:0:0:0:
96,64,80301,1,0,0:0:0:0:
368,64,80447,1,8,0:0:0:0:
32,64,80592,1,0,0:0:0:0:
272,240,80738,6,0,P|240:176|208:144,1,107.999996704102,4|0,0:0|0:0,0:0:0:0:
336,160,81029,2,0,P|272:112|224:96,1,107.999996704102,0|8,0:0|0:0,0:0:0:0:
160,224,81320,2,0,P|176:144|208:112,1,107.999996704102,4|0,0:0|0:0,0:0:0:0:
448,224,81612,6,0,L|256:224,1,161.999995056153,8|0,0:0|0:0,0:0:0:0:
448,224,81903,2,0,P|480:160|432:80,1,161.999995056153,8|0,0:0|0:0,0:0:0:0:
224,160,82194,2,0,L|416:160,1,161.999995056153,8|0,0:0|0:0,0:0:0:0:
112,256,82485,6,0,L|96:144,1,107.999996704102,4|0,0:0|0:0,0:0:0:0:
224,256,82777,2,0,P|224:160|208:128,1,107.999996704102
352,256,83068,2,0,P|384:192|368:144,1,107.999996704102,8|0,0:0|0:0,0:0:0:0:
128,96,83359,5,4,0:0:0:0:
224,96,83505,1,0,0:0:0:0:
288,160,83650,1,8,0:0:0:0:
32,160,83796,1,0,0:0:0:0:
160,160,83942,1,8,0:0:0:0:
288,160,84087,1,0,0:0:0:0:
48,288,84233,6,0,P|64:208|64:176,1,107.999996704102,4|0,0:0|0:0,0:0:0:0:
176,176,84524,1,0,0:0:0:0:
64,176,84670,1,0,0:0:0:0:
288,288,84816,2,0,P|320:208|304:160,1,107.999996704102,8|0,0:0|0:0,0:0:0:0:
128,160,85107,6,0,L|320:160,1,161.999995056153,4|0,0:0|0:0,0:0:0:0:
112,288,85398,2,0,P|80:224|112:144,1,161.999995056153,8|0,0:0|0:0,0:0:0:0:
304,224,85689,2,0,L|128:224,1,161.999995056153,8|0,0:0|0:0,0:0:0:0:
368,160,85981,5,4,0:0:0:0:
272,160,86126,1,0,0:0:0:0:
384,256,86272,2,0,P|368:192|352:144,1,107.999996704102
240,224,86563,2,0,P|256:144|288:112,1,107.999996704102,8|0,0:0|0:0,0:0:0:0:
144,128,86854,6,0,P|224:48|240:48,1,107.999996704102,8|0,0:0|0:0,0:0:0:0:
320,48,87146,1,8,0:0:0:0:
192,48,87291,1,0,0:0:0:0:
416,144,87437,2,0,P|480:64|480:48,1,107.999996704102,8|0,0:0|0:0,0:0:0:0:
112,160,87728,5,4,0:0:0:0:
352,256,87874,2,0,P|416:240|336:176,1,215.999993408203,0|8,0:0|0:0,0:0:0:0:
112,192,88311,2,0,L|96:80,1,107.999996704102,4|0,0:0|0:0,0:0:0:0:
208,96,88602,1,8,0:0:0:0:
80,96,88748,1,0,0:0:0:0:
352,208,88893,6,0,P|480:160|496:128,1,161.999995056153,8|0,0:0|0:0,0:0:0:0:
160,208,89184,2,0,P|32:160|16:128,1,161.999995056153,8|0,0:0|0:0,0:0:0:0:
336,160,89476,5,4,0:0:0:0:
400,96,89621,1,0,0:0:0:0:
288,144,89767,2,0,P|304:64|352:32,1,107.999996704102,8|0,0:0|0:0,0:0:0:0:
208,144,90058,2,0,P|128:96|112:64,1,107.999996704102,8|0,0:0|0:0,0:0:0:0:
320,176,90349,2,0,P|336:96|320:48,1,107.999996704102,4|0,0:0|0:0,0:0:0:0:
224,64,90641,1,0,0:0:0:0:
96,64,90786,1,8,0:0:0:0:
352,320,90932,6,0,P|400:288|336:224,1,161.999995056153,4|0,0:0|0:0,0:0:0:0:
192,240,91223,2,0,L|176:128,1,107.999996704102,4|0,0:0|0:0,0:0:0:0:
288,160,91514,2,0,L|400:128,1,107.999996704102,0|8,0:0|0:0,0:0:0:0:
240,160,91806,2,0,L|224:48,1,107.999996704102,4|0,0:0|0:0,0:0:0:0:
432,224,92097,5,8,0:0:0:0:
320,224,92243,1,0,0:0:0:0:
208,224,92388,1,8,0:0:0:0:
480,160,92534,1,0,0:0:0:0:
208,160,92680,1,8,0:0:0:0:
320,160,92825,1,0,0:0:0:0:
80,240,92971,6,0,L|128:96,1,107.999996704102,4|0,0:0|0:0,0:0:0:0:
240,256,93262,2,0,L|368:256,1,107.999996704102,8|0,0:0|0:0,0:0:0:0:
240,256,93553,2,0,L|192:160,1,107.999996704102,8|0,0:0|0:0,0:0:0:0:
480,208,93845,6,0,P|384:192|304:96,1,215.999993408203,4|0,0:0|0:0,0:0:0:0:
432,96,94282,1,8,0:0:0:0:
307,106,94427,2,0,P|355:58|403:42,1,107.999996704102,4|0,0:0|0:0,0:0:0:0:
32,208,94718,6,0,P|128:192|208:96,1,215.999993408203,4|0,0:0|0:0,0:0:0:0:
80,96,95155,1,8,0:0:0:0:
205,106,95300,2,0,P|157:58|109:42,1,107.999996704102,4|0,0:0|0:0,0:0:0:0:
384,304,95592,6,0,P|400:224|384:128,1,161.999995056153,8|0,0:0|0:0,0:0:0:0:
176,160,95883,2,0,L|368:160,1,161.999995056153,8|0,0:0|0:0,0:0:0:0:
128,304,96175,2,0,P|112:224|128:128,1,161.999995056153,8|0,0:0|0:0,0:0:0:0:
432,240,96466,6,0,L|480:144,1,107.999996704102,4|0,0:0|0:0,0:0:0:0:
272,240,96757,2,0,P|240:176|256:128,1,107.999996704102,8|0,0:0|0:0,0:0:0:0:
368,224,97049,2,0,L|368:96,1,107.999996704102,8|0,0:0|0:0,0:0:0:0:
144,160,97340,5,4,0:0:0:0:
256,160,97485,1,0,0:0:0:0:
160,160,97631,1,0,0:0:0:0:
368,160,97777,1,8,0:0:0:0:
160,288,97922,2,0,P|128:208|160:112,1,161.999995056153,4|0,0:0|0:0,0:0:0:0:
400,304,98214,6,0,P|463:256|477:207,1,107.999996704102,4|0,0:0|0:0,0:0:0:0:
256,256,98505,2,0,L|272:128,1,107.999996704102,8|0,0:0|0:0,0:0:0:0:
400,240,98796,2,0,P|464:192|482:161,1,107.999996704102,8|0,0:0|0:0,0:0:0:0:
176,160,99087,2,0,L|400:160,1,215.999993408203,4|0,0:0|0:0,0:0:0:0:
176,160,99524,1,8,0:0:0:0:
304,224,99670,2,0,P|320:160|272:48,1,161.999995056153,8|0,0:0|0:0,0:0:0:0:
32,224,99961,6,0,L|16:96,1,107.999996704102,4|0,0:0|0:0,0:0:0:0:
192,112,100252,2,0,L|64:112,1,107.999996704102,8|0,0:0|0:0,0:0:0:0:
256,224,100544,2,0,L|272:112,1,107.999996704102,8|0,0:0|0:0,0:0:0:0:
32,288,100835,5,4,0:0:0:0:
176,288,100981,1,0,0:0:0:0:
336,288,101126,1,8,0:0:0:0:
480,288,101272,1,0,0:0:0:0:
192,224,101417,1,8,0:0:0:0:
320,224,101563,1,0,0:0:0:0:
112,224,101709,6,0,L|80:96,1,107.999996704102,4|0,0:0|0:0,0:0:0:0:
208,160,102000,2,0,L|272:64,1,107.999996704102,8|0,0:0|0:0,0:0:0:0:
128,160,102291,2,0,L|16:128,1,107.999996704102,8|0,0:0|0:0,0:0:0:0:
320,192,102582,5,4,0:0:0:0:
192,192,102728,1,0,0:0:0:0:
144,192,102800,1,0,0:0:0:0:
192,192,102873,1,0,0:0:0:0:
448,192,103019,1,8,0:0:0:0:
192,288,103165,2,0,L|208:144,1,107.999996704102,4|0,0:0|0:0,0:0:0:0:
464,112,103456,5,2,0:0:0:0:
336,112,103602,1,0,0:0:0:0:
464,112,103748,1,0,0:0:0:0:
224,48,103893,1,2,0:0:0:0:
352,48,104039,1,0,0:0:0:0:
480,48,104184,1,0,0:0:0:0:
48,112,104330,5,2,0:0:0:0:
176,112,104476,1,0,0:0:0:0:
48,112,104622,1,0,0:0:0:0:
288,48,104767,1,2,0:0:0:0:
160,48,104913,1,0,0:0:0:0:
32,48,105058,1,0,0:0:0:0:
416,256,105204,6,0,P|432:192|384:160,1,116.999994644165,4|0,0:0|0:0,0:0:0:0:
48,192,105495,2,0,L|144:112,1,116.999994644165,4|0,0:0|0:0,0:0:0:0:
320,160,105786,2,0,L|224:64,1,116.999994644165,4|0,0:0|0:0,0:0:0:0:
448,160,106078,2,0,L|208:160,1,233.999989288331,4|0,0:0|0:0,0:0:0:0:
448,288,106514,6,0,P|480:240|480:160,1,116.999994644165,0|8,0:0|0:0,0:0:0:0:
384,160,106806,1,0,0:0:0:0:
160,240,106951,5,2,0:0:0:0:
256,208,107097,1,0,0:0:0:0:
304,128,107243,1,0,0:0:0:0:
192,176,107388,2,0,P|224:112|256:80,1,116.999994644165
144,80,107680,1,0,0:0:0:0:
485,224,107825,6,0,L|368:224,1,116.999994644165,8|0,0:0|0:0,0:0:0:0:
59,224,108116,2,0,L|176:224,1,116.999994644165,8|0,0:0|0:0,0:0:0:0:
485,160,108408,2,0,L|368:160,1,116.999994644165,8|0,0:0|0:0,0:0:0:0:
128,160,108699,5,4,0:0:0:0:
48,112,108845,1,0,0:0:0:0:
128,64,108990,1,0,0:0:0:0:
224,64,109136,1,0,0:0:0:0:
336,64,109282,1,8,0:0:0:0:
400,160,109427,1,0,0:0:0:0:
160,240,109573,6,0,P|192:176|176:128,1,116.999994644165,4|0,0:0|0:0,0:0:0:0:
304,224,109864,2,0,P|272:160|224:128,1,116.999994644165
384,224,110155,2,0,P|464:176|480:128,1,116.999994644165,4|0,0:0|0:0,0:0:0:0:
128,240,110447,5,8,0:0:0:0:
368,240,110592,2,2,L|112:240,1,233.999989288331
368,240,111029,2,0,P|416:160|416:112,1,116.999994644165,8|0,0:0|0:0,0:0:0:0:
144,144,111320,5,4,0:0:0:0:
288,144,111466,1,0,0:0:0:0:
336,112,111538,1,0,0:0:0:0:
353,57,111611,1,0,0:0:0:0:
48,64,111757,1,4,0:0:0:0:
256,64,111903,1,0,0:0:0:0:
464,64,112048,1,0,0:0:0:0:
48,304,112194,6,0,P|64:240|112:192,1,116.999994644165,4|0,0:0|0:0,0:0:0:0:
208,304,112485,2,0,P|224:208|224:176,1,116.999994644165,4|0,0:0|0:0,0:0:0:0:
336,288,112777,2,0,P|368:208|368:160,1,116.999994644165,4|0,0:0|0:0,0:0:0:0:
128,112,113068,6,0,L|368:112,1,233.999989288331,4|0,0:0|0:0,0:0:0:0:
128,160,113505,1,0,0:0:0:0:
240,176,113650,2,0,P|240:112|208:64,1,116.999994644165,8|0,0:0|0:0,0:0:0:0:
32,224,113942,6,0,P|64:144|96:112,1,116.999994644165,2|0,0:0|0:0,0:0:0:0:
288,208,114233,2,0,P|320:128|304:80,1,116.999994644165
192,176,114524,2,0,P|160:112|160:48,1,116.999994644165
368,192,114816,5,8,0:0:0:0:
320,112,114961,1,0,0:0:0:0:
224,80,115107,1,8,0:0:0:0:
464,64,115252,1,0,0:0:0:0:
352,64,115398,1,8,0:0:0:0:
464,112,115544,1,0,0:0:0:0:
144,240,115689,6,0,P|80:160|80:128,1,116.999994644165,4|0,0:0|0:0,0:0:0:0:
192,208,115981,2,0,P|240:160|224:96,1,116.999994644165
352,192,116272,2,0,P|416:144|400:96,1,116.999994644165,8|0,0:0|0:0,0:0:0:0:
208,192,116563,2,0,P|160:112|160:64,1,116.999994644165,4|0,0:0|0:0,0:0:0:0:
272,96,116854,2,0,P|208:32|176:32,1,116.999994644165
304,144,117146,2,0,P|368:160|416:128,1,116.999994644165,4|0,0:0|0:0,0:0:0:0:
64,224,117437,5,8,0:0:0:0:
176,224,117582,1,0,0:0:0:0:
64,224,117728,1,2,0:0:0:0:
448,224,117874,5,8,0:0:0:0:
336,224,118019,1,0,0:0:0:0:
224,224,118165,1,2,0:0:0:0:
480,160,118311,5,8,0:0:0:0:
256,160,118456,2,0,L|160:160,2,58.4999973220826,8|0|8,0:0|0:0|0:0,0:0:0:0:
432,160,118748,2,0,L|512:160,1,58.4999973220826
192,304,118893,2,0,P|160:240|208:128,1,175.499991966248,2|0,0:0|0:0,0:0:0:0:
448,240,119184,6,0,L|464:112,1,116.999994644165,4|0,0:0|0:0,0:0:0:0:
240,256,119476,2,0,L|208:128,1,116.999994644165
352,224,119767,2,0,L|416:112,1,116.999994644165,8|0,0:0|0:0,0:0:0:0:
144,224,120058,2,0,P|128:160|192:96,1,116.999994644165,4|0,0:0|0:0,0:0:0:0:
288,192,120349,2,0,P|336:128|320:80,1,116.999994644165
208,128,120641,2,0,P|224:64|272:32,1,116.999994644165,8|0,0:0|0:0,0:0:0:0:
48,192,120932,5,4,0:0:0:0:
112,144,121078,1,0,0:0:0:0:
224,192,121223,1,0,0:0:0:0:
272,112,121369,1,0,0:0:0:0:
208,48,121515,1,4,0:0:0:0:
96,48,121660,1,0,0:0:0:0:
416,224,121806,5,8,0:0:0:0:
384,144,121951,1,0,0:0:0:0:
288,144,122097,1,0,0:0:0:0:
192,176,122243,1,0,0:0:0:0:
96,176,122388,1,8,0:0:0:0:
48,96,122534,1,0,0:0:0:0:
352,240,122680,5,4,0:0:0:0:
128,240,122825,1,8,0:0:0:0:
432,240,122971,6,0,L|448:112,1,116.999994644165,8|0,0:0|0:0,0:0:0:0:
320,240,123263,2,0,L|288:112,1,116.999994644165,8|0,0:0|0:0,0:0:0:0:
144,240,123554,2,0,L|208:128,1,116.999994644165,4|0,0:0|0:0,0:0:0:0:
320,160,123845,2,0,P|384:128|400:64,1,116.999994644165,8|0,0:0|0:0,0:0:0:0:
272,160,124136,2,0,P|240:96|272:32,1,116.999994644165,8|0,0:0|0:0,0:0:0:0:
432,224,124427,5,4,0:0:0:0:
176,224,124573,1,8,0:0:0:0:
288,160,124718,2,0,L|160:160,1,116.999994644165,8|0,0:0|0:0,0:0:0:0:
304,208,125010,2,0,P|336:144|304:80,1,116.999994644165,8|0,0:0|0:0,0:0:0:0:
96,160,125301,5,4,0:0:0:0:
320,272,125447,2,0,L|416:272,2,58.4999973220826,8|0|8,0:0|0:0|0:0,0:0:0:0:
64,224,125738,2,0,L|0:224,1,58.4999973220826,8|0,0:0|0:0,0:0:0:0:
192,224,125883,2,0,L|272:224,1,58.4999973220826,8|0,0:0|0:0,0:0:0:0:
64,224,126029,2,0,L|-16:224,1,58.4999973220826
272,224,126175,6,0,P|256:144|224:128,1,116.999994644165,4|0,0:0|0:0,0:0:0:0:
336,176,126466,2,0,P|320:128|256:112,1,116.999994644165
400,112,126757,2,0,P|336:80|256:80,1,116.999994644165,8|0,0:0|0:0,0:0:0:0:
160,80,127048,5,4,0:0:0:0:
48,80,127194,1,0,0:0:0:0:
160,80,127340,1,2,0:0:0:0:
368,80,127485,1,0,0:0:0:0:
480,80,127631,1,2,0:0:0:0:
368,80,127777,1,0,0:0:0:0:
64,224,127922,5,4,0:0:0:0:
288,224,128068,1,0,0:0:0:0:
258,174,128140,1,0,0:0:0:0:
224,128,128213,1,0,0:0:0:0:
448,224,128359,1,0,0:0:0:0:
336,224,128505,1,8,0:0:0:0:
464,224,128650,1,0,0:0:0:0:
48,160,128796,5,4,0:0:0:0:
256,160,128942,1,0,0:0:0:0:
464,160,129087,1,4,0:0:0:0:
48,224,129233,1,0,0:0:0:0:
176,224,129379,1,4,0:0:0:0:
48,224,129524,1,0,0:0:0:0:
480,368,129670,6,2,P|496:272|464:96,1,270
352,256,130252,2,0,L|336:160,1,90,8|0,0:0|0:0,0:0:0:0:
448,96,130544,2,2,P|400:48|224:128,1,270
336,256,131126,2,0,L|352:144,1,90,8|0,0:0|0:0,0:0:0:0:
96,288,131417,5,2,0:0:0:0:
48,208,131563,1,0,0:0:0:0:
32,112,131709,1,0,0:0:0:0:
48,208,131854,1,2,0:0:0:0:
96,288,132000,1,8,0:0:0:0:
176,352,132146,1,0,0:0:0:0:
288,352,132291,6,0,P|304:272|304:240,1,90,2|0,0:0|0:0,0:0:0:0:
192,288,132583,2,0,P|160:208|176:144,1,135,2|0,0:0|0:0,0:0:0:0:
368,288,132874,2,0,P|368:176|352:128,1,135,8|0,0:0|0:0,0:0:0:0:
48,368,133165,6,2,P|32:272|64:96,1,270
176,256,133747,2,0,L|192:160,1,90,8|0,0:0|0:0,0:0:0:0:
64,256,134039,2,0,P|46:181|64:96,1,135,2|0,0:0|0:0,0:0:0:0:
322,336,134330,5,2,0:0:0:0:
338,321,134366,1,0,0:0:0:0:
353,304,134402,1,0,0:0:0:0:
365,285,134439,1,0,0:0:0:0:
375,265,134475,1,0,0:0:0:0:
383,244,134512,1,0,0:0:0:0:
388,222,134548,1,0,0:0:0:0:
391,199,134584,1,0,0:0:0:0:
391,177,134621,1,0,0:0:0:0:
389,155,134657,1,0,0:0:0:0:
384,133,134694,1,0,0:0:0:0:
377,111,134730,1,0,0:0:0:0:
367,91,134766,1,0,0:0:0:0:
355,72,134803,1,0,0:0:0:0:
341,55,134839,1,0,0:0:0:0:
325,39,134876,1,0,0:0:0:0:
144,240,134913,6,0,L|128:128,1,90,4|0,0:0|0:0,0:0:0:0:
240,224,135204,2,0,L|240:128,1,90,8|0,0:0|0:0,0:0:0:0:
368,240,135495,2,0,L|384:144,1,90
80,272,135786,6,0,P|48:208|64:128,1,135,4|0,0:0|0:0,0:0:0:0:
224,160,136078,1,8,0:0:0:0:
304,160,136150,1,0,0:0:0:0:
224,160,136223,1,8,0:0:0:0:
464,288,136369,2,0,P|480:192|448:144,1,135,8|0,0:0|0:0,0:0:0:0:
48,240,136660,6,0,L|16:128,1,90,2|0,0:0|0:0,0:0:0:0:
144,240,136951,2,0,L|144:112,1,90,0|2,0:0|0:0,0:0:0:0:
240,240,137243,2,0,L|272:128,1,90,8|0,0:0|0:0,0:0:0:0:
32,128,137534,5,2,0:0:0:0:
96,112,137680,1,0,0:0:0:0:
176,144,137825,1,0,0:0:0:0:
256,112,137971,1,2,0:0:0:0:
320,160,138116,1,8,0:0:0:0:
352,224,138262,1,0,0:0:0:0:
48,256,138408,6,0,L|64:144,1,90,2|0,0:0|0:0,0:0:0:0:
352,224,138699,2,0,L|320:112,1,90,0|2,0:0|0:0,0:0:0:0:
128,224,138990,2,0,L|128:96,1,90,8|0,0:0|0:0,0:0:0:0:
368,224,139282,2,0,L|448:144,1,90,2|0,0:0|0:0,0:0:0:0:
304,128,139573,2,0,L|352:48,1,90,2|0,0:0|0:0,0:0:0:0:
80,160,139864,2,0,L|64:64,1,90,8|0,0:0|0:0,0:0:0:0:
400,224,140155,6,2,L|128:224,1,270
400,224,140738,2,0,P|432:192|400:96,1,135,8|0,0:0|0:0,0:0:0:0:
192,192,141029,6,0,L|176:80,1,90,2|0,0:0|0:0,0:0:0:0:
304,80,141320,2,0,L|176:80,1,90,2|0,0:0|0:0,0:0:0:0:
352,192,141612,2,0,L|368:96,1,90,8|0,0:0|0:0,0:0:0:0:
32,320,141903,6,0,P|16:224|32:192,1,135,2|0,0:0|0:0,0:0:0:0:
240,304,142194,2,0,P|256:240|240:160,1,135,8|0,0:0|0:0,0:0:0:0:
80,208,142485,2,0,L|224:208,1,135,8|0,0:0|0:0,0:0:0:0:
432,304,142777,2,0,P|448:208|432:176,1,135,2|0,0:0|0:0,0:0:0:0:
288,176,143068,2,0,L|192:64,1,135,8|0,0:0|0:0,0:0:0:0:
464,176,143359,2,0,P|480:96|448:32,1,135,8|0,0:0|0:0,0:0:0:0:
96,160,143650,6,0,L|240:160,1,135,2|0,0:0|0:0,0:0:0:0:
448,160,143942,2,0,L|304:160,1,135,8|0,0:0|0:0,0:0:0:0:
80,224,144233,2,0,L|160:368,1,135,8|0,0:0|0:0,0:0:0:0:
320,224,144524,2,0,L|464:224,1,135,2|0,0:0|0:0,0:0:0:0:
192,160,144816,2,0,L|48:160,1,135,8|0,0:0|0:0,0:0:0:0:
336,160,145107,2,0,L|496:160,1,135,8|0,0:0|0:0,0:0:0:0:
96,272,145398,6,0,L|96:160,1,90,2|0,0:0|0:0,0:0:0:0:
224,256,145689,2,0,L|272:160,1,90,8|0,0:0|0:0,0:0:0:0:
144,160,145981,2,0,L|80:64,1,90,8|0,0:0|0:0,0:0:0:0:
352,160,146272,2,0,L|480:160,1,90,2|0,0:0|0:0,0:0:0:0:
288,160,146563,2,0,L|256:48,1,90,8|0,0:0|0:0,0:0:0:0:
432,160,146854,2,0,L|496:48,1,90,8|0,0:0|0:0,0:0:0:0:
176,224,147146,6,0,L|80:224,1,90,2|0,0:0|0:0,0:0:0:0:
224,160,147437,2,0,L|240:64,1,90,8|0,0:0|0:0,0:0:0:0:
112,80,147728,2,0,L|-16:80,1,90,8|0,0:0|0:0,0:0:0:0:
336,224,148019,2,0,L|256:176,1,90,2|0,0:0|0:0,0:0:0:0:
432,160,148311,2,0,L|432:64,1,90,8|0,0:0|0:0,0:0:0:0:
48,336,148602,2,0,P|32:256|64:176,1,135,4|0,0:0|0:0,0:0:0:0:
352,336,148893,5,8,0:0:0:0:
416,272,149038,1,0,0:0:0:0:
384,192,149184,1,0,0:0:0:0:
288,160,149329,1,0,0:0:0:0:
224,128,149475,1,0,0:0:0:0:
272,64,149621,1,0,0:0:0:0:
496,240,149767,5,8,0:0:0:0:
368,240,149913,1,0,0:0:0:0:
496,240,150059,1,0,0:0:0:0:
48,240,150204,1,0,0:0:0:0:
256,240,150349,1,0,0:0:0:0:
480,240,150495,1,0,0:0:0:0:
160,336,150641,5,8,0:0:0:0:
96,272,150786,1,0,0:0:0:0:
128,192,150932,1,0,0:0:0:0:
224,160,151077,1,0,0:0:0:0:
288,128,151223,1,0,0:0:0:0:
240,64,151369,1,0,0:0:0:0:
16,240,151515,5,8,0:0:0:0:
144,240,151661,1,0,0:0:0:0:
16,240,151807,1,0,0:0:0:0:
464,240,151952,1,0,0:0:0:0:
256,240,152097,1,0,0:0:0:0:
32,240,152243,1,0,0:0:0:0:
416,320,152388,5,8,0:0:0:0:
480,240,152533,1,0,0:0:0:0:
416,176,152679,1,0,0:0:0:0:
304,176,152825,1,0,0:0:0:0:
176,176,152970,1,0,0:0:0:0:
32,176,153116,1,0,0:0:0:0:
304,224,153261,5,8,0:0:0:0:
208,176,153407,1,0,0:0:0:0:
304,96,153553,1,0,0:0:0:0:
400,96,153698,1,0,0:0:0:0:
496,80,153844,1,0,0:0:0:0:
400,32,153990,1,0,0:0:0:0:
16,240,154136,5,8,0:0:0:0:
144,240,154282,1,0,0:0:0:0:
16,240,154428,1,0,0:0:0:0:
144,240,154573,1,0,0:0:0:0:
272,240,154719,1,0,0:0:0:0:
144,240,154863,1,0,0:0:0:0:
496,240,155010,5,8,0:0:0:0:
368,240,155156,1,0,0:0:0:0:
496,240,155302,1,0,0:0:0:0:
368,240,155447,1,0,0:0:0:0:
240,240,155593,1,0,0:0:0:0:
368,240,155737,1,0,0:0:0:0:
48,224,155883,6,0,L|32:112,1,90
160,192,156175,2,0,L|144:80,1,90
288,208,156466,2,0,L|320:96,1,90
240,112,156684,1,0,0:0:0:0:
32,208,156757,6,0,L|32:80,1,90
176,192,157049,2,0,L|240:112,1,90
128,112,157340,2,0,L|64:16,1,90
400,192,157631,6,0,L|416:96,1,90
256,208,157922,2,0,P|208:176|192:64,1,135
464,176,158214,2,0,L|480:80,1,90
96,240,158505,6,0,L|224:240,1,90
400,240,158796,2,0,L|272:240,1,90
96,176,159087,2,0,L|208:176,1,90
464,240,159379,5,0,0:0:0:0:
480,160,159524,1,0,0:0:0:0:
416,96,159670,1,0,0:0:0:0:
304,96,159816,1,0,0:0:0:0:
192,96,159961,1,0,0:0:0:0:
64,96,160107,1,0,0:0:0:0:
400,240,160252,5,0,0:0:0:0:
496,192,160398,1,0,0:0:0:0:
400,144,160544,1,0,0:0:0:0:
112,240,160689,1,0,0:0:0:0:
16,192,160835,1,0,0:0:0:0:
112,144,160981,1,0,0:0:0:0:
368,224,161126,6,0,L|368:112,1,90
208,224,161417,2,0,L|208:112,1,90
480,224,161709,2,0,L|480:112,1,90
192,288,162000,6,0,P|160:208|192:128,1,135
448,352,162291,2,0,P|464:304|448:32,1,315
64,272,162874,5,4,0:0:0:0:
32,208,163019,1,0,0:0:0:0:
96,144,163165,1,8,0:0:0:0:
208,208,163311,2,0,L|208:96,1,107.999996704102,0|8,0:0|0:0,0:0:0:0:
96,80,163602,1,0,0:0:0:0:
320,160,163748,6,0,L|432:160,1,107.999996704102,4|0,0:0|0:0,0:0:0:0:
224,160,164039,2,0,L|208:48,1,107.999996704102,8|0,0:0|0:0,0:0:0:0:
480,160,164330,2,0,L|496:32,1,107.999996704102,8|0,0:0|0:0,0:0:0:0:
160,224,164621,6,0,L|32:224,1,107.999996704102,4|0,0:0|0:0,0:0:0:0:
336,224,164913,2,0,L|368:80,1,107.999996704102,8|0,0:0|0:0,0:0:0:0:
144,128,165204,1,8,0:0:0:0:
272,128,165349,1,0,0:0:0:0:
128,128,165495,5,4,0:0:0:0:
256,128,165641,1,0,0:0:0:0:
48,224,165786,2,0,L|32:112,1,107.999996704102,8|0,0:0|0:0,0:0:0:0:
256,224,166078,2,0,L|128:224,1,107.999996704102,8|0,0:0|0:0,0:0:0:0:
448,272,166369,5,4,0:0:0:0:
480,208,166514,1,0,0:0:0:0:
416,144,166660,1,8,0:0:0:0:
304,208,166806,2,0,L|304:96,1,107.999996704102,8|0,0:0|0:0,0:0:0:0:
416,80,167097,1,8,0:0:0:0:
192,160,167243,6,0,L|80:160,1,107.999996704102,4|0,0:0|0:0,0:0:0:0:
288,160,167534,2,0,L|304:48,1,107.999996704102,8|8,0:0|0:0,0:0:0:0:
208,48,167825,1,8,0:0:0:0:
432,48,167971,1,0,0:0:0:0:
80,240,168116,6,0,L|64:112,1,107.999996704102,4|0,0:0|0:0,0:0:0:0:
192,192,168408,2,0,L|192:80,1,107.999996704102,8|0,0:0|0:0,0:0:0:0:
48,192,168699,2,0,L|32:64,1,107.999996704102,8|0,0:0|0:0,0:0:0:0:
352,160,168990,2,0,L|480:160,2,107.999996704102,4|0|8,0:0|0:0|0:0,0:0:0:0:
144,272,169427,2,0,L|16:272,2,107.999996704102,4|0|0,0:0|0:0|0:0,0:0:0:0:
464,96,169864,5,2,0:0:0:0:
336,96,170010,1,0,0:0:0:0:
208,96,170156,1,0,0:0:0:0:
464,224,170301,1,2,0:0:0:0:
336,224,170447,1,0,0:0:0:0:
464,224,170592,1,0,0:0:0:0:
48,96,170738,5,2,0:0:0:0:
176,96,170884,1,0,0:0:0:0:
304,96,171030,1,0,0:0:0:0:
48,224,171175,1,2,0:0:0:0:
176,224,171321,1,0,0:0:0:0:
48,224,171466,1,0,0:0:0:0:
464,112,171612,5,2,0:0:0:0:
336,112,171758,1,0,0:0:0:0:
464,112,171904,1,8,0:0:0:0:
224,48,172049,1,2,0:0:0:0:
448,48,172195,1,0,0:0:0:0:
496,48,172267,1,0,0:0:0:0:
448,48,172340,1,8,0:0:0:0:
64,192,172485,5,2,0:0:0:0:
320,192,172631,1,0,0:0:0:0:
368,192,172703,1,0,0:0:0:0:
320,192,172776,1,8,0:0:0:0:
32,192,172923,1,10,0:0:0:0:
240,192,173068,1,2,0:0:0:0:
32,192,173214,1,2,0:0:0:0:
304,256,173359,6,0,P|352:224|288:144,1,175.499991966248,4|0,0:0|0:0,0:0:0:0:
96,208,173650,2,0,L|208:64,1,175.499991966248,4|0,0:0|0:0,0:0:0:0:
352,160,173942,2,0,L|224:32,1,175.499991966248,4|0,0:0|0:0,0:0:0:0:
400,320,174233,6,0,P|480:224|368:48,1,350.999983932496,4|0,0:0|0:0,0:0:0:0:
160,160,174816,2,0,L|336:160,1,175.499991966248,8|0,0:0|0:0,0:0:0:0:
96,352,175107,2,0,P|32:224|112:32,1,337.500012874604,2|0,0:0|0:0,0:0:0:0:
352,112,175981,2,0,L|496:112,1,135,8|0,0:0|0:0,0:0:0:0:
224,112,176272,2,0,L|80:112,1,135,8|0,0:0|0:0,0:0:0:0:
320,176,176563,2,0,L|480:176,1,135,8|0,0:0|0:0,0:0:0:0:
176,320,176854,6,0,P|96:272|208:96,1,350.999983932496,4|0,0:0|0:0,0:0:0:0:
432,256,177437,2,0,P|480:192|416:128,1,175.499991966248,8|0,0:0|0:0,0:0:0:0:
112,48,177728,2,0,L|416:352,1,409.499981254578,4|0,0:0|0:0,0:0:0:0:
160,320,178311,2,0,L|160:192,1,116.999994644165,4|0,0:0|0:0,0:0:0:0:
384,240,178603,5,8,0:0:0:0:
144,240,178748,2,2,L|400:240,1,233.999989288331
144,240,179185,2,0,P|96:160|96:112,1,116.999994644165,8|0,0:0|0:0,0:0:0:0:
368,144,179476,5,4,0:0:0:0:
224,144,179622,1,0,0:0:0:0:
176,112,179694,1,0,0:0:0:0:
159,57,179767,1,0,0:0:0:0:
464,192,179913,2,0,L|480:112,1,58.4999973220826,4|0,0:0|0:0,0:0:0:0:
256,112,180058,2,0,L|240:32,1,58.4999973220826
464,192,180204,2,0,L|480:112,1,58.4999973220826
256,160,180349,5,4,0:0:0:0:
464,160,180495,1,0,0:0:0:0:
224,224,180641,1,4,0:0:0:0:
432,224,180786,1,0,0:0:0:0:
192,288,180932,1,4,0:0:0:0:
400,288,181078,1,0,0:0:0:0:
144,176,181223,6,0,L|384:176,1,233.999989288331,4|0,0:0|0:0,0:0:0:0:
144,176,181660,1,0,0:0:0:0:
368,240,181806,2,0,P|384:176|352:128,1,116.999994644165,8|0,0:0|0:0,0:0:0:0:
144,240,182097,6,0,L|16:240,1,116.999994644165,2|0,0:0|0:0,0:0:0:0:
288,240,182388,2,0,P|272:160|240:128,1,116.999994644165
400,160,182680,2,0,P|336:112|272:112,1,116.999994644165
176,112,182971,5,8,0:0:0:0:
464,224,183116,1,0,0:0:0:0:
256,224,183262,1,8,0:0:0:0:
48,224,183408,1,0,0:0:0:0:
368,224,183553,1,8,0:0:0:0:
144,224,183699,1,0,0:0:0:0:
352,176,183845,6,0,P|288:128|224:112,1,116.999994644165,4|0,0:0|0:0,0:0:0:0:
384,64,184136,2,0,P|304:48|256:48,1,116.999994644165
416,128,184427,1,8,0:0:0:0:
192,128,184573,1,0,0:0:0:0:
480,208,184718,6,0,L|208:208,1,233.999989288331,4|0,0:0|0:0,0:0:0:0:
480,208,185155,1,0,0:0:0:0:
240,272,185301,2,0,L|256:144,1,116.999994644165,4|0,0:0|0:0,0:0:0:0:
480,272,185592,5,8,0:0:0:0:
272,272,185738,2,0,L|400:272,1,116.999994644165,0|2,0:0|0:0,0:0:0:0:
32,272,186029,1,8,0:0:0:0:
240,272,186175,2,0,L|112:272,1,116.999994644165,0|2,0:0|0:0,0:0:0:0:
400,160,186466,5,8,0:0:0:0:
112,160,186611,2,0,L|16:160,2,58.4999973220826,8|0|8,0:0|0:0|0:0,0:0:0:0:
320,224,186903,2,0,L|400:224,1,58.4999973220826
128,224,187049,2,0,L|224:224,1,58.4999973220826,2|0,0:0|0:0,0:0:0:0:
320,224,187194,2,0,L|400:224,1,58.4999973220826
80,176,187340,6,0,P|128:112|192:80,1,116.999994644165,4|0,0:0|0:0,0:0:0:0:
304,176,187631,2,0,P|336:112|336:64,1,116.999994644165
192,224,187922,2,0,P|144:176|96:144,1,116.999994644165,8|0,0:0|0:0,0:0:0:0:
256,112,188214,2,0,P|208:64|144:48,1,116.999994644165,4|0,0:0|0:0,0:0:0:0:
432,64,188505,2,0,L|288:64,1,116.999994644165
480,208,188796,2,0,P|448:160|400:112,1,116.999994644165,8|0,0:0|0:0,0:0:0:0:
176,240,189087,6,0,P|144:176|144:112,1,116.999994644165,4|0,0:0|0:0,0:0:0:0:
304,160,189379,2,0,L|176:160,1,116.999994644165
368,176,189670,2,0,P|336:80|288:64,1,116.999994644165,4|0,0:0|0:0,0:0:0:0:
480,64,189961,2,0,L|336:64,1,116.999994644165,8|0,0:0|0:0,0:0:0:0:
144,160,190252,2,0,L|272:160,1,116.999994644165
48,224,190544,2,0,P|32:144|48:96,1,116.999994644165,8|0,0:0|0:0,0:0:0:0:
352,240,190835,5,4,0:0:0:0:
128,240,190981,1,8,0:0:0:0:
480,256,191126,2,0,L|512:128,1,116.999994644165,8|0,0:0|0:0,0:0:0:0:
192,160,191417,2,0,L|336:160,1,116.999994644165,8|0,0:0|0:0,0:0:0:0:
32,256,191709,2,0,L|0:128,1,116.999994644165,4|0,0:0|0:0,0:0:0:0:
288,208,192000,2,0,L|171:208,1,116.999994644165,8|0,0:0|0:0,0:0:0:0:
384,144,192291,2,0,L|240:144,1,116.999994644165,8|0,0:0|0:0,0:0:0:0:
496,224,192583,5,4,0:0:0:0:
128,224,192729,1,8,0:0:0:0:
368,224,192874,2,0,L|240:224,1,116.999994644165,8|0,0:0|0:0,0:0:0:0:
464,240,193166,2,0,P|496:176|448:160,1,116.999994644165,8|0,0:0|0:0,0:0:0:0:
96,160,193457,5,4,0:0:0:0:
320,272,193603,2,0,L|416:272,2,58.4999973220826,8|0|8,0:0|0:0|0:0,0:0:0:0:
64,224,193893,2,0,L|0:224,1,58.4999973220826,8|0,0:0|0:0,0:0:0:0:
304,224,194039,2,0,L|384:224,1,58.4999973220826,8|0,0:0|0:0,0:0:0:0:
64,224,194185,2,0,L|-16:224,1,58.4999973220826
384,160,194331,6,0,L|256:160,1,116.999994644165,4|0,0:0|0:0,0:0:0:0:
480,160,194621,1,0,0:0:0:0:
160,160,194767,1,0,0:0:0:0:
368,96,194913,2,0,L|224:96,1,116.999994644165,8|0,0:0|0:0,0:0:0:0:
480,224,195204,5,4,0:0:0:0:
352,224,195349,1,0,0:0:0:0:
480,224,195495,1,2,0:0:0:0:
32,224,195641,1,0,0:0:0:0:
160,224,195786,1,2,0:0:0:0:
32,224,195932,1,0,0:0:0:0:
480,224,196078,5,4,0:0:0:0:
112,160,196224,1,0,0:0:0:0:
256,160,196296,1,0,0:0:0:0:
400,160,196369,1,0,0:0:0:0:
48,224,196515,1,0,0:0:0:0:
176,224,196660,1,8,0:0:0:0:
48,224,196806,1,0,0:0:0:0:
432,160,196952,5,4,0:0:0:0:
80,160,197098,1,0,0:0:0:0:
512,160,197243,1,4,0:0:0:0:
0,160,197389,1,0,0:0:0:0:
432,160,197534,1,4,0:0:0:0:
80,160,197680,1,0,0:0:0:0:
384,224,197825,6,0,L|256:224,1,116.999994644165,8|0,0:0|0:0,0:0:0:0:
144,224,198116,1,8,0:0:0:0:
464,160,198262,2,0,L|320:160,2,116.999994644165,0|8|0,0:0|0:0|0:0,0:0:0:0:
160,160,198699,2,0,L|368:160,1,175.499991966248,2|0,0:0|0:0,0:0:0:0:
112,224,198990,2,0,L|304:272,1,175.499991966248
64,304,199282,2,0,P|16:224|16:144,1,175.499991966248,2|0,0:0|0:0,0:0:0:0:
352,176,199573,5,8,0:0:0:0:
48,176,199718,1,0,0:0:0:0:
256,176,199864,1,0,0:0:0:0:
464,176,200010,1,8,0:0:0:0:
144,176,200155,1,8,0:0:0:0:
368,176,200301,1,0,0:0:0:0:
144,256,200447,2,0,P|80:208|160:144,1,175.499991966248,8|0,0:0|0:0,0:0:0:0:
336,112,200738,6,0,L|432:112,1,58.4999973220826,2|0,0:0|0:0,0:0:0:0:
160,112,200883,2,0,L|80:112,1,58.4999973220826
368,48,201029,2,0,L|432:48,1,58.4999973220826
128,48,201175,2,0,L|64:48,1,58.4999973220826
272,256,201320,6,0,P|256:176|224:160,1,116.999994644165,4|0,0:0|0:0,0:0:0:0:
336,208,201611,2,0,P|320:160|256:144,1,116.999994644165
400,144,201902,2,0,P|336:112|256:112,1,116.999994644165,8|0,0:0|0:0,0:0:0:0:
496,160,202194,5,4,0:0:0:0:
192,224,202340,1,0,0:0:0:0:
320,224,202485,1,2,0:0:0:0:
16,160,202631,1,0,0:0:0:0:
320,224,202777,1,2,0:0:0:0:
192,224,202922,1,0,0:0:0:0:
480,224,203068,5,4,0:0:0:0:
112,160,203214,1,0,0:0:0:0:
256,160,203286,1,0,0:0:0:0:
400,160,203359,1,0,0:0:0:0:
48,224,203505,1,0,0:0:0:0:
176,224,203651,1,8,0:0:0:0:
48,224,203796,1,0,0:0:0:0:
432,160,203942,5,4,0:0:0:0:
80,160,204088,1,0,0:0:0:0:
512,160,204232,1,4,0:0:0:0:
0,160,204379,1,0,0:0:0:0:
432,160,204524,1,4,0:0:0:0:
80,160,204670,1,0,0:0:0:0:
368,256,204816,6,0,L|480:256,1,107.999996704102,4|0,0:0|0:0,0:0:0:0:
224,256,205107,2,0,L|192:144,1,107.999996704102,8|0,0:0|0:0,0:0:0:0:
320,176,205398,2,0,L|432:128,1,107.999996704102,8|0,0:0|0:0,0:0:0:0:
288,160,205689,6,0,L|160:160,1,107.999996704102,4|0,0:0|0:0,0:0:0:0:
336,96,205981,2,0,L|208:128,1,107.999996704102,8|0,0:0|0:0,0:0:0:0:
464,176,206272,2,0,L|480:32,1,107.999996704102,8|0,0:0|0:0,0:0:0:0:
48,240,206563,6,0,L|32:96,1,107.999996704102,4|0,0:0|0:0,0:0:0:0:
176,128,206855,2,0,L|304:128,1,107.999996704102,8|0,0:0|0:0,0:0:0:0:
128,64,207146,2,0,L|-16:64,1,107.999996704102,8|0,0:0|0:0,0:0:0:0:
416,224,207437,5,4,0:0:0:0:
192,160,207583,2,0,L|368:160,1,161.999995056153,8|0,0:0|0:0,0:0:0:0:
64,304,207874,2,0,L|128:304,1,53.9999983520508,8|0,0:0|0:0,0:0:0:0:
432,304,208019,2,0,L|368:304,1,53.9999983520508,8|0,0:0|0:0,0:0:0:0:
96,240,208165,2,0,L|160:240,1,53.9999983520508,8|0,0:0|0:0,0:0:0:0:
464,240,208311,6,0,P|480:176|464:128,1,107.999996704102,4|0,0:0|0:0,0:0:0:0:
352,208,208602,2,0,P|384:144|416:112,1,107.999996704102,8|0,0:0|0:0,0:0:0:0:
224,128,208893,2,0,P|288:80|352:80,1,107.999996704102,8|0,0:0|0:0,0:0:0:0:
96,208,209184,5,4,0:0:0:0:
416,224,209330,1,0,0:0:0:0:
144,160,209476,2,0,L|272:160,1,107.999996704102,8|0,0:0|0:0,0:0:0:0:
384,160,209767,1,8,0:0:0:0:
16,160,209913,1,0,0:0:0:0:
368,224,210058,5,4,0:0:0:0:
160,224,210204,1,8,0:0:0:0:
384,160,210349,2,0,L|192:160,1,161.999995056153
464,304,210641,2,0,L|496:240,1,53.9999983520508,8|0,0:0|0:0,0:0:0:0:
48,304,210786,2,0,L|16:240,1,53.9999983520508,8|0,0:0|0:0,0:0:0:0:
256,224,210932,5,4,0:0:0:0:
144,224,211078,1,0,0:0:0:0:
352,160,211223,1,8,0:0:0:0:
80,112,211369,2,0,L|16:112,1,53.9999983520508,4|0,0:0|0:0,0:0:0:0:
432,112,211515,2,0,L|496:112,1,53.9999983520508
80,112,211660,2,0,L|0:112,1,53.9999983520508,8|0,0:0|0:0,0:0:0:0:
432,352,211806,6,0,P|480:304|416:128,1,270.000010299683,4|0,0:0|0:0,0:0:0:0:
224,224,212562,1,8,0:0:0:0:
336,160,213150,6,0,L|432:160,1,90.0000034332277,4|0,0:0|0:0,0:0:0:0:
256,160,213486,2,0,L|160:160,1,90.0000034332277,4|0,0:0|0:0,0:0:0:0:
480,160,214074,1,8,0:0:0:0:
192,224,214453,1,2,0:0:0:0:
368,160,214831,6,0,L|112:160,1,225.000008583069,4|0,0:0|0:0,0:0:0:0:
368,224,215587,1,8,0:0:0:0:
191,159,216133,6,0,L|95:159,1,90.0000034332277,4|0,0:0|0:0,0:0:0:0:
320,160,216511,2,0,L|416:160,1,90.0000034332277,4|0,0:0|0:0,0:0:0:0:
175,224,217068,1,8,0:0:0:0:
320,224,217446,2,0,L|336:160,1,50.6250019311906,8|0,0:0|0:0,0:0:0:0:
96,224,217635,1,8,0:0:0:0:
256,192,217761,12,0,218864,0:0:0:0:
