osu file format v14

[General]
AudioFilename: audio.mp3
AudioLeadIn: 0
PreviewTime: 53627
Countdown: 0
SampleSet: Soft
StackLeniency: 0.7
Mode: 0
LetterboxInBreaks: 0
WidescreenStoryboard: 1

[Editor]
DistanceSpacing: 1.3
BeatDivisor: 2
GridSize: 32
TimelineZoom: 1

[Metadata]
Title:Torikago (TV Size)
TitleUnicode:トリカゴ (TV Size)
Artist:XX:me
ArtistUnicode:XX:me
Creator:-Eriri-
Version:Normal
Source:ダーリン・イン・ザ・フランキス
Tags:ending ed DARLING in the FRANXX zero two ichigo miku kokoro ikuno キス・ミー kiss me 杉山勝彦 gary00737 Yugu
BeatmapID:1657964
BeatmapSetID:726765

[Difficulty]
HPDrainRate:3
CircleSize:3
OverallDifficulty:4
ApproachRate:5
SliderMultiplier:0.8
SliderTickRate:1

[Events]
//Background and Video events
0,0,"241.jpg",0,0
//Break Periods
//Storyboard Layer 0 (Background)
//Storyboard Layer 1 (Fail)
//Storyboard Layer 2 (Pass)
//Storyboard Layer 3 (Foreground)
//Storyboard Sound Samples

[TimingPoints]
91,387.096774193548,4,2,2,80,1,0
1639,-100,4,2,2,55,0,0
4155,-100,4,2,2,50,0,0
4736,-100,4,2,2,40,0,0
14026,-100,4,2,2,45,0,0
20220,-100,4,2,2,50,0,0
25832,-100,4,2,2,60,0,0
26413,-100,4,2,2,55,0,0
38220,-100,4,2,2,60,0,0
54284,-100,4,2,2,70,0,1
65123,-100,4,2,2,60,0,0
66671,-100,4,2,2,75,0,1
79058,-100,4,2,2,65,0,1
85252,-100,4,2,2,55,0,0
98026,-100,4,2,2,50,0,0
98413,-100,4,2,2,65,0,0
98800,-100,4,2,2,44,0,0
99187,-100,4,2,2,55,0,0
99574,-100,4,2,2,33,0,0
99961,-100,4,2,2,45,0,0
100349,-100,4,2,2,22,0,0
100736,-100,4,2,2,35,0,0
101123,-100,4,2,2,11,0,0
101510,-100,4,2,2,25,0,0
101897,-100,4,2,2,9,0,0
102284,-100,4,2,2,15,0,0
102671,-100,4,2,2,5,0,0

[Colours]
Combo1 : 175,116,220
Combo2 : 255,89,89
Combo3 : 72,147,230

[HitObjects]
202,283,1639,6,0,L|372:265,1,160,4|4,2:0|2:0,0:0:0:0:
408,117,2994,2,0,L|248:133,1,160,4|4,2:0|2:0,0:0:0:0:
154,175,4155,2,0,P|146:141|147:120,1,40,8|8,0:0|0:0,0:0:0:0:
157,85,4542,1,8,0:0:0:0:
192,46,4736,6,0,L|352:30,1,160,4|4,2:0|2:0,0:0:0:0:
463,138,6090,2,0,L|303:122,1,160,4|4,2:0|2:0,0:0:0:0:
215,66,7252,2,0,L|159:71,1,40,4|8,3:0|0:0,0:0:0:0:
131,97,7639,1,8,0:0:0:0:
105,142,7832,6,0,P|98:179|108:228,1,80,4|8,2:0|0:0,0:0:0:0:
126,321,8607,2,0,P|67:319|21:283,2,120,4|4|8,3:0|2:0|0:0,0:0:0:0:
175,304,9961,2,0,P|220:294|271:304,1,80,4|4,2:0|3:0,0:0:0:0:
303,313,10542,2,0,P|326:322|351:326,1,40,8|0,0:0|0:0,0:0:0:0:
392,316,10929,5,4,2:0:0:0:
348,220,11316,1,8,1:2:0:0:
411,137,11703,2,0,P|360:117|320:119,1,80,4|8,3:0|2:0,0:0:0:0:
286,133,12284,2,0,P|235:153|195:151,1,80,4|4,2:0|3:0,0:0:0:0:
158,146,12865,1,8,0:0:0:0:
114,174,13058,1,4,2:0:0:0:
131,276,13445,2,0,L|127:349,2,40,8|4|8,0:0|3:0|3:0,0:0:0:0:
173,307,14026,6,0,P|209:324|263:320,1,80,4|8,1:0|2:0,0:0:0:0:
296,303,14607,1,4,3:0:0:0:
313,200,14994,2,0,L|306:156,1,40,4|8,3:0|0:0,0:0:0:0:
319,109,15381,1,0,0:0:0:0:
356,73,15574,2,0,P|401:63|443:83,1,80,4|8,3:0|0:0,0:0:0:0:
458,118,16155,1,4,3:0:0:0:
500,212,16542,2,0,P|474:220|418:213,1,80,4|2,3:0|0:0,0:0:0:0:
384,250,17123,6,0,P|358:242|302:249,1,80,4|8,3:0|0:0,0:0:0:0:
259,225,17703,1,4,3:0:0:0:
169,278,18090,2,0,P|160:253|156:236,1,40,4|8,3:0|0:0,0:0:0:0:
159,187,18478,1,0,0:0:0:0:
177,138,18671,2,0,P|190:89|181:53,1,80,4|8,3:0|0:0,0:0:0:0:
156,16,19252,1,4,3:0:0:0:
57,49,19639,2,0,P|44:98|53:134,1,80,4|2,3:0|0:0,0:0:0:0:
59,177,20220,6,0,P|72:226|63:262,1,80,4|8,1:0|0:0,0:0:0:0:
57,305,20800,1,4,3:0:0:0:
143,362,21187,2,0,L|194:356,1,40,4|8,3:0|0:0,0:0:0:0:
229,333,21574,1,0,0:0:0:0:
263,293,21768,2,0,P|278:258|268:206,1,80,4|8,3:0|0:0,0:0:0:0:
234,182,22349,2,0,P|219:147|229:95,1,80,4|4,3:0|3:0,0:0:0:0:
239,56,22929,2,0,P|206:48|193:47,2,40,8|2|4,0:0|0:0|3:0,0:0:0:0:
342,41,23703,5,8,0:0:0:0:
391,56,23897,2,0,P|412:71|429:95,1,40,4|0,3:0|0:0,0:0:0:0:
439,130,24284,2,0,P|422:180|427:217,1,80,4|2,3:0|0:0,0:0:0:0:
421,258,24865,1,4,1:0:0:0:
177,343,25832,2,0,L|182:290,1,40,8|8,3:0|0:0,0:0:0:0:
206,257,26220,1,4,3:0:0:0:
236,214,26413,6,0,P|245:166|229:124,1,80,4|8,1:0|0:0,0:0:0:0:
212,90,26994,1,4,3:0:0:0:
127,30,27381,2,0,P|112:60|109:80,1,40,4|8,3:0|0:0,0:0:0:0:
113,118,27768,1,0,0:0:0:0:
130,166,27961,2,0,P|139:210|125:251,1,80,4|8,3:0|0:0,0:0:0:0:
99,286,28543,1,4,3:0:0:0:
179,351,28929,2,0,L|218:343,1,40,4|8,3:0|0:0,0:0:0:0:
265,321,29316,1,2,0:0:0:0:
311,343,29510,6,0,L|390:358,1,80,4|8,3:0|0:0,0:0:0:0:
441,355,30090,1,4,3:0:0:0:
472,255,30478,2,0,L|477:203,1,40,4|8,3:0|0:0,0:0:0:0:
464,164,30865,1,0,0:0:0:0:
424,129,31058,2,0,P|370:118|340:121,1,80,4|8,3:0|0:0,0:0:0:0:
297,140,31640,1,4,3:0:0:0:
220,70,32026,2,0,P|202:93|198:109,1,40,4|8,3:0|0:0,0:0:0:0:
200,155,32413,1,2,0:0:0:0:
213,205,32607,6,0,P|220:244|214:291,1,80,4|8,1:0|0:0,0:0:0:0:
192,330,33187,1,4,3:0:0:0:
93,363,33574,2,0,L|91:308,1,40,4|8,3:0|0:0,0:0:0:0:
74,273,33961,1,0,0:0:0:0:
45,229,34155,2,0,L|53:134,1,80,4|8,3:0|0:0,0:0:0:0:
79,104,34736,2,0,P|124:88|165:94,1,80,4|4,3:0|3:0,0:0:0:0:
205,104,35316,2,0,P|250:120|291:114,1,80,8|4,0:0|2:0,0:0:0:0:
373,69,36090,6,0,P|382:90|385:113,1,40,8|4,0:0|3:0,0:0:0:0:
463,174,36671,2,0,P|422:204|390:212,1,80,4|0,3:0|0:0,0:0:0:0:
342,207,37252,1,4,3:0:0:0:
130,357,38220,6,0,L|111:305,1,40,8|8,1:2|1:2,0:0:0:0:
103,269,38607,2,0,P|116:235|156:210,1,80,4|4,1:0|3:0,0:0:0:0:
202,211,39187,1,8,0:0:0:0:
299,248,39574,2,0,L|306:289,2,40,4|12|8,3:0|3:0|0:0,0:0:0:0:
323,201,40155,2,0,P|336:161|332:117,1,80,4|4,2:0|3:0,0:0:0:0:
310,76,40736,6,0,L|275:44,1,40,8|0,0:0|0:0,0:0:0:0:
230,32,41123,2,0,P|171:47|138:41,1,80,4|8,3:0|0:0,0:0:0:0:
110,14,41703,2,0,P|106:64|115:146,1,120,4|8,1:3|0:0,0:0:0:0:
153,228,42671,1,4,3:0:0:0:
153,228,42865,2,0,L|148:273,2,40,4|8|4,3:0|0:0|2:0,0:0:0:0:
240,283,43639,6,0,L|245:234,1,40,4|8,3:0|0:0,0:0:0:0:
258,192,44026,2,0,P|297:176|346:182,1,80,4|4,3:0|3:0,0:0:0:0:
384,193,44607,1,8,0:0:0:0:
384,193,44800,2,0,P|431:179|460:105,2,120,4|8|4,2:0|0:0|3:0,0:0:0:0:
333,205,46155,1,8,0:0:0:0:
293,239,46349,2,0,P|281:286|331:348,2,120,4|8|4,2:0|0:0|3:0,0:0:0:0:
258,200,47703,6,0,L|199:193,1,40,8|0,0:0|0:0,0:0:0:0:
181,232,48090,2,0,P|140:243|96:237,1,80,4|8,2:0|0:0,0:0:0:0:
80,137,48865,2,0,P|121:126|165:132,1,80,4|8,3:0|0:0,0:0:0:0:
259,151,49639,2,0,P|300:162|344:156,1,80,4|8,2:0|0:0,0:0:0:0:
367,116,50220,1,4,3:0:0:0:
449,54,50607,2,0,P|462:73|470:96,1,40,4|8,3:0|0:0,0:0:0:0:
492,135,50994,6,0,L|487:266,1,120,2|8,0:0|0:0,0:0:0:0:
407,321,51961,1,8,0:0:0:0:
366,288,52155,2,0,L|361:230,2,40,0|8|0,0:0|0:0|0:0,0:0:0:0:
316,302,52736,2,0,P|268:313|166:275,1,160,4|8,1:0|0:0,0:0:0:0:
135,176,53897,1,8,0:0:0:0:
201,95,54284,6,0,P|249:84|351:122,1,160,4|4,1:0|3:0,0:0:0:0:
451,143,55445,1,8,0:0:0:0:
438,193,55639,2,0,P|402:221|357:234,1,80,4|4,3:0|3:0,0:0:0:0:
317,229,56220,1,8,0:0:0:0:
223,182,56607,2,0,P|184:174|137:186,1,80,4|8,3:0|0:0,0:0:0:0:
54,131,57381,6,0,P|46:207|100:275,1,160,4|4,1:0|3:0,0:0:0:0:
172,338,58542,1,8,0:0:0:0:
215,309,58736,2,0,P|256:298|298:309,1,80,4|4,3:0|3:0,0:0:0:0:
332,338,59316,1,8,0:0:0:0:
432,312,59703,2,0,P|438:270|430:229,1,80,4|8,3:0|0:0,0:0:0:0:
367,151,60478,6,0,L|240:142,1,120,4|4,1:0|3:0,0:0:0:0:
199,162,61252,2,0,P|181:204|188:249,1,80,4|8,3:0|0:0,0:0:0:0:
228,266,61832,2,0,L|355:275,1,120,4|8,2:0|0:0,0:0:0:0:
399,267,62607,2,0,P|417:225|410:180,1,80,4|4,2:0|3:0,0:0:0:0:
398,142,63187,2,0,P|392:109|397:86,1,40,8|0,0:0|0:0,0:0:0:0:
392,50,63574,5,4,2:0:0:0:
288,42,63961,1,8,0:0:0:0:
258,84,64155,2,0,L|269:178,1,80,4|4,0:0|3:0,0:0:0:0:
265,215,64736,2,0,P|230:223|172:206,1,80,8|0,0:0|1:0,0:0:0:0:
172,111,65510,2,0,L|130:97,1,40,4|8,3:0|0:0,0:0:0:0:
41,146,66090,2,0,L|1:134,2,40,4|8|0,3:0|0:0|0:0,0:0:0:0:
68,190,66671,6,0,P|56:227|63:278,1,80,4|8,1:0|0:0,0:0:0:0:
140,332,67445,2,0,L|227:325,1,80,4|8,3:0|0:0,0:0:0:0:
262,295,68026,2,0,L|349:302,1,80,4|0,2:0|1:0,0:0:0:0:
388,279,68607,2,0,P|401:322|392:364,2,80,8|4|8,0:0|3:0|0:0,0:0:0:0:
308,211,69768,6,0,P|295:168|304:126,1,80,4|8,1:0|0:0,0:0:0:0:
328,90,70349,1,0,1:0:0:0:
379,82,70542,2,0,L|462:87,1,80,4|8,3:0|0:0,0:0:0:0:
499,118,71123,2,0,P|512:161|503:203,1,80,4|4,2:0|3:0,0:0:0:0:
480,239,71703,1,8,0:0:0:0:
388,279,72090,2,0,L|396:327,2,40,4|4|8,3:0|3:0|0:0,0:0:0:0:
297,330,72865,6,0,P|254:335|215:321,1,80,4|8,1:0|0:0,0:0:0:0:
172,301,73445,1,0,1:0:0:0:
132,266,73639,2,0,L|142:183,1,80,4|8,3:0|0:0,0:0:0:0:
163,139,74220,1,4,1:0:0:0:
204,43,74607,2,0,L|187:-23,2,40,8|8|4,0:0|0:0|3:0,0:0:0:0:
307,50,75381,1,4,3:0:0:0:
357,63,75574,2,0,P|384:58|408:59,1,40,8|0,0:0|0:0,0:0:0:0:
443,81,75961,6,0,L|446:171,1,80,4|8,1:0|0:0,0:0:0:0:
446,213,76542,1,4,3:0:0:0:
360,272,76929,2,0,L|355:328,2,40,4|8|0,3:0|0:0|0:0,0:0:0:0:
337,224,77510,2,0,P|303:205|253:206,1,80,4|8,1:0|0:0,0:0:0:0:
214,223,78090,1,4,3:0:0:0:
141,298,78478,2,0,L|136:345,2,40,4|8|0,3:0|0:0|0:0,0:0:0:0:
104,261,79058,6,0,P|99:225|107:174,1,80,4|8,2:0|0:0,0:0:0:0:
125,134,79639,2,0,P|139:92|133:32,1,80,4|4,3:0|3:0,0:0:0:0:
234,97,80413,1,4,3:0:0:0:
262,140,80607,2,0,P|300:142|351:117,1,80,4|8,3:0|0:0,0:0:0:0:
382,99,81187,2,0,L|440:113,1,40,4|4,3:0|3:0,0:0:0:0:
459,143,81574,2,0,L|454:234,1,80,4|4,3:0|3:0,0:0:0:0:
417,259,82155,6,0,L|411:352,1,80,4|8,2:0|0:0,0:0:0:0:
361,351,82736,2,0,P|314:336|293:289,1,80,4|4,1:3|3:0,0:0:0:0:
297,208,83510,1,4,3:0:0:0:
271,162,83703,2,0,P|246:159|223:161,1,40,4|4,3:0|3:0,0:0:0:0:
190,192,84090,5,8,0:0:0:0:
138,201,84284,2,0,P|91:187|62:157,1,80,4|4,3:0|3:0,0:0:0:0:
86,117,84865,2,0,P|92:96|110:51,1,40,8|4,0:0|3:0,0:0:0:0:
149,67,85252,6,0,P|193:78|243:71,1,80,4|8,1:0|0:0,0:0:0:0:
314,19,86026,2,0,P|328:56|327:106,1,80,4|8,1:0|0:0,0:0:0:0:
301,140,86607,2,0,P|292:195|314:262,1,120,4|8,1:0|0:0,0:0:0:0:
335,301,87381,1,4,1:0:0:0:
433,333,87768,2,0,P|438:311|436:287,1,40,4|8,3:0|0:0,0:0:0:0:
427,242,88155,1,0,0:0:0:0:
410,192,88349,6,0,P|403:148|416:103,1,80,4|8,1:0|0:0,0:0:0:0:
474,31,89123,2,0,P|425:12|382:14,1,80,4|8,1:0|0:0,0:0:0:0:
348,26,89703,1,4,1:0:0:0:
264,87,90090,2,0,L|225:81,1,40,4|8,3:0|0:0,0:0:0:0:
172,71,90478,1,4,1:0:0:0:
81,19,90865,2,0,P|73:49|71:61,1,40,4|8,3:0|0:0,0:0:0:0:
75,109,91252,1,4,3:0:0:0:
91,158,91445,6,0,P|101:211|90:252,1,80,4|8,1:0|0:0,0:0:0:0:
27,314,92220,2,0,P|79:341|108:341,1,80,4|8,1:0|0:0,0:0:0:0:
149,328,92800,2,0,P|210:312|275:323,1,120,4|8,1:0|0:0,0:0:0:0:
313,340,93574,2,0,P|330:287|321:212,1,120,4|8,1:0|0:0,0:0:0:0:
291,126,94542,6,0,P|287:93|300:44,1,80,12|4,1:3|2:0,0:0:0:0:
398,21,95316,2,0,P|402:54|389:103,1,80,8|8,0:0|0:0,0:0:0:0:
409,147,95897,2,0,P|405:180|418:229,1,80,4|0,1:0|3:0,0:0:0:0:
416,277,96478,1,8,0:0:0:0:
384,318,96671,2,0,P|350:330|299:322,2,80,4|4|4,1:0|3:0|1:0,0:0:0:0:
256,192,97639,12,0,102671,0:0:0:0:
