osu file format v14

[General]
AudioFilename: audio.mp3
AudioLeadIn: 0
PreviewTime: 53627
Countdown: 0
SampleSet: Soft
StackLeniency: 0.7
Mode: 0
LetterboxInBreaks: 0
WidescreenStoryboard: 1

[Editor]
DistanceSpacing: 0.8
BeatDivisor: 4
GridSize: 16
TimelineZoom: 1.1

[Metadata]
Title:Torikago (TV Size)
TitleUnicode:トリカゴ (TV Size)
Artist:XX:me
ArtistUnicode:XX:me
Creator:-Eriri-
Version:Insane
Source:ダーリン・イン・ザ・フランキス
Tags:ending ed DARLING in the FRANXX zero two ichigo miku kokoro ikuno キス・ミー kiss me 杉山勝彦 gary00737 Yugu
BeatmapID:1657963
BeatmapSetID:726765

[Difficulty]
HPDrainRate:4.2
CircleSize:3.8
OverallDifficulty:7.8
ApproachRate:8.8
SliderMultiplier:1.6
SliderTickRate:1

[Events]
//Background and Video events
0,0,"241.jpg",0,0
//Break Periods
//Storyboard Layer 0 (Background)
//Storyboard Layer 1 (Fail)
//Storyboard Layer 2 (Pass)
//Storyboard Layer 3 (Foreground)
//Storyboard Sound Samples

[TimingPoints]
91,387.096774193548,4,2,2,80,1,0
91,-100,4,2,2,55,0,0
1639,-100,4,2,2,55,0,0
4155,-100,4,2,2,50,0,0
4736,-100,4,2,2,40,0,0
14026,-100,4,2,2,45,0,0
20220,-100,4,2,2,50,0,0
25832,-100,4,2,2,60,0,0
26413,-100,4,2,2,55,0,0
38220,-100,4,2,2,60,0,0
54284,-100,4,2,2,70,0,1
65123,-100,4,2,2,60,0,0
66671,-100,4,2,2,75,0,1
79058,-100,4,2,2,65,0,1
85252,-100,4,2,2,55,0,0
98026,-100,4,2,2,50,0,0
98413,-100,4,2,2,65,0,0
98800,-100,4,2,2,44,0,0
99187,-100,4,2,2,55,0,0
99574,-100,4,2,2,33,0,0
99961,-100,4,2,2,45,0,0
100349,-100,4,2,2,22,0,0
100736,-100,4,2,2,35,0,0
101123,-100,4,2,2,11,0,0
101510,-100,4,2,2,25,0,0
101897,-100,4,2,2,9,0,0
102284,-100,4,2,2,15,0,0
102671,-100,4,2,2,5,0,0

[Colours]
Combo1 : 175,116,220
Combo2 : 255,89,89
Combo3 : 72,147,230

[HitObjects]
256,154,1058,5,4,3:0:0:0:
125,250,1252,1,8,0:0:0:0:
125,250,1639,6,0,L|215:238,1,80,4|0,2:0|0:0,0:0:0:0:
290,286,2026,2,0,P|294:344|286:370,1,80,0|2,0:0|0:0,0:0:0:0:
361,204,2413,2,0,P|379:117|355:44,1,160,4|0,2:0|0:0,0:0:0:0:
177,50,2994,2,0,P|156:126|175:204,1,160,4|0,2:0|0:0,0:0:0:0:
111,298,3574,1,2,0:0:0:0:
188,226,3768,2,0,P|231:224|277:230,1,80,4|0,2:0|0:0,0:0:0:0:
431,84,4155,5,8,0:0:0:0:
400,94,4252,1,8,0:0:0:0:
374,113,4348,1,8,0:0:0:0:
353,137,4445,1,8,0:0:0:0:
337,165,4542,1,8,0:0:0:0:
301,238,4736,6,0,L|295:321,2,80,4|0|8,2:0|0:0|0:0,0:0:0:0:
227,149,5316,1,0,0:0:0:0:
159,236,5510,2,0,P|88:252|2:214,1,160,4|8,2:0|0:0,0:0:0:0:
13,77,6091,2,0,P|84:61|170:99,1,160,4|0,2:0|0:0,0:0:0:0:
284,215,6671,1,8,0:0:0:0:
195,14,6865,2,0,B|239:41|250:97|250:97|222:161,1,160,4|4,2:0|3:0,0:0:0:0:
94,60,7445,1,8,0:0:0:0:
18,178,7639,5,8,0:0:0:0:
18,178,7736,1,8,0:0:0:0:
18,178,7832,2,0,L|30:266,1,80,4|0,2:0|0:0,0:0:0:0:
102,137,8220,2,0,P|69:91|37:77,1,80,8|0,0:0|0:0,0:0:0:0:
0,352,8607,2,0,P|82:339|124:277,1,160,4|8,3:0|0:0,0:0:0:0:
28,257,9187,6,0,L|224:250,1,160,4|0,2:0|0:0,0:0:0:0:
272,343,9768,1,8,0:0:0:0:
136,148,9961,2,0,P|136:65|205:-2,1,160,4|4,2:0|3:0,0:0:0:0:
307,0,10542,1,8,0:0:0:0:
237,102,10736,1,0,0:0:0:0:
339,185,10929,2,0,L|319:271,1,80,4|0,2:0|0:0,0:0:0:0:
475,138,11316,2,0,L|492:60,1,80,8|0,1:2|0:0,0:0:0:0:
396,364,11703,5,4,3:0:0:0:
493,292,11897,1,4,3:0:0:0:
420,196,12091,1,8,2:0:0:0:
322,265,12284,2,0,L|141:252,1,160,4|4,2:0|3:0,0:0:0:0:
78,101,12865,1,8,0:0:0:0:
173,164,13058,2,0,P|259:176|333:145,1,160,4|8,2:0|0:0,0:0:0:0:
442,43,13639,1,4,3:0:0:0:
442,43,13832,1,8,3:0:0:0:
442,43,14026,6,0,L|452:124,1,80,4|0,1:0|0:0,0:0:0:0:
470,248,14413,1,8,2:0:0:0:
386,192,14607,2,0,P|301:198|227:250,1,160,4|4,3:0|3:0,0:0:0:0:
183,308,15187,1,8,0:0:0:0:
109,252,15381,1,0,0:0:0:0:
157,180,15574,2,0,L|139:95,1,80,4|0,3:0|0:0,0:0:0:0:
47,41,15961,1,8,0:0:0:0:
140,101,16155,2,0,P|195:104|303:75,1,160,4|4,3:0|3:0,0:0:0:0:
381,97,16736,6,0,P|421:118|456:149,1,80,8|2,0:0|0:0,0:0:0:0:
374,215,17123,2,0,P|338:196|307:171,1,80,4|0,3:0|0:0,0:0:0:0:
476,59,17510,1,8,0:0:0:0:
448,141,17703,2,0,L|471:303,1,160,4|4,3:0|3:0,0:0:0:0:
397,360,18284,5,8,0:0:0:0:
323,296,18478,1,0,0:0:0:0:
244,355,18671,2,0,P|176:359|131:354,1,80,4|0,3:0|0:0,0:0:0:0:
70,276,19058,1,8,0:0:0:0:
170,198,19252,2,0,L|164:357,1,160,4|4,3:0|3:0,0:0:0:0:
256,227,19832,5,8,0:0:0:0:
152,90,20026,1,2,0:0:0:0:
253,61,20220,2,0,P|255:118|245:146,1,80,4|0,1:0|0:0,0:0:0:0:
170,198,20607,1,8,0:0:0:0:
362,44,20800,2,0,P|367:131|335:203,1,160,4|4,3:0|3:0,0:0:0:0:
412,350,21381,1,8,0:0:0:0:
429,254,21574,1,0,0:0:0:0:
322,292,21768,6,0,P|242:317|155:296,1,160,4|8,3:0|0:0,0:0:0:0:
153,136,22349,2,0,P|233:111|320:132,1,160,4|4,3:0|3:0,0:0:0:0:
399,191,22929,2,0,L|486:173,1,80,8|2,0:0|0:0,0:0:0:0:
385,53,23316,1,4,3:0:0:0:
101,253,23703,5,8,0:0:0:0:
153,136,23897,2,0,L|149:48,1,80,4|0,3:0|0:0,0:0:0:0:
255,226,24284,2,0,L|257:329,2,80,4|8|2,3:0|0:0|0:0,0:0:0:0:
358,124,24865,5,4,1:0:0:0:
255,226,25058,1,4,3:0:0:0:
153,136,25252,1,8,2:0:0:0:
257,46,25445,1,8,3:0:0:0:
257,46,25832,5,8,0:0:0:0:
257,46,26026,1,8,0:0:0:0:
257,46,26220,1,8,0:0:0:0:
336,183,26413,2,0,P|392:189|440:175,1,80,4|0,1:0|0:0,0:0:0:0:
401,58,26800,1,8,0:0:0:0:
414,184,26994,2,0,L|430:316,1,120,4|0,3:0|0:0,0:0:0:0:
433,326,27381,5,4,3:0:0:0:
342,369,27574,1,8,0:0:0:0:
275,302,27768,1,0,0:0:0:0:
189,348,27961,2,0,P|146:351|96:342,1,80,4|0,3:0|0:0,0:0:0:0:
64,252,28349,1,8,0:0:0:0:
275,302,28542,2,0,P|307:232|281:164,1,120,4|0,3:0|0:0,0:0:0:0:
293,169,28929,5,4,3:0:0:0:
386,114,29123,1,8,0:0:0:0:
326,25,29316,1,2,0:0:0:0:
232,79,29510,2,0,L|135:69,1,80,4|0,3:0|0:0,0:0:0:0:
326,25,29897,1,8,0:0:0:0:
135,83,30090,2,0,P|112:149|131:216,1,120,4|0,3:0|0:0,0:0:0:0:
134,216,30478,5,4,3:0:0:0:
100,318,30671,1,8,0:0:0:0:
42,171,30865,1,0,0:0:0:0:
0,276,31058,1,4,3:0:0:0:
159,208,31252,2,0,L|272:206,1,80,0|8,0:0|0:0,0:0:0:0:
297,282,31639,2,0,P|359:298|431:274,1,120,4|0,3:0|0:0,0:0:0:0:
434,276,32026,5,4,3:0:0:0:
381,193,32220,1,8,0:0:0:0:
486,114,32413,1,2,0:0:0:0:
383,17,32607,2,0,P|379:64|400:109,1,80,4|0,1:0|0:0,0:0:0:0:
274,28,32994,1,8,0:0:0:0:
209,103,33187,2,0,L|55:91,1,120,4|0,3:0|0:0,0:0:0:0:
65,90,33574,5,4,3:0:0:0:
152,211,33768,1,8,0:0:0:0:
101,304,33961,1,0,0:0:0:0:
174,200,34155,2,0,P|250:182|339:202,1,160,4|8,3:0|0:0,0:0:0:0:
333,343,34736,2,0,P|257:361|168:341,1,160,4|4,3:0|3:0,0:0:0:0:
131,224,35316,1,8,0:0:0:0:
248,152,35510,1,2,0:0:0:0:
338,263,35703,6,0,L|332:346,1,80,4|0,2:0|0:0,0:0:0:0:
390,118,36090,1,8,0:0:0:0:
247,224,36284,2,0,P|192:236|108:212,1,120,4|0,3:0|0:0,0:0:0:0:
63,148,36671,2,0,L|89:66,2,80,4|8|0,3:0|0:0|0:0,0:0:0:0:
15,275,37252,1,4,3:0:0:0:
94,226,37445,2,0,P|137:237|184:232,2,80,8|8|4,3:0|0:0|3:0,0:0:0:0:
94,226,38220,5,8,1:2:0:0:
213,91,38413,1,8,1:2:0:0:
289,164,38607,2,0,P|311:225|285:286,1,120,4|0,1:0|0:0,0:0:0:0:
274,300,38994,1,4,3:0:0:0:
447,224,39187,1,8,0:0:0:0:
274,300,39574,5,4,3:0:0:0:
447,224,39768,1,12,0:3:0:0:
364,195,39961,1,8,0:0:0:0:
339,349,40155,2,0,B|381:372|419:366|419:366|465:342|472:291,1,160,4|4,2:0|3:0,0:0:0:0:
473,129,40736,5,8,0:0:0:0:
473,129,40929,2,0,L|420:133,1,40,0|8,0:0|3:0,0:0:0:0:
364,63,41123,2,0,P|322:55|272:61,1,80,4|4,3:0|3:0,0:0:0:0:
104,115,41510,1,8,0:0:0:0:
199,126,41703,2,0,L|217:272,1,120,4|0,1:3|0:0,0:0:0:0:
217,277,42090,1,4,3:0:0:0:
59,199,42284,1,8,0:0:0:0:
121,301,42478,1,0,0:0:0:0:
121,301,42574,1,0,0:0:0:0:
121,301,42671,1,4,3:0:0:0:
104,115,42865,5,4,3:0:0:0:
26,281,43058,1,8,0:0:0:0:
200,358,43252,1,4,2:0:0:0:
200,358,43639,1,4,3:0:0:0:
300,262,43832,2,0,P|344:249|386:256,1,80,8|4,0:0|3:0,0:0:0:0:
461,343,44123,1,4,3:0:0:0:
461,343,44220,2,0,P|424:358|378:354,1,80,4|4,3:0|3:0,0:0:0:0:
415,82,44607,5,8,0:0:0:0:
347,156,44800,2,0,L|176:137,1,160,4|4,2:0|3:0,0:0:0:0:
50,82,45381,1,8,0:0:0:0:
175,226,45574,1,0,0:0:0:0:
152,39,45768,1,4,3:0:0:0:
50,193,45961,1,4,3:0:0:0:
221,91,46155,5,8,0:0:0:0:
272,234,46349,2,0,P|342:257|413:209,1,160,4|4,2:0|3:0,0:0:0:0:
469,74,46929,1,8,0:0:0:0:
334,175,47123,1,0,0:0:0:0:
490,223,47316,1,4,3:0:0:0:
365,70,47510,1,4,3:0:0:0:
377,266,47703,1,8,0:0:0:0:
424,159,47897,1,0,0:0:0:0:
248,120,48090,6,0,P|163:125|78:163,1,160,4|8,2:0|0:0,0:0:0:0:
214,353,48865,2,0,P|259:350|303:338,1,80,4|4,3:0|3:0,0:0:0:0:
293,342,49252,1,8,0:0:0:0:
363,117,49639,2,0,B|405:156|405:156|413:224|362:254,1,160,4|8,2:0|0:0,0:0:0:0:
278,40,50220,1,4,3:0:0:0:
230,192,50413,1,0,0:0:0:0:
230,192,50510,1,4,3:0:0:0:
230,192,50607,1,4,3:0:0:0:
95,88,50800,1,8,0:0:0:0:
66,228,50994,5,2,0:0:0:0:
284,123,51187,2,0,L|368:117,1,80,4|0,1:0|0:0,0:0:0:0:
257,279,51574,2,0,L|245:358,1,80,8|0,0:0|0:0,0:0:0:0:
363,117,51961,5,8,0:0:0:0:
176,251,52155,1,0,0:0:0:0:
181,125,52349,5,8,0:0:0:0:
353,250,52542,1,0,0:0:0:0:
172,45,52736,6,0,P|126:65|100:114,1,80,4|0,1:0|0:0,0:0:0:0:
353,250,53123,2,0,P|400:228|424:184,1,80,8|0,0:0|0:0,0:0:0:0:
149,304,53510,2,0,P|159:343|187:373,1,80,8|8,0:0|0:0,0:0:0:0:
315,125,53897,5,8,0:0:0:0:
90,178,54090,1,8,0:0:0:0:
236,241,54284,1,4,1:0:0:0:
239,263,54671,6,0,L|248:350,1,80,8|0,0:0|0:0,0:0:0:0:
163,102,55058,2,0,B|184:56|229:46|229:46|261:67,1,120,4|0,3:0|0:0,0:0:0:0:
272,75,55445,1,8,0:0:0:0:
125,183,55639,2,0,B|188:188|188:188|223:170|223:170|288:175,1,160,4|4,3:0|3:0,0:0:0:0:
318,263,56220,2,0,P|365:276|416:267,1,80,8|0,0:0|0:0,0:0:0:0:
384,37,56607,2,0,P|331:24|286:32,1,80,4|4,3:0|3:0,0:0:0:0:
219,188,56994,1,8,0:0:0:0:
339,107,57187,1,0,0:0:0:0:
429,324,57381,1,4,1:0:0:0:
436,304,57768,6,0,L|422:223,1,80,8|0,0:0|0:0,0:0:0:0:
328,351,58155,2,0,P|266:367|198:347,1,120,4|0,3:0|0:0,0:0:0:0:
184,338,58542,1,8,0:0:0:0:
223,111,58736,2,0,P|252:166|222:264,1,160,4|4,3:0|3:0,0:0:0:0:
110,103,59316,2,0,L|134:18,1,80,8|0,0:0|0:0,0:0:0:0:
33,188,59703,5,4,3:0:0:0:
33,188,59800,1,8,0:0:0:0:
33,188,59897,1,4,3:0:0:0:
208,90,60090,1,8,0:0:0:0:
162,205,60284,2,0,L|114:240,1,40,4|4,3:0|3:0,0:0:0:0:
301,246,60478,1,4,1:0:0:0:
270,247,60865,6,0,P|231:256|197:277,1,80,8|4,0:0|3:0,0:0:0:0:
224,361,61252,2,0,P|295:329|342:335,1,120,4|0,3:0|0:0,0:0:0:0:
365,343,61639,1,8,0:0:0:0:
386,70,61832,2,0,L|412:228,1,160,4|0,2:0|1:0,0:0:0:0:
451,0,62413,1,8,0:0:0:0:
276,85,62607,1,4,2:0:0:0:
257,98,62994,6,0,L|167:108,1,80,4|8,3:0|0:0,0:0:0:0:
90,41,63381,1,0,0:0:0:0:
243,186,63574,2,0,P|247:238|226:274,1,80,4|0,2:0|0:0,0:0:0:0:
100,350,63961,1,8,0:0:0:0:
151,214,64155,1,4,2:0:0:0:
159,185,64542,6,0,L|181:94,1,80,4|8,3:0|0:0,0:0:0:0:
32,263,64929,1,0,0:0:0:0:
212,356,65123,2,0,L|296:349,1,80,0|8,1:0|0:0,0:0:0:0:
465,276,65510,1,4,3:0:0:0:
348,275,65703,2,0,P|281:252|257:189,1,120,8|0,0:0|0:0,0:0:0:0:
195,156,66090,2,0,L|149:168,1,40,4|0,3:0|0:0,0:0:0:0:
260,76,66284,1,8,0:0:0:0:
277,68,66381,1,0,0:0:0:0:
294,62,66478,1,0,0:0:0:0:
67,119,66671,6,0,L|74:218,1,80,4|0,1:0|0:0,0:0:0:0:
89,290,67058,2,0,P|132:276|159:241,1,80,8|0,0:0|1:0,0:0:0:0:
149,46,67445,2,0,L|156:179,1,120,4|0,3:0|0:0,0:0:0:0:
140,194,67832,1,8,0:0:0:0:
260,76,68026,2,0,P|327:54|421:81,1,160,4|0,2:0|1:0,0:0:0:0:
467,224,68607,2,0,P|429:265|394:277,1,80,8|0,0:0|0:0,0:0:0:0:
267,306,68994,5,4,3:0:0:0:
381,185,69187,1,4,3:0:0:0:
260,76,69381,1,8,0:0:0:0:
146,195,69574,1,0,0:0:0:0:
260,226,69768,6,0,L|266:305,1,80,4|0,1:0|0:0,0:0:0:0:
172,100,70155,2,0,P|173:43|194:15,1,80,8|0,0:0|1:0,0:0:0:0:
336,119,70542,2,0,P|410:128|471:113,1,120,4|0,3:0|0:0,0:0:0:0:
484,108,70929,1,8,0:0:0:0:
258,80,71123,2,0,P|264:165|327:205,1,160,4|4,2:0|3:0,0:0:0:0:
377,272,71703,6,0,L|367:354,1,80,8|0,0:0|0:0,0:0:0:0:
138,204,72090,1,4,3:0:0:0:
138,204,72187,1,8,0:0:0:0:
138,204,72284,1,4,3:0:0:0:
240,272,72478,1,8,0:0:0:0:
61,295,72671,2,0,L|12:285,1,40,4|4,3:0|3:0,0:0:0:0:
138,204,72865,6,0,P|146:145|127:80,1,120,4|0,1:0|0:0,0:0:0:0:
115,59,73252,1,8,0:0:0:0:
39,152,73445,1,0,1:0:0:0:
234,128,73639,2,0,B|223:47|183:15|183:15|197:35|201:63,1,160,4|8,3:0|0:0,0:0:0:0:
393,155,74220,2,0,B|354:144|314:168|314:168|303:215|332:256,1,160,4|0,1:0|1:0,0:0:0:0:
309,67,74800,1,8,0:0:0:0:
449,89,74994,2,0,P|480:175|430:234,1,160,4|4,1:0|3:0,0:0:0:0:
400,314,75574,5,8,0:0:0:0:
309,67,75768,2,0,L|301:167,1,80,0|4,0:0|1:0,0:0:0:0:
243,264,76155,1,0,0:0:0:0:
389,155,76349,1,8,0:0:0:0:
101,226,76542,1,4,3:0:0:0:
90,256,76929,6,0,L|73:300,1,40,4|0,3:0|0:0,0:0:0:0:
24,166,77123,2,0,L|7:111,2,40,8|0|0,0:0|0:0|0:0,0:0:0:0:
64,324,77510,2,0,P|104:338|158:328,1,80,4|0,1:0|0:0,0:0:0:0:
209,256,77897,2,0,L|200:218,1,40,8|4,0:0|3:0,0:0:0:0:
269,367,78090,2,0,P|322:383|394:367,1,120,4|0,3:0|0:0,0:0:0:0:
446,315,78478,2,0,L|434:261,1,40,4|0,3:0|0:0,0:0:0:0:
461,156,78671,1,8,0:0:0:0:
461,156,78768,1,0,0:0:0:0:
461,156,78865,1,0,0:0:0:0:
369,207,79058,6,0,P|330:214|287:212,1,80,4|0,2:0|0:0,0:0:0:0:
237,64,79445,1,8,0:0:0:0:
237,64,79639,1,4,3:0:0:0:
134,123,79832,2,0,L|40:111,1,80,0|4,0:0|3:0,0:0:0:0:
280,179,80220,2,0,L|373:164,1,80,8|4,0:0|3:0,0:0:0:0:
384,144,80510,1,4,3:0:0:0:
384,144,80607,5,4,3:0:0:0:
316,250,80800,1,4,3:0:0:0:
468,106,80994,1,8,0:0:0:0:
294,104,81187,1,4,3:0:0:0:
466,231,81381,1,4,3:0:0:0:
344,21,81574,1,4,3:0:0:0:
251,204,81768,1,8,0:0:0:0:
438,32,81961,1,4,3:0:0:0:
390,287,82155,6,0,L|382:381,1,80,4|0,2:0|0:0,0:0:0:0:
230,117,82542,2,0,L|222:27,1,80,8|4,0:0|1:3,0:0:0:0:
85,297,82929,1,0,0:0:0:0:
251,204,83123,1,4,3:0:0:0:
105,119,83316,1,8,0:0:0:0:
198,298,83510,2,0,L|247:286,1,40,4|8,3:0|0:0,0:0:0:0:
230,117,83703,5,4,3:0:0:0:
53,191,83897,1,4,3:0:0:0:
198,298,84090,1,8,0:0:0:0:
119,48,84284,1,4,3:0:0:0:
251,204,84478,1,4,3:0:0:0:
282,210,84574,1,4,3:0:0:0:
314,211,84671,1,4,3:0:0:0:
346,211,84768,1,4,3:0:0:0:
377,208,84865,1,8,0:0:0:0:
408,205,84961,1,4,3:0:0:0:
439,200,85058,1,4,3:0:0:0:
470,194,85155,1,4,3:0:0:0:
501,189,85252,6,0,L|490:268,1,80,4|0,1:0|0:0,0:0:0:0:
362,114,85639,2,0,L|368:29,1,80,8|4,0:0|3:0,0:0:0:0:
350,268,86026,2,0,P|270:286|183:264,1,160,4|8,1:0|0:0,0:0:0:0:
64,99,86607,2,0,P|144:81|231:103,1,160,4|4,1:0|3:0,0:0:0:0:
181,184,87187,1,8,0:0:0:0:
362,114,87381,2,0,L|379:273,1,160,4|4,1:0|3:0,0:0:0:0:
464,198,87961,2,0,L|454:105,1,80,8|0,0:0|0:0,0:0:0:0:
379,273,88349,6,0,P|339:286|293:279,1,80,4|0,1:0|0:0,0:0:0:0:
284,123,88736,2,0,P|324:110|370:117,2,80,8|4|4,0:0|3:0|1:0,0:0:0:0:
222,206,89316,1,0,0:0:0:0:
301,282,89510,1,8,0:0:0:0:
62,222,89703,2,0,L|224:205,1,160,4|4,1:0|3:0,0:0:0:0:
152,111,90284,5,8,0:0:0:0:
277,12,90478,2,0,P|270:111|311:169,1,160,4|4,1:0|3:0,0:0:0:0:
375,90,91058,1,8,0:0:0:0:
375,90,91155,1,4,3:0:0:0:
375,90,91252,1,4,3:0:0:0:
375,90,91349,1,0,3:0:0:0:
375,90,91445,6,0,L|484:74,1,80,4|0,1:0|0:0,0:0:0:0:
387,184,91832,1,8,0:0:0:0:
278,12,92026,1,4,3:0:0:0:
181,198,92220,2,0,P|124:184|77:146,1,120,4|0,1:0|0:0,0:0:0:0:
56,121,92607,1,8,0:0:0:0:
240,130,92800,6,0,B|269:182|269:182|261:241|225:282,1,160,4|4,1:0|3:0,0:0:0:0:
116,296,93381,1,8,0:0:0:0:
240,130,93574,2,0,P|322:110|416:140,1,160,4|4,1:0|3:0,0:0:0:0:
471,229,94155,1,8,0:0:0:0:
325,9,94349,1,4,3:0:0:0:
332,267,94542,6,0,L|343:350,1,80,12|0,1:3|0:0,0:0:0:0:
163,200,94929,2,0,L|174:120,1,80,4|0,2:0|0:0,0:0:0:0:
247,231,95316,2,0,P|227:268|180:288,1,80,8|8,0:0|0:0,0:0:0:0:
173,120,95703,1,8,0:0:0:0:
40,289,95897,5,4,1:0:0:0:
40,289,96284,1,0,3:0:0:0:
75,21,96478,1,8,0:0:0:0:
327,106,96671,2,0,P|245:95|171:122,1,160,4|4,1:0|3:0,0:0:0:0:
0,184,97252,1,8,0:0:0:0:
132,354,97445,1,4,1:0:0:0:
256,192,97639,12,0,102671,0:0:0:0:
