osu file format v14

[General]
AudioFilename: audio.mp3
AudioLeadIn: 0
PreviewTime: 53726
Countdown: 0
SampleSet: None
StackLeniency: 0.7
Mode: 0
LetterboxInBreaks: 0
WidescreenStoryboard: 0

[Editor]
Bookmarks: 14140,26527,38721,91559,97559
DistanceSpacing: 2.5
BeatDivisor: 4
GridSize: 4
TimelineZoom: 1.1

[Metadata]
Title:Torikago
TitleUnicode:トリカゴ
Artist:XX:me
ArtistUnicode:XX:me
Creator:Meg
Version:XXdeathx's Insane
Source:ダーリン・イン・ザ・フランキス
Tags:iMage-- ShiraKai kaCha Silky Kanau fuyuyu- Mamayu Akitoshi xxdeathx DARLING in the FRANXX ed Kiss me ゼロツー Zero Two 戸松遥 Tomatsu Haruka イチゴ Ichigo 市ノ瀬加那 Ichinose Kana ミク Miku 山下七海 Yamashita Nanami ココロ Kokoro 早見沙織 Hayami Saori イクノ Ikuno 石上静香 Ishigami Shizuka
BeatmapID:1587433
BeatmapSetID:731421

[Difficulty]
HPDrainRate:6
CircleSize:4
OverallDifficulty:7.5
ApproachRate:9
SliderMultiplier:1.72
SliderTickRate:1

[Events]
//Background and Video events
0,0,"BG.jpg",0,0
//Break Periods
//Storyboard Layer 0 (Background)
//Storyboard Layer 1 (Fail)
//Storyboard Layer 2 (Pass)
//Storyboard Layer 3 (Foreground)
//Storyboard Sound Samples

[TimingPoints]
205,387.096774193548,4,2,2,60,1,0
1753,-111.111111111111,4,2,1,60,0,0
7366,-100,4,2,1,60,0,0
7946,-100,4,2,1,60,0,0
14140,-111.111111111111,4,2,1,50,0,0
14721,-111.111111111111,4,2,2,50,0,0
14817,-111.111111111111,4,2,1,50,0,0
16269,-111.111111111111,4,2,2,50,0,0
16366,-111.111111111111,4,2,1,50,0,0
17817,-111.111111111111,4,2,2,50,0,0
17914,-111.111111111111,4,2,1,50,0,0
19366,-111.111111111111,4,2,2,50,0,0
19463,-111.111111111111,4,2,1,50,0,0
20914,-111.111111111111,4,2,2,50,0,0
21011,-111.111111111111,4,2,1,50,0,0
22463,-111.111111111111,4,2,2,50,0,0
22559,-111.111111111111,4,2,1,50,0,0
24011,-111.111111111111,4,2,2,50,0,0
24108,-111.111111111111,4,2,1,50,0,0
24979,-111.111111111111,4,2,2,50,0,0
26527,-100,4,2,1,60,0,0
38721,-86.9565217391304,4,2,1,60,0,0
40269,-100,4,2,1,60,0,0
51301,-86.9565217391304,4,2,1,60,0,0
53817,-86.9565217391304,4,2,2,60,0,0
54398,-86.9565217391304,4,2,1,70,0,1
83817,-86.9565217391304,4,2,1,80,0,1
91559,-100,4,2,1,60,0,0
99301,-100,4,2,1,50,0,0
100850,-100,4,2,1,40,0,0
101624,-100,4,2,1,30,0,0
102011,-100,4,2,1,20,0,0
102398,-100,4,2,1,10,0,0
102785,-100,4,2,1,5,0,0

[Colours]
Combo1 : 77,77,215
Combo2 : 255,210,255
Combo3 : 152,208,254
Combo4 : 255,0,0

[HitObjects]
304,112,1753,6,0,P|284:152|304:204,1,77.3999976379395,4|0,0:0|0:0,0:0:0:0:
408,264,2140,2,0,P|428:224|408:172,1,77.3999976379395
276,40,2527,2,0,P|328:88|396:72,1,116.099996456909,4|0,0:0|0:0,0:0:0:0:
404,68,2914,1,0,0:0:0:0:
240,272,3108,6,0,L|104:268,1,116.099996456909,4|0,0:0|0:0,0:0:0:0:
84,268,3495,1,0,0:0:0:0:
188,372,3688,1,0,0:0:0:0:
12,244,3882,2,0,P|64:192|128:208,1,116.099996456909,4|0,0:0|0:0,0:0:0:0:
140,212,4269,2,0,L|144:160,1,38.6999988189698,8|8,3:0|3:0,0:0:0:0:
72,76,4463,1,8,3:0:0:0:
72,76,4559,1,8,3:0:0:0:
72,76,4656,1,8,3:0:0:0:
72,76,4753,1,0,0:0:0:0:
72,76,4850,6,0,L|176:80,1,77.3999976379395,4|0,0:0|0:0,0:0:0:0:
312,168,5237,2,0,L|208:164,1,77.3999976379395
76,292,5624,2,0,P|120:248|104:168,1,116.099996456909,4|0,0:0|0:0,0:0:0:0:
112,164,6011,1,0,0:0:0:0:
260,284,6204,6,0,P|324:288|372:228,1,116.099996456909,4|0,0:0|0:0,0:0:0:0:
380,224,6592,1,0,0:0:0:0:
336,380,6785,1,0,0:0:0:0:
200,212,6979,2,0,L|204:76,1,116.099996456909,4|0,0:0|0:0,0:0:0:0:
204,64,7366,1,8,0:0:0:0:
64,184,7559,1,8,0:0:0:0:
116,20,7753,1,2,0:0:0:0:
116,20,7850,1,2,0:0:0:0:
116,20,7946,6,0,P|104:64|124:116,1,86,4|0,0:0|0:0,0:0:0:0:
200,212,8334,2,0,L|92:216,1,86,8|0,0:0|0:0,0:0:0:0:
192,344,8721,2,0,L|300:340,1,86,2|0,0:0|0:0,0:0:0:0:
412,336,9108,1,8,0:0:0:0:
288,212,9301,6,0,P|272:124|352:68,1,172,6|0,0:0|0:0,0:0:0:0:
448,68,9882,1,8,0:0:0:0:
208,64,10075,2,0,L|64:64,1,129,4|0,0:0|0:0,0:0:0:0:
40,64,10463,1,2,0:0:0:0:
8,224,10656,1,8,0:0:0:0:
144,148,10850,1,0,0:0:0:0:
128,312,11043,6,0,P|176:372|292:352,1,172,4|8,0:0|0:0,0:0:0:0:
368,264,11624,1,0,0:0:0:0:
368,264,11817,2,0,L|372:152,1,86,2|0,0:0|0:0,0:0:0:0:
380,32,12204,1,8,0:0:0:0:
256,172,12398,6,0,P|196:184|140:140,1,129,4|0,0:0|0:0,0:0:0:0:
128,116,12785,1,2,0:0:0:0:
60,252,12979,1,8,0:0:0:0:
84,44,13172,2,0,P|158:36|204:79,1,129,4|0,0:0|0:0,0:0:0:0:
212,100,13559,2,0,L|216:192,1,86,2|8,0:0|0:0,0:0:0:0:
220,304,13946,1,0,0:0:0:0:
308,104,14140,5,4,0:0:0:0:
396,176,14334,2,0,P|440:180|488:152,1,77.3999976379395,0|2,0:0|0:0,0:0:0:0:
308,104,14721,2,0,P|280:172|324:256,1,154.799995275879,2|0,0:0|0:0,0:0:0:0:
412,344,15301,2,0,L|308:352,1,77.3999976379395,2|0,0:0|0:0,0:0:0:0:
136,364,15688,5,2,0:0:0:0:
204,276,15882,2,0,P|208:244|180:192,1,77.3999976379395,0|2,0:0|0:0,0:0:0:0:
32,232,16269,2,0,P|57:251|116:253,1,77.3999976379395,2|2,0:0|0:0,0:0:0:0:
160,104,16656,2,0,P|130:116|99:166,1,77.3999976379395,0|2,0:0|0:0,0:0:0:0:
101,257,17043,1,0,0:0:0:0:
72,44,17237,5,2,0:0:0:0:
160,104,17430,2,0,P|200:108|244:84,1,77.3999976379395,0|2,0:0|0:0,0:0:0:0:
348,16,17817,2,0,B|332:88|332:88|372:180,1,154.799995275879,2|0,0:0|0:0,0:0:0:0:
456,272,18398,2,0,L|356:280,1,77.3999976379395,2|0,0:0|0:0,0:0:0:0:
184,288,18785,5,2,0:0:0:0:
252,204,18979,2,0,P|256:168|236:128,1,77.3999976379395,0|2,0:0|0:0,0:0:0:0:
32,172,19366,2,0,P|92:208|144:196,1,116.099996456909,2|0,0:0|0:0,0:0:0:0:
156,184,19753,2,0,L|157:103,1,77.3999976379395,0|2,0:0|0:0,0:0:0:0:
256,12,20140,1,0,0:0:0:0:
256,228,20334,5,2,0:0:0:0:
328,144,20527,2,0,P|364:128|420:140,1,77.3999976379395,0|2,0:0|0:0,0:0:0:0:
496,292,20914,2,0,P|416:284|378:214,1,154.799995275879,2|0,0:0|0:0,0:0:0:0:
496,132,21495,2,0,P|491:171|453:213,1,77.3999976379395,2|0,0:0|0:0,0:0:0:0:
320,316,21882,6,0,L|236:312,1,77.3999976379395,2|0,0:0|0:0,0:0:0:0:
64,304,22269,1,2,0:0:0:0:
152,240,22463,2,0,B|192:180|124:148|160:88,1,154.799995275879,2|0,0:0|0:0,0:0:0:0:
232,16,23043,1,2,0:0:0:0:
80,20,23237,1,0,0:0:0:0:
252,128,23430,6,0,L|344:120,1,77.3999976379395,2|0,0:0|0:0,0:0:0:0:
448,116,23817,1,2,0:0:0:0:
296,232,24011,2,0,P|284:312|360:356,2,154.799995275879,2|0|0,0:0|0:0|0:0,0:0:0:0:
448,116,24979,6,0,L|452:208,1,77.3999976379395,4|0,0:0|0:0,0:0:0:0:
460,320,25366,1,0,0:0:0:0:
348,152,25559,2,0,P|288:136|228:168,1,116.099996456909,2|0,0:0|0:0,0:0:0:0:
212,192,25946,1,8,0:0:0:0:
372,48,26140,1,8,0:0:0:0:
168,48,26334,1,8,0:0:0:0:
296,232,26527,6,0,L|392:228,1,86,4|0,0:0|0:0,0:0:0:0:
508,120,26914,1,8,0:0:0:0:
332,140,27108,2,0,P|268:116|256:52,1,129,2|0,0:0|0:0,0:0:0:0:
260,20,27495,1,2,0:0:0:0:
88,100,27688,1,8,0:0:0:0:
260,20,27882,1,0,0:0:0:0:
256,168,28075,6,0,L|252:272,1,86,2|0,0:0|0:0,0:0:0:0:
176,380,28463,1,8,0:0:0:0:
144,212,28656,2,0,P|96:176|28:192,1,129,2|0,0:0|0:0,0:0:0:0:
12,228,29043,1,2,0:0:0:0:
180,128,29237,1,8,0:0:0:0:
172,296,29430,1,0,0:0:0:0:
336,196,29624,6,0,P|380:196|424:228,1,86,2|0,0:0|0:0,0:0:0:0:
484,328,30011,1,8,0:0:0:0:
280,268,30204,2,0,P|244:216|256:152,1,129,2|0,0:0|0:0,0:0:0:0:
276,120,30592,1,2,0:0:0:0:
96,196,30785,1,8,0:0:0:0:
280,268,30979,1,0,0:0:0:0:
172,116,31172,6,0,P|180:76|224:36,1,86,2|0,0:0|0:0,0:0:0:0:
356,24,31559,1,8,0:0:0:0:
204,208,31753,2,0,B|148:236|128:180|72:208,1,129,2|0,0:0|0:0,0:0:0:0:
48,232,32140,1,2,0:0:0:0:
172,116,32334,1,8,0:0:0:0:
24,40,32527,1,0,0:0:0:0:
220,36,32721,6,0,L|324:32,1,86,2|0,0:0|0:0,0:0:0:0:
460,28,33108,1,8,0:0:0:0:
268,132,33301,2,0,P|240:192|272:252,1,129,2|0,0:0|0:0,0:0:0:0:
296,272,33688,1,2,0:0:0:0:
164,140,33882,1,8,0:0:0:0:
160,312,34075,1,0,0:0:0:0:
20,184,34269,6,0,L|16:40,1,116.099996456909,2|0,0:0|0:0,0:0:0:0:
16,28,34656,1,8,0:0:0:0:
164,140,34850,2,0,P|220:152|280:108,1,116.099996456909,2|0,0:0|0:0,0:0:0:0:
292,88,35237,1,2,0:0:0:0:
172,236,35430,1,8,0:0:0:0:
336,220,35624,1,0,0:0:0:0:
164,140,35817,6,0,P|112:156|80:232,1,116.099996456909,4|0,0:0|0:0,0:0:0:0:
80,248,36204,1,8,0:0:0:0:
268,340,36398,2,0,L|416:332,1,116.099996456909,4|0,0:0|0:0,0:0:0:0:
424,332,36785,1,2,0:0:0:0:
264,240,36979,1,8,0:0:0:0:
352,144,37172,1,0,0:0:0:0:
152,176,37366,6,0,P|116:168|80:120,1,77.3999976379395,4|0,0:0|0:0,0:0:0:0:
56,36,37753,1,2,0:0:0:0:
4,216,37946,1,0,0:0:0:0:
4,216,38334,1,8,0:0:0:0:
168,76,38527,1,8,0:0:0:0:
156,300,38721,6,0,P|196:352|284:348,1,148.350002829552,4|0,0:0|0:0,0:0:0:0:
316,320,39108,1,2,0:0:0:0:
96,216,39301,1,8,0:0:0:0:
96,216,39688,2,0,P|122:206|145:186,1,49.4500009431839,8|8,0:0|3:0,0:0:0:0:
244,264,39882,2,0,P|231:242|226:218,1,49.4500009431839,8|0,0:0|3:0,0:0:0:0:
208,124,40075,1,8,0:0:0:0:
416,172,40269,6,0,P|448:228|420:296,1,129,4|0,0:0|0:0,0:0:0:0:
400,320,40656,1,2,0:0:0:0:
508,140,40850,1,8,0:0:0:0:
328,72,41043,1,0,0:0:0:0:
328,72,41140,1,2,0:0:0:0:
328,72,41237,1,2,2:0:0:0:
364,236,41430,1,0,0:0:0:0:
440,56,41624,1,8,0:0:0:0:
252,152,41817,6,0,P|188:152|140:84,1,129,2|0,0:0|0:0,0:0:0:0:
132,64,42204,1,2,0:0:0:0:
48,228,42398,2,0,L|52:336,1,86,8|0,0:0|0:0,0:0:0:0:
56,360,42688,1,2,0:0:0:0:
56,360,42785,1,2,0:0:0:0:
208,284,42979,1,8,0:0:0:0:
44,136,43172,1,8,0:0:0:0:
208,284,43366,6,0,B|252:316|292:260|336:292,1,129,2|0,0:0|0:0,0:0:0:0:
364,320,43753,1,2,0:0:0:0:
372,96,43946,1,8,0:0:0:0:
236,200,44140,1,0,0:0:0:0:
236,200,44237,1,2,0:0:0:0:
236,200,44334,1,2,0:0:0:0:
160,60,44527,1,2,0:0:0:0:
332,28,44721,1,8,0:0:0:0:
164,148,44914,6,0,P|144:200|192:276,1,129,4|0,0:0|0:0,0:0:0:0:
208,292,45301,1,2,0:0:0:0:
68,136,45495,1,8,0:0:0:0:
244,112,45688,2,0,L|344:108,1,86,0|2,0:0|0:0,0:0:0:0:
440,240,46075,2,0,L|340:244,1,86,2|8,0:0|0:0,0:0:0:0:
200,344,46463,6,0,P|248:304|244:232,1,129,2|0,0:0|0:0,0:0:0:0:
236,200,46850,1,2,0:0:0:0:
332,328,47043,1,8,0:0:0:0:
296,136,47237,2,0,P|252:112|204:120,1,86,0|2,0:0|0:0,0:0:0:0:
124,188,47624,1,2,0:0:0:0:
200,16,47817,1,8,0:0:0:0:
236,200,48011,1,0,0:0:0:0:
308,36,48204,6,0,P|384:36|420:76,1,129,4|0,0:0|0:0,0:0:0:0:
424,116,48592,2,0,L|420:208,1,86,8|0,0:0|0:0,0:0:0:0:
320,320,48979,1,2,0:0:0:0:
324,164,49172,1,0,0:0:0:0:
184,240,49366,2,0,P|140:236|104:200,1,86,8|0,0:0|0:0,0:0:0:0:
168,72,49753,6,0,P|186:112|173:161,1,86,2|0,0:0|0:0,0:0:0:0:
76,300,50140,1,8,0:0:0:0:
264,188,50334,2,0,P|304:184|360:216,1,86
376,236,50624,1,8,3:0:0:0:
376,236,50721,1,4,3:0:0:0:
232,108,50914,1,8,0:0:0:0:
292,284,51108,1,0,0:0:0:0:
324,60,51301,6,0,B|372:44|372:44|428:60,1,98.9000018863678,12|0,0:0|0:0,0:0:0:0:
292,284,51688,2,0,B|244:300|244:300|188:284,1,98.9000018863678,8|0,0:0|0:0,0:0:0:0:
373,141,52075,2,0,B|389:189|389:189|373:245,1,98.9000018863678,8|0,0:0|0:0,0:0:0:0:
116,336,52463,2,0,B|100:288|100:288|116:232,1,98.9000018863678,8|0,0:0|0:0,0:0:0:0:
240,88,52850,6,0,P|196:144|108:136,1,148.350002829552,8|0,0:0|0:0,0:0:0:0:
80,116,53237,2,0,P|74:91|55:65,3,49.4500009431839,8|0|0|0,0:0|0:0|0:0|0:0,0:0:0:0:
168,12,53624,1,2,0:0:0:0:
168,12,53721,1,0,0:0:0:0:
168,12,53817,6,0,P|160:36|164:68,1,49.4500009431839,2|0,0:2|0:0,0:0:0:0:
252,164,54011,2,0,P|235:145|205:132,1,49.4500009431839,2|0,0:2|0:0,0:0:0:0:
80,160,54204,2,0,P|104:154|130:135,1,49.4500009431839,2|0,0:2|0:0,0:0:0:0:
296,76,54398,6,0,P|376:68|432:124,1,148.350002829552,4|0,0:0|0:0,0:0:0:0:
440,156,54785,1,8,0:0:0:0:
424,0,54979,1,0,0:0:0:0:
344,160,55172,2,0,L|352:308,1,148.350002829552,2|0,0:0|0:0,0:0:0:0:
356,360,55559,1,8,0:0:0:0:
168,256,55753,6,0,P|110:244|44:314,1,148.350002829552,2|0,0:0|0:0,0:0:0:0:
40,352,56140,1,2,0:0:0:0:
252,300,56334,2,0,P|262:246|232:192,1,98.9000018863678,8|0,0:0|0:0,0:0:0:0:
152,116,56721,1,2,0:0:0:0:
336,132,56914,1,2,0:0:0:0:
168,256,57108,1,8,0:0:0:0:
248,88,57301,1,0,0:0:0:0:
308,268,57495,6,0,P|380:288|440:232,1,148.350002829552,4|0,0:0|0:0,0:0:0:0:
452,200,57882,1,8,0:0:0:0:
508,352,58075,1,0,0:0:0:0:
504,124,58269,2,0,P|432:108|372:156,1,148.350002829552,2|0,0:0|0:0,0:0:0:0:
360,196,58656,1,8,0:0:0:0:
224,72,58850,6,0,B|168:44|132:100|80:72,1,148.350002829552,2|0,0:0|0:0,0:0:0:0:
36,48,59237,1,2,0:0:0:0:
296,8,59430,2,0,P|324:60|316:104,1,98.9000018863678,8|0,0:0|0:0,0:0:0:0:
248,220,59817,1,2,0:0:0:0:
248,220,59914,1,8,3:2:0:0:
248,220,60011,1,0,3:0:0:0:
432,160,60204,1,8,0:0:0:0:
432,336,60398,1,8,0:0:0:0:
432,336,60495,1,8,0:0:0:0:
432,336,60592,6,0,P|372:292|280:328,1,148.350002829552,4|0,0:0|0:0,0:0:0:0:
272,344,60979,1,8,0:0:0:0:
364,216,61172,1,0,0:0:0:0:
208,116,61366,2,0,L|32:120,1,148.350002829552,2|0,0:0|0:0,0:0:0:0:
10,119,61753,1,8,0:0:0:0:
212,220,61946,6,0,P|228:300|172:356,1,148.350002829552,4|0,0:0|0:0,0:0:0:0:
144,376,62334,1,2,0:0:0:0:
352,368,62527,1,8,0:0:0:0:
136,272,62721,2,0,P|120:192|176:136,1,148.350002829552,4|0,0:0|0:0,0:0:0:0:
204,116,63109,1,2,0:0:0:0:
32,180,63301,1,8,0:0:0:0:
156,16,63495,1,0,0:0:0:0:
272,184,63688,6,0,P|320:188|368:152,1,98.9000018863678,4|2,0:0|0:0,0:0:0:0:
424,32,64075,1,8,0:0:0:0:
204,116,64269,2,0,P|172:168|204:252,1,148.350002829552,4|0,0:0|0:0,0:0:0:0:
236,276,64656,1,2,0:0:0:0:
84,144,64850,1,8,0:0:0:0:
88,336,65043,1,0,0:0:0:0:
272,184,65237,6,0,P|320:180|376:224,1,98.9000018863678,4|0,0:0|0:0,0:0:0:0:
416,336,65624,1,8,0:0:0:0:
197,246,65817,2,0,P|170:179|204:116,1,148.350002829552,4|8,0:0|0:0,0:0:0:0:
276,56,66204,2,0,P|309:71|337:68,1,49.4500009431839,8|8,0:0|0:0,0:0:0:0:
426,168,66398,2,0,P|406:136|406:108,1,49.4500009431839,8|8,0:0|0:0,0:0:0:0:
408,32,66592,1,8,0:0:0:0:
504,216,66785,6,0,P|433:263|369:240,1,148.350002829552,4|0,0:0|0:0,0:0:0:0:
343,211,67172,1,8,0:0:0:0:
292,372,67366,1,0,0:0:0:0:
265,163,67559,2,0,P|336:116|400:139,1,148.350002829552,2|0,0:0|0:0,0:0:0:0:
426,168,67946,1,8,0:0:0:0:
188,208,68140,6,0,B|149:157|206:110|176:60,1,148.350002829552,2|0,0:0|0:0,0:0:0:0:
152,24,68527,1,2,0:0:0:0:
120,276,68721,2,0,P|168:304|216:300,1,98.9000018863678,8|0,0:0|0:0,0:0:0:0:
316,212,69108,1,2,0:0:0:0:
344,332,69301,1,2,0:0:0:0:
188,208,69495,1,8,0:0:0:0:
364,120,69688,1,0,0:0:0:0:
117,145,69882,6,0,P|89:217|133:285,1,148.350002829552,2|0,0:0|0:0,0:0:0:0:
160,300,70269,1,8,0:0:0:0:
8,256,70463,1,0,0:0:0:0:
188,208,70656,2,0,L|344:204,1,148.350002829552,2|0,0:0|0:0,0:0:0:0:
384,204,71043,1,8,0:0:0:0:
200,132,71237,6,0,P|188:64|252:16,1,148.350002829552,2|0,0:0|0:0,0:0:0:0:
292,12,71624,1,2,0:0:0:0:
432,132,71817,2,0,L|440:252,1,98.9000018863678,8|0,0:0|0:0,0:0:0:0:
352,380,72204,1,2,0:0:0:0:
352,380,72301,1,8,3:2:0:0:
352,380,72398,1,0,3:0:0:0:
336,184,72592,1,8,0:0:0:0:
200,288,72785,1,8,0:0:0:0:
200,288,72882,1,8,0:0:0:0:
200,288,72979,6,0,B|144:252|112:320|52:288,1,148.350002829552,4|0,0:0|0:0,0:0:0:0:
20,268,73366,1,8,0:0:0:0:
164,364,73559,1,0,0:0:0:0:
252,216,73753,2,0,L|244:68,1,148.350002829552,2|0,0:0|0:0,0:0:0:0:
240,20,74140,1,8,0:0:0:0:
160,196,74334,6,0,P|88:212|32:164,1,148.350002829552,4|0,0:0|0:0,0:0:0:0:
20,124,74721,1,2,0:0:0:0:
48,328,74914,1,8,0:0:0:0:
112,120,75108,2,0,P|184:104|240:152,1,148.350002829552,4|0,0:0|0:0,0:0:0:0:
252,192,75495,1,2,0:0:0:0:
156,20,75688,1,8,0:0:0:0:
328,116,75882,1,0,0:0:0:0:
184,248,76075,6,0,P|180:300|212:348,1,98.9000018863678,4|0,0:0|0:0,0:0:0:0:
340,376,76463,1,8,0:0:0:0:
252,192,76656,2,0,P|184:156|116:192,1,148.350002829552,4|0,0:0|0:0,0:0:0:0:
100,228,77043,1,8,0:0:0:0:
260,92,77237,1,2,0:0:0:0:
272,280,77430,1,0,0:0:0:0:
424,136,77624,6,0,L|416:24,1,98.9000018863678,4|0,0:0|0:0,0:0:0:0:
260,92,78011,1,8,0:0:0:0:
260,92,78108,1,0,0:0:0:0:
260,92,78204,2,0,P|212:84|152:116,1,98.9000018863678,6|0,0:0|0:0,0:0:0:0:
144,144,78495,1,0,0:0:0:0:
144,144,78592,2,0,P|121:165|91:177,1,49.4500009431839,8|8,0:0|0:0,0:0:0:0:
64,304,78785,2,0,P|62:272|49:243,1,49.4500009431839,8|8,0:0|0:0,0:0:0:0:
12,176,78979,1,2,0:0:0:0:
160,256,79172,6,0,P|200:264|260:240,1,98.9000018863678,4|0,0:0|0:0,0:0:0:0:
312,120,79559,1,2,0:0:0:0:
92,176,79753,2,0,P|65:206|55:270,1,98.9000018863678,0|2,0:0|0:0,0:0:0:0:
360,228,80140,2,0,P|346:189|296:149,1,98.9000018863678,0|2,0:0|0:0,0:0:0:0:
156,108,80527,1,0,0:0:0:0:
304,40,80721,6,0,L|468:28,1,148.350002829552,2|0,0:0|0:0,0:0:0:0:
492,28,81108,1,2,0:0:0:0:
304,152,81301,2,0,P|284:196|300:252,1,98.9000018863678,0|2,0:0|0:0,0:0:0:0:
448,356,81688,2,0,P|468:312|452:256,1,98.9000018863678,0|2,0:0|0:0,0:0:0:0:
400,132,82075,1,0,0:0:0:0:
294,243,82269,6,0,P|244:252|184:216,1,98.9000018863678,2|0,0:0|0:0,0:0:0:0:
48,112,82656,1,2,0:0:0:0:
56,280,82850,2,0,L|64:392,1,98.9000018863678,0|2,0:0|0:0,0:0:0:0:
207,332,83237,2,0,L|199:220,1,98.9000018863678,0|2,0:0|0:0,0:0:0:0:
192,72,83624,1,0,0:0:0:0:
312,272,83817,5,8,0:0:0:0:
324,88,84011,1,8,0:0:0:0:
112,196,84204,1,8,0:0:0:0:
116,16,84398,1,8,0:0:0:0:
216,156,84592,1,8,0:0:0:0:
242,174,84688,1,8,0:0:0:0:
272,185,84785,1,8,0:0:0:0:
304,182,84882,1,8,0:0:0:0:
335,170,84979,1,8,0:0:0:0:
364,157,85075,1,8,0:0:0:0:
396,152,85172,1,8,0:0:0:0:
427,160,85269,1,8,0:0:0:0:
454,178,85366,6,0,L|460:296,1,98.9000018863678,4|0,0:0|0:0,0:0:0:0:
304,372,85753,2,0,L|298:254,1,98.9000018863678,8|0,0:0|0:0,0:0:0:0:
284,88,86140,2,0,P|232:132|148:104,1,148.350002829552,2|0,0:0|0:0,0:0:0:0:
128,84,86527,1,8,0:0:0:0:
312,0,86721,6,0,P|364:36|364:128,1,148.350002829552,4|0,0:0|0:0,0:0:0:0:
348,152,87108,1,2,0:0:0:0:
500,64,87301,1,8,0:0:0:0:
284,88,87495,2,0,P|254:153|285:217,1,148.350002829552,4|0,0:0|0:0,0:0:0:0:
320,241,87882,1,2,0:0:0:0:
168,140,88075,1,8,0:0:0:0:
180,304,88269,1,0,0:0:0:0:
348,152,88463,6,0,P|400:144|456:184,1,98.9000018863678,4|0,0:0|0:0,0:0:0:0:
356,332,88850,2,0,P|304:340|248:300,1,98.9000018863678,8|0,0:0|0:0,0:0:0:0:
112,192,89237,2,0,P|148:256|108:332,1,148.350002829552,2|0,0:0|0:0,0:0:0:0:
92,352,89624,1,8,0:0:0:0:
24,180,89817,6,0,P|61:116|147:113,1,148.350002829552,4|0,0:0|0:0,0:0:0:0:
172,124,90204,1,2,0:0:0:0:
12,12,90398,1,8,0:0:0:0:
111,191,90592,2,0,P|183:215|243:175,1,148.350002829552,4|0,0:0|0:0,0:0:0:0:
256,140,90979,1,2,0:0:0:0:
208,304,91172,1,8,0:0:0:0:
208,304,91269,1,8,0:0:0:0:
208,304,91366,1,2,0:0:0:0:
364,220,91559,6,0,P|408:216|456:248,1,86,4|0,0:0|0:0,0:0:0:0:
476,380,91946,2,0,P|432:384|384:352,1,86,8|0,0:0|0:0,0:0:0:0:
280,244,92334,2,0,P|328:203|336:140,1,129,2|0,0:0|0:0,0:0:0:0:
324,104,92721,1,8,0:0:0:0:
196,216,92914,6,0,B|168:260|224:292|190:340,1,129,4|0,0:0|0:0,0:0:0:0:
168,376,93301,1,2,0:0:0:0:
344,368,93495,1,8,0:0:0:0:
196,216,93688,2,0,P|120:212|80:272,1,129,4|0,0:0|0:0,0:0:0:0:
80,288,94075,1,2,0:0:0:0:
168,116,94269,1,8,0:0:0:0:
0,120,94463,1,0,0:0:0:0:
196,32,94656,6,0,P|256:84|252:140,1,129,4|0,0:0|0:0,0:0:0:0:
248,164,95043,2,0,L|352:156,1,86,8|0,0:0|0:0,0:0:0:0:
352,372,95430,2,0,P|292:320|296:264,1,129,2|0,0:0|0:0,0:0:0:0:
300,240,95817,1,8,0:0:0:0:
148,304,96011,6,0,P|70:288|45:238,1,129,4|0,0:0|0:0,0:0:0:0:
36,215,96398,1,2,0:0:0:0:
36,376,96592,1,8,0:0:0:0:
132,216,96785,2,0,P|209:231|234:281,1,129,4|0,0:0|0:0,0:0:0:0:
244,304,97172,1,2,0:0:0:0:
240,140,97366,1,8,0:0:0:0:
396,232,97559,5,4,0:0:0:0:
256,192,97753,12,0,102785,0:0:0:0:
