osu file format v14

[General]
AudioFilename: audio.mp3
AudioLeadIn: 0
PreviewTime: 53726
Countdown: 0
SampleSet: Soft
StackLeniency: 0.7
Mode: 0
LetterboxInBreaks: 0
WidescreenStoryboard: 0

[Editor]
Bookmarks: 14140,26527,38721,54398,91559,97559
DistanceSpacing: 1.5
BeatDivisor: 4
GridSize: 4
TimelineZoom: 1

[Metadata]
Title:Torikago
TitleUnicode:トリカゴ
Artist:XX:me
ArtistUnicode:XX:me
Creator:Meg
Version:XX
Source:ダーリン・イン・ザ・フランキス
Tags:iMage-- ShiraKai kaCha Silky Kanau fuyuyu- Mamayu Akitoshi xxdeathx DARLING in the FRANXX ed Kiss me ゼロツー Zero Two 戸松遥 Tomatsu Haruka イチゴ Ichigo 市ノ瀬加那 Ichinose Kana ミク Miku 山下七海 Yamashita Nanami ココロ Kokoro 早見沙織 Hayami Saori イクノ Ikuno 石上静香 Ishigami Shizuka
BeatmapID:1543499
BeatmapSetID:731421

[Difficulty]
HPDrainRate:6
CircleSize:4
OverallDifficulty:8
ApproachRate:9
SliderMultiplier:1.8
SliderTickRate:1

[Events]
//Background and Video events
0,0,"BG.jpg",0,0
//Break Periods
//Storyboard Layer 0 (Background)
//Storyboard Layer 1 (Fail)
//Storyboard Layer 2 (Pass)
//Storyboard Layer 3 (Foreground)
//Storyboard Sound Samples

[TimingPoints]
205,387.096774193548,4,2,2,60,1,0
7366,-100,4,2,1,60,0,0
14140,-125,4,2,1,50,0,0
14721,-125,4,2,2,50,0,0
14817,-125,4,2,1,50,0,0
16269,-125,4,2,2,50,0,0
16366,-125,4,2,1,50,0,0
17817,-125,4,2,2,50,0,0
17914,-125,4,2,1,50,0,0
19366,-125,4,2,2,50,0,0
19463,-125,4,2,1,50,0,0
20914,-125,4,2,2,50,0,0
21011,-125,4,2,1,50,0,0
22463,-125,4,2,2,50,0,0
22559,-125,4,2,1,50,0,0
24011,-125,4,2,2,50,0,0
24108,-125,4,2,1,50,0,0
24979,-111.111111111111,4,2,2,50,0,0
26527,-100,4,2,1,60,0,0
38721,-83.3333333333333,4,2,1,60,0,0
40269,-100,4,2,1,60,0,0
53817,-83.3333333333333,4,2,2,60,0,0
54398,-90.9090909090909,4,2,1,70,0,1
83817,-90.9090909090909,4,2,1,80,0,1
91559,-100,4,2,1,60,0,0
99301,-100,4,2,1,50,0,0
100850,-100,4,2,1,40,0,0
101624,-100,4,2,1,30,0,0
102011,-100,4,2,1,20,0,0
102398,-100,4,2,1,10,0,0
102785,-100,4,2,1,5,0,0

[Colours]
Combo1 : 77,77,215
Combo2 : 255,210,255
Combo3 : 152,208,254
Combo4 : 255,0,0

[HitObjects]
212,200,1172,5,4,0:3:0:0:
385,284,1366,1,4,0:3:0:0:
200,208,1753,6,0,L|288:194,1,90,6|0,0:0|0:0,0:0:0:0:
195,349,2140,2,0,L|106:335,1,90,2|0,0:0|0:0,0:0:0:0:
0,149,2527,2,0,P|73:101|150:140,1,180,6|0,0:0|0:0,0:0:0:0:
355,282,3108,6,0,B|298:293|298:293|256:334|256:334|194:348,1,180,6|0,0:0|0:0,0:0:0:0:
288,193,3688,1,2,0:0:0:0:
458,361,3882,2,0,P|452:293|451:226,1,135,6|0,0:0|0:0,0:0:0:0:
469,181,4269,2,0,P|476:202|481:224,1,45,8|8,3:0|3:0,0:0:0:0:
312,337,4463,2,0,P|304:315|299:293,1,45,8|8,3:0|3:0,0:0:0:0:
288,193,4656,1,8,3:0:0:0:
452,101,4850,6,0,P|407:96|362:88,1,90,6|0,0:0|0:0,0:0:0:0:
201,43,5237,2,0,P|245:35|290:30,1,90,2|0,0:0|0:0,0:0:0:0:
353,232,5624,2,0,P|277:268|214:212,1,180,6|0,0:0|0:0,0:0:0:0:
21,322,6204,6,0,B|73:321|99:286|99:286|148:280|184:310,1,180,6|0,0:0|0:0,0:0:0:0:
288,193,6785,1,2,0:0:0:0:
149,38,6979,2,0,P|140:104|134:172,1,135,6|0,0:0|0:0,0:0:0:0:
116,198,7366,2,0,L|160:190,1,45,8|0,0:0|0:0,0:0:0:0:
353,232,7559,1,8,0:0:0:0:
243,355,7753,1,2,0:0:0:0:
243,355,7850,1,2,0:0:0:0:
243,355,7946,6,0,P|240:310|240:265,1,90,6|0,0:0|0:0,0:0:0:0:
259,131,8334,1,8,0:0:0:0:
161,190,8527,1,0,0:0:0:0:
359,186,8721,1,2,0:0:0:0:
159,76,8914,1,2,0:0:0:0:
261,245,9108,1,8,0:0:0:0:
357,72,9301,6,0,P|436:39|504:92,1,180,6|2,0:0|0:0,0:0:0:0:
291,8,9882,1,8,0:0:0:0:
359,186,10075,2,0,P|280:153|212:206,1,180,6|2,0:0|0:0,0:0:0:0:
425,122,10656,1,8,0:0:0:0:
357,300,10850,1,0,0:0:0:0:
212,205,11043,6,0,P|145:213|79:222,1,135,6|0,0:0|0:0,0:0:0:0:
40,227,11430,2,0,P|84:232|128:242,1,90,12|0,0:0|0:0,0:0:0:0:
225,383,11817,2,0,P|211:339|194:298,1,90,2|2,0:0|0:0,0:0:0:0:
127,148,12204,1,8,0:0:0:0:
351,81,12398,6,0,P|320:140|314:207,1,135,6|0,0:0|0:0,0:0:0:0:
326,242,12785,1,2,0:0:0:0:
381,62,12979,1,8,0:0:0:0:
213,170,13172,2,0,P|206:125|190:84,1,90,6|0,0:0|0:0,0:0:0:0:
55,255,13559,2,0,P|137:233|194:297,1,180,4|0,0:3|0:0,0:0:0:0:
375,340,14140,6,0,L|305:358,1,72,6|0,0:0|0:0,0:0:0:0:
390,222,14527,1,2,0:0:0:0:
469,367,14721,2,0,L|479:223,1,144,2|0,0:0|0:0,0:0:0:0:
310,287,15301,2,0,L|304:358,1,72,2|0,0:0|0:0,0:0:0:0:
146,235,15688,6,0,P|149:199|161:165,1,72,2|0,0:0|0:0,0:0:0:0:
257,141,16075,1,2,0:0:0:0:
200,313,16269,2,0,P|131:329|71:293,1,144,2|0,0:0|0:0,0:0:0:0:
253,233,16850,2,0,P|278:258|291:291,1,72,2|0,0:0|0:0,0:0:0:0:
89,175,17237,6,0,L|160:164,1,72,2|0,0:0|0:0,0:0:0:0:
253,233,17624,1,2,0:0:0:0:
355,86,17817,2,0,L|212:64,1,144,2|0,0:0|0:0,0:0:0:0:
91,13,18398,2,0,L|101:84,1,72,2|0,0:0|0:0,0:0:0:0:
132,228,18785,6,0,P|151:199|160:164,1,72,2|0,0:0|0:0,0:0:0:0:
34,147,19172,1,2,0:0:0:0:
39,297,19366,2,0,P|105:272|173:291,1,144,2|0,0:0|0:0,0:0:0:0:
315,199,19946,2,0,P|279:202|247:217,1,72,2|0,0:0|0:0,0:0:0:0:
295,369,20334,6,0,L|304:298,1,72,2|0,0:0|0:0,0:0:0:0:
247,217,20721,1,2,0:0:0:0:
410,115,20914,2,0,L|427:257,1,144,2|0,0:0|0:0,0:0:0:0:
295,369,21495,2,0,L|366:376,1,72,2|0,0:0|0:0,0:0:0:0:
247,217,21882,6,0,B|193:230|193:230|165:217|165:217|109:229,1,144,2|2,0:0|0:0,0:0:0:0:
124,353,22463,2,0,L|53:339,1,72,2|0,0:0|0:0,0:0:0:0:
247,217,22850,1,2,0:0:0:0:
289,336,23043,1,2,0:0:0:0:
247,217,23237,1,2,0:0:0:0:
345,137,23430,6,0,L|416:151,1,72,2|0,0:0|0:0,0:0:0:0:
239,116,23817,1,2,0:0:0:0:
359,244,24011,2,0,L|500:216,1,144,2|0,0:0|0:0,0:0:0:0:
359,349,24592,2,0,L|288:335,1,72,2|0,0:0|0:0,0:0:0:0:
108,229,24979,5,6,0:0:0:0:
53,339,25172,1,2,0:0:0:0:
231,221,25366,1,2,0:0:0:0:
40,125,25559,2,0,P|30:165|25:205,1,80.9999975280763,2|0,3:2|0:0,0:0:0:0:
176,331,25946,1,8,0:0:0:0:
163,119,26140,1,8,0:0:0:0:
108,229,26334,1,4,3:0:0:0:
108,229,26430,1,4,3:0:0:0:
108,229,26527,6,0,L|197:221,1,90,6|0,0:0|0:0,0:0:0:0:
333,170,26914,1,8,0:0:0:0:
250,51,27108,2,0,P|240:94|237:139,1,90,2|0,0:0|0:0,0:0:0:0:
309,313,27495,1,2,0:0:0:0:
198,220,27688,1,8,0:0:0:0:
333,170,27882,1,0,0:0:0:0:
180,224,28075,6,0,L|91:232,1,90,2|0,0:0|0:0,0:0:0:0:
11,75,28463,1,8,0:0:0:0:
177,117,28656,2,0,L|185:28,1,90,2|0,0:0|0:0,0:0:0:0:
317,148,29043,1,2,0:0:0:0:
180,224,29237,1,8,0:0:0:0:
357,279,29430,1,0,0:0:0:0:
444,130,29624,6,0,P|447:85|437:41,1,90,2|0,0:0|0:0,0:0:0:0:
486,239,30011,1,8,0:0:0:0:
317,148,30204,2,0,P|272:144|228:154,1,90,2|0,0:0|0:0,0:0:0:0:
87,293,30592,1,2,0:0:0:0:
109,140,30785,1,8,0:0:0:0:
71,306,30979,1,0,0:0:0:0:
234,255,31172,6,0,L|319:280,1,90,2|0,0:0|0:0,0:0:0:0:
493,196,31559,1,8,0:0:0:0:
452,366,31753,2,0,P|435:324|430:279,1,90,2|0,0:0|0:0,0:0:0:0:
481,81,32140,1,2,0:0:0:0:
363,178,32334,1,8,0:0:0:0:
351,177,32430,1,0,0:0:0:0:
339,176,32527,1,0,0:0:0:0:
227,57,32721,6,0,L|138:73,1,90,2|0,0:0|0:0,0:0:0:0:
180,224,33108,1,8,0:0:0:0:
57,104,33301,2,0,P|52:59|66:17,1,90,2|0,0:0|0:0,0:0:0:0:
264,138,33688,1,2,0:0:0:0:
180,224,33882,1,8,0:0:0:0:
138,73,34075,1,0,0:0:0:0:
90,276,34269,6,0,B|141:238|205:250|205:250|230:271|255:279,1,180,2|8,0:0|0:0,0:0:0:0:
429,134,34850,2,0,B|378:96|314:108|314:108|288:129|263:137,1,180,2|2,0:0|0:0,0:0:0:0:
255,279,35430,1,8,0:0:0:0:
128,155,35624,1,2,0:0:0:0:
279,3,35817,6,0,L|263:137,1,135,6|0,0:0|0:0,0:0:0:0:
257,181,36204,1,8,0:0:0:0:
477,90,36398,2,0,P|434:78|390:82,1,90,6|0,0:0|0:0,0:0:0:0:
446,267,36785,2,0,P|438:223|426:180,1,90,2|8,0:0|0:0,0:0:0:0:
357,346,37172,1,0,0:0:0:0:
116,226,37366,5,4,0:0:0:0:
343,204,37559,1,0,0:0:0:0:
202,249,37753,1,2,0:0:0:0:
257,181,37946,1,0,0:0:0:0:
202,249,38140,1,2,0:0:0:0:
218,101,38334,5,8,0:0:0:0:
240,328,38527,1,8,0:0:0:0:
218,101,38721,6,0,P|164:46|90:68,1,161.999995056153,6|0,0:0|0:0,0:0:0:0:
62,134,39108,1,2,0:0:0:0:
308,52,39301,1,12,0:0:0:0:
316,58,39688,6,0,L|300:109,1,53.9999983520508,4|8,3:0|3:0,0:0:0:0:
209,183,39882,2,0,L|224:234,1,53.9999983520508,4|8,3:0|3:0,0:0:0:0:
316,304,40075,1,8,0:0:0:0:
481,168,40269,6,0,P|403:132|337:187,1,180,6|2,0:0|0:0,0:0:0:0:
412,310,40850,2,0,L|501:297,1,90,8|0,0:0|0:0,0:0:0:0:
499,310,41140,1,2,0:0:0:0:
496,322,41237,1,2,0:2:0:0:
414,212,41430,1,2,0:0:0:0:
361,375,41624,1,8,0:0:0:0:
270,166,41817,6,0,P|213:146|142:217,1,135,2|0,0:0|0:0,0:0:0:0:
138,218,42204,1,2,0:0:0:0:
35,110,42398,2,0,P|48:66|50:21,1,90,8|0,0:0|0:0,0:0:0:0:
39,27,42688,1,8,3:0:0:0:
27,31,42785,1,2,3:2:0:0:
223,94,42979,1,8,0:0:0:0:
61,187,43172,1,8,0:0:0:0:
244,22,43366,6,0,P|298:86|257:160,1,180,2|2,0:0|0:0,0:0:0:0:
124,101,43946,1,8,0:0:0:0:
202,249,44140,1,4,3:0:0:0:
201,260,44237,1,4,3:0:0:0:
200,272,44334,1,2,0:0:0:0:
41,212,44527,1,4,3:0:0:0:
40,200,44624,1,4,3:0:0:0:
39,189,44721,1,8,0:0:0:0:
35,366,44914,6,0,B|89:350|89:350|129:369|129:369|207:354,1,180,6|2,0:0|0:0,0:0:0:0:
257,160,45495,1,8,0:0:0:0:
395,294,45688,2,0,L|307:278,1,90,0|2,0:0|0:0,0:0:0:0:
136,200,46075,1,2,0:0:0:0:
206,354,46269,1,8,0:0:0:0:
257,160,46463,6,0,B|241:129|241:129|260:29|260:29|229:60,1,180,6|2,0:0|0:0,0:0:0:0:
200,272,47043,1,8,0:0:0:0:
373,143,47237,2,0,L|391:231,1,90,0|2,0:0|0:0,0:0:0:0:
257,160,47624,1,2,0:0:0:0:
356,27,47817,1,8,0:0:0:0:
489,126,48011,1,0,0:0:0:0:
257,160,48204,6,0,P|217:142|173:132,1,90,6|0,0:0|0:0,0:0:0:0:
99,285,48592,2,0,P|136:260|179:245,1,90,8|0,0:0|0:0,0:0:0:0:
412,285,48979,2,0,P|375:260|333:245,1,90,2|2,0:0|0:0,0:0:0:0:
257,160,49366,2,0,P|298:141|342:132,1,90,8|0,0:0|0:0,0:0:0:0:
357,130,49656,1,0,0:0:0:0:
373,132,49753,6,0,L|249:78,1,135,2|0,0:0|0:0,0:0:0:0:
207,60,50140,1,8,0:0:0:0:
74,111,50334,1,0,0:0:0:0:
51,252,50527,1,2,0:0:0:0:
54,274,50624,1,8,3:0:0:0:
58,296,50721,1,4,3:0:0:0:
184,201,50914,1,8,0:0:0:0:
51,252,51108,2,0,L|6:250,1,45,2|0,0:0|0:0,0:0:0:0:
214,355,51301,5,12,0:0:0:0:
184,201,51495,1,0,0:0:0:0:
328,316,51688,1,8,0:0:0:0:
170,210,51882,1,0,0:0:0:0:
340,126,52075,1,8,0:0:0:0:
214,355,52269,1,0,0:0:0:0:
442,277,52463,1,8,0:0:0:0:
198,192,52656,1,2,0:0:0:0:
184,201,52753,1,2,0:0:0:0:
170,210,52850,6,0,L|82:190,1,90,6|0,0:0|0:0,0:0:0:0:
184,56,53237,1,6,3:0:0:0:
230,44,53334,1,6,3:0:0:0:
275,57,53430,1,12,3:0:0:0:
308,92,53527,1,12,3:0:0:0:
340,126,53624,1,8,3:2:0:0:
385,139,53721,1,0,3:0:0:0:
431,126,53817,6,0,P|454:114|477:99,1,53.9999983520508,2|0,1:2|0:0,0:0:0:0:
462,281,54011,2,0,P|438:269|416:255,1,53.9999983520508,2|0,1:2|0:0,0:0:0:0:
297,306,54204,2,0,P|295:332|297:359,1,53.9999983520508,2|0,1:2|0:0,0:0:0:0:
416,255,54398,6,0,L|218:273,1,198.000006042481,6|8,0:0|0:0,0:0:0:0:
285,84,54979,1,0,0:0:0:0:
154,168,55172,2,0,L|252:159,1,99.0000030212403,2|2,0:0|0:0,0:0:0:0:
430,126,55559,1,8,0:0:0:0:
336,2,55753,6,0,P|303:39|285:85,1,99.0000030212403,2|0,0:0|0:0,0:0:0:0:
289,239,56140,1,2,0:0:0:0:
130,73,56334,2,0,P|133:122|153:167,1,99.0000030212403,8|0,0:0|0:0,0:0:0:0:
285,84,56721,1,2,0:0:0:0:
185,265,56914,1,2,0:0:0:0:
360,183,57108,1,8,0:0:0:0:
343,375,57301,1,0,0:0:0:0:
343,375,57398,1,0,0:0:0:0:
343,375,57495,6,0,P|259:327|168:357,1,198.000006042481,6|8,0:0|0:0,0:0:0:0:
21,156,58075,2,0,P|42:167|61:184,1,49.5000015106202
113,273,58269,1,2,0:0:0:0:
193,134,58463,1,2,0:0:0:0:
99,277,58656,1,8,0:0:0:0:
289,239,58850,6,0,L|436:252,1,148.50000453186,2|0,0:0|0:0,0:0:0:0:
473,281,59237,1,2,0:0:0:0:
486,91,59430,2,0,P|436:95|390:111,1,99.0000030212403,8|0,0:0|0:0,0:0:0:0:
289,239,59817,1,2,0:0:0:0:
293,263,59914,1,8,3:2:0:0:
297,288,60011,1,0,3:0:0:0:
193,134,60204,2,0,L|242:140,1,49.5000015106202,8|0,3:2|3:0,0:0:0:0:
387,225,60398,2,0,L|337:231,1,49.5000015106202,8|8,3:2|3:2,0:0:0:0:
186,329,60592,6,0,P|278:306|353:366,1,198.000006042481,6|8,0:0|0:0,0:0:0:0:
480,170,61172,1,0,0:0:0:0:
337,230,61366,2,0,P|327:181|330:132,1,99.0000030212403,2|2,0:0|0:0,0:0:0:0:
403,40,61753,1,8,0:0:0:0:
242,140,61946,6,0,B|207:143|180:120|180:120|139:178|66:169,1,198.000006042481,6|2,0:0|0:0,0:0:0:0:
79,45,62527,1,8,0:0:0:0:
6,229,62721,2,0,P|49:252|98:247,1,99.0000030212403,6|0,0:0|0:0,0:0:0:0:
242,140,63108,1,2,0:0:0:0:
180,307,63301,1,8,0:0:0:0:
66,169,63495,1,0,0:0:0:0:
296,212,63688,6,0,P|290:261|269:305,1,99.0000030212403,6|0,0:0|0:0,0:0:0:0:
192,129,64075,1,8,0:0:0:0:
393,99,64269,2,0,P|435:188|423:285,1,198.000006042481,6|2,0:0|0:0,0:0:0:0:
296,212,64850,1,8,0:0:0:0:
510,172,65043,1,0,0:0:0:0:
316,323,65237,6,0,L|217:312,1,99.0000030212403,6|0,0:0|0:0,0:0:0:0:
99,109,65624,1,0,3:0:0:0:
103,97,65721,1,0,3:0:0:0:
111,87,65817,2,0,P|181:71|232:121,1,148.50000453186,6|4,0:0|0:3,0:0:0:0:
296,212,66204,2,0,L|246:217,1,49.5000015106202,2|2,3:2|3:2,0:0:0:0:
119,301,66398,1,8,3:0:0:0:
168,306,66495,1,8,3:0:0:0:
217,311,66592,1,8,3:0:0:0:
441,266,66785,6,0,P|349:286|295:211,1,198.000006042481,6|8,0:0|0:0,0:0:0:0:
433,53,67366,1,0,0:0:0:0:
379,206,67559,2,0,P|331:220|282:222,1,99.0000030212403,2|2,0:0|0:0,0:0:0:0:
99,109,67946,1,8,0:0:0:0:
242,16,68140,6,0,B|309:42|309:42|365:33|365:33|432:52,1,198.000006042481,2|2,0:0|0:0,0:0:0:0:
494,181,68721,2,0,P|446:210|410:249,1,99.0000030212403,8|0,0:0|0:0,0:0:0:0:
373,350,69108,1,2,0:0:0:0:
231,120,69301,1,2,0:0:0:0:
175,265,69495,1,8,0:0:0:0:
374,150,69688,1,0,0:0:0:0:
374,150,69785,1,0,0:0:0:0:
374,150,69882,6,0,B|399:91|399:91|390:24|306:10,1,198.000006042481,6|8,0:0|0:0,0:0:0:0:
99,109,70463,1,0,0:0:0:0:
123,112,70559,1,0,0:0:0:0:
148,115,70656,1,2,0:0:0:0:
31,194,70850,1,2,0:0:0:0:
167,24,71043,1,8,0:0:0:0:
246,226,71237,6,0,L|99:251,1,148.50000453186,2|0,0:0|0:0,0:0:0:0:
65,222,71624,1,2,0:0:0:0:
180,336,71817,2,0,L|277:319,1,99.0000030212403,8|0,0:0|0:0,0:0:0:0:
465,252,72204,1,2,0:0:0:0:
441,245,72301,1,8,3:2:0:0:
416,240,72398,1,0,3:0:0:0:
274,134,72592,2,0,P|298:137|323:136,1,49.5000015106202,8|0,3:2|3:0,0:0:0:0:
437,62,72785,2,0,P|421:81|410:103,1,49.5000015106202,8|8,3:2|3:2,0:0:0:0:
416,240,72979,6,0,P|318:228|228:267,1,198.000006042481,6|8,0:0|0:0,0:0:0:0:
170,142,73559,1,0,0:0:0:0:
56,324,73753,2,0,B|97:323|125:343|125:343|171:323|171:323|195:348|240:349,1,198.000006042481,2|8,0:0|0:0,0:0:0:0:
479,287,74334,6,0,B|505:238|475:186|475:186|460:143|484:96,1,198.000006042481,6|2,0:0|0:0,0:0:0:0:
273,117,74914,1,8,0:0:0:0:
415,240,75108,2,0,P|366:236|317:236,1,99.0000030212403,6|0,0:0|0:0,0:0:0:0:
142,319,75495,1,2,0:0:0:0:
29,215,75688,1,8,0:0:0:0:
23,190,75785,1,2,0:0:0:0:
22,166,75882,1,2,0:0:0:0:
26,141,75979,1,2,0:0:0:0:
34,118,76075,6,0,L|132:132,1,99.0000030212403,6|0,0:0|0:0,0:0:0:0:
207,221,76463,1,8,0:0:0:0:
88,33,76656,2,0,L|235:54,1,148.50000453186,6|0,0:0|0:0,0:0:0:0:
327,41,77043,2,0,L|319:90,1,49.5000015106202,8|8,0:0|0:0,0:0:0:0:
297,237,77237,1,2,0:0:0:0:
466,111,77430,1,0,0:0:0:0:
428,289,77624,6,0,P|411:243|400:195,1,99.0000030212403,6|0,0:0|0:0,0:0:0:0:
309,346,78011,1,8,0:0:0:0:
295,338,78108,1,0,0:0:0:0:
280,335,78204,2,0,P|206:343|133:356,1,148.50000453186,6|8,0:0|0:3,0:0:0:0:
48,358,78592,2,0,P|51:334|59:311,1,49.5000015106202,0|2,3:2|3:2,0:0:0:0:
179,217,78785,2,0,P|187:240|190:264,1,49.5000015106202,8|8,3:0|3:0,0:0:0:0:
59,122,78979,1,8,3:0:0:0:
253,161,79172,6,0,L|449:133,1,198.000006042481,6|2,0:0|0:0,0:0:0:0:
340,60,79753,1,0,3:0:0:0:
469,129,79946,1,2,0:0:0:0:
382,230,80140,1,0,3:0:0:0:
488,127,80334,1,2,0:0:0:0:
253,161,80527,1,10,3:0:0:0:
253,161,80624,1,8,3:0:0:0:
253,161,80721,6,0,P|206:143|161:122,1,99.0000030212403,2|0,0:0|3:0,0:0:0:0:
50,216,81108,1,2,0:3:0:0:
134,42,81301,1,2,3:3:0:0:
152,39,81398,1,2,3:3:0:0:
170,36,81495,1,2,0:3:0:0:
1,89,81688,1,0,3:0:0:0:
171,220,81882,2,0,L|161:122,1,99.0000030212403,2|0,0:0|3:0,0:0:0:0:
257,306,82269,5,2,0:0:0:0:
51,359,82463,1,0,3:0:0:0:
257,306,82656,1,2,0:0:0:0:
161,122,82850,2,0,L|171:220,1,99.0000030212403,2|2,3:0|0:0,0:0:0:0:
335,127,83237,2,0,L|344:28,1,99.0000030212403,2|0,3:0|0:0,0:0:0:0:
412,240,83624,1,8,3:0:0:0:
412,240,83721,1,8,3:0:0:0:
412,240,83817,5,8,0:0:0:0:
247,124,84011,1,8,0:0:0:0:
429,39,84204,1,8,0:0:0:0:
296,229,84398,1,8,0:0:0:0:
197,18,84592,1,8,0:0:0:0:
148,13,84688,1,8,0:0:0:0:
104,34,84785,1,8,0:0:0:0:
77,75,84882,1,8,0:0:0:0:
75,124,84979,1,8,0:0:0:0:
98,167,85075,1,8,0:0:0:0:
139,191,85172,2,0,P|164:196|188:199,1,49.5000015106202,8|8,0:0|0:0,0:0:0:0:
345,114,85366,6,0,P|295:118|246:123,1,99.0000030212403,6|0,0:0|0:0,0:0:0:0:
146,288,85753,2,0,P|195:283|244:278,1,99.0000030212403,8|0,0:0|0:0,0:0:0:0:
485,346,86140,2,0,P|392:328|369:237,1,198.000006042481,2|8,0:0|0:0,0:0:0:0:
474,67,86721,6,0,L|458:214,1,148.50000453186,6|0,0:0|0:0,0:0:0:0:
453,264,87108,1,2,0:0:0:0:
331,126,87301,1,8,0:0:0:0:
273,373,87495,2,0,P|261:324|244:278,1,99.0000030212403,6|0,0:0|0:0,0:0:0:0:
75,124,87882,1,2,0:0:0:0:
42,277,88075,1,8,0:0:0:0:
223,173,88269,1,0,0:0:0:0:
91,26,88463,6,0,P|81:74|75:124,1,99.0000030212403,6|0,0:0|0:0,0:0:0:0:
206,270,88850,2,0,P|216:221|222:172,1,99.0000030212403,12|0,0:0|0:0,0:0:0:0:
52,335,89237,2,0,B|78:304|109:305|109:305|138:366|216:368,1,198.000006042481,2|8,0:0|0:0,0:0:0:0:
440,305,89817,6,0,P|393:288|347:269,1,99.0000030212403,6|0,0:0|0:0,0:0:0:0:
222,172,90204,1,2,0:0:0:0:
364,102,90398,1,8,0:0:0:0:
158,6,90592,2,0,L|143:103,1,99.0000030212403,6|0,0:0|0:0,0:0:0:0:
121,249,90979,1,2,0:0:0:0:
304,173,91172,1,8,0:0:0:0:
299,148,91269,1,8,0:0:0:0:
294,123,91366,1,8,0:0:0:0:
493,186,91559,6,0,P|470:224|450:265,1,90,6|0,0:0|0:0,0:0:0:0:
309,371,91946,2,0,P|289:330|266:292,1,90,8|0,0:0|0:0,0:0:0:0:
59,296,92334,1,2,0:0:0:0:
205,218,92527,1,2,0:0:0:0:
45,304,92721,1,8,0:0:0:0:
23,122,92914,6,0,P|73:53|160:55,1,180,6|2,0:0|0:0,0:0:0:0:
135,176,93495,1,8,0:0:0:0:
299,18,93688,2,0,L|310:197,1,180,6|2,0:0|0:0,0:0:0:0:
199,290,94269,1,8,0:0:0:0:
408,220,94463,1,0,0:0:0:0:
217,367,94656,6,0,P|152:356|118:300,1,135,6|0,0:0|0:0,0:0:0:0:
114,253,95043,2,0,P|99:295|81:336,1,90,12|0,0:0|0:0,0:0:0:0:
23,122,95430,1,2,0:0:0:0:
146,104,95624,1,2,0:0:0:0:
269,86,95817,1,8,0:0:0:0:
408,220,96011,6,0,P|342:205|275:195,1,135,6|0,0:0|0:0,0:0:0:0:
258,217,96398,1,2,0:0:0:0:
371,97,96592,1,8,0:0:0:0:
241,238,96785,1,6,0:0:0:0:
224,259,97172,5,2,0:0:0:0:
371,97,97366,1,8,0:0:0:0:
207,280,97559,5,6,0:0:0:0:
256,192,97656,12,0,102785,0:0:0:0:
