osu file format v14

[General]
AudioFilename: audio.mp3
AudioLeadIn: 0
PreviewTime: 53726
Countdown: 0
SampleSet: None
StackLeniency: 0.7
Mode: 0
LetterboxInBreaks: 0
WidescreenStoryboard: 1

[Editor]
Bookmarks: 14140,26527,38721,54398,91559,97559
DistanceSpacing: 1.3
BeatDivisor: 4
GridSize: 32
TimelineZoom: 1

[Metadata]
Title:Torikago
TitleUnicode:トリカゴ
Artist:XX:me
ArtistUnicode:XX:me
Creator:Meg
Version:Silky's Hard
Source:ダーリン・イン・ザ・フランキス
Tags:iMage-- ShiraKai kaCha Silky Kanau fuyuyu- Mamayu Akitoshi xxdeathx DARLING in the FRANXX ed Kiss me ゼロツー Zero Two 戸松遥 Tomatsu Haruka イチゴ Ichigo 市ノ瀬加那 Ichinose Kana ミク Miku 山下七海 Yamashita Nanami ココロ Kokoro 早見沙織 Hayami Saori イクノ Ikuno 石上静香 Ishigami Shizuka
BeatmapID:1551101
BeatmapSetID:731421

[Difficulty]
HPDrainRate:5
CircleSize:4
OverallDifficulty:6
ApproachRate:8
SliderMultiplier:1.6
SliderTickRate:1

[Events]
//Background and Video events
0,0,"BG.jpg",0,0
//Break Periods
//Storyboard Layer 0 (Background)
//Storyboard Layer 1 (Fail)
//Storyboard Layer 2 (Pass)
//Storyboard Layer 3 (Foreground)
//Storyboard Sound Samples

[TimingPoints]
205,387.096774193548,4,2,2,60,1,0
7366,-100,4,2,1,60,0,0
14140,-111.111111111111,4,2,1,50,0,0
14721,-111.111111111111,4,2,2,50,0,0
14817,-111.111111111111,4,2,1,50,0,0
16269,-111.111111111111,4,2,2,50,0,0
16366,-111.111111111111,4,2,1,50,0,0
17817,-111.111111111111,4,2,2,50,0,0
17914,-111.111111111111,4,2,1,50,0,0
19366,-111.111111111111,4,2,2,50,0,0
19463,-111.111111111111,4,2,1,50,0,0
20914,-111.111111111111,4,2,2,50,0,0
21011,-111.111111111111,4,2,1,50,0,0
22463,-111.111111111111,4,2,2,50,0,0
22559,-111.111111111111,4,2,1,50,0,0
24011,-111.111111111111,4,2,2,50,0,0
24108,-111.111111111111,4,2,1,50,0,0
24979,-100,4,2,2,50,0,0
26527,-100,4,2,1,60,0,0
53817,-100,4,2,2,60,0,0
54398,-100,4,2,1,70,0,1
83817,-100,4,2,1,80,0,1
91559,-100,4,2,1,60,0,0
99301,-100,4,2,1,50,0,0
100850,-100,4,2,1,40,0,0
101624,-100,4,2,1,30,0,0
102011,-100,4,2,1,20,0,0
102398,-100,4,2,1,10,0,0
102785,-100,4,2,1,5,0,0

[Colours]
Combo1 : 77,77,215
Combo2 : 255,210,255
Combo3 : 152,208,254
Combo4 : 255,0,0

[HitObjects]
78,226,1172,5,4,0:3:0:0:
52,326,1365,1,4,0:3:0:0:
52,326,1753,6,0,P|93:318|144:315,1,80,6|0,0:0|0:0,0:0:0:0:
226,356,2140,1,2,0:0:0:0:
286,271,2334,1,0,0:0:0:0:
381,312,2527,2,0,P|456:310|497:231,1,160,6|0,0:0|0:0,0:0:0:0:
450,150,3108,6,0,P|457:112|467:71,1,80,6|0,0:0|0:0,0:0:0:0:
385,6,3495,1,0,0:0:0:0:
304,71,3688,1,2,0:0:0:0:
345,166,3882,2,0,P|262:152|177:145,1,160,6|8,0:0|3:0,0:0:0:0:
93,96,4463,2,0,P|80:59|74:19,1,80,8|8,3:0|3:0,0:0:0:0:
103,200,4850,6,0,L|85:296,1,80,6|0,0:0|0:0,0:0:0:0:
18,355,5237,1,2,0:0:0:0:
118,379,5430,1,0,0:0:0:0:
187,301,5624,2,0,P|266:278|336:325,1,160,6|0,0:0|0:0,0:0:0:0:
413,375,6204,6,0,P|420:336|431:292,1,80,6|0,0:0|0:0,0:0:0:0:
490,211,6592,1,0,0:0:0:0:
394,171,6785,1,2,0:0:0:0:
424,71,6979,2,0,P|462:65|528:54,1,80,6|0,0:0|0:0,0:0:0:0:
394,171,7366,1,8,0:0:0:0:
304,118,7559,2,0,P|245:113|204:159,1,120,8|2,0:0|0:0,0:0:0:0:
195,182,7946,6,0,P|184:83|174:22,1,160,6|8,0:0|0:0,0:0:0:0:
73,51,8527,1,0,0:0:0:0:
17,139,8721,2,0,P|54:143|121:159,1,80,2|2,0:0|0:0,0:0:0:0:
195,182,9108,1,8,0:0:0:0:
285,131,9301,6,0,P|289:89|297:49,1,80,6|0,0:0|0:0,0:0:0:0:
391,8,9688,1,2,0:0:0:0:
456,88,9882,1,8,0:0:0:0:
394,171,10075,2,0,L|417:336,1,160,6|2,0:0|0:0,0:0:0:0:
323,377,10656,2,0,P|278:367|236:361,1,80,8|0,0:0|0:0,0:0:0:0:
185,274,11043,6,0,P|225:268|264:259,1,80,6|0,0:0|0:0,0:0:0:0:
115,351,11430,2,0,P|83:303|101:226,1,120,12|0,0:0|0:0,0:0:0:0:
104,215,11817,2,0,P|98:172|91:134,1,80,2|2,0:0|0:0,0:0:0:0:
191,163,12204,1,8,0:0:0:0:
289,127,12398,6,0,P|242:65|146:72,1,160,6|2,0:0|0:0,0:0:0:0:
191,163,12979,1,8,0:0:0:0:
270,229,13172,2,0,P|345:215|437:204,1,160,6|4,0:0|0:3,0:0:0:0:
487,118,13753,2,0,P|448:112|409:102,1,80,0|0,0:0|0:0,0:0:0:0:
346,32,14140,5,6,0:0:0:0:
346,32,14334,2,0,L|267:44,1,71.9999978027344,0|2,0:0|0:0,0:0:0:0:
193,90,14721,2,0,P|134:51|66:63,1,143.999995605469,2|0,0:0|0:0,0:0:0:0:
14,141,15301,2,0,L|93:153,1,71.9999978027344,2|0,0:0|0:0,0:0:0:0:
128,234,15688,5,2,0:0:0:0:
128,234,15882,2,0,P|120:271|114:318,1,71.9999978027344,0|2,0:0|0:0,0:0:0:0:
191,359,16269,2,0,P|203:280|218:209,1,143.999995605469,2|0,0:0|0:0,0:0:0:0:
241,126,16850,1,2,0:0:0:0:
241,126,17043,1,0,0:0:0:0:
329,158,17237,6,0,P|364:153|404:144,1,71.9999978027344,2|0,0:0|0:0,0:0:0:0:
485,182,17624,1,2,0:0:0:0:
470,274,17817,2,0,P|389:290|317:310,1,143.999995605469,2|0,0:0|0:0,0:0:0:0:
261,371,18398,2,0,P|225:363|190:358,1,71.9999978027344,2|0,0:0|0:0,0:0:0:0:
97,372,18785,6,0,P|86:297|73:224,1,143.999995605469,2|2,0:0|0:0,0:0:0:0:
123,149,19366,1,2,0:0:0:0:
122,149,19753,2,0,P|88:140|52:133,1,71.9999978027344,0|2,0:0|0:0,0:0:0:0:
182,76,20140,1,0,0:0:0:0:
266,117,20334,6,0,P|337:103|412:96,1,143.999995605469,2|2,0:0|0:0,0:0:0:0:
468,24,20914,2,0,P|500:112|470:166,1,143.999995605469,2|0,0:0|0:0,0:0:0:0:
409,215,21495,2,0,P|374:207|330:200,1,71.9999978027344,2|0,0:0|0:0,0:0:0:0:
250,232,21882,6,0,P|260:303|272:374,1,143.999995605469,2|2,0:0|0:0,0:0:0:0:
181,350,22463,2,0,P|136:356|81:318,1,107.999996704102,2|0,0:0|0:0,0:0:0:0:
71,301,22850,1,2,0:0:0:0:
49,210,23043,1,2,0:0:0:0:
116,145,23237,1,2,0:0:0:0:
205,173,23430,5,2,0:0:0:0:
205,173,23817,1,2,0:0:0:0:
257,96,24011,2,0,P|222:90|187:81,1,71.9999978027344,2|0,0:0|0:0,0:0:0:0:
318,24,24398,2,0,P|352:15|388:9,1,71.9999978027344,0|2,0:0|0:0,0:0:0:0:
475,45,24785,1,0,0:0:0:0:
500,146,24979,6,0,P|461:138|420:133,1,80,6|2,0:0|0:0,0:0:0:0:
335,192,25366,1,2,0:0:0:0:
428,236,25559,2,0,P|468:301|448:354,1,120,2|0,3:2|0:0,0:0:0:0:
438,365,25946,1,8,0:0:0:0:
344,317,26140,1,8,0:0:0:0:
256,372,26334,1,4,3:0:0:0:
168,317,26527,6,0,P|95:328|3:340,1,160,6|8,0:0|0:0,0:0:0:0:
32,237,27108,2,0,P|0:172|62:99,1,160,2|2,0:0|0:0,0:0:0:0:
121,36,27688,2,0,P|131:68|140:113,1,80,8|0,0:0|0:0,0:0:0:0:
130,216,28075,5,2,0:0:0:0:
130,216,28269,1,0,0:0:0:0:
227,178,28463,1,8,0:0:0:0:
294,256,28656,2,0,P|367:245|459:233,1,160,2|2,0:0|0:0,0:0:0:0:
504,143,29237,2,0,P|465:138|413:130,1,80,8|0,0:0|0:0,0:0:0:0:
363,47,29624,6,0,P|329:14|216:30,1,160,2|8,0:0|0:0,0:0:0:0:
146,91,30204,2,0,P|135:51|119:4,1,80,2|0,0:0|0:0,0:0:0:0:
46,86,30592,1,2,0:0:0:0:
89,179,30785,2,0,P|129:188|179:195,1,80,8|0,0:0|0:0,0:0:0:0:
242,121,31172,5,2,0:0:0:0:
242,121,31366,1,0,0:0:0:0:
272,220,31559,1,8,0:0:0:0:
206,301,31753,2,0,P|131:292|45:272,1,160,2|2,0:0|0:0,0:0:0:0:
89,179,32334,2,0,P|76:141|65:88,1,80,8|0,0:0|0:0,0:0:0:0:
140,27,32721,6,0,P|220:24|275:104,1,160,2|8,0:0|0:0,0:0:0:0:
236,177,33301,2,0,P|313:158|393:149,1,160,2|2,0:0|0:0,0:0:0:0:
495,170,33882,2,0,P|486:131|480:92,1,80,8|0,0:0|0:0,0:0:0:0:
418,241,34269,6,0,P|463:308|451:384,1,160,2|8,0:0|0:0,0:0:0:0:
360,331,34850,2,0,B|269:304|297:363|205:333,1,160,2|2,0:0|0:0,0:0:0:0:
125,266,35430,1,8,0:0:0:0:
41,328,35624,1,2,0:0:0:0:
17,227,35817,6,0,P|43:177|42:100,1,120,6|0,0:0|0:0,0:0:0:0:
39,88,36204,1,8,0:0:0:0:
121,24,36398,2,0,P|205:36|231:108,1,160,6|2,0:0|0:0,0:0:0:0:
249,201,36979,2,0,P|209:196|171:184,1,80,8|0,0:0|0:0,0:0:0:0:
309,286,37366,6,0,B|376:229|470:259|470:259|484:294|482:326,1,240,4|0,0:0|0:0,0:0:0:0:
482,326,38334,1,8,0:0:0:0:
384,360,38527,1,8,0:0:0:0:
309,286,38721,6,0,P|269:290|231:302,1,80,6|0,0:0|0:0,0:0:0:0:
148,365,39108,1,2,0:0:0:0:
53,323,39301,2,0,P|60:282|66:237,1,80,12|0,0:0|0:0,0:0:0:0:
38,143,39688,2,0,L|1:130,2,40,4|8|4,3:0|3:0|3:0,0:0:0:0:
137,175,40075,1,8,0:0:0:0:
211,101,40269,6,0,B|273:89|273:89|306:105|306:105|365:93,1,160,6|2,0:0|0:0,0:0:0:0:
462,129,40850,1,8,0:0:0:0:
426,226,41043,1,0,0:0:0:0:
426,226,41140,1,2,0:0:0:0:
426,226,41237,2,0,P|385:218|344:213,1,80,2|2,0:2|0:0,0:0:0:0:
255,263,41624,1,8,0:0:0:0:
309,350,41817,6,0,P|268:357|227:363,1,80,2|0,0:0|0:0,0:0:0:0:
150,295,42204,1,2,0:0:0:0:
55,340,42398,1,8,0:0:0:0:
1,250,42592,1,0,0:0:0:0:
1,250,42688,1,8,3:0:0:0:
1,250,42785,2,0,P|12:209|17:160,1,80,2|8,3:2|0:0,0:0:0:0:
8,67,43172,1,8,0:0:0:0:
88,0,43366,6,0,P|106:77|117:159,1,160,2|2,0:0|0:0,0:0:0:0:
192,227,43946,1,8,0:0:0:0:
279,170,44140,1,4,3:0:0:0:
279,170,44237,1,4,3:0:0:0:
279,170,44334,2,0,P|323:162|376:156,1,80,2|4,0:0|3:0,0:0:0:0:
305,67,44721,1,8,0:0:0:0:
396,17,44914,6,0,P|459:35|488:137,1,160,6|2,0:0|0:0,0:0:0:0:
437,205,45495,1,8,0:0:0:0:
498,288,45688,2,0,P|459:301|408:304,1,80,0|2,0:0|0:0,0:0:0:0:
348,380,46075,2,0,P|308:376|270:363,1,80,2|8,0:0|0:0,0:0:0:0:
167,381,46463,6,0,P|191:313|190:215,1,160,6|2,0:0|0:0,0:0:0:0:
99,179,47043,1,8,0:0:0:0:
20,247,47237,2,0,P|30:282|41:328,1,80,0|2,0:0|0:0,0:0:0:0:
99,179,47624,2,0,P|88:143|78:98,1,80,2|8,0:0|0:0,0:0:0:0:
146,22,48011,1,0,0:0:0:0:
241,62,48204,6,0,P|284:54|351:41,1,80,6|0,0:0|0:0,0:0:0:0:
406,106,48592,2,0,P|449:113|516:127,1,80,8|0,0:0|0:0,0:0:0:0:
430,209,48979,1,2,0:0:0:0:
430,209,49172,1,2,0:0:0:0:
343,267,49366,2,0,P|333:229|327:189,1,80,8|0,0:0|0:0,0:0:0:0:
436,314,49753,6,0,P|379:366|302:359,1,160,2|8,0:0|0:0,0:0:0:0:
228,283,50334,1,0,0:0:0:0:
130,319,50527,2,0,L|123:273,2,40,2|8|4,0:0|3:0|3:0,0:0:0:0:
35,362,50914,2,0,L|17:250,1,80,8|2,0:0|0:0,0:0:0:0:
77,194,51301,5,12,0:0:0:0:
77,194,51495,1,0,0:0:0:0:
38,97,51688,1,8,0:0:0:0:
38,97,51882,1,0,0:0:0:0:
111,23,52075,1,8,0:0:0:0:
111,23,52269,1,0,0:0:0:0:
207,62,52463,2,0,P|247:57|289:49,1,80,8|2,0:0|0:0,0:0:0:0:
454,113,52850,6,0,P|415:105|376:101,1,80,6|0,0:0|0:0,0:0:0:0:
285,152,53237,1,6,3:0:0:0:
268,177,53333,1,6,3:0:0:0:
258,205,53430,1,12,3:0:0:0:
256,235,53527,1,12,3:0:0:0:
263,264,53624,2,0,P|270:301|275:346,1,80,8|2,3:2|1:2,0:0:0:0:
371,383,54011,2,0,P|375:343|383:304,1,80,2|2,1:2|1:2,0:0:0:0:
483,276,54398,6,0,P|430:215|351:216,1,160,6|8,0:0|0:0,0:0:0:0:
263,264,54979,1,0,0:0:0:0:
177,323,55172,2,0,P|137:314|95:308,1,80,2|2,0:0|0:0,0:0:0:0:
28,230,55559,1,8,0:0:0:0:
81,140,55753,6,0,P|72:98|61:53,1,80,2|0,0:0|0:0,0:0:0:0:
148,0,56140,1,2,0:0:0:0:
201,89,56334,2,0,P|275:74|363:64,1,160,8|2,0:0|0:0,0:0:0:0:
420,147,56914,1,2,0:0:0:0:
506,88,57108,2,0,P|497:38|494:-3,1,80,8|0,0:0|0:0,0:0:0:0:
420,147,57495,6,0,P|465:235|427:311,1,160,6|8,0:0|0:0,0:0:0:0:
365,351,58075,1,0,0:0:0:0:
365,351,58172,1,0,0:0:0:0:
365,351,58269,2,0,P|325:344|285:339,1,80,2|2,0:0|0:0,0:0:0:0:
183,361,58656,1,8,0:0:0:0:
101,295,58850,6,0,P|109:250|125:196,1,80,2|0,0:0|0:0,0:0:0:0:
212,260,59237,1,2,0:0:0:0:
294,197,59430,2,0,P|285:152|270:98,1,80,8|0,0:0|0:0,0:0:0:0:
199,49,59817,2,0,P|204:25|211:3,2,40,2|8|0,0:0|3:2|3:0,0:0:0:0:
120,117,60204,1,8,3:2:0:0:
34,57,60398,5,8,3:2:0:0:
34,57,60495,1,8,3:2:0:0:
34,57,60592,2,0,P|23:95|16:135,1,80,6|0,0:0|0:0,0:0:0:0:
92,207,60979,2,0,P|131:200|175:195,1,80,8|0,0:0|0:0,0:0:0:0:
255,256,61366,2,0,B|341:230|327:288|410:262,1,160,2|8,0:0|0:0,0:0:0:0:
488,193,61946,6,0,P|497:122|431:67,1,160,6|2,0:0|0:0,0:0:0:0:
332,52,62527,1,8,0:0:0:0:
256,124,62721,2,0,P|217:117|173:112,1,80,6|0,0:0|0:0,0:0:0:0:
101,40,63108,1,2,0:0:0:0:
15,98,63301,2,0,P|10:59|3:20,1,80,8|0,0:0|0:0,0:0:0:0:
89,172,63688,6,0,P|40:231|69:329,1,160,6|8,0:0|0:0,0:0:0:0:
135,371,64269,1,6,0:0:0:0:
135,371,64366,1,0,0:0:0:0:
135,371,64463,2,0,P|177:363|226:359,1,80,0|2,0:0|0:0,0:0:0:0:
257,265,64850,2,0,P|296:271|336:276,1,80,8|0,0:0|0:0,0:0:0:0:
408,350,65237,5,6,0:0:0:0:
490,287,65430,1,0,0:0:0:0:
490,287,65527,1,0,0:0:0:0:
490,287,65624,1,0,3:0:0:0:
424,206,65817,2,0,P|411:141|441:93,1,120,6|8,0:0|0:0,0:0:0:0:
455,72,66204,2,0,P|411:61|373:43,1,80,2|8,0:0|0:0,0:0:0:0:
282,7,66592,5,8,0:0:0:0:
282,7,66688,1,8,0:0:0:0:
282,7,66785,2,0,P|293:87|303:179,1,160,6|8,0:0|0:0,0:0:0:0:
235,246,67366,1,0,0:0:0:0:
133,269,67559,2,0,P|137:228|148:178,1,80,2|2,0:0|0:0,0:0:0:0:
46,224,67946,1,8,0:0:0:0:
62,326,68140,6,0,P|99:345|142:359,1,80,2|0,0:0|0:0,0:0:0:0:
236,331,68527,1,2,0:0:0:0:
330,374,68721,2,0,P|399:358|490:347,1,160,8|2,0:0|0:0,0:0:0:0:
509,245,69301,1,2,0:0:0:0:
424,183,69495,2,0,P|415:221|411:261,1,80,8|0,0:0|0:0,0:0:0:0:
510,123,69882,6,0,P|436:79|360:101,1,160,6|8,0:0|0:0,0:0:0:0:
284,156,70463,1,0,0:0:0:0:
284,156,70559,1,0,0:0:0:0:
284,156,70656,2,0,P|274:115|265:39,1,80,2|2,0:0|0:0,0:0:0:0:
184,15,71043,1,8,0:0:0:0:
127,102,71237,6,0,P|87:95|39:89,1,80,2|0,0:0|0:0,0:0:0:0:
11,187,71624,1,2,0:0:0:0:
100,239,71817,2,0,P|139:232|179:227,1,80,8|0,0:0|0:0,0:0:0:0:
278,195,72204,2,0,L|285:144,2,40,2|8|0,0:0|3:2|3:0,0:0:0:0:
262,298,72592,1,8,3:2:0:0:
351,350,72785,5,8,3:2:0:0:
351,350,72882,1,8,3:2:0:0:
351,350,72979,2,0,P|391:341|457:332,1,80,6|0,0:0|0:0,0:0:0:0:
497,255,73366,2,0,P|489:212|482:166,1,80,8|0,0:0|0:0,0:0:0:0:
393,123,73753,2,0,P|315:129|278:208,1,160,2|8,0:0|0:0,0:0:0:0:
262,298,74334,6,0,B|206:289|206:289|168:309|168:309|109:298,1,160,6|2,0:0|0:0,0:0:0:0:
53,209,74914,1,8,0:0:0:0:
132,141,75108,2,0,P|141:184|151:218,1,80,6|0,0:0|0:0,0:0:0:0:
32,108,75495,1,2,0:0:0:0:
106,36,75688,2,0,P|145:48|194:60,1,80,8|2,0:0|0:0,0:0:0:0:
256,131,76075,5,6,0:0:0:0:
337,66,76269,1,0,0:0:0:0:
438,91,76463,1,8,0:0:0:0:
470,189,76656,2,0,P|462:226|454:269,1,80,6|0,0:0|0:0,0:0:0:0:
353,249,77043,2,0,P|361:288|369:328,1,80,8|2,0:0|0:0,0:0:0:0:
272,367,77430,5,0,0:0:0:0:
272,367,77527,1,0,0:0:0:0:
272,367,77624,2,0,P|196:375|144:309,1,160,6|8,0:0|0:0,0:0:0:0:
48,353,78204,2,0,P|54:265|86:189,1,160,6|0,0:0|3:2,0:0:0:0:
0,130,78785,2,0,P|31:106|80:74,1,80,8|8,3:0|3:0,0:0:0:0:
158,129,79172,6,0,P|206:175|270:167,1,120,6|0,0:0|0:0,0:0:0:0:
281,162,79559,1,2,0:0:0:0:
364,101,79753,2,0,P|356:62|344:23,1,80,0|2,3:0|0:0,0:0:0:0:
463,135,80140,2,0,P|474:96|483:57,1,80,0|2,3:0|0:0,0:0:0:0:
381,199,80527,1,10,3:0:0:0:
475,242,80721,6,0,P|496:316|452:380,1,160,2|2,0:0|0:3,0:0:0:0:
360,331,81301,1,2,3:3:0:0:
360,331,81398,1,2,3:3:0:0:
360,331,81495,2,0,P|325:345|273:350,1,80,2|0,0:3|3:0,0:0:0:0:
189,304,81882,2,0,P|176:267|173:215,1,80,2|0,0:0|3:0,0:0:0:0:
183,122,82269,6,0,P|106:136|18:148,2,160,2|2|2,0:0|0:0|0:0,0:0:0:0:
265,58,83237,2,0,P|272:99|288:154,1,80,2|0,3:0|0:0,0:0:0:0:
371,81,83624,1,8,3:0:0:0:
468,45,83817,5,8,0:0:0:0:
468,45,84011,1,8,0:0:0:0:
508,140,84204,1,8,0:0:0:0:
508,140,84398,1,8,0:0:0:0:
411,180,84592,2,0,L|402:238,3,40,8|8|8|8,0:0|0:0|0:0|0:0,0:0:0:0:
422,250,84979,2,0,L|413:308,3,40,8|8|8|8,0:0|0:0|0:0|0:0,0:0:0:0:
434,319,85366,6,0,P|387:365|298:352,1,160,6|8,0:0|0:0,0:0:0:0:
229,276,85946,1,0,0:0:0:0:
161,355,86140,2,0,P|119:344|69:334,1,80,2|0,0:0|0:0,0:0:0:0:
26,248,86527,1,8,0:0:0:0:
103,178,86721,6,0,P|96:128|89:91,1,80,6|0,0:0|0:0,0:0:0:0:
13,28,87108,1,2,0:0:0:0:
113,0,87301,1,8,0:0:0:0:
195,64,87495,2,0,P|271:49|357:37,1,160,6|2,0:0|0:0,0:0:0:0:
452,10,88075,2,0,P|444:49|439:89,1,80,8|0,0:0|0:0,0:0:0:0:
361,158,88463,6,0,P|323:148|283:142,1,80,6|0,0:0|0:0,0:0:0:0:
427,240,88850,2,0,P|446:318|398:376,1,160,12|2,0:0|0:0,0:0:0:0:
295,383,89430,2,0,P|303:345|307:296,1,80,0|8,0:0|0:0,0:0:0:0:
193,250,89817,6,0,P|201:289|205:329,1,80,6|0,0:0|0:0,0:0:0:0:
114,384,90204,1,2,0:0:0:0:
33,317,90398,1,8,0:0:0:0:
80,224,90592,2,0,P|53:161|78:94,1,120,6|8,0:0|0:0,0:0:0:0:
83,89,90979,2,0,L|181:73,1,80,2|8,0:0|0:0,0:0:0:0:
229,155,91366,5,8,0:0:0:0:
229,155,91463,1,8,0:0:0:0:
229,155,91559,2,0,P|302:208|380:185,1,160,6|8,0:0|0:0,0:0:0:0:
316,102,92140,1,0,0:0:0:0:
385,23,92334,2,0,P|425:27|470:31,1,80,2|2,0:0|0:0,0:0:0:0:
511,123,92721,1,8,0:0:0:0:
462,214,92914,6,0,P|467:250|478:308,1,80,6|0,0:0|0:0,0:0:0:0:
409,373,93301,1,2,0:0:0:0:
315,325,93495,1,8,0:0:0:0:
217,360,93688,2,0,P|148:348|48:342,1,160,6|2,0:0|0:0,0:0:0:0:
2,254,94269,2,0,P|39:249|92:237,1,80,8|0,0:0|0:0,0:0:0:0:
140,154,94656,6,0,P|100:145|61:140,1,80,6|0,0:0|0:0,0:0:0:0:
212,79,95043,2,0,P|242:129|236:188,1,120,12|0,0:0|0:0,0:0:0:0:
229,221,95430,2,0,P|268:212|307:207,1,80,2|2,0:0|0:0,0:0:0:0:
385,276,95817,1,8,0:0:0:0:
457,350,96011,6,0,P|468:268|485:177,1,160,6|2,0:0|0:0,0:0:0:0:
437,97,96592,1,8,0:0:0:0:
437,97,96785,2,0,P|399:108|360:116,1,80,6|0,0:0|0:0,0:0:0:0:
235,13,97172,2,0,P|247:52|257:90,1,80,2|8,0:0|0:0,0:0:0:0:
192,172,97559,1,6,0:0:0:0:
256,192,97656,12,0,102785,0:0:0:0:
