osu file format v14

[General]
AudioFilename: audio.mp3
AudioLeadIn: 0
PreviewTime: 53726
Countdown: 0
SampleSet: Soft
StackLeniency: 0.7
Mode: 0
LetterboxInBreaks: 0
WidescreenStoryboard: 1

[Editor]
Bookmarks: 14140,26527,34269,38721,54398,91559,97559
DistanceSpacing: 0.5
BeatDivisor: 4
GridSize: 4
TimelineZoom: 1.3

[Metadata]
Title:Torikago
TitleUnicode:トリカゴ
Artist:XX:me
ArtistUnicode:XX:me
Creator:Meg
Version:ShiraKai's Insane
Source:ダーリン・イン・ザ・フランキス
Tags:iMage-- ShiraKai kaCha Silky Kanau fuyuyu- Mamayu Akitoshi DARLING in the FRANXX ed Kiss me ゼロツー Zero Two 戸松遥 Tomatsu Haruka イチゴ Ichigo 市ノ瀬加那 Ichinose Kana ミク Miku 山下七海 Yamashita Nanami ココロ Kokoro 早見沙織 Hayami Saori イクノ Ikuno 石上静香 Ishigami Shizuka
BeatmapID:1555551
BeatmapSetID:731421

[Difficulty]
HPDrainRate:6
CircleSize:3.8
OverallDifficulty:7
ApproachRate:9
SliderMultiplier:1.7
SliderTickRate:1

[Events]
//Background and Video events
0,0,"BG.jpg",0,0
//Break Periods
//Storyboard Layer 0 (Background)
//Storyboard Layer 1 (Fail)
//Storyboard Layer 2 (Pass)
//Storyboard Layer 3 (Foreground)
//Storyboard Sound Samples

[TimingPoints]
205,387.096774193548,4,2,1,60,1,0
13753,-142.857142857143,4,2,1,60,0,0
14140,-125,4,2,1,60,0,0
24979,-111.111111111111,4,2,1,60,0,0
26527,-100,4,2,1,60,0,0
38721,-83.3333333333333,4,2,1,60,0,0
39108,-100,4,2,1,60,0,0
53817,-83.3333333333333,4,2,1,60,0,0
54398,-90.9090909090909,4,2,1,70,0,1
56140,-111.111111111111,4,2,1,70,0,1
56527,-76.9230769230769,4,2,1,70,0,1
56914,-90.9090909090909,4,2,1,70,0,1
68527,-111.111111111111,4,2,1,70,0,1
68914,-76.9230769230769,4,2,1,70,0,1
69301,-90.9090909090909,4,2,1,70,0,1
85366,-100,4,2,1,70,0,1
91559,-100,4,2,1,60,0,0
102785,-100,4,2,1,5,0,0

[Colours]
Combo1 : 77,77,215
Combo2 : 255,210,255
Combo3 : 152,208,254
Combo4 : 255,0,0

[HitObjects]
345,84,1172,5,4,0:3:0:0:
379,219,1366,1,4,0:3:0:0:
391,229,1753,6,0,P|399:187|415:147,1,85,6|0,0:0|0:0,0:0:0:0:
247,52,2140,2,0,P|261:91|267:133,1,85,2|0,0:0|0:0,0:0:0:0:
427,124,2527,2,0,B|363:129|363:129|334:151|334:151|264:156,1,170,6|0,0:0|0:0,0:0:0:0:
298,246,3108,6,0,P|248:182|168:196,1,170,6|0,0:0|0:0,0:0:0:0:
168,196,3688,1,2,0:0:0:0:
283,281,3882,6,0,P|220:280|172:320,1,127.5,6|0,0:0|0:0,0:0:0:0:
172,319,4269,2,0,P|179:338|191:356,1,42.5,8|8,3:0|3:0,0:0:0:0:
52,287,4463,2,0,P|69:274|89:267,1,42.5,8|8,3:0|3:0,0:0:0:0:
168,196,4656,2,0,P|148:188|130:176,1,42.5,8|0,3:0|0:0,0:0:0:0:
15,105,4850,6,0,P|25:146|31:188,1,85,6|0,0:0|0:0,0:0:0:0:
203,32,5237,2,0,P|192:73|186:115,1,85,2|0,0:0|0:0,0:0:0:0:
0,88,5624,2,0,P|19:22|128:44,1,170,6|0,0:0|0:0,0:0:0:0:
354,134,6204,6,0,P|269:128|186:115,1,170,6|0,0:0|0:0,0:0:0:0:
186,115,6785,1,2,0:0:0:0:
374,112,6979,2,0,P|312:96|256:66,1,127.5,6|0,0:0|0:0,0:0:0:0:
256,66,7366,1,8,0:0:0:0:
319,229,7559,1,8,0:0:0:0:
186,115,7753,5,2,0:0:0:0:
186,115,7850,1,2,0:0:0:0:
186,115,7946,1,6,0:0:0:0:
219,208,8140,1,0,0:0:0:0:
85,176,8334,1,8,0:0:0:0:
236,215,8527,1,0,0:0:0:0:
186,115,8721,2,0,P|183:199|177:284,1,170,2|8,0:0|0:0,0:0:0:0:
54,156,9301,6,0,P|57:240|63:325,1,170,6|2,0:0|0:0,0:0:0:0:
63,325,9882,1,8,0:0:0:0:
186,115,10075,2,0,P|183:199|177:284,1,170,6|2,0:0|0:0,0:0:0:0:
371,212,10656,2,0,P|379:253|386:295,1,85,8|0,0:0|0:0,0:0:0:0:
280,180,11043,6,0,P|360:195|417:132,2,170,6|12|2,0:0|0:0|0:0,0:0:0:0:
466,225,12011,1,2,0:0:0:0:
298,285,12204,1,8,0:0:0:0:
509,326,12398,6,0,P|463:283|400:284,1,127.5,6|0,0:0|0:0,0:0:0:0:
387,294,12785,2,0,P|378:252|371:210,1,85,2|8,0:0|0:0,0:0:0:0:
214,306,13172,2,0,B|169:321|122:311|150:293|99:281|49:298,1,170,6|4,0:0|0:3,0:0:0:0:
157,212,13753,2,0,P|147:240|133:266,1,59.4999981842042,0|0,0:0|0:0,0:0:0:0:
12,132,14140,5,6,0:0:0:0:
63,198,14334,2,0,P|32:213|0:214,1,68,0|2,0:0|0:0,0:0:0:0:
134,119,14721,2,0,L|0:98,1,136,2|0,0:0|0:0,0:0:0:0:
154,91,15301,2,0,P|119:88|91:73,1,68,2|0,0:0|0:0,0:0:0:0:
327,44,15688,5,2,0:0:0:0:
236,11,15882,2,0,L|242:78,1,68,0|2,0:0|0:0,0:0:0:0:
425,99,16269,2,0,P|392:43|327:43,1,136,2|0,0:0|0:0,0:0:0:0:
236,11,16850,2,0,L|242:78,1,68,2|0,0:0|0:0,0:0:0:0:
308,197,17237,6,0,L|314:130,2,68,2|0|2,0:0|0:0|0:0,0:0:0:0:
430,199,17817,2,0,B|368:212|368:212|358:208|358:208|297:219,1,136,2|0,0:0|0:0,0:0:0:0:
504,230,18398,2,0,L|437:217,1,68,2|0,0:0|0:0,0:0:0:0:
498,355,18785,5,2,0:0:0:0:
403,289,18979,1,0,0:0:0:0:
473,374,19172,1,2,0:0:0:0:
283,323,19366,2,0,B|344:312|344:312|354:316|354:316|416:303,1,136,2|0,0:0|0:0,0:0:0:0:
208,328,19946,2,0,L|274:340,1,68,2|0,0:0|0:0,0:0:0:0:
41,285,20334,5,2,0:0:0:0:
122,256,20527,2,0,P|124:290|115:323,1,68,0|2,0:0|0:0,0:0:0:0:
57,200,20914,2,0,P|119:187|154:240,1,136,2|0,0:0|0:0,0:0:0:0:
30,186,21495,2,0,P|21:153|22:119,1,68,2|0,0:0|0:0,0:0:0:0:
140,24,21882,6,0,B|134:78|134:78|140:95|140:95|134:158,1,136,2|2,0:0|0:0,0:0:0:0:
242,76,22463,2,0,P|213:20|154:40,1,136,2|2,0:0|0:0,0:0:0:0:
251,102,23043,2,0,P|283:112|316:111,1,68,2|2,0:0|0:0,0:0:0:0:
385,33,23430,5,2,0:0:0:0:
397,28,23817,1,2,0:0:0:0:
341,135,24011,2,0,L|478:106,2,136,2|0|0,0:0|0:0|0:0,0:0:0:0:
506,228,24979,5,6,0:0:0:0:
418,159,25172,1,2,0:0:0:0:
512,249,25366,1,2,0:0:0:0:
344,314,25559,2,0,P|360:261|413:245,1,114.749996498108,2|0,3:2|0:0,0:0:0:0:
427,244,25946,6,0,P|423:262|421:281,1,38.2499988327027,8|0,0:0|0:0,0:0:0:0:
338,358,26140,2,0,P|336:338|332:320,1,38.2499988327027,8|0,0:0|0:0,0:0:0:0:
255,237,26334,2,0,P|250:256|248:275,1,38.2499988327027,4|4,3:0|3:0,0:0:0:0:
162,363,26527,6,0,B|151:286|151:286|155:281|155:281|144:195,1,170,6|8,0:0|0:0,0:0:0:0:
25,299,27108,2,0,P|104:294|127:217,1,170,2|2,0:0|0:0,0:0:0:0:
162,363,27688,1,8,0:0:0:0:
248,275,27882,1,0,0:0:0:0:
149,380,28075,5,2,0:0:0:0:
330,343,28269,2,0,P|287:347|249:365,1,85,0|8,0:0|0:0,0:0:0:0:
407,318,28656,2,0,P|323:312|248:275,1,170,2|2,0:0|0:0,0:0:0:0:
149,380,29237,1,8,0:0:0:0:
236,257,29430,1,0,0:0:0:0:
107,298,29624,5,2,0:0:0:0:
106,195,29817,2,0,P|117:235|123:277,1,85,0|8,0:0|0:0,0:0:0:0:
1,173,30204,2,0,P|85:167|160:130,1,170,2|2,0:0|0:0,0:0:0:0:
168,23,30785,2,0,P|157:63|152:106,1,85,8|0,0:0|0:0,0:0:0:0:
376,24,31172,5,2,0:0:0:0:
314,203,31366,1,0,0:0:0:0:
249,81,31559,1,8,0:0:0:0:
409,112,31753,6,0,B|364:94|320:105|339:121|280:129|243:107,1,170,2|2,0:0|0:0,0:0:0:0:
466,105,32334,2,0,P|435:77|394:71,1,85,8|0,0:0|0:0,0:0:0:0:
314,203,32721,5,2,0:0:0:0:
410,191,32914,2,0,P|368:196|337:224,1,85,0|8,0:0|0:0,0:0:0:0:
467,327,33301,2,0,P|384:314|306:344,1,170,2|2,0:0|0:0,0:0:0:0:
419,218,33882,1,8,0:0:0:0:
390,360,34075,1,0,0:0:0:0:
498,302,34269,6,0,P|495:223|410:227,1,170,2|8,0:0|0:0,0:0:0:0:
467,327,34850,2,0,P|384:314|306:344,1,170,2|2,0:0|0:0,0:0:0:0:
117,378,35430,1,8,0:0:0:0:
291,303,35624,1,2,0:0:0:0:
162,197,35817,5,6,0:0:0:0:
146,189,36204,1,8,0:0:0:0:
205,282,36398,2,0,P|162:286|120:292,1,85,6|0,0:0|0:0,0:0:0:0:
61,179,36785,2,0,P|103:185|146:189,1,85,2|8,0:0|0:0,0:0:0:0:
233,97,37172,1,0,0:0:0:0:
162,197,37366,5,4,0:0:0:0:
162,197,37559,1,0,0:0:0:0:
162,197,37753,1,2,0:0:0:0:
162,197,37946,1,0,0:0:0:0:
162,197,38334,5,8,0:0:0:0:
401,119,38527,1,8,0:0:0:0:
243,145,38721,2,0,B|276:148|310:163|310:163|332:120|332:120|372:111|414:97,1,203.999993774414,6|2,0:0|0:0,0:0:0:0:
312,270,39301,1,12,0:0:0:0:
306,285,39688,1,4,3:0:0:0:
162,197,39882,1,4,3:0:0:0:
162,197,39979,1,8,3:0:0:0:
162,197,40075,1,8,0:0:0:0:
206,289,40269,6,0,P|212:204|226:120,1,170,6|2,0:0|0:0,0:0:0:0:
39,67,40850,2,0,P|46:108|51:151,1,85,8|0,0:0|0:0,0:0:0:0:
42,150,41140,1,2,0:0:0:0:
33,148,41237,1,2,0:2:0:0:
162,197,41430,1,2,0:0:0:0:
2,258,41624,1,8,0:0:0:0:
225,120,41817,6,0,P|211:204|206:289,1,170,2|2,0:0|0:0,0:0:0:0:
13,253,42398,2,0,P|20:294|25:337,1,85,8|0,0:0|0:0,0:0:0:0:
16,336,42688,1,4,0:3:0:0:
7,334,42785,1,2,0:0:0:0:
202,374,42979,1,8,0:0:0:0:
113,292,43172,1,8,0:0:0:0:
317,354,43366,6,0,P|285:281|206:288,1,170,2|2,0:0|0:0,0:0:0:0:
482,224,43946,2,0,P|467:267|416:296,1,85,8|4,0:0|3:0,0:0:0:0:
431,296,44237,1,4,3:0:0:0:
423,299,44334,1,2,0:0:0:0:
482,132,44527,1,4,3:0:0:0:
389,210,44721,1,8,0:0:0:0:
487,110,44914,6,0,P|407:114|364:44,1,170,6|2,0:0|0:0,0:0:0:0:
389,210,45495,2,0,P|371:171|372:129,1,85,8|0,0:0|0:0,0:0:0:0:
445,40,45882,1,2,0:0:0:0:
389,210,46075,1,2,0:0:0:0:
283,122,46269,1,8,0:0:0:0:
487,110,46463,6,0,P|406:119|354:56,1,170,6|2,0:0|0:0,0:0:0:0:
163,188,47043,1,8,0:0:0:0:
283,122,47237,2,0,L|199:108,1,85,0|2,0:0|0:0,0:0:0:0:
1,196,47624,5,2,0:0:0:0:
99,113,47817,1,8,0:0:0:0:
37,278,48011,1,0,0:0:0:0:
1,196,48204,6,0,B|47:185|47:185|78:203|78:203|164:188,1,170,6|8,0:0|0:0,0:0:0:0:
2,345,48979,2,0,P|39:307|112:311,1,127.5,2|0,0:0|0:0,0:0:0:0:
115,293,49366,2,0,P|144:323|185:332,1,85,8|0,0:0|0:0,0:0:0:0:
191,342,49656,5,0,0:0:0:0:
191,342,49753,2,0,P|232:332|274:328,2,85,2|0|8,0:0|0:0|0:0,0:0:0:0:
484,275,50334,2,0,P|442:265|400:261,1,85,0|2,0:0|0:0,0:0:0:0:
404,273,50624,1,8,3:0:0:0:
407,285,50721,1,4,3:0:0:0:
288,219,50914,1,8,0:0:0:0:
376,361,51108,5,2,0:0:0:0:
376,361,51204,1,2,0:0:0:0:
375,361,51301,2,0,P|398:325|407:284,1,85,12|0,0:0|0:0,0:0:0:0:
512,191,51688,2,0,P|502:149|479:114,1,85,8|0,0:0|0:0,0:0:0:0:
470,123,51979,1,0,0:0:0:0:
470,123,52075,2,0,P|432:141|390:148,1,85,8|0,0:0|0:0,0:0:0:0:
485,309,52463,2,0,P|447:291|406:284,1,85,8|2,0:0|0:0,0:0:0:0:
384,130,52850,6,0,P|337:172|272:181,1,127.5,6|0,0:0|0:0,0:0:0:0:
257,169,53237,2,0,P|261:189|264:211,3,42.5,6|6|12|12,3:0|3:0|3:0|3:0,0:0:0:0:
320,289,53624,5,8,3:2:0:0:
320,289,53721,1,0,3:0:0:0:
320,289,53817,2,0,P|316:314|315:339,1,50.9999984436036,2|0,1:2|0:0,0:0:0:0:
91,374,54011,2,0,P|114:363|139:359,1,50.9999984436036,2|0,1:2|0:0,0:0:0:0:
228,295,54204,2,0,P|202:290|179:280,1,50.9999984436036,2|0,1:2|0:0,0:0:0:0:
31,247,54398,6,0,B|84:270|84:270|120:207|114:146,1,187.000005706787,6|8,0:0|0:0,0:0:0:0:
137,21,54979,1,0,0:0:0:0:
160,197,55172,2,0,B|136:137|136:137|153:104|153:104|140:66|137:21,1,187.000005706787,2|8,0:0|0:0,0:0:0:0:
389,55,55753,6,0,P|356:-2|291:10,1,140.25000428009,2|0,0:0|0:0,0:0:0:0:
270,6,56140,2,0,P|271:44|265:81,1,76.4999976654053,2|8,0:0|0:0,0:0:0:0:
481,182,56527,2,0,P|405:151|324:164,1,165.749992412568,0|0,0:0|0:0,0:0:0:0:
338,183,56914,1,2,0:0:0:0:
491,210,57108,1,8,0:0:0:0:
289,319,57301,1,0,0:0:0:0:
457,308,57495,6,0,B|384:297|384:297|359:315|359:315|277:301,1,187.000005706787,6|8,0:0|0:0,0:0:0:0:
33,349,58075,1,0,0:0:0:0:
33,349,58172,1,0,0:0:0:0:
33,349,58269,2,0,P|74:327|120:325,1,93.5000028533936,2|2,0:0|0:0,0:0:0:0:
269,195,58656,1,8,0:0:0:0:
33,229,58850,6,0,P|109:281|201:297,1,187.000005706787,2|2,0:0|0:0,0:0:0:0:
359,170,59430,2,0,P|314:184|269:195,1,93.5000028533936,8|0,0:0|0:0,0:0:0:0:
153,123,59817,2,0,P|145:100|140:78,2,46.7500014266968,2|8|0,0:0|3:2|3:0,0:0:0:0:
247,202,60204,1,8,3:2:0:0:
33,229,60398,5,8,3:2:0:0:
33,229,60495,1,8,3:2:0:0:
33,229,60592,2,0,P|109:281|201:297,1,187.000005706787,6|8,0:0|0:0,0:0:0:0:
306,377,61172,1,0,0:0:0:0:
474,308,61366,2,0,P|382:324|306:377,1,187.000005706787,2|8,0:0|0:0,0:0:0:0:
33,229,61946,6,0,P|109:281|201:297,1,187.000005706787,6|2,0:0|0:0,0:0:0:0:
33,349,62527,1,8,0:0:0:0:
305,376,62721,1,6,0:0:0:0:
305,376,63108,1,2,0:0:0:0:
120,325,63301,1,8,0:0:0:0:
287,280,63495,5,0,0:0:0:0:
287,280,63592,1,0,0:0:0:0:
287,281,63688,2,0,L|297:188,1,93.5000028533936,6|0,0:0|0:0,0:0:0:0:
421,104,64075,1,8,0:0:0:0:
396,216,64269,2,0,L|376:30,1,187.000005706787,6|2,0:0|0:0,0:0:0:0:
296,188,64850,1,8,0:0:0:0:
421,104,65043,1,0,0:0:0:0:
279,9,65237,6,0,L|289:102,1,93.5000028533936,6|0,0:0|0:0,0:0:0:0:
62,93,65624,2,0,P|78:76|100:67,1,46.7500014266968,0|0,3:0|3:0,0:0:0:0:
175,8,65817,2,0,B|191:57|191:57|186:94|186:94|203:142,1,140.25000428009,6|4,0:0|0:3,0:0:0:0:
175,145,66204,6,0,P|172:168|170:191,1,46.7500014266968,2|2,3:2|3:2,0:0:0:0:
46,236,66398,2,0,P|44:212|41:189,2,46.7500014266968,8|8|8,3:0|3:0|3:0,0:0:0:0:
109,363,66785,6,0,P|149:288|226:324,1,187.000005706787,6|8,0:0|0:0,0:0:0:0:
418,355,67366,1,0,0:0:0:0:
238,352,67559,2,0,P|331:349|420:321,1,187.000005706787,2|8,0:0|0:0,0:0:0:0:
262,170,68140,6,0,P|326:197|395:208,1,140.25000428009,2|0,0:0|0:0,0:0:0:0:
416,224,68527,2,0,P|426:188|446:155,1,76.4999976654053,2|8,0:0|0:0,0:0:0:0:
321,55,68914,2,0,L|482:18,1,165.749992412568,0|0,0:0|0:0,0:0:0:0:
468,37,69301,1,2,0:0:0:0:
256,0,69495,1,8,0:0:0:0:
367,127,69688,1,0,0:0:0:0:
136,22,69882,6,0,P|229:37|321:55,1,187.000005706787,6|8,0:0|0:0,0:0:0:0:
86,172,70463,1,0,0:0:0:0:
217,78,70656,1,2,0:0:0:0:
105,166,70850,1,2,0:0:0:0:
278,239,71043,1,8,0:0:0:0:
7,214,71237,6,0,P|98:196|191:181,1,187.000005706787,2|2,0:0|0:0,0:0:0:0:
69,320,71817,2,0,P|115:326|158:344,1,93.5000028533936,8|0,0:0|0:0,0:0:0:0:
260,281,72204,2,0,P|271:261|278:239,2,46.7500014266968,2|8|0,0:0|3:2|3:0,0:0:0:0:
171,360,72592,1,8,3:2:0:0:
423,320,72785,5,8,3:2:0:0:
423,320,72882,1,8,3:2:0:0:
423,320,72979,2,0,B|349:306|349:306|321:320|321:320|242:301,1,187.000005706787,6|8,0:0|0:0,0:0:0:0:
512,284,73559,1,0,0:0:0:0:
377,181,73753,2,0,B|424:161|497:152|497:152|477:179|465:206,1,187.000005706787,2|8,0:0|0:0,0:0:0:0:
423,320,74334,6,0,B|349:306|349:306|321:320|321:320|242:301,1,187.000005706787,6|2,0:0|0:0,0:0:0:0:
512,284,74914,1,8,0:0:0:0:
330,352,75108,1,6,0:0:0:0:
330,352,75495,1,2,0:0:0:0:
512,284,75688,1,8,0:0:0:0:
379,222,75882,5,2,0:0:0:0:
379,222,75979,1,2,0:0:0:0:
379,222,76075,1,6,0:0:0:0:
438,358,76269,1,0,0:0:0:0:
260,281,76463,1,8,0:0:0:0:
423,318,76656,2,0,B|349:304|349:304|321:318|321:318|242:299,1,187.000005706787,6|8,0:0|0:0,0:0:0:0:
172,362,77140,1,8,0:0:0:0:
172,362,77237,2,0,P|150:371|127:372,2,46.7500014266968,2|0|0,0:0|0:0|0:0,0:0:0:0:
0,272,77624,6,0,P|16:225|104:262,1,140.25000428009,6|0,0:0|0:0,0:0:0:0:
94,231,78011,2,0,P|88:254|85:277,1,46.7500014266968,8|0,0:0|0:0,0:0:0:0:
272,180,78204,6,0,P|240:123|178:141,1,140.25000428009,6|8,0:0|0:3,0:0:0:0:
178,141,78591,2,0,P|183:163|186:186,1,46.7500014266968,0|2,3:2|3:2,0:0:0:0:
85,277,78785,2,0,P|88:254|94:231,2,46.7500014266968,8|8|8,3:0|3:0|3:0,0:0:0:0:
234,362,79172,5,6,0:0:0:0:
330,301,79366,2,0,P|289:323|243:332,1,93.5000028533936,0|2,0:0|0:0,0:0:0:0:
89,206,79753,2,0,L|181:219,1,93.5000028533936,0|2,3:0|0:0,0:0:0:0:
330,301,80140,2,0,P|289:323|243:332,1,93.5000028533936,0|2,3:0|0:0,0:0:0:0:
89,206,80527,5,10,3:0:0:0:
89,206,80624,1,8,3:0:0:0:
89,206,80721,2,0,L|181:219,1,93.5000028533936,2|0,0:0|3:0,0:0:0:0:
269,88,81108,1,2,0:3:0:0:
285,218,81301,2,0,P|276:196|271:173,2,46.7500014266968,2|2|2,3:3|3:3|0:3,0:0:0:0:
330,301,81688,1,0,3:0:0:0:
466,238,81882,2,0,P|420:238|379:217,1,93.5000028533936,2|0,0:0|3:0,0:0:0:0:
178,110,82269,6,0,L|269:88,1,93.5000028533936,2|0,0:0|3:0,0:0:0:0:
433,20,82656,1,2,0:0:0:0:
355,83,82850,2,0,P|308:77|264:62,1,93.5000028533936,2|2,3:0|0:0,0:0:0:0:
512,124,83237,2,0,P|465:129|421:144,1,93.5000028533936,2|0,3:0|0:0,0:0:0:0:
234,243,83624,1,8,3:0:0:0:
234,243,83721,1,8,3:0:0:0:
234,243,83817,5,8,0:0:0:0:
136,116,84011,1,8,0:0:0:0:
325,208,84204,1,8,0:0:0:0:
126,344,84398,1,8,0:0:0:0:
245,153,84592,5,8,0:0:0:0:
237,174,84688,1,8,0:0:0:0:
233,197,84785,1,8,0:0:0:0:
233,220,84882,1,8,0:0:0:0:
234,243,84979,1,8,0:0:0:0:
241,264,85075,1,8,0:0:0:0:
246,286,85172,1,8,0:0:0:0:
243,309,85269,1,8,0:0:0:0:
236,329,85366,5,6,0:0:0:0:
422,299,85559,1,0,0:0:0:0:
357,376,85753,1,8,0:0:0:0:
378,214,85946,1,0,0:0:0:0:
512,269,86140,2,0,P|459:206|378:215,1,170,2|8,0:0|0:0,0:0:0:0:
126,344,86721,6,0,P|211:342|294:324,1,170,6|2,0:0|0:0,0:0:0:0:
430,290,87301,1,8,0:0:0:0:
249,184,87495,2,0,P|246:247|276:302,1,127.5,6|0,0:0|0:0,0:0:0:0:
294,324,87882,1,2,0:0:0:0:
82,366,88075,2,0,P|100:327|105:285,1,85,8|0,0:0|0:0,0:0:0:0:
63,150,88463,5,6,0:0:0:0:
155,210,88656,1,0,0:0:0:0:
44,141,88850,1,12,0:0:0:0:
105,285,89043,1,0,0:0:0:0:
169,192,89237,2,0,L|0:207,1,170,2|8,0:0|0:0,0:0:0:0:
268,114,89817,1,6,0:0:0:0:
287,107,90204,5,2,0:0:0:0:
123,75,90398,1,8,0:0:0:0:
319,26,90592,2,0,L|303:195,1,170,6|2,0:0|0:0,0:0:0:0:
444,135,91172,2,0,P|438:114|427:96,2,42.5,8|8|8,0:0|0:0|0:0,0:0:0:0:
274,293,91559,5,6,0:0:0:0:
388,202,91753,1,0,0:0:0:0:
426,359,91946,1,8,0:0:0:0:
296,306,92140,1,0,0:0:0:0:
512,346,92334,2,0,B|459:352|459:352|445:314|445:314|416:310|372:290,1,170,2|8,0:0|0:0,0:0:0:0:
135,344,92914,6,0,P|217:344|271:282,1,170,6|2,0:0|0:0,0:0:0:0:
271,282,93495,1,8,0:0:0:0:
163,367,93688,2,0,P|108:305|26:305,1,170,6|2,0:0|0:0,0:0:0:0:
199,158,94269,2,0,P|194:200|181:240,1,85,8|0,0:0|0:0,0:0:0:0:
4,65,94656,6,0,L|15:191,1,127.5,6|0,0:0|0:0,0:0:0:0:
19,212,95043,2,0,P|57:194|99:186,1,85,12|0,0:0|0:0,0:0:0:0:
281,134,95430,1,2,0:0:0:0:
159,42,95624,2,0,P|163:84|176:124,1,85,2|8,0:0|0:0,0:0:0:0:
388,76,96011,6,0,P|335:14|258:36,1,170,6|2,0:0|0:0,0:0:0:0:
375,186,96592,1,8,0:0:0:0:
484,125,96785,2,0,P|443:114|406:92,1,85,6|0,0:0|0:0,0:0:0:0:
256,314,97172,2,0,P|292:292|333:281,1,85,2|8,0:0|0:0,0:0:0:0:
375,186,97559,5,6,0:0:0:0:
256,192,97656,12,0,102785,0:0:0:0:
