osu file format v14

[General]
AudioFilename: audio.mp3
AudioLeadIn: 0
PreviewTime: 53607
Countdown: 0
SampleSet: Soft
StackLeniency: 0.7
Mode: 0
LetterboxInBreaks: 0
WidescreenStoryboard: 1

[Editor]
Bookmarks: 26413,102671
DistanceSpacing: 1
BeatDivisor: 4
GridSize: 32
TimelineZoom: 1.9

[Metadata]
Title:Torikago
TitleUnicode:トリカゴ
Artist:XX:me
ArtistUnicode:XX:me
Creator:Matsubara Kanon
Version:Normal
Source:ダーリン・イン・ザ・フランキス
Tags:Darling in the FranXX ending ed tasuke912 Poii walaowey
BeatmapID:1587037
BeatmapSetID:753364

[Difficulty]
HPDrainRate:4
CircleSize:3
OverallDifficulty:4
ApproachRate:4.5
SliderMultiplier:1
SliderTickRate:1

[Events]
//Background and Video events
0,0,"darli_1.png",0,0
//Break Periods
//Storyboard Layer 0 (Background)
//Storyboard Layer 1 (Fail)
//Storyboard Layer 2 (Pass)
//Storyboard Layer 3 (Foreground)
//Storyboard Sound Samples

[TimingPoints]
91,387.096774193548,4,2,1,30,1,0
1639,-100,4,2,1,40,0,0
7832,-100,4,2,1,50,0,0
14026,-100,4,2,1,50,0,0
26413,-100,4,2,1,60,0,0
38607,-100,4,2,1,70,0,0
40155,-100,4,2,1,60,0,0
51187,-100,4,2,1,70,0,0
53703,-100,4,2,1,60,0,0
54284,-100,4,2,1,70,0,1
66284,-100,4,2,1,70,0,0
66671,-100,4,2,1,70,0,1
79058,-100,4,2,1,40,0,0
82155,-100,4,2,1,50,0,0
83703,-100,4,2,1,60,0,0
85252,-100,4,2,1,70,0,1
97445,-100,4,2,1,60,0,0
99187,-100,4,2,1,50,0,0
99961,-100,4,2,1,40,0,0
100736,-100,4,2,1,30,0,0
101510,-100,4,2,1,20,0,0
102284,-100,4,2,1,10,0,0

[Colours]
Combo1 : 60,255,60
Combo2 : 255,113,113
Combo3 : 223,0,134
Combo4 : 255,139,23

[HitObjects]
186,62,1639,6,0,L|291:31,1,100,4|0,0:0|0:0,0:0:0:0:
309,129,2413,2,0,L|204:160,1,100,4|0,0:0|0:0,0:0:0:0:
163,162,2994,2,0,P|120:206|110:260,1,100,4|0,0:0|0:0,0:0:0:0:
114,341,3768,2,0,P|66:332|23:289,1,100,4|2,0:0|0:0,0:0:0:0:
11,251,4349,1,2,0:0:0:0:
50,159,4736,6,0,L|123:76,1,100,4|0,0:0|0:0,0:0:0:0:
222,100,5510,2,0,L|156:175,1,100,4|0,0:0|0:0,0:0:0:0:
158,224,6090,2,0,P|185:262|252:284,1,100,4|0,0:0|0:0,0:0:0:0:
328,254,6865,2,0,P|373:273|402:313,1,100,4|8,0:0|0:0,0:0:0:0:
416,361,7445,1,8,0:0:0:0:
500,307,7832,6,0,L|485:201,1,100,4|8,0:0|0:0,0:0:0:0:
387,188,8607,2,0,L|372:82,1,100,2|8,0:0|0:0,0:0:0:0:
367,39,9187,1,4,0:0:0:0:
267,47,9574,2,0,L|275:116,1,50,2|8,0:0|0:0,0:0:0:0:
244,138,9961,2,0,P|215:172|147:191,1,100,4|2,0:0|0:0,0:0:0:0:
119,214,10542,2,0,L|125:263,1,50,8|0,0:0|0:0,0:0:0:0:
133,312,10929,5,4,0:0:0:0:
227,278,11316,1,12,0:0:0:0:
322,308,11703,2,0,L|390:330,2,50,2|2|8,0:0|0:0|0:0,0:0:0:0:
323,257,12284,1,4,0:0:0:0:
403,197,12671,2,0,L|456:163,1,50,2|8,0:0|0:0,0:0:0:0:
456,121,13058,2,0,L|372:65,1,100,6|2,0:0|0:0,0:0:0:0:
324,51,13639,2,0,L|276:82,1,50,2|2,0:0|0:0,0:0:0:0:
237,100,14026,6,0,P|191:104|126:97,1,100,4|2,0:0|0:0,0:0:0:0:
88,87,14607,1,8,0:1:0:0:
48,178,14994,2,0,L|28:231,2,50,0|2|0,0:0|0:0|0:0,0:0:0:0:
96,191,15574,2,0,P|139:217|185:262,1,100,2|2,0:0|0:0,0:0:0:0:
203,292,16155,1,8,0:1:0:0:
298,321,16542,1,0,0:0:0:0:
298,321,16736,2,0,L|359:337,1,50,2|0,0:0|0:0,0:0:0:0:
395,342,17123,6,0,P|429:295|454:256,1,100,2|2,0:0|0:0,0:0:0:0:
459,210,17703,1,8,0:1:0:0:
402,127,18090,2,0,L|363:97,2,50,0|2|0,0:0|0:0|0:0,0:0:0:0:
369,164,18671,2,0,P|321:174|260:200,1,100,2|2,0:0|0:0,0:0:0:0:
229,216,19252,1,8,0:1:0:0:
131,192,19639,1,2,0:0:0:0:
131,192,19832,2,0,L|110:133,1,50,2|2,0:0|0:0,0:0:0:0:
117,94,20220,6,0,P|165:73|217:73,1,100,2|2,0:0|0:0,0:0:0:0:
261,79,20800,1,8,0:1:0:0:
289,174,21187,2,0,L|284:242,2,50,0|2|0,0:0|0:0|0:0,0:0:0:0:
334,152,21768,2,0,P|363:97|357:44,1,100,2|2,0:0|0:0,0:0:0:0:
395,22,22349,2,0,P|437:40|475:84,1,100,8|2,0:1|0:0,0:0:0:0:
484,128,22929,2,0,L|478:188,1,50,2|2,0:0|0:0,0:0:0:0:
472,227,23316,5,2,0:0:0:0:
393,288,23703,1,2,0:0:0:0:
393,288,23897,2,0,L|296:329,2,100,8|8|0,0:1|0:1|0:0,0:0:0:0:
373,241,24865,2,0,P|346:211|276:178,1,100,4|8,0:0|0:0,0:0:0:0:
247,166,25445,1,8,0:1:0:0:
162,219,25832,1,8,0:0:0:0:
162,219,26026,2,0,P|150:183|154:149,1,50,8|8,0:0|0:0,0:0:0:0:
160,122,26413,6,0,P|192:87|260:69,1,100,4|8,0:0|0:0,0:0:0:0:
290,71,26994,1,8,0:1:0:0:
369,131,27381,2,0,L|371:189,2,50,2|8|0,0:0|0:0|0:0,0:0:0:0:
387,84,27961,2,0,P|431:66|500:78,1,100,2|8,0:0|0:0,0:0:0:0:
505,114,28542,1,8,0:1:0:0:
456,201,28929,1,2,0:0:0:0:
456,201,29123,2,0,L|430:256,1,50,8|0,0:0|0:0,0:0:0:0:
390,269,29510,6,0,P|339:269|290:278,1,100,2|8,0:0|0:0,0:0:0:0:
246,301,30090,1,8,0:1:0:0:
156,255,30478,2,0,L|118:221,2,50,2|8|0,0:0|0:0|0:0,0:0:0:0:
139,302,31058,2,0,P|103:328|30:333,1,100,2|8,0:0|0:0,0:0:0:0:
8,306,31639,1,8,0:1:0:0:
26,207,32026,1,2,0:0:0:0:
26,207,32220,2,0,P|39:172|64:146,1,50,8|2,0:0|0:0,0:0:0:0:
88,134,32607,6,0,L|206:119,1,100,2|8,0:0|0:0,0:0:0:0:
236,114,33187,1,8,0:1:0:0:
324,67,33574,2,0,L|283:32,2,50,2|8|0,0:0|0:0|0:0,0:0:0:0:
335,115,34155,2,0,P|319:171|272:209,1,100,2|8,0:0|0:0,0:0:0:0:
242,214,34736,1,8,0:1:0:0:
142,202,35123,1,2,0:0:0:0:
142,202,35316,2,0,L|146:264,1,50,8|2,0:0|0:0,0:0:0:0:
175,291,35703,6,0,P|225:299|274:318,1,100,4|8,0:0|0:0,0:0:0:0:
318,332,36284,1,4,0:0:0:0:
398,272,36671,1,8,0:1:0:0:
398,272,36865,2,0,L|392:217,1,50,8|0,0:0|0:0,0:0:0:0:
387,172,37252,2,0,P|361:119|354:56,1,100,4|0,0:0|0:0,0:0:0:0:
351,29,37832,1,0,0:0:0:0:
250,22,38220,2,0,L|257:79,1,50,2|2,0:0|0:0,0:0:0:0:
252,121,38607,6,0,P|212:136|156:128,1,100,4|2,0:0|0:0,0:0:0:0:
110,107,39187,1,4,0:0:0:0:
11,89,39574,2,0,L|35:28,2,50,2|2|2,0:0|0:0|0:0,0:0:0:0:
13,139,40155,2,0,L|54:247,1,100,4|2,0:0|0:0,0:0:0:0:
72,276,40736,1,8,0:0:0:0:
166,309,41123,2,0,L|225:294,1,50,2|2,0:0|0:0,0:0:0:0:
263,286,41510,1,8,0:0:0:0:
263,286,41703,6,0,P|290:248|339:216,1,100,2|2,0:0|0:0,0:0:0:0:
382,206,42284,1,8,0:0:0:0:
455,273,42671,2,0,P|471:249|479:226,1,50,2|2,0:0|0:0,0:0:0:0:
477,179,43058,1,8,0:0:0:0:
477,179,43252,2,0,L|401:106,1,100,2|2,0:0|0:0,0:0:0:0:
367,76,43832,1,8,0:0:0:0:
279,27,44220,2,0,L|265:88,1,50,2|2,0:0|0:0,0:0:0:0:
254,124,44607,1,8,0:0:0:0:
254,124,44800,6,0,P|270:174|275:233,1,100,4|2,0:0|0:0,0:0:0:0:
240,256,45381,2,0,P|208:268|180:288,1,50,8|0,0:0|0:0,0:0:0:0:
136,357,45961,2,0,P|113:331|105:315,1,50,2|8,0:0|0:0,0:0:0:0:
99,267,46349,2,0,L|111:155,1,100,4|2,0:0|0:0,0:0:0:0:
121,119,46929,2,0,P|147:96|163:88,1,50,8|0,0:0|0:0,0:0:0:0:
260,82,47510,2,0,L|248:144,2,50,2|8|0,0:0|0:0|0:0,0:0:0:0:
283,38,48090,6,0,P|342:40|385:69,1,100,4|8,0:0|0:0,0:0:0:0:
473,86,48865,2,0,P|441:136|395:158,1,100,2|8,0:0|0:0,0:0:0:0:
337,227,49639,2,0,P|309:174|312:123,1,100,2|8,0:0|0:0,0:0:0:0:
245,58,50413,2,0,L|204:17,2,50,2|2|8,0:0|0:0|0:0,0:0:0:0:
215,98,50994,1,2,0:0:0:0:
215,98,51187,6,0,L|158:197,1,100,4|8,0:0|0:0,0:0:0:0:
253,232,51961,2,0,L|304:146,1,100,8|8,0:0|0:0,0:0:0:0:
387,90,52736,1,12,0:0:0:0:
445,171,53123,1,8,0:0:0:0:
362,227,53510,1,0,0:0:0:0:
362,227,53703,2,0,L|308:265,2,50,2|2|2,0:0|0:0|0:0,0:0:0:0:
397,262,54284,6,0,P|427:306|426:368,1,100,4|8,0:0|0:0,0:0:0:0:
331,339,55058,2,0,P|276:331|230:342,1,100,2|8,0:0|0:0,0:0:0:0:
184,352,55639,2,0,L|155:252,1,100,2|2,0:0|0:0,0:0:0:0:
142,207,56220,1,8,0:0:0:0:
57,153,56607,1,2,0:0:0:0:
57,153,56800,2,0,L|37:211,2,50,2|8|0,0:0|0:0|0:0,0:0:0:0:
94,119,57381,6,0,P|142:108|206:128,1,100,4|8,0:0|0:0,0:0:0:0:
277,168,58155,2,0,P|289:116|277:71,1,100,2|8,0:0|0:0,0:0:0:0:
310,34,58736,2,0,L|418:68,1,100,2|2,0:0|0:0,0:0:0:0:
450,84,59316,1,8,0:0:0:0:
477,180,59703,1,2,0:0:0:0:
477,180,59897,2,0,L|492:251,2,50,2|8|2,0:0|0:0|0:0,0:0:0:0:
426,179,60478,5,4,0:0:0:0:
342,233,60865,2,0,L|294:260,1,50,8|2,0:0|0:0,0:0:0:0:
253,278,61252,1,2,0:0:0:0:
161,237,61639,1,8,0:0:0:0:
161,237,61832,2,0,P|165:183|163:127,1,100,4|2,0:0|0:0,0:0:0:0:
157,87,62413,1,8,0:0:0:0:
157,87,62607,2,0,L|57:96,1,100,4|2,0:0|0:0,0:0:0:0:
8,103,63187,1,8,0:0:0:0:
1,202,63574,6,0,P|15:253|53:299,1,100,4|8,0:0|0:0,0:0:0:0:
88,310,64155,1,4,0:0:0:0:
187,307,64542,1,2,0:0:0:0:
187,307,64736,2,0,L|230:276,1,50,8|0,0:0|0:0,0:0:0:0:
264,243,65123,2,0,P|315:233|365:250,1,100,4|8,0:0|0:0,0:0:0:0:
400,275,65703,1,4,0:0:0:0:
496,299,66090,2,0,L|470:360,2,50,8|2|2,0:0|0:0|0:0,0:0:0:0:
495,248,66671,6,0,L|462:134,1,100,4|8,0:0|0:0,0:0:0:0:
430,59,67445,2,0,P|384:95|367:147,1,100,2|8,0:0|0:0,0:0:0:0:
324,155,68026,2,0,L|225:137,1,100,2|2,0:0|0:0,0:0:0:0:
176,129,68607,1,8,0:0:0:0:
90,180,68994,1,2,0:0:0:0:
90,180,69187,2,0,L|134:225,2,50,2|8|0,0:0|0:0|0:0,0:0:0:0:
77,131,69768,6,0,P|85:88|139:37,1,100,4|8,0:0|0:0,0:0:0:0:
220,45,70542,2,0,L|323:71,1,100,2|8,0:0|0:0,0:0:0:0:
360,94,71123,2,0,P|387:130|399:196,1,100,2|2,0:0|0:0,0:0:0:0:
385,230,71703,1,8,0:0:0:0:
313,299,72090,1,2,0:0:0:0:
313,299,72284,2,0,L|251:337,2,50,2|8|2,0:0|0:0|0:0,0:0:0:0:
290,254,72865,5,4,0:0:0:0:
222,179,73252,2,0,L|173:168,1,50,8|2,0:0|0:0,0:0:0:0:
124,156,73639,1,2,0:0:0:0:
26,177,74026,1,8,0:0:0:0:
26,177,74219,2,0,P|46:218|98:253,1,100,4|2,0:0|0:0,0:0:0:0:
138,257,74800,1,8,0:0:0:0:
138,257,74994,2,0,L|246:277,1,100,4|2,0:0|0:0,0:0:0:0:
285,282,75574,1,8,0:0:0:0:
357,213,75961,6,0,P|374:166|396:121,1,100,4|8,0:0|0:0,0:0:0:0:
420,77,76542,1,4,0:0:0:0:
508,124,76929,1,2,0:0:0:0:
508,124,77123,2,0,L|508:182,1,50,8|0,0:0|0:0,0:0:0:0:
502,223,77510,2,0,L|443:328,1,100,4|8,0:0|0:0,0:0:0:0:
411,337,78090,1,4,0:0:0:0:
311,346,78477,2,0,L|256:344,2,50,8|2|2,0:0|0:0|0:0,0:0:0:0:
320,296,79058,6,0,P|293:255|243:231,1,100,4|2,0:0|0:0,0:0:0:0:
150,211,79832,2,0,P|172:166|213:139,1,100,2|2,0:0|0:0,0:0:0:0:
312,154,80607,2,0,L|422:121,1,100,2|2,0:0|0:0,0:0:0:0:
371,32,81381,2,0,L|275:60,1,100,2|2,0:0|0:0,0:0:0:0:
213,139,82155,5,2,0:0:0:0:
263,225,82542,1,2,0:0:0:0:
360,203,82929,1,2,0:0:0:0:
366,103,83316,1,2,0:0:0:0:
275,60,83703,2,0,L|223:39,1,50,8|8,0:0|0:0,0:0:0:0:
179,51,84090,2,0,L|132:32,1,50,8|8,0:0|0:0,0:0:0:0:
83,43,84478,2,0,P|38:83|31:138,1,100,8|8,0:0|0:0,0:0:0:0:
62,214,85252,6,0,L|161:244,1,100,4|8,0:0|0:0,0:0:0:0:
244,192,86026,2,0,L|343:222,1,100,2|8,0:0|0:0,0:0:0:0:
389,217,86607,1,4,0:0:0:0:
339,130,86994,2,0,L|290:116,1,50,2|8,0:0|0:0,0:0:0:0:
242,102,87381,2,0,P|186:120|159:155,1,100,4|2,0:0|0:0,0:0:0:0:
143,197,87962,2,0,L|149:253,1,50,8|0,0:0|0:0,0:0:0:0:
156,296,88349,5,4,0:0:0:0:
88,370,88736,1,12,0:0:0:0:
55,275,89123,2,0,L|43:164,1,100,2|8,0:0|0:0,0:0:0:0:
39,125,89704,1,4,0:0:0:0:
121,69,90091,2,0,L|181:73,1,50,2|8,0:0|0:0,0:0:0:0:
214,96,90478,2,0,P|245:131|302:154,1,100,4|2,0:0|0:0,0:0:0:0:
343,153,91059,2,0,L|388:125,1,50,8|8,0:0|0:0,0:0:0:0:
431,108,91445,6,0,L|439:211,1,100,4|8,0:0|0:0,0:0:0:0:
442,307,92220,2,0,P|384:292|352:256,1,100,2|8,0:0|0:0,0:0:0:0:
339,217,92800,1,4,0:0:0:0:
249,262,93187,2,0,L|195:286,1,50,2|8,0:0|0:0,0:0:0:0:
156,301,93574,2,0,P|106:270|73:216,1,100,4|2,0:0|0:0,0:0:0:0:
95,189,94155,2,0,L|135:129,1,50,8|0,0:0|0:0,0:0:0:0:
151,106,94542,5,4,0:0:0:0:
249,89,94929,1,12,0:0:0:0:
331,145,95316,2,0,L|312:206,2,50,2|2|8,0:0|0:0|0:0,0:0:0:0:
347,97,95897,1,4,0:0:0:0:
416,169,96284,2,0,L|399:227,1,50,2|8,0:0|0:0,0:0:0:0:
387,264,96671,1,4,0:0:0:0:
289,284,97058,2,0,L|247:240,1,50,2|8,0:0|0:0,0:0:0:0:
221,211,97445,5,4,0:0:0:0:
256,192,97542,12,0,102284,0:0:0:0:
